osu file format v14

[General]
AudioFilename: audio.ogg
AudioLeadIn: 0
PreviewTime: 375309
Countdown: 0
SampleSet: Normal
StackLeniency: 0.7
Mode: 0
LetterboxInBreaks: 0
WidescreenStoryboard: 0

[Editor]
Bookmarks: 36026,36162,36298,36435,36571,36707,36844,36980,37116,37253,37389,37526,37662,37798,37935,38071,38207,38344,38480,38616,38753,38889,39026,39162,39298,39435,39571,39707,39844,39980,40116,40253,40389,40526,40662,40798,40935,41071,41207,41344,41480,41616,41753,41889,42026,42162,42298,42435,42571,42707,42844,42980,43116,43253,43389,43526,43662,43798,43935,44071,44207,79662,97116,198206,199660,199751,199842,199933,219298,219434,219570,219706,219843,219979,220115,220252,220388,220524,220661,220797,220934,221070,221206,221343,222161,222297,222434,222979,223116,306583,306719,306856,306992,307129,307265,307401,307538,307674,307810,307947,308083,308219,308356,308492,308629,308765,308901,309038,309174,309310,309447,309583,309719,309856,309992,310129,310265,310401,310538,310674,310810,310947,311492,312038,312583,313129,313674,314219,314765,315310,315856,316401,316947,317492,318038,318583,319129,319674,320219,320765,321310,321856,322401,322947,411310,446219
DistanceSpacing: 0.9
BeatDivisor: 3
GridSize: 32
TimelineZoom: 5.099998

[Metadata]
Title:Autumn Shore
TitleUnicode:Autumn Shore
Artist:Can Bardd
ArtistUnicode:Cân Bardd
Creator:MANi
Version:Somber Evergreen Ataraxia
Source:
Tags:sayuka a bat porgdeity turtatical atmospheric ambient epic melodic black metal devoured by the oak english folk switzerland malo civelli dylan watson
BeatmapID:3642423
BeatmapSetID:1778496

[Difficulty]
HPDrainRate:5
CircleSize:4.4
OverallDifficulty:9.8
ApproachRate:9.8
SliderMultiplier:3
SliderTickRate:1

[Events]
//Background and Video events
0,0,"devoured_by_the_oak_cover-gigapixel-standard-scale-1_33x.jpg",0,0
//Break Periods
2,36224,43727
2,114770,131545
2,311041,323545
2,359133,374830
//Storyboard Layer 0 (Background)
//Storyboard Layer 1 (Fail)
//Storyboard Layer 2 (Pass)
//Storyboard Layer 3 (Foreground)
//Storyboard Layer 4 (Overlay)
//Storyboard Sound Samples

[TimingPoints]
-1066,545.454545454546,4,1,0,50,1,0
24,-250.000000000001,4,3,1,50,0,0
93,-250.000000000001,4,3,7,50,0,0
297,-250.000000000001,4,3,8,50,0,0
434,-250.000000000001,4,3,1,50,0,0
570,-100,4,3,9,50,0,0
706,-100,4,3,1,50,0,0
1115,-100,4,3,1,50,0,0
2752,-66.6666666666667,4,3,1,50,0,0
3297,-100,4,3,1,50,0,0
3843,-166.666666666667,4,3,1,50,0,0
4388,-83.3333333333333,4,3,1,50,0,0
5479,-100,4,3,1,50,0,0
6570,-166.666666666667,4,3,1,50,0,0
7388,-100,4,3,1,50,0,0
8206,-166.666666666667,4,3,1,50,0,0
8752,-90.9090909090909,4,3,1,50,0,0
9297,-83.3333333333333,4,3,1,50,0,0
9843,-76.9230769230769,4,3,1,50,0,0
10934,-71.4285714285714,4,3,1,50,0,0
11479,-83.3333333333333,4,3,1,50,0,0
12024,-100,4,3,1,50,0,0
12570,-125,4,3,1,50,0,0
13115,-76.9230769230769,4,3,1,50,0,0
13661,-71.4285714285714,4,3,1,50,0,0
14206,-83.3333333333333,4,3,1,50,0,0
15297,-100,4,3,1,50,0,0
15843,-83.3333333333333,4,3,1,50,0,0
16388,-250,4,3,1,50,0,0
17070,-250,4,3,8,50,0,0
17206,-66.6666666666667,4,3,1,50,0,0
17479,-166.666666666667,4,3,1,50,0,0
17752,-250,4,3,1,50,0,0
17888,-250,4,3,7,50,0,0
18024,-166.666666666667,4,3,8,50,0,0
18093,-166.666666666667,4,3,9,50,0,0
18161,-166.666666666667,4,3,1,50,0,0
18297,-100,4,3,9,50,0,0
18434,-100,4,3,1,50,0,0
18570,-100,4,3,1,50,0,0
21297,-166.666666666667,4,3,1,50,0,0
21843,-83.3333333333333,4,3,1,50,0,0
22934,-100,4,3,1,50,0,0
24024,-166.666666666667,4,3,1,50,0,0
24843,-100,4,3,1,50,0,0
25115,-100,4,3,1,50,0,0
25661,-166.666666666667,4,3,1,50,0,0
26206,-83.3333333333333,4,3,1,50,0,0
26752,-76.9230769230769,4,3,1,50,0,0
27297,-71.4285714285714,4,3,1,50,0,0
28388,-66.6666666666667,4,3,1,50,0,0
28934,-83.3333333333333,4,3,1,50,0,0
29479,-100,4,3,1,50,0,0
30024,-125,4,3,1,50,0,0
30570,-76.9230769230769,4,3,1,50,0,0
31115,-71.4285714285714,4,3,1,50,0,0
31661,-83.3333333333333,4,3,1,50,0,0
32752,-71.4285714285714,4,3,1,50,0,0
33843,-250,4,3,1,50,0,0
34388,-125,4,3,1,50,0,0
34479,-125,4,3,7,50,0,0
34934,-166.666666666667,4,3,1,50,0,0
35024,-166.666666666667,4,3,8,50,0,0
35479,-250,4,3,1,50,0,0
35570,-250,4,3,9,50,0,0
36024,-250,4,3,1,50,0,0
44206,-250,4,3,10,50,0,0
44274,-250,4,3,7,50,0,0
44479,-166.666666666667,4,3,10,50,0,0
44547,-166.666666666667,4,3,8,50,0,0
44752,-100,4,3,1,50,0,0
45297,-83.3333333333333,4,3,1,50,0,0
45843,-71.4285714285714,4,3,1,50,0,0
46388,-83.3333333333333,4,3,1,50,0,0
46934,-71.4285714285714,4,3,1,50,0,0
53479,-62.5,4,3,1,50,0,0
55115,-71.4285714285714,4,3,1,50,0,0
57843,-62.5,4,3,1,50,0,0
58934,-71.4285714285714,4,3,1,50,0,0
60024,-62.5,4,3,1,50,0,0
61115,-55.5555555555556,4,3,1,50,0,0
61388,-55.5555555555556,4,3,10,50,0,0
61456,-55.5555555555556,4,3,7,50,0,0
61661,-55.5555555555556,4,3,1,50,0,0
62206,-55.5555555555556,4,3,1,50,0,1
75297,-62.5,4,3,1,50,0,1
77479,-100,4,3,1,50,0,1
77570,-100,4,3,7,50,0,1
78024,-100,4,3,1,50,0,1
78115,-100,4,3,8,50,0,1
78570,-100,4,3,1,50,0,1
79661,-100,4,3,1,50,0,0
80388,-100,4,3,1,50,0,0
80752,-100,4,3,1,50,0,0
80934,-100,4,3,1,5,0,0
81115,-100,4,3,1,30,0,0
81297,-100,4,3,1,50,0,0
81843,-100,4,3,1,50,0,0
82024,-100,4,3,1,30,0,0
82388,-100,4,3,1,50,0,0
82570,-100,4,3,1,30,0,0
82752,-100,4,3,1,30,0,0
82934,-83.3333333333333,4,3,1,50,0,0
83115,-83.3333333333333,4,3,1,30,0,0
83297,-83.3333333333333,4,3,1,50,0,0
83479,-83.3333333333333,4,3,1,30,0,0
83661,-83.3333333333333,4,3,1,50,0,0
84024,-100,4,3,1,50,0,0
84388,-100,4,3,1,30,0,0
84570,-100,4,3,1,50,0,0
84752,-100,4,3,1,30,0,0
84934,-100,4,3,1,30,0,0
85115,-100,4,3,1,50,0,0
85297,-100,4,3,1,30,0,0
85479,-100,4,3,1,30,0,0
85661,-100,4,3,1,30,0,0
86206,-100,4,3,1,50,0,0
86388,-100,4,3,1,30,0,0
86752,-100,4,3,1,50,0,0
86934,-100,4,3,1,30,0,0
87115,-100,4,3,1,50,0,0
87297,-100,4,3,1,50,0,0
87479,-100,4,3,1,30,0,0
88024,-100,4,3,1,50,0,0
88388,-83.3333333333333,4,3,1,50,0,0
89115,-83.3333333333333,4,3,1,30,0,0
89297,-83.3333333333333,4,3,1,30,0,0
89479,-83.3333333333333,4,3,1,50,0,0
89661,-83.3333333333333,4,3,1,30,0,0
89843,-83.3333333333333,4,3,1,30,0,0
90024,-83.3333333333333,4,3,1,50,0,0
90206,-83.3333333333333,4,3,1,30,0,0
90388,-83.3333333333333,4,3,1,50,0,0
90570,-100,4,3,1,50,0,0
90752,-100,4,3,1,30,0,0
91115,-100,4,3,1,50,0,0
91297,-100,4,3,1,30,0,0
91479,-100,4,3,1,50,0,0
91661,-100,4,3,1,50,0,0
91843,-100,4,3,1,30,0,0
92024,-100,4,3,1,50,0,0
92206,-100,4,3,1,30,0,0
92752,-100,4,3,1,50,0,0
92934,-100,4,3,1,30,0,0
93297,-100,4,3,1,50,0,0
93479,-100,4,3,1,30,0,0
93661,-100,4,3,1,30,0,0
93843,-100,4,3,1,50,0,0
94024,-100,4,3,1,30,0,0
94206,-100,4,3,1,30,0,0
94388,-100,4,3,1,50,0,0
94934,-100,4,3,1,50,0,0
95115,-100,4,3,1,30,0,0
95297,-100,4,3,1,30,0,0
95479,-100,4,3,1,50,0,0
95661,-100,4,3,1,30,0,0
95843,-100,4,3,1,50,0,0
96024,-100,4,3,1,50,0,0
97115,-83.3333333333333,4,3,1,50,0,0
97479,-83.3333333333333,4,3,1,50,0,0
97661,-83.3333333333333,4,3,1,50,0,0
98206,-71.4285714285714,4,3,1,50,0,0
98570,-71.4285714285714,4,3,1,50,0,0
98752,-100,4,3,1,50,0,0
99297,-100,4,3,1,50,0,0
99661,-100,4,3,1,50,0,0
99843,-100,4,3,1,50,0,0
100388,-83.3333333333333,4,3,1,50,0,0
100752,-83.3333333333333,4,3,1,50,0,0
100934,-83.3333333333333,4,3,1,50,0,0
101479,-83.3333333333333,4,3,1,50,0,0
102388,-83.3333333333333,4,3,1,50,0,0
102570,-83.3333333333333,4,3,1,50,0,0
103115,-100,4,3,1,50,0,0
103479,-100,4,3,1,50,0,0
103661,-71.4285714285714,4,3,1,50,0,0
104570,-71.4285714285714,4,3,1,50,0,0
104752,-71.4285714285714,4,3,1,50,0,0
105843,-71.4285714285714,4,3,1,50,0,0
107297,-71.4285714285714,4,3,1,50,0,0
107479,-71.4285714285714,4,3,1,50,0,0
108024,-100,4,3,1,50,0,0
108388,-100,4,3,1,50,0,0
108570,-83.3333333333333,4,3,1,50,0,0
108934,-83.3333333333333,4,3,1,50,0,0
109115,-83.3333333333333,4,3,1,50,0,0
110206,-71.4285714285714,4,3,1,50,0,0
113297,-71.4285714285714,4,3,1,50,0,0
113479,-71.4285714285714,4,3,1,50,0,0
114024,-71.4285714285714,4,3,1,50,0,0
114206,-71.4285714285714,4,3,1,50,0,0
114388,-71.4285714285714,4,3,1,50,0,0
114570,-125,4,3,1,50,0,0
132024,-1000,4,3,1,25,0,0
134115,-1000,4,3,1,5,0,0
134206,-1000,4,3,1,25,0,0
136297,-1000,4,3,1,5,0,0
136388,-500,4,3,1,25,0,0
138479,-500,4,3,1,5,0,0
138570,-333.333333333333,4,3,1,25,0,0
140661,-333.333333333333,4,3,1,5,0,0
140752,-500,4,3,1,25,0,0
142843,-500,4,3,1,5,0,0
142934,-500,4,3,1,25,0,0
145024,-500,4,3,1,5,0,0
145115,-1000,4,3,1,25,0,0
147206,-1000,4,3,1,5,0,0
147297,-333.333333333333,4,3,1,25,0,0
148297,-333.333333333333,4,3,1,5,0,0
148388,-100,4,3,1,25,0,0
148752,-100,4,3,1,40,0,0
148934,-100,4,3,1,25,0,0
149115,-100,4,3,1,40,0,0
149297,-100,4,3,1,25,0,0
149479,363.636363636364,3,3,1,50,1,0
149479,-166.666666666667,4,3,1,50,0,0
151297,-125,4,3,1,50,0,0
151660,-166.666666666667,4,3,1,50,0,0
153115,-125,4,3,1,50,0,0
153842,-250,4,3,1,50,0,0
155660,-500,4,3,1,50,0,0
156024,-250,4,3,1,50,0,0
156569,-500,4,3,1,50,0,0
157115,-250,4,3,1,50,0,0
157479,-125,4,3,1,50,0,0
158206,-166.666666666667,4,3,1,50,0,0
160024,-125,4,3,1,50,0,0
160388,-166.666666666667,4,3,1,50,0,0
161842,-125,4,3,1,50,0,0
162206,-166.666666666667,4,3,1,50,0,0
162569,-125,4,3,1,50,0,0
163660,-166.666666666667,4,3,1,50,0,0
164388,-125,4,3,1,50,0,0
164933,-166.666666666667,4,3,9,50,0,0
165115,-166.666666666667,4,3,10,50,0,0
165297,-125,4,3,1,50,0,0
165479,-166.666666666667,4,3,9,50,0,0
165660,-166.666666666667,4,3,10,50,0,0
165842,-125,4,3,1,50,0,0
166024,-166.666666666667,4,3,9,50,0,0
166206,-166.666666666667,4,3,10,50,0,0
166388,-125,4,3,1,50,0,0
166569,-166.666666666667,4,3,10,50,0,0
166751,-166.666666666667,4,3,9,50,0,0
166933,-125,4,3,1,50,0,0
167115,-250.000000000001,4,3,1,50,0,0
168751,-125,4,3,1,50,0,0
169115,-166.666666666667,4,3,1,50,0,0
170569,-125,4,3,1,50,0,0
171297,-166.666666666667,4,3,1,50,0,0
172388,-250.000000000001,4,3,1,50,0,0
173115,-500.000000000003,4,3,1,50,0,0
173479,-250.000000000001,4,3,1,50,0,0
174024,-500.000000000005,4,3,1,50,0,0
174569,-250.000000000001,4,3,1,50,0,0
175297,-125,4,3,1,50,0,0
175660,-166.666666666667,4,3,1,50,0,0
177479,-125,4,3,1,50,0,0
177842,-166.666666666667,4,3,1,50,0,0
178933,-125,4,3,1,50,0,0
180024,-166.666666666667,4,3,1,50,0,0
181115,-250.000000000001,4,3,1,50,0,0
181842,-125,4,3,1,50,0,0
182206,-166.666666666667,4,3,1,50,0,0
182751,-125,4,3,1,50,0,0
183115,-166.666666666667,4,3,1,50,0,0
183660,-166.666666666667,4,3,7,50,0,0
184024,-166.666666666667,4,3,8,50,0,0
184206,-166.666666666667,4,3,9,50,0,0
184388,-125,4,3,1,50,0,1
195297,-100,4,3,1,50,0,1
199660,-100,4,3,1,50,0,0
201115,-100,4,3,7,50,0,0
201479,-100,4,3,10,50,0,0
201842,-125,4,3,1,50,0,1
206206,-100,4,3,1,50,0,1
208388,-125,4,3,1,50,0,1
209115,-100,4,3,1,50,0,1
217115,545.454545454546,4,3,1,50,1,0
217115,-100,4,3,1,50,0,1
217183,-66.6666666666667,4,3,1,50,0,1
217728,-66.6666666666667,4,3,7,50,0,1
217796,-100,4,3,7,50,0,1
217933,-66.6666666666667,4,3,7,50,0,1
218001,-100,4,3,7,50,0,1
218137,-100,4,3,1,50,0,1
218206,-100,4,3,1,50,0,1
218274,-100,4,3,1,50,0,1
218410,-100,4,3,8,50,0,1
218751,-66.6666666666667,4,3,9,50,0,1
219024,-66.6666666666667,4,3,10,50,0,1
219296,-100,4,3,1,50,0,0
223115,-71.4285714285714,4,3,1,50,0,0
223660,-71.4285714285714,4,3,1,50,0,0
235205,-71.4285714285714,4,3,7,50,0,0
235660,-71.4285714285714,4,3,1,50,0,0
236751,-100,4,3,1,50,0,0
237296,-125,4,3,1,50,0,0
252660,-125,4,3,7,50,0,0
253115,-125,4,3,1,50,0,0
253205,-125,4,3,1,50,0,0
253296,-125,4,3,1,50,0,0
253387,-125,4,3,1,50,0,0
253478,-125,4,3,1,50,0,0
253569,-125,4,3,1,50,0,0
253751,-125,4,3,10,50,0,0
254024,-125,4,3,9,50,0,0
254205,-100,4,3,1,50,0,0
254569,-100,4,3,1,5,0,0
254751,-100,4,3,1,50,0,0
255296,-100,4,3,1,50,0,0
255478,-100,4,3,1,30,0,0
255660,-100,4,3,1,30,0,0
255842,-100,4,3,1,30,0,0
256024,-125,4,3,1,50,0,0
256205,-125,4,3,1,50,0,0
256387,-100,4,3,1,50,0,0
256569,-100,4,3,1,30,0,0
256933,-100,4,3,1,50,0,0
257115,-100,4,3,1,30,0,0
257296,-100,4,3,1,30,0,0
257478,-100,4,3,1,50,0,0
257660,-100,4,3,1,30,0,0
257842,-100,4,3,1,50,0,0
258024,-100,4,3,1,30,0,0
258205,-100,4,3,1,50,0,0
258387,-100,4,3,1,50,0,0
258569,-125,4,3,1,50,0,0
258933,-125,4,3,1,5,0,0
259115,-100,4,3,1,50,0,0
259296,-100,4,3,1,30,0,0
259660,-100,4,3,1,50,0,0
259842,-100,4,3,1,30,0,0
260024,-100,4,3,1,30,0,0
260205,-100,4,3,1,50,0,0
260751,-125,4,3,1,50,0,0
260933,-125,4,3,1,30,0,0
261115,-125,4,3,1,30,0,0
261296,-100,4,3,1,50,0,0
261478,-100,4,3,1,30,0,0
261660,-100,4,3,1,50,0,0
261842,-100,4,3,1,50,0,0
262024,-100,4,3,1,30,0,0
262205,-100,4,3,1,50,0,0
262387,-100,4,3,1,30,0,0
262569,-100,4,3,1,50,0,0
262933,-100,4,3,1,50,0,0
263296,-100,4,3,1,5,0,0
263478,-100,4,3,1,50,0,0
263660,-100,4,3,1,30,0,0
263842,-100,4,3,1,30,0,0
264024,-125,4,3,1,50,0,0
264205,-125,4,3,1,30,0,0
264387,-125,4,3,1,30,0,0
264569,-100,4,3,1,50,0,0
265115,-83.3333333333333,4,3,1,50,0,0
265478,-83.3333333333333,4,3,1,30,0,0
265660,-83.3333333333333,4,3,1,50,0,0
265842,-83.3333333333333,4,3,1,30,0,0
266024,-83.3333333333333,4,3,1,50,0,0
266205,-83.3333333333333,4,3,1,50,0,0
266387,-83.3333333333333,4,3,1,30,0,0
266569,-83.3333333333333,4,3,1,50,0,0
266751,-83.3333333333333,4,3,1,30,0,0
266933,-83.3333333333333,4,3,1,50,0,0
267115,-83.3333333333333,4,3,1,30,0,0
267296,-83.3333333333333,4,3,1,50,0,0
268024,-83.3333333333333,4,3,1,30,0,0
268205,-83.3333333333333,4,3,1,30,0,0
268387,-83.3333333333333,4,3,1,50,0,0
268569,-83.3333333333333,4,3,1,30,0,0
268933,-83.3333333333333,4,3,1,50,0,0
269478,-100,4,3,1,50,0,0
269660,-100,4,3,1,30,0,0
269842,-100,4,3,1,30,0,0
270024,-125,4,3,1,50,0,0
270205,-125,4,3,1,30,0,0
270387,-125,4,3,1,50,0,0
270569,-100,4,3,1,50,0,0
271115,-100,4,3,7,50,0,0
271387,-100,4,3,1,50,0,0
271660,-62.5,4,3,1,50,0,1
279842,-62.5,4,3,1,50,0,1
288024,-55.5555555555556,4,3,1,50,0,1
288296,-55.5555555555556,4,3,7,50,0,1
288569,-55.5555555555556,4,3,1,50,0,1
288842,-55.5555555555556,4,3,8,50,0,1
289115,-55.5555555555556,4,3,1,50,0,1
304933,-55.5555555555556,4,3,10,50,0,1
305001,-55.5555555555556,4,3,7,50,0,1
305205,-55.5555555555556,4,3,1,50,0,1
305274,-55.5555555555556,4,3,8,50,0,1
305478,-55.5555555555556,4,3,10,50,0,1
305546,-55.5555555555556,4,3,1,50,0,1
306024,-55.5555555555556,4,3,10,50,0,1
306092,-55.5555555555556,4,3,9,50,0,1
306296,-55.5555555555556,4,3,10,50,0,1
306569,-100,4,3,1,50,0,0
306637,-100,4,3,1,50,0,0
324024,-1000,4,3,1,50,0,0
326115,-1000,4,2,1,5,0,0
326205,-500,4,3,1,50,0,0
327205,-1000,4,2,1,5,0,0
327296,-333.333333333333,4,3,1,50,0,0
328296,-1000,4,2,1,5,0,0
328387,-500,4,3,1,50,0,0
329933,-1000,4,2,1,5,0,0
330024,-333.333333333333,4,3,1,50,0,0
330478,-1000,4,2,1,5,0,0
330569,-500,4,3,1,50,0,0
331569,-1000,4,2,1,5,0,0
331660,-333.333333333333,4,3,1,50,0,0
332660,-1000,4,2,1,5,0,0
332751,-250,4,3,1,50,0,0
334296,-1000,4,2,1,5,0,0
334387,-250,4,3,1,50,0,0
334842,-1000,4,2,1,5,0,0
334933,-333.333333333333,4,3,1,50,0,0
335933,-1000,4,2,1,5,0,0
336024,-500,4,3,1,50,0,0
337024,-1000,4,2,1,5,0,0
337115,-1000,4,3,1,50,0,0
338660,-1000,4,2,1,5,0,0
338751,-500,4,3,1,50,0,0
339205,-1000,4,2,1,5,0,0
339296,-1000,4,3,1,50,0,0
340296,-1000,4,2,1,5,0,0
340387,-1000,4,3,1,50,0,0
340842,-1000,4,2,1,5,0,0
340933,-1000,4,3,1,50,0,0
341387,-1000,4,2,1,5,0,0
341478,-166.666666666667,4,3,1,35,0,0
341842,-166.666666666667,4,3,1,5,0,0
342024,-166.666666666667,4,3,7,35,0,0
342387,-166.666666666667,4,3,8,30,0,0
342569,-125,4,3,1,50,0,0
342751,-125,4,3,9,30,0,0
342933,-125,4,3,10,30,0,0
343115,-125,4,3,9,30,0,0
343296,-125,4,3,10,30,0,0
343660,-125,4,3,10,30,0,0
344024,-125,4,3,7,30,0,0
344205,-125,4,3,7,30,0,0
344569,-125,4,3,8,30,0,0
344751,-100,4,3,1,50,0,0
345024,-100,4,3,1,5,0,0
345115,-100,4,3,7,30,0,0
345478,-100,4,3,8,30,0,0
345842,-125,4,3,7,30,0,0
346205,-125,4,3,8,30,0,0
346387,-125,4,3,7,30,0,0
346751,-125,4,3,9,30,0,0
346933,-125,4,3,1,30,0,0
347115,-125,4,3,7,30,0,0
347296,-125,4,3,7,30,0,0
347478,-125,4,3,9,30,0,0
347660,-125,4,3,8,40,0,0
347842,-125,4,3,7,40,0,0
348024,-125,4,3,10,30,0,0
348387,-125,4,3,7,30,0,0
348569,-125,4,3,10,30,0,0
348933,-125,4,3,8,30,0,0
349115,-100,4,3,1,30,0,0
349478,-100,4,3,9,30,0,0
349660,-100,4,3,7,30,0,0
349842,-100,4,3,8,30,0,0
350024,-100,4,3,9,30,0,0
350205,-100,4,3,7,30,0,0
350387,-100,4,3,7,15,0,0
350569,-100,4,3,7,22,0,0
350751,-100,4,3,7,30,0,0
350933,-100,4,3,8,30,0,0
351296,-100,4,3,1,30,0,0
351660,-100,4,3,9,30,0,0
351842,-100,4,3,8,15,0,0
352024,-100,4,3,8,22,0,0
352205,-100,4,3,8,30,0,0
352387,-125,4,3,9,30,0,0
352751,-125,4,3,9,22,0,0
352933,-125,4,3,10,30,0,0
353115,-125,4,3,8,22,0,0
353296,-125,4,3,8,15,0,0
353478,-125,4,3,1,30,0,0
353660,-125,4,3,9,30,0,0
353842,-125,4,3,9,30,0,0
354024,-125,4,3,7,15,0,0
354205,-100,4,3,8,30,0,0
354569,-125,4,3,8,35,0,0
354933,-125,4,3,8,30,0,0
355115,-125,4,3,8,30,0,0
355660,-125,4,3,1,30,0,0
355842,-125,4,3,8,30,0,0
356024,-125,4,3,8,30,0,0
356205,-125,4,3,8,5,0,0
356387,-125,4,3,8,30,0,0
356751,-125,4,3,9,15,0,0
356933,-125,4,3,9,15,0,0
357115,-125,4,3,10,30,0,0
357478,-125,4,3,10,22,0,0
357660,-125,4,3,10,15,0,0
357842,-125,4,3,1,30,0,0
358024,-125,4,3,10,30,0,0
358387,-125,4,3,10,15,0,0
358569,-125,4,3,1,22,0,0
375309,363.636363636364,3,3,1,30,1,0
375309,-100,3,3,1,30,0,1
375672,-100,3,3,1,40,0,1
376036,-100,3,3,1,50,0,1
380763,-90.9090909090909,3,3,1,50,0,1
389490,-83.3333333333333,3,3,1,50,0,1
390581,-100,3,3,1,50,0,1
392763,-100,3,3,1,50,0,0
393854,-90.9090909090909,3,3,1,50,0,1
398218,-83.3333333333333,3,3,1,50,0,1
399309,-166.666666666667,3,3,1,50,0,1
401490,-100,3,3,1,50,0,0
402581,-100,3,3,1,50,0,1
404763,-83.3333333333333,3,3,1,50,0,1
406945,-90.9090909090909,3,3,1,50,0,1
408036,-100,3,3,1,50,0,1
409127,-100,3,3,1,50,0,0
409309,-100,3,3,7,50,0,0
409490,-100,3,3,10,50,0,0
409581,-100,3,3,1,50,0,0
409854,-100,3,3,7,50,0,0
410036,-100,3,3,10,50,0,0
410127,-100,3,3,1,50,0,0
410399,-100,3,3,7,50,0,0
410581,-100,3,3,1,50,0,0
410945,-100,3,3,10,50,0,0
411309,-100,3,3,1,50,0,1
414581,-200,3,3,1,50,0,1
415309,-133.333333333333,3,3,1,50,0,1
415490,-100,3,3,1,50,0,1
417490,-200,3,3,1,50,0,1
417854,-100,3,3,1,50,0,1
418945,-200,3,3,1,50,0,1
419672,-133.333333333333,3,3,1,50,0,1
419854,-100,3,3,1,50,0,1
421854,-200,3,3,1,50,0,1
422218,-100,3,3,1,50,0,1
424036,-133.333333333333,3,3,1,50,0,1
424399,-100,3,3,1,50,0,1
426218,-133.333333333333,3,3,1,50,0,1
426581,-200,3,3,1,50,0,1
428763,-100,3,3,1,50,0,1
430581,-133.333333333333,3,3,1,50,0,1
432945,-100,3,3,1,50,0,1
436399,-133.333333333333,3,3,1,50,0,1
437490,-100,3,3,1,50,0,1
439309,-200,3,3,1,50,0,1
439672,-100,3,3,1,50,0,1
440399,-200,3,3,1,50,0,1
440763,-100,3,3,1,50,0,1
441490,-133.333333333333,3,3,1,50,0,1
441854,-100,3,3,1,50,0,1
444036,-133.333333333333,3,3,1,50,0,1
446218,-100,3,3,1,50,0,0

[Colours]
Combo1 : 165,139,59
Combo2 : 164,166,151
Combo3 : 166,159,65
Combo4 : 115,100,72

[HitObjects]
21,363,24,5,2,0:0:0:0:
32,353,93,1,8,0:0:0:0:
43,343,161,1,8,0:0:0:0:
55,333,229,1,8,0:0:0:0:
66,323,297,1,8,0:0:0:0:
77,314,365,1,8,0:0:0:0:
89,304,434,1,0,0:0:0:0:
100,294,502,1,0,0:0:0:0:
109,265,570,5,8,0:0:0:0:
128,267,638,1,8,0:0:0:0:
148,270,706,1,0,0:0:0:0:
168,273,774,1,0,0:0:0:0:
186,296,843,5,8,2:0:0:0:
219,279,911,1,8,2:0:0:0:
254,267,979,2,0,L|272:224,1,37.5,8|8,2:0|2:0,0:0:0:0:
227,101,1115,5,6,0:0:0:0:
217,64,1184,1,8,0:0:0:0:
228,29,1252,1,0,0:0:0:0:
256,4,1320,1,8,0:0:0:0:
293,0,1388,1,2,0:0:0:0:
327,14,1456,1,8,0:0:0:0:
348,44,1524,1,0,0:0:0:0:
349,81,1593,1,8,0:0:0:0:
331,113,1661,1,2,0:0:0:0:
335,151,1729,1,8,0:0:0:0:
356,182,1797,1,0,0:0:0:0:
389,198,1865,1,8,0:0:0:0:
425,198,1934,1,2,0:0:0:0:
458,179,2002,1,8,0:0:0:0:
478,147,2070,1,0,0:0:0:0:
480,110,2138,1,8,0:0:0:0:
461,78,2206,1,2,0:0:0:0:
436,57,2274,1,8,0:0:0:0:
407,53,2343,1,0,0:0:0:0:
384,65,2411,1,8,0:0:0:0:
370,82,2479,1,2,0:0:0:0:
368,100,2547,1,8,0:0:0:0:
373,115,2615,1,0,0:0:0:0:
380,125,2684,1,8,0:0:0:0:
389,132,2752,6,0,P|417:107|400:57,3,56.2500021457673,2|8|0|8,0:0|0:0|0:0|0:0,0:0:0:0:
238,105,3024,2,0,P|210:130|227:180,3,56.2500021457673,2|8|0|8,0:0|0:0|0:0|0:0,0:0:0:0:
274,277,3297,5,2,0:0:0:0:
280,313,3365,1,8,0:0:0:0:
265,347,3434,1,0,0:0:0:0:
233,366,3502,1,8,0:0:0:0:
196,364,3570,1,2,0:0:0:0:
167,342,3638,1,8,0:0:0:0:
155,307,3706,1,0,0:0:0:0:
164,272,3774,1,8,0:0:0:0:
188,244,3843,5,2,0:0:0:0:
196,264,3911,1,8,0:0:0:0:
196,286,3979,1,0,0:0:0:0:
187,307,4047,1,8,0:0:0:0:
170,322,4115,1,2,0:0:0:0:
149,328,4184,1,8,0:0:0:0:
127,326,4252,1,0,0:0:0:0:
108,315,4320,1,8,0:0:0:0:
92,296,4388,5,2,0:0:0:0:
129,273,4456,1,8,0:0:0:0:
145,232,4524,1,0,0:0:0:0:
132,190,4593,1,8,0:0:0:0:
96,163,4661,1,2,0:0:0:0:
74,124,4729,1,8,0:0:0:0:
77,79,4797,1,0,0:0:0:0:
105,44,4865,1,8,0:0:0:0:
147,30,4934,1,2,0:0:0:0:
186,40,5002,1,8,0:0:0:0:
211,66,5070,1,0,0:0:0:0:
219,96,5138,1,8,0:0:0:0:
214,122,5206,1,2,0:0:0:0:
199,138,5274,1,8,0:0:0:0:
181,143,5343,1,0,0:0:0:0:
168,138,5411,1,8,0:0:0:0:
161,125,5479,5,4,0:1:0:0:
183,95,5547,1,8,0:0:0:0:
218,83,5615,1,0,0:0:0:0:
254,93,5684,1,8,0:0:0:0:
281,119,5752,1,2,0:0:0:0:
312,138,5820,1,8,0:0:0:0:
349,138,5888,1,0,0:0:0:0:
381,118,5956,1,8,0:0:0:0:
400,86,6024,2,0,P|399:64|390:45,3,37.5,2|8|0|8,0:0|0:0|0:0|0:0,0:0:0:0:
422,199,6297,2,0,P|436:182|443:162,3,37.5,2|8|0|8,0:0|0:0|0:0|0:0,0:0:0:0:
287,203,6570,5,2,0:0:0:0:
272,218,6638,1,8,0:0:0:0:
266,235,6706,1,0,0:0:0:0:
266,251,6774,1,8,0:0:0:0:
270,264,6843,1,2,0:0:0:0:
276,274,6911,1,8,0:0:0:0:
283,280,6979,1,0,0:0:0:0:
289,283,7047,1,8,0:0:0:0:
295,283,7115,1,2,0:0:0:0:
301,283,7184,1,8,0:0:0:0:
307,281,7252,1,0,0:0:0:0:
312,277,7320,1,8,0:0:0:0:
315,271,7388,2,0,P|324:245|300:220,3,37.5,2|8|0|8,0:0|0:0|0:0|0:0,0:0:0:0:
269,104,7661,5,2,0:0:0:0:
243,76,7729,1,8,0:0:0:0:
207,68,7797,1,0,0:0:0:0:
173,82,7865,1,8,0:0:0:0:
152,113,7934,1,2,0:0:0:0:
153,149,8002,1,8,0:0:0:0:
174,180,8070,1,0,0:0:0:0:
209,193,8138,1,8,0:0:0:0:
243,184,8206,5,2,0:0:0:0:
230,165,8274,1,8,0:0:0:0:
210,155,8343,1,0,0:0:0:0:
188,155,8411,1,8,0:0:0:0:
168,166,8479,1,2,0:0:0:0:
157,185,8547,1,8,0:0:0:0:
155,207,8615,1,0,0:0:0:0:
164,227,8684,1,8,0:0:0:0:
181,240,8752,5,2,0:0:0:0:
148,264,8820,1,8,0:0:0:0:
108,268,8888,1,0,0:0:0:0:
71,251,8956,1,8,0:0:0:0:
49,217,9024,1,2,0:0:0:0:
48,176,9093,1,8,0:0:0:0:
68,141,9161,1,0,0:0:0:0:
104,121,9229,1,8,0:0:0:0:
140,134,9297,5,2,0:0:0:0:
103,157,9365,1,8,0:0:0:0:
59,155,9434,1,0,0:0:0:0:
25,127,9502,1,8,0:0:0:0:
14,84,9570,1,2,0:0:0:0:
32,43,9638,1,8,0:0:0:0:
70,22,9706,1,0,0:0:0:0:
115,27,9774,1,8,0:0:0:0:
146,57,9843,5,6,0:0:0:0:
98,58,9911,1,8,0:0:0:0:
70,96,9979,1,0,0:0:0:0:
83,141,10047,1,8,0:0:0:0:
127,159,10115,1,2,0:0:0:0:
167,135,10184,1,8,0:0:0:0:
215,142,10252,1,0,0:0:0:0:
246,178,10320,1,8,0:0:0:0:
247,226,10388,1,2,0:0:0:0:
217,263,10456,1,8,0:0:0:0:
170,270,10524,1,0,0:0:0:0:
129,245,10593,1,8,0:0:0:0:
118,199,10661,1,2,0:0:0:0:
148,163,10729,1,8,0:0:0:0:
195,165,10797,1,0,0:0:0:0:
221,204,10865,1,8,0:0:0:0:
202,245,10934,5,2,0:0:0:0:
173,202,11002,1,8,0:0:0:0:
184,152,11070,1,0,0:0:0:0:
228,126,11138,1,8,0:0:0:0:
278,140,11206,1,2,0:0:0:0:
329,133,11274,1,8,0:0:0:0:
358,93,11343,1,0,0:0:0:0:
350,42,11411,1,8,0:0:0:0:
307,14,11479,5,2,0:0:0:0:
280,49,11547,1,8,0:0:0:0:
274,93,11615,1,0,0:0:0:0:
291,135,11684,1,8,0:0:0:0:
326,161,11752,1,2,0:0:0:0:
371,166,11820,1,8,0:0:0:0:
411,148,11888,1,0,0:0:0:0:
437,112,11956,1,8,0:0:0:0:
440,67,12024,5,2,0:0:0:0:
403,62,12093,1,8,0:0:0:0:
369,75,12161,1,0,0:0:0:0:
344,103,12229,1,8,0:0:0:0:
337,139,12297,1,2,0:0:0:0:
327,175,12365,1,8,0:0:0:0:
303,202,12434,1,0,0:0:0:0:
267,214,12502,1,8,0:0:0:0:
231,208,12570,5,2,0:0:0:0:
248,184,12638,1,8,0:0:0:0:
276,174,12706,1,0,0:0:0:0:
305,181,12774,1,8,0:0:0:0:
325,202,12843,1,2,0:0:0:0:
330,232,12911,1,8,0:0:0:0:
319,259,12979,1,0,0:0:0:0:
294,275,13047,1,8,0:0:0:0:
264,275,13115,5,2,0:0:0:0:
294,312,13184,1,8,0:0:0:0:
340,327,13252,1,0,0:0:0:0:
387,315,13320,1,8,0:0:0:0:
420,281,13388,1,2,0:0:0:0:
430,234,13456,1,8,0:0:0:0:
414,189,13524,1,0,0:0:0:0:
375,159,13593,1,8,0:0:0:0:
330,161,13661,5,2,0:0:0:0:
371,184,13729,1,8,0:0:0:0:
411,171,13797,1,0,0:0:0:0:
429,140,13865,1,8,0:0:0:0:
423,108,13934,1,2,0:0:0:0:
402,91,14002,1,8,0:0:0:0:
381,89,14070,1,0,0:0:0:0:
368,98,14138,1,8,0:0:0:0:
364,110,14206,5,4,0:1:0:0:
392,145,14274,1,8,0:0:0:0:
393,189,14343,1,0,0:0:0:0:
365,224,14411,1,8,0:0:0:0:
322,233,14479,1,2,0:0:0:0:
283,214,14547,1,8,0:0:0:0:
264,174,14615,1,0,0:0:0:0:
274,131,14684,1,8,0:0:0:0:
257,90,14752,1,2,0:0:0:0:
219,66,14820,1,8,0:0:0:0:
175,67,14888,1,0,0:0:0:0:
138,91,14956,1,8,0:0:0:0:
121,132,15024,1,2,0:0:0:0:
129,175,15093,1,8,0:0:0:0:
159,208,15161,1,0,0:0:0:0:
202,218,15229,1,8,0:0:0:0:
243,202,15297,5,2,0:0:0:0:
246,239,15365,1,8,0:0:0:0:
231,273,15434,1,0,0:0:0:0:
201,297,15502,1,8,0:0:0:0:
166,305,15570,1,2,0:0:0:0:
129,297,15638,1,8,0:0:0:0:
101,274,15706,1,0,0:0:0:0:
86,240,15774,1,8,0:0:0:0:
88,203,15843,5,2,0:0:0:0:
131,213,15911,1,8,0:0:0:0:
163,244,15979,2,0,P|173:269|169:308,1,44.999998626709,0|8,0:0|0:0,0:0:0:0:
249,379,16115,1,2,0:0:0:0:
281,347,16184,1,8,0:0:0:0:
313,316,16252,2,0,L|355:274,1,44.999998626709,0|8,0:0|0:0,0:0:0:0:
486,212,16388,5,4,0:2:0:0:
469,206,16456,1,8,0:0:0:0:
455,202,16524,1,0,0:0:0:0:
442,197,16593,1,8,0:0:0:0:
426,193,16661,1,0,0:0:0:0:
412,188,16729,1,8,0:0:0:0:
398,184,16797,1,0,0:0:0:0:
384,180,16865,1,8,0:0:0:0:
370,155,16934,5,2,0:2:0:0:
356,158,17002,1,8,0:0:0:0:
340,160,17070,1,8,2:3:0:0:
325,161,17138,1,8,2:3:0:0:
299,187,17206,6,0,B|253:176|253:176|233:176|233:176|183:165,1,112.5,10|0,0:0|0:0,0:0:0:0:
52,78,17479,5,8,2:3:0:0:
59,103,17547,1,8,2:3:0:0:
70,132,17615,1,8,2:3:0:0:
80,159,17684,1,8,2:3:0:0:
112,168,17752,5,0,0:0:0:0:
110,183,17820,1,0,0:0:0:0:
107,198,17888,1,8,2:3:0:0:
105,213,17956,1,8,2:3:0:0:
82,246,18024,5,8,2:3:0:0:
99,261,18093,1,8,2:3:0:0:
116,275,18161,1,0,0:0:0:0:
132,290,18229,1,0,0:0:0:0:
149,304,18297,2,0,L|196:296,1,37.5,8|8,2:3|2:3,0:0:0:0:
331,341,18434,2,0,L|284:349,1,37.5
229,221,18570,5,4,0:1:0:0:
212,187,18638,1,8,0:0:0:0:
215,151,18706,1,0,0:0:0:0:
236,120,18774,1,8,0:0:0:0:
271,106,18843,1,2,0:2:0:0:
307,112,18911,1,8,0:0:0:0:
336,135,18979,1,0,0:0:0:0:
348,170,19047,1,8,0:0:0:0:
341,207,19115,1,2,0:2:0:0:
346,243,19184,1,8,0:0:0:0:
370,272,19252,1,0,0:0:0:0:
404,286,19320,1,8,0:0:0:0:
441,280,19388,1,2,0:2:0:0:
470,258,19456,1,8,0:0:0:0:
484,223,19524,1,0,0:0:0:0:
479,186,19593,1,8,0:0:0:0:
459,153,19661,5,2,0:2:0:0:
425,155,19729,1,8,0:0:0:0:
400,173,19797,1,0,0:0:0:0:
388,197,19865,1,8,0:0:0:0:
390,219,19934,1,2,0:2:0:0:
399,235,20002,1,8,0:0:0:0:
411,243,20070,1,0,0:0:0:0:
421,244,20138,1,8,0:0:0:0:
432,240,20206,2,0,P|436:219|424:195,3,37.5,2|8|0|8,0:2|0:0|0:0|0:0,0:0:0:0:
429,109,20479,2,0,P|416:91|391:83,3,37.5,2|8|0|8,0:2|0:0|0:0|0:0,0:0:0:0:
276,133,20752,5,2,0:2:0:0:
242,148,20820,1,8,0:0:0:0:
205,141,20888,1,0,0:0:0:0:
178,116,20956,1,8,0:0:0:0:
170,80,21024,1,2,0:2:0:0:
183,46,21093,1,8,0:0:0:0:
213,24,21161,1,0,0:0:0:0:
250,23,21229,1,8,0:0:0:0:
282,43,21297,5,2,0:2:0:0:
271,62,21365,1,8,0:0:0:0:
255,78,21434,1,0,0:0:0:0:
235,88,21502,1,8,0:0:0:0:
213,92,21570,1,2,0:2:0:0:
191,88,21638,1,8,0:0:0:0:
171,78,21706,1,0,0:0:0:0:
155,62,21774,1,8,0:0:0:0:
147,41,21843,5,2,0:2:0:0:
187,58,21911,1,8,0:0:0:0:
208,97,21979,1,0,0:0:0:0:
198,140,22047,1,8,0:0:0:0:
164,168,22115,1,2,0:2:0:0:
128,194,22184,1,8,0:0:0:0:
112,236,22252,1,0,0:0:0:0:
122,279,22320,1,8,0:0:0:0:
150,314,22388,1,2,0:2:0:0:
191,330,22456,1,8,0:0:0:0:
225,321,22524,1,0,0:0:0:0:
247,299,22593,1,8,0:0:0:0:
253,272,22661,1,2,0:2:0:0:
247,250,22729,1,8,0:0:0:0:
234,236,22797,1,0,0:0:0:0:
221,232,22865,1,8,0:0:0:0:
209,232,22934,5,4,0:1:0:0:
205,268,23002,1,8,0:0:0:0:
220,302,23070,1,0,0:0:0:0:
251,323,23138,1,8,0:0:0:0:
288,325,23206,1,2,0:2:0:0:
321,309,23274,1,8,0:0:0:0:
341,278,23343,1,0,0:0:0:0:
342,241,23411,1,8,0:0:0:0:
325,208,23479,2,0,P|308:194|282:187,3,37.5,2|8|0|8,0:2|0:0|0:0|0:0,0:0:0:0:
139,171,23752,2,0,P|152:154|180:147,3,37.5,2|8|0|8,0:2|0:0|0:0|0:0,0:0:0:0:
168,325,24024,5,2,0:2:0:0:
155,344,24093,1,8,0:0:0:0:
140,354,24161,1,0,0:0:0:0:
125,358,24229,1,8,0:0:0:0:
111,357,24297,1,2,0:2:0:0:
100,353,24365,1,8,0:0:0:0:
92,349,24434,1,0,0:0:0:0:
88,343,24502,1,8,0:0:0:0:
87,338,24570,1,2,0:2:0:0:
85,332,24638,1,8,0:0:0:0:
85,325,24706,1,0,0:0:0:0:
88,319,24774,1,8,0:0:0:0:
91,312,24843,2,0,P|111:306|138:312,3,37.5,2|8|0|8,0:2|0:0|0:0|0:0,0:0:0:0:
270,371,25115,5,2,0:2:0:0:
306,366,25184,1,8,0:0:0:0:
336,344,25252,1,0,0:0:0:0:
351,310,25320,1,8,0:0:0:0:
348,274,25388,1,2,0:2:0:0:
327,243,25456,1,8,0:0:0:0:
293,227,25524,1,2,0:2:0:0:
256,230,25593,1,8,0:0:0:0:
226,250,25661,5,0,0:0:0:0:
236,269,25729,1,8,0:0:0:0:
252,285,25797,1,0,0:0:0:0:
272,295,25865,1,8,0:0:0:0:
294,298,25934,1,2,0:2:0:0:
316,294,26002,1,8,0:0:0:0:
336,284,26070,1,0,0:0:0:0:
351,268,26138,1,8,0:0:0:0:
361,247,26206,5,2,0:2:0:0:
357,291,26274,1,8,0:0:0:0:
380,328,26343,1,0,0:0:0:0:
421,346,26411,1,8,0:0:0:0:
464,336,26479,1,0,0:0:0:0:
494,303,26547,1,8,0:0:0:0:
498,259,26615,1,2,0:2:0:0:
476,220,26684,1,8,0:0:0:0:
436,202,26752,5,0,0:0:0:0:
403,237,26820,1,8,0:0:0:0:
356,248,26888,1,0,0:0:0:0:
312,230,26956,1,8,0:0:0:0:
286,190,27024,1,2,0:2:0:0:
288,142,27093,1,8,0:0:0:0:
317,103,27161,1,2,0:2:0:0:
362,89,27229,1,8,0:0:0:0:
414,100,27297,5,4,0:1:0:0:
393,147,27365,1,8,0:0:0:0:
349,174,27434,1,0,0:0:0:0:
297,173,27502,1,8,0:0:0:0:
256,142,27570,1,2,0:2:0:0:
220,105,27638,1,8,0:0:0:0:
169,96,27706,1,0,0:0:0:0:
123,119,27774,1,8,0:0:0:0:
99,165,27843,1,2,0:2:0:0:
107,216,27911,1,8,0:0:0:0:
144,253,27979,1,0,0:0:0:0:
195,261,28047,1,8,0:0:0:0:
240,237,28115,1,2,0:2:0:0:
291,245,28184,1,8,0:0:0:0:
328,281,28252,1,0,0:0:0:0:
335,332,28320,1,8,0:0:0:0:
311,378,28388,5,2,0:2:0:0:
268,342,28456,1,8,0:0:0:0:
253,288,28524,1,0,0:0:0:0:
269,235,28593,1,8,0:0:0:0:
311,200,28661,1,2,0:2:0:0:
350,160,28729,1,8,0:0:0:0:
360,105,28797,1,0,0:0:0:0:
339,54,28865,1,8,0:0:0:0:
293,23,28934,5,2,0:2:0:0:
279,65,29002,1,8,0:0:0:0:
289,108,29070,1,0,0:0:0:0:
320,140,29138,1,8,0:0:0:0:
363,151,29206,1,2,0:2:0:0:
405,138,29274,1,8,0:0:0:0:
435,104,29343,1,0,0:0:0:0:
443,61,29411,1,8,0:0:0:0:
427,19,29479,5,2,0:2:0:0:
392,32,29547,1,8,0:0:0:0:
366,58,29615,1,0,0:0:0:0:
354,94,29684,1,8,0:0:0:0:
360,130,29752,1,2,0:2:0:0:
380,161,29820,1,8,0:0:0:0:
412,180,29888,1,0,0:0:0:0:
449,183,29956,1,8,0:0:0:0:
484,170,30024,5,2,0:2:0:0:
465,147,30093,1,8,0:0:0:0:
438,135,30161,1,2,0:2:0:0:
409,137,30229,1,8,0:0:0:0:
384,154,30297,1,2,0:2:0:0:
370,180,30365,1,8,0:0:0:0:
370,209,30434,1,0,0:0:0:0:
383,236,30502,1,8,0:0:0:0:
408,252,30570,5,2,0:2:0:0:
438,214,30638,1,8,0:0:0:0:
441,166,30706,1,0,0:0:0:0:
418,124,30774,1,8,0:0:0:0:
376,101,30843,1,2,0:2:0:0:
328,106,30911,1,8,0:0:0:0:
290,136,30979,1,0,0:0:0:0:
275,181,31047,1,8,0:0:0:0:
287,228,31115,5,2,0:2:0:0:
238,242,31184,1,8,0:0:0:0:
188,226,31252,1,0,0:0:0:0:
156,186,31320,1,8,0:0:0:0:
150,135,31388,1,2,0:2:0:0:
174,89,31456,1,8,0:0:0:0:
219,64,31524,1,0,0:0:0:0:
271,67,31593,1,8,0:0:0:0:
311,98,31661,5,4,0:1:0:0:
282,132,31729,1,8,0:0:0:0:
241,149,31797,1,0,0:0:0:0:
196,145,31865,1,8,0:0:0:0:
159,120,31934,1,2,0:2:0:0:
119,99,32002,1,8,0:0:0:0:
75,103,32070,1,0,0:0:0:0:
39,129,32138,1,8,0:0:0:0:
22,170,32206,1,2,0:2:0:0:
28,210,32274,1,8,0:0:0:0:
51,237,32343,1,0,0:0:0:0:
79,250,32411,1,8,0:0:0:0:
105,250,32479,1,2,0:2:0:0:
124,238,32547,1,8,0:0:0:0:
132,222,32615,1,0,0:0:0:0:
130,208,32684,1,8,0:0:0:0:
118,196,32752,5,2,0:2:0:0:
144,157,32820,1,8,0:0:0:0:
182,141,32888,1,0,0:0:0:0:
218,146,32956,1,8,0:0:0:0:
242,165,33024,1,0,0:0:0:0:
253,188,33093,1,8,0:0:0:0:
253,209,33161,1,0,0:0:0:0:
246,223,33229,1,8,0:0:0:0:
227,229,33297,2,0,P|226:200|245:157,3,52.4999983978272,2|8|0|8,0:2|0:0|0:0|0:0,0:0:0:0:
351,47,33570,2,0,P|368:72|380:115,3,52.4999983978272,2|8|0|8,0:2|0:0|0:0|0:0,0:0:0:0:
417,244,33843,5,4,0:1:0:0:
418,292,33934,1,8,2:0:0:0:
394,335,34024,1,8,2:0:0:0:
350,356,34115,1,8,2:0:0:0:
301,350,34206,1,8,2:0:0:0:
264,317,34297,1,8,2:0:0:0:
254,267,34388,5,4,0:2:0:0:
215,275,34479,1,8,0:3:0:0:
189,244,34570,1,8,0:3:0:0:
149,249,34661,1,8,0:3:0:0:
123,218,34752,1,8,0:3:0:0:
83,217,34843,1,8,0:3:0:0:
67,179,34934,5,4,0:2:0:0:
38,186,35024,1,8,0:0:0:0:
15,204,35115,1,8,0:0:0:0:
1,231,35206,1,8,0:0:0:0:
0,260,35297,1,8,0:0:0:0:
11,288,35388,1,8,0:0:0:0:
34,308,35479,5,2,0:0:0:0:
45,306,35570,1,8,0:0:0:0:
48,293,35661,1,8,0:0:0:0:
59,288,35752,1,8,0:0:0:0:
63,277,35843,1,8,0:0:0:0:
75,274,35934,1,8,0:0:0:0:
80,263,36024,1,14,0:0:0:0:
485,374,44206,5,8,0:0:0:0:
471,367,44274,1,8,0:0:0:0:
457,361,44343,1,8,0:0:0:0:
444,354,44411,1,8,0:0:0:0:
427,325,44479,5,8,0:0:0:0:
405,319,44547,1,8,0:0:0:0:
382,311,44615,2,0,L|349:302,1,22.4999993133545,8|8,0:0|0:0,0:0:0:0:
186,356,44752,5,6,0:0:0:0:
221,346,44820,1,8,0:0:0:0:
247,320,44888,1,2,0:0:0:0:
254,283,44956,1,8,0:0:0:0:
240,249,45024,1,2,0:0:0:0:
210,227,45093,1,8,0:0:0:0:
173,225,45161,1,0,0:0:0:0:
141,243,45229,1,8,0:0:0:0:
124,276,45297,5,2,0:0:0:0:
159,296,45365,1,8,0:0:0:0:
194,295,45434,1,0,0:0:0:0:
221,280,45502,1,8,0:0:0:0:
236,257,45570,1,2,0:0:0:0:
239,234,45638,1,8,0:0:0:0:
233,216,45706,1,0,0:0:0:0:
224,205,45774,1,8,0:0:0:0:
210,197,45843,5,2,0:0:0:0:
226,148,45911,1,8,0:0:0:0:
269,119,45979,1,0,0:0:0:0:
320,124,46047,1,8,0:0:0:0:
358,158,46115,1,2,0:0:0:0:
365,200,46184,1,8,0:0:0:0:
352,229,46252,1,0,0:0:0:0:
335,242,46320,1,8,0:0:0:0:
319,243,46388,5,2,0:0:0:0:
319,287,46456,1,8,0:0:0:0:
345,322,46524,1,0,0:0:0:0:
387,336,46593,1,8,0:0:0:0:
430,323,46661,1,2,0:0:0:0:
456,287,46729,1,8,0:0:0:0:
457,243,46797,2,0,P|442:221|434:196,1,44.999998626709,0|8,0:0|0:0,0:0:0:0:
409,33,46934,5,2,0:0:0:0:
412,84,47002,1,8,0:0:0:0:
382,125,47070,1,0,0:0:0:0:
332,136,47138,1,8,0:0:0:0:
287,111,47206,1,2,0:0:0:0:
271,72,47274,1,8,0:0:0:0:
280,41,47343,1,0,0:0:0:0:
295,26,47411,1,8,0:0:0:0:
312,22,47479,5,2,0:0:0:0:
333,68,47547,1,8,0:0:0:0:
315,116,47615,1,0,0:0:0:0:
269,137,47684,1,8,0:0:0:0:
221,118,47752,1,2,0:0:0:0:
170,124,47820,1,8,0:0:0:0:
135,163,47888,2,0,P|126:198|156:243,1,52.4999983978272,0|8,0:0|0:0,0:0:0:0:
251,366,48024,5,2,0:0:0:0:
295,350,48093,1,8,0:0:0:0:
318,314,48161,1,0,0:0:0:0:
316,277,48229,1,8,0:0:0:0:
293,254,48297,1,2,0:0:0:0:
266,252,48365,1,8,0:0:0:0:
248,264,48434,1,0,0:0:0:0:
244,279,48502,1,8,0:0:0:0:
246,294,48570,5,2,0:0:0:0:
201,319,48638,1,8,0:0:0:0:
153,303,48706,1,0,0:0:0:0:
133,256,48774,1,8,0:0:0:0:
154,210,48843,1,2,0:0:0:0:
154,179,48911,1,8,0:0:0:0:
137,153,48979,2,0,P|124:135|132:98,1,52.4999983978272,0|8,0:0|0:0,0:0:0:0:
192,0,49115,5,4,0:1:0:0:
213,45,49184,1,8,0:0:0:0:
202,93,49252,1,0,0:0:0:0:
159,121,49320,1,8,0:0:0:0:
109,114,49388,1,2,0:0:0:0:
61,118,49456,1,8,0:0:0:0:
27,142,49524,1,0,0:0:0:0:
11,175,49593,1,8,0:0:0:0:
11,206,49661,1,2,0:0:0:0:
24,228,49729,1,8,0:0:0:0:
41,240,49797,1,0,0:0:0:0:
57,244,49865,1,8,0:0:0:0:
73,241,49934,1,2,0:0:0:0:
87,232,50002,1,8,0:0:0:0:
95,218,50070,1,0,0:0:0:0:
97,203,50138,1,8,0:0:0:0:
85,187,50206,5,2,0:0:0:0:
37,202,50274,1,8,0:0:0:0:
7,246,50343,1,0,0:0:0:0:
10,297,50411,1,8,0:0:0:0:
43,337,50479,1,2,0:0:0:0:
92,349,50547,1,8,0:0:0:0:
140,330,50615,1,0,0:0:0:0:
166,286,50684,1,8,0:0:0:0:
160,233,50752,5,2,0:0:0:0:
149,283,50820,1,8,0:0:0:0:
103,307,50888,1,0,0:0:0:0:
56,287,50956,1,8,0:0:0:0:
40,238,51024,2,0,P|60:216|69:190,3,52.4999983978272,2|8|0|8,0:0|0:0|0:0|0:0,0:0:0:0:
153,5,51297,5,2,0:0:0:0:
135,52,51365,1,8,0:0:0:0:
165,91,51434,1,0,0:0:0:0:
215,84,51502,1,8,0:0:0:0:
234,37,51570,1,2,0:0:0:0:
285,32,51638,1,8,0:0:0:0:
322,67,51706,1,0,0:0:0:0:
319,118,51774,1,8,0:0:0:0:
280,150,51843,5,2,0:0:0:0:
332,149,51911,1,8,0:0:0:0:
374,178,51979,1,0,0:0:0:0:
389,227,52047,1,8,0:0:0:0:
375,277,52115,1,2,0:0:0:0:
333,307,52184,1,8,0:0:0:0:
282,306,52252,1,0,0:0:0:0:
240,276,52320,1,8,0:0:0:0:
224,227,52388,1,2,0:0:0:0:
242,183,52456,1,8,0:0:0:0:
279,164,52524,1,0,0:0:0:0:
314,173,52593,1,8,0:0:0:0:
336,197,52661,1,2,0:0:0:0:
335,223,52729,1,8,0:0:0:0:
321,244,52797,1,0,0:0:0:0:
305,248,52865,1,8,0:0:0:0:
293,236,52934,1,2,0:0:0:0:
288,222,53002,1,8,0:0:0:0:
292,208,53070,1,0,0:0:0:0:
300,195,53138,1,8,0:0:0:0:
314,190,53206,1,2,0:0:0:0:
330,193,53274,1,8,0:0:0:0:
345,199,53343,2,0,P|338:225|306:264,1,52.4999983978272,0|8,0:0|0:0,0:0:0:0:
260,353,53479,5,4,0:1:0:0:
212,384,53547,1,8,0:0:0:0:
155,370,53615,1,0,0:0:0:0:
128,317,53684,1,8,0:0:0:0:
154,264,53752,1,2,0:0:0:0:
139,209,53820,1,8,0:0:0:0:
85,188,53888,1,0,0:0:0:0:
34,216,53956,1,8,0:0:0:0:
26,275,54024,1,2,0:0:0:0:
68,308,54093,1,8,0:0:0:0:
113,292,54161,1,0,0:0:0:0:
128,252,54229,1,8,0:0:0:0:
110,220,54297,1,2,0:0:0:0:
81,210,54365,1,8,0:0:0:0:
61,224,54434,1,0,0:0:0:0:
62,241,54502,1,8,0:0:0:0:
75,253,54570,2,0,P|103:273|150:258,3,60,2|8|0|8,0:0|0:0|0:0|0:0,0:0:0:0:
143,369,54843,2,0,P|176:363|208:328,3,60,2|8|0|8,0:0|0:0|0:0|0:0,0:0:0:0:
233,208,55115,5,2,0:0:0:0:
263,167,55184,1,8,0:0:0:0:
314,163,55252,1,0,0:0:0:0:
351,199,55320,1,8,0:0:0:0:
348,249,55388,1,2,0:0:0:0:
370,286,55456,1,8,0:0:0:0:
399,296,55524,1,0,0:0:0:0:
419,292,55593,1,8,0:0:0:0:
435,278,55661,5,2,0:0:0:0:
385,273,55729,1,8,0:0:0:0:
358,230,55797,1,0,0:0:0:0:
378,183,55865,1,8,0:0:0:0:
427,170,55934,1,2,0:0:0:0:
464,151,56002,1,8,0:0:0:0:
472,120,56070,1,0,0:0:0:0:
464,100,56138,1,8,0:0:0:0:
448,92,56206,5,2,0:0:0:0:
432,141,56274,1,8,0:0:0:0:
390,170,56343,1,0,0:0:0:0:
338,168,56411,1,8,0:0:0:0:
299,134,56479,1,2,0:0:0:0:
288,84,56547,1,8,0:0:0:0:
311,38,56615,1,0,0:0:0:0:
357,14,56684,1,8,0:0:0:0:
407,24,56752,1,2,0:0:0:0:
430,67,56820,1,8,0:0:0:0:
421,108,56888,1,0,0:0:0:0:
392,131,56956,1,8,0:0:0:0:
360,131,57024,1,2,0:0:0:0:
338,116,57093,1,8,0:0:0:0:
330,96,57161,1,0,0:0:0:0:
333,80,57229,1,8,0:0:0:0:
343,68,57297,5,2,0:0:0:0:
399,71,57365,1,8,0:0:0:0:
438,111,57434,1,0,0:0:0:0:
440,168,57502,1,8,0:0:0:0:
403,210,57570,2,0,P|375:208|339:179,3,52.4999983978272,2|8|0|8,0:0|0:0|0:0|0:0,0:0:0:0:
255,93,57843,5,6,0:0:0:0:
201,71,57911,1,8,0:0:0:0:
152,101,57979,1,0,0:0:0:0:
147,158,58047,1,8,0:0:0:0:
191,196,58115,1,2,0:0:0:0:
213,245,58184,1,8,0:0:0:0:
199,290,58252,1,0,0:0:0:0:
165,314,58320,1,8,0:0:0:0:
129,313,58388,1,2,0:0:0:0:
105,294,58456,1,8,0:0:0:0:
97,270,58524,1,0,0:0:0:0:
104,253,58593,1,8,0:0:0:0:
120,246,58661,2,0,P|136:270|172:276,3,60,2|8|0|8,0:0|0:0|0:0|0:0,0:0:0:0:
297,234,58934,5,2,0:0:0:0:
304,183,59002,1,8,0:0:0:0:
278,138,59070,1,0,0:0:0:0:
229,121,59138,1,8,0:0:0:0:
181,139,59206,1,2,0:0:0:0:
145,160,59274,1,8,0:0:0:0:
113,158,59343,1,0,0:0:0:0:
95,146,59411,1,8,0:0:0:0:
90,133,59479,5,2,0:0:0:0:
124,95,59547,1,8,0:0:0:0:
175,92,59615,1,0,0:0:0:0:
213,126,59684,1,8,0:0:0:0:
216,177,59752,1,2,0:0:0:0:
208,218,59820,1,8,0:0:0:0:
222,245,59888,1,0,0:0:0:0:
240,254,59956,1,8,0:0:0:0:
256,253,60024,5,2,0:0:0:0:
231,199,60093,1,8,0:0:0:0:
245,142,60161,1,0,0:0:0:0:
292,105,60229,1,8,0:0:0:0:
351,106,60297,1,2,0:0:0:0:
397,142,60365,1,8,0:0:0:0:
410,199,60434,1,0,0:0:0:0:
386,253,60502,1,8,0:0:0:0:
333,280,60570,2,0,P|305:261|297:229,3,60,2|8|0|8,0:0|0:0|0:0|0:0,0:0:0:0:
222,175,60843,2,0,P|233:143|260:121,3,60,2|8|0|8,0:0|0:0|0:0|0:0,0:0:0:0:
386,28,61115,5,8,0:0:0:0:
445,19,61184,1,8,2:0:0:0:
491,44,61252,1,8,2:0:0:0:
512,86,61320,1,8,2:0:0:0:
507,127,61388,1,8,0:3:0:0:
486,152,61456,1,8,0:0:0:0:
460,161,61524,1,8,0:0:0:0:
440,158,61593,1,8,0:0:0:0:
423,145,61661,5,8,0:0:0:0:
362,150,61729,1,8,2:0:0:0:
323,186,61797,1,8,2:0:0:0:
312,232,61865,1,8,2:0:0:0:
326,271,61934,1,0,0:0:0:0:
351,289,62002,1,0,0:0:0:0:
379,293,62070,1,0,0:0:0:0:
397,284,62138,1,0,0:0:0:0:
409,267,62206,5,4,0:2:0:0:
368,215,62274,1,8,0:0:0:0:
303,206,62343,1,0,0:0:0:0:
253,250,62411,1,8,0:0:0:0:
247,314,62479,1,2,0:2:0:0:
207,366,62547,1,8,0:0:0:0:
142,381,62615,1,0,0:0:0:0:
81,357,62684,1,8,0:0:0:0:
49,299,62752,1,2,0:2:0:0:
53,233,62820,1,8,0:0:0:0:
99,186,62888,1,0,0:0:0:0:
165,174,62956,1,8,0:0:0:0:
225,204,63024,1,2,0:2:0:0:
291,199,63093,1,8,0:0:0:0:
341,155,63161,1,0,0:0:0:0:
354,90,63229,1,8,0:0:0:0:
325,30,63297,1,2,0:2:0:0:
272,2,63365,1,8,0:0:0:0:
217,9,63434,1,0,0:0:0:0:
180,39,63502,1,8,0:0:0:0:
166,77,63570,1,2,0:2:0:0:
173,110,63638,1,8,0:0:0:0:
191,129,63706,1,0,0:0:0:0:
210,134,63774,1,8,0:0:0:0:
229,128,63843,1,2,0:2:0:0:
242,113,63911,1,8,0:0:0:0:
244,92,63979,1,0,0:0:0:0:
232,75,64047,1,8,0:0:0:0:
211,73,64115,2,0,P|223:107|224:146,3,67.4999979400635,2|8|0|8,0:2|0:0|0:0|0:0,0:0:0:0:
214,286,64388,5,2,0:2:0:0:
189,346,64456,1,8,0:0:0:0:
132,379,64524,1,0,0:0:0:0:
66,370,64593,1,8,0:0:0:0:
18,323,64661,1,2,0:2:0:0:
8,258,64729,1,8,0:0:0:0:
40,199,64797,1,0,0:0:0:0:
101,172,64865,1,8,0:0:0:0:
165,188,64934,1,2,0:2:0:0:
225,171,65002,1,8,0:0:0:0:
258,129,65070,1,0,0:0:0:0:
260,82,65138,1,8,0:0:0:0:
237,49,65206,1,2,0:2:0:0:
205,37,65274,1,8,0:0:0:0:
180,39,65343,1,0,0:0:0:0:
165,52,65411,1,8,0:0:0:0:
156,70,65479,5,2,0:2:0:0:
196,121,65547,1,8,0:0:0:0:
261,134,65615,1,0,0:0:0:0:
319,102,65684,1,8,0:0:0:0:
341,40,65752,1,2,0:2:0:0:
395,2,65820,1,8,0:0:0:0:
457,21,65888,1,0,0:0:0:0:
480,82,65956,1,8,0:0:0:0:
446,138,66024,1,2,0:2:0:0:
394,152,66093,1,8,0:0:0:0:
361,127,66161,1,0,0:0:0:0:
358,100,66229,1,8,0:0:0:0:
369,82,66297,2,0,P|403:84|429:132,3,67.4999979400635,2|8|0|8,0:2|0:0|0:0|0:0,0:0:0:0:
462,293,66570,5,4,0:1:0:0:
410,335,66638,1,8,0:0:0:0:
344,341,66706,1,0,0:0:0:0:
287,308,66774,1,8,0:0:0:0:
258,248,66843,1,2,0:2:0:0:
219,193,66911,1,8,0:0:0:0:
157,170,66979,1,0,0:0:0:0:
92,187,67047,1,8,0:0:0:0:
49,238,67115,1,2,0:2:0:0:
70,294,67184,1,8,0:0:0:0:
115,323,67252,1,0,0:0:0:0:
162,321,67320,1,8,0:0:0:0:
195,297,67388,1,2,0:2:0:0:
208,266,67456,1,8,0:0:0:0:
204,238,67524,1,0,0:0:0:0:
191,222,67593,1,8,0:0:0:0:
172,214,67661,2,0,P|153:253|161:300,3,67.4999979400635,2|8|0|8,0:2|0:0|0:0|0:0,0:0:0:0:
340,240,67934,2,0,P|358:201|350:154,3,67.4999979400635,2|8|0|8,0:2|0:0|0:0|0:0,0:0:0:0:
393,10,68206,5,2,0:2:0:0:
452,9,68274,1,8,0:0:0:0:
495,41,68343,1,0,0:0:0:0:
512,85,68411,1,8,0:0:0:0:
506,124,68479,1,2,0:2:0:0:
483,149,68547,1,8,0:0:0:0:
458,158,68615,1,0,0:0:0:0:
439,155,68684,1,8,0:0:0:0:
422,143,68752,5,2,0:2:0:0:
366,107,68820,1,8,0:0:0:0:
301,116,68888,1,0,0:0:0:0:
257,165,68956,1,8,0:0:0:0:
256,231,69024,1,2,0:2:0:0:
290,273,69093,1,8,0:0:0:0:
329,283,69161,1,0,0:0:0:0:
354,275,69229,1,8,0:0:0:0:
366,257,69297,5,2,0:2:0:0:
331,200,69365,1,8,0:0:0:0:
268,182,69434,1,0,0:0:0:0:
208,209,69502,1,8,0:0:0:0:
181,269,69570,1,2,0:2:0:0:
147,312,69638,1,8,0:0:0:0:
106,318,69706,2,0,P|69:307|51:263,1,67.4999979400635,0|8,0:0|0:0,0:0:0:0:
55,92,69843,5,2,0:2:0:0:
79,31,69911,1,8,0:0:0:0:
142,15,69979,1,0,0:0:0:0:
193,54,70047,1,8,0:0:0:0:
192,119,70115,1,2,0:2:0:0:
151,152,70184,1,8,0:0:0:0:
113,145,70252,1,0,0:0:0:0:
99,121,70320,1,8,0:0:0:0:
105,101,70388,5,2,0:2:0:0:
161,67,70456,1,8,0:0:0:0:
226,75,70524,1,0,0:0:0:0:
272,122,70593,1,8,0:0:0:0:
282,189,70661,1,2,0:2:0:0:
315,230,70729,1,8,0:0:0:0:
351,244,70797,2,0,P|401:231|434:189,1,67.4999979400635,0|8,0:0|0:0,0:0:0:0:
470,40,70934,5,6,0:0:0:0:
409,15,71002,1,8,0:0:0:0:
354,49,71070,1,0,0:0:0:0:
351,114,71138,1,8,0:0:0:0:
402,154,71206,1,2,0:2:0:0:
446,186,71274,1,8,0:0:0:0:
452,225,71343,2,0,P|454:266|434:297,1,67.4999979400635,0|8,0:0|0:0,0:0:0:0:
264,354,71479,5,2,0:2:0:0:
211,314,71547,1,8,0:0:0:0:
199,249,71615,1,0,0:0:0:0:
233,194,71684,1,8,0:0:0:0:
287,181,71752,1,2,0:2:0:0:
324,195,71820,1,8,0:0:0:0:
339,217,71888,1,0,0:0:0:0:
340,237,71956,1,8,0:0:0:0:
333,256,72024,2,0,P|309:277|256:259,3,67.4999979400635,2|8|0|8,0:2|0:0|0:0|0:0,0:0:0:0:
177,339,72297,2,0,P|150:323|128:278,3,67.4999979400635,2|8|0|8,0:2|0:0|0:0|0:0,0:0:0:0:
71,97,72570,5,2,0:2:0:0:
19,130,72638,1,8,0:0:0:0:
2,180,72706,1,0,0:0:0:0:
16,225,72774,1,8,0:0:0:0:
47,252,72843,1,2,0:2:0:0:
80,256,72911,1,8,0:0:0:0:
105,245,72979,1,0,0:0:0:0:
118,229,73047,1,8,0:0:0:0:
120,206,73115,5,2,0:2:0:0:
164,165,73184,1,8,0:0:0:0:
219,162,73252,1,0,0:0:0:0:
259,187,73320,1,8,0:0:0:0:
276,223,73388,1,2,0:2:0:0:
269,256,73456,1,8,0:0:0:0:
253,279,73524,1,0,0:0:0:0:
234,285,73593,1,8,0:0:0:0:
215,279,73661,5,2,0:2:0:0:
198,228,73729,1,8,0:0:0:0:
218,179,73797,1,0,0:0:0:0:
264,154,73865,1,8,0:0:0:0:
316,164,73934,1,2,0:2:0:0:
355,174,74002,1,8,0:0:0:0:
380,165,74070,1,0,0:0:0:0:
394,150,74138,1,8,0:0:0:0:
401,128,74206,5,2,0:2:0:0:
347,90,74274,1,8,0:0:0:0:
286,111,74343,1,0,0:0:0:0:
265,173,74411,1,8,0:0:0:0:
303,226,74479,1,2,0:2:0:0:
351,253,74547,1,8,0:0:0:0:
361,292,74615,1,0,0:0:0:0:
349,316,74684,1,8,0:0:0:0:
329,328,74752,2,0,P|287:338|257:318,3,67.4999979400635,2|8|0|8,0:2|0:0|0:0|0:0,0:0:0:0:
173,382,75024,2,0,P|136:359|129:324,3,67.4999979400635,2|8|0|8,0:2|0:0|0:0|0:0,0:0:0:0:
30,179,75297,5,4,0:1:0:0:
4,230,75365,1,8,0:0:0:0:
36,278,75434,1,0,0:0:0:0:
93,277,75502,1,8,0:0:0:0:
123,229,75570,1,2,0:2:0:0:
115,175,75638,1,8,0:0:0:0:
137,132,75706,1,0,0:0:0:0:
173,109,75774,1,8,0:0:0:0:
209,108,75843,1,2,0:2:0:0:
235,120,75911,1,8,0:0:0:0:
247,140,75979,1,0,0:0:0:0:
249,157,76047,1,8,0:0:0:0:
246,174,76115,2,0,P|232:206|179:214,3,60,2|8|0|8,0:2|0:0|0:0|0:0,0:0:0:0:
327,359,76388,5,2,0:2:0:0:
381,376,76456,1,8,0:0:0:0:
427,341,76524,1,0,0:0:0:0:
426,284,76593,1,8,0:0:0:0:
377,253,76661,1,2,0:2:0:0:
329,263,76729,1,8,0:0:0:0:
315,297,76797,1,0,0:0:0:0:
326,318,76865,1,8,0:0:0:0:
343,323,76934,2,0,P|372:319|393:273,3,60,2|8|0|8,0:2|0:0|0:0|0:0,0:0:0:0:
219,194,77206,2,0,P|201:217|219:264,3,60,2|8|0|8,0:2|0:0|0:0|0:0,0:0:0:0:
381,133,77479,5,4,0:1:0:0:
369,170,77570,1,8,0:0:0:0:
336,192,77661,1,8,0:0:0:0:
297,191,77752,1,8,0:0:0:0:
266,167,77843,1,8,0:0:0:0:
255,129,77934,1,8,0:0:0:0:
268,92,78024,5,4,0:2:0:0:
224,68,78115,1,8,0:0:0:0:
176,67,78206,1,8,0:0:0:0:
133,92,78297,1,8,0:0:0:0:
107,134,78388,1,8,0:0:0:0:
106,183,78479,1,8,0:0:0:0:
130,227,78570,5,2,0:0:0:0:
154,209,78661,1,0,0:0:0:0:
168,183,78752,1,0,0:0:0:0:
171,154,78843,1,0,0:0:0:0:
160,126,78934,1,0,0:0:0:0:
139,104,79024,1,0,0:0:0:0:
101,115,79115,5,2,0:0:0:0:
91,97,79206,1,8,2:0:0:0:
110,90,79297,1,8,2:0:0:0:
100,72,79388,1,8,2:0:0:0:
119,63,79479,1,8,2:0:0:0:
115,43,79570,1,8,2:0:0:0:
130,33,79661,6,0,B|165:16|222:39|210:99|261:129|319:111|319:111|320:114|320:114|270:69|291:17|291:17|242:7|210:39,1,400,4|0,0:1|0:0,0:0:0:0:
407,14,80752,2,0,B|397:27|397:27|392:36|399:50|387:66|361:44|368:31|384:31|392:26|392:26|407:14,1,100,10|0,0:0|0:0,0:0:0:0:
482,178,81115,5,2,2:0:0:0:
482,178,81297,1,2,2:0:0:0:
482,178,81479,1,2,0:2:0:0:
482,178,81661,1,2,0:2:0:0:
489,155,81843,6,0,B|480:101|418:58|349:94|330:163|374:197|374:197|383:194|383:194|414:222|379:308|318:289|301:273|301:273|300:276|300:276|339:275|367:258|375:203,1,500,2|2,0:2|2:0,0:0:0:0:
225,223,82934,2,0,B|210:228|192:226|192:226|187:241|179:252|179:252|191:249|207:252|207:252|214:233|225:224,1,119.999996337891,10|2,0:0|2:0,0:0:0:0:
481,227,83297,5,2,0:2:0:0:
302,108,83661,1,2,0:2:0:0:
302,108,83843,1,2,0:2:0:0:
280,90,84024,6,0,B|220:107|216:202|274:237|274:237|283:231|283:231|348:232|378:293|336:357|336:357|341:355|341:355|303:297|286:310|286:310|279:358|223:351,1,500,2|2,0:2|2:0,0:0:0:0:
125,318,85115,2,0,B|109:318|101:330|101:330|114:335|145:341|179:299|179:299|183:298|183:298|121:278|120:237|141:211,1,200,10|2,0:0|2:0,0:0:0:0:
148,116,85661,5,2,2:0:0:0:
148,116,85843,1,2,0:2:0:0:
148,116,86024,1,0,0:0:0:0:
165,142,86206,6,0,B|219:191|264:99|264:99|270:101|270:101|327:17|416:57|429:117|429:117|432:116|432:116|381:137|373:186|373:186|347:122,1,500,2|0,0:2|0:0,0:0:0:0:
465,202,87297,2,0,B|481:235|481:235|477:235|477:235|506:297,1,100,10|2,0:0|2:0,0:0:0:0:
445,373,87661,5,2,0:0:0:0:
280,262,88024,1,2,0:1:0:0:
280,262,88206,1,4,0:2:0:0:
275,291,88388,6,0,B|304:314|280:338|241:371|132:340|150:257|150:257|166:249|166:249|212:159|89:69|-11:110|-30:227|62:303|132:222|98:152|45:217,1,599.999981689454,4|2,0:1|2:0,0:0:0:0:
0,56,89479,2,0,B|-28:57|-28:57|32:9|117:11|136:31|136:31|99:29|70:81,1,239.999992675781,10|2,0:2|2:0,0:0:0:0:
278,93,90024,5,2,2:0:0:0:
278,93,90206,1,2,0:2:0:0:
278,93,90388,1,0,0:0:0:0:
311,105,90570,6,0,B|358:129|351:190|288:229|288:229|283:222|283:222|213:289|276:387|314:375|314:375|315:367|315:367|378:341|357:288|357:288|347:311|331:338,1,500,2|0,2:0|0:0,0:0:0:0:
425,209,91661,2,0,B|416:177|447:162|474:227|442:244|424:208,1,100,10|2,0:0|2:0,0:0:0:0:
446,308,92024,5,2,0:2:0:0:
458,101,92388,1,2,0:2:0:0:
458,101,92570,1,2,0:2:0:0:
441,66,92752,6,0,B|387:23|270:61|289:158|346:187|346:187|365:186|365:186|404:204|424:277|366:334|316:295|316:295|351:300|367:272|361:241,1,500,2|2,0:2|2:0,0:0:0:0:
487,175,93843,6,0,B|491:246|491:246|495:231|495:231|497:307|497:307|493:311|493:311|497:370,1,200,10|2,0:2|2:0,0:0:0:0:
392,373,94388,1,2,2:0:0:0:
392,373,94570,1,2,0:2:0:0:
392,373,94752,1,0,0:0:0:0:
365,383,94934,6,0,P|335:349|311:284,1,100,2|0,0:2|2:0,0:0:0:0:
314,184,95297,1,0,2:0:0:0:
220,255,95479,6,0,B|255:247|280:217|271:160|271:160|277:161|277:161|215:141|191:212,1,200,2|0,2:0|0:0,0:0:0:0:
103,343,96024,5,10,0:0:0:0:
65,145,96206,1,0,0:0:0:0:
41,253,96388,1,0,0:0:0:0:
103,42,96570,5,10,0:0:0:0:
57,141,96752,1,0,0:0:0:0:
209,9,96934,1,0,0:0:0:0:
181,174,97115,6,0,B|234:202|284:169|284:169|323:179|323:179|378:161|428:204,1,239.999992675781,4|0,0:1|0:0,0:0:0:0:
353,289,97661,1,4,0:1:0:0:
421,86,97843,1,0,0:0:0:0:
433,205,98024,1,0,0:0:0:0:
344,77,98206,6,0,B|350:36|385:16|385:16|312:13|288:65|288:65|278:64|278:64|257:109|293:173,1,279.999991455078,12|0,0:1|0:0,0:0:0:0:
253,341,98752,1,4,0:2:0:0:
298,176,98934,1,0,0:0:0:0:
226,89,99115,1,0,0:0:0:0:
60,195,99297,6,0,B|41:232|-38:216|-19:113|70:106,1,200,4|0,0:1|0:0,0:0:0:0:
155,17,99843,1,4,0:2:0:0:
158,237,100024,1,0,0:0:0:0:
209,83,100206,1,0,0:0:0:0:
318,199,100388,6,0,B|265:227|265:227|256:266|256:266|195:302|195:302|226:279|232:240,1,239.999992675781,12|0,0:1|0:0,0:0:0:0:
191,100,100934,1,4,0:2:0:0:
247,355,101115,1,0,0:0:0:0:
348,177,101297,1,0,0:0:0:0:
482,352,101479,6,0,B|467:282|404:242|326:276|332:353|332:353|390:373|430:349|435:299|435:299|491:280|565:211|508:140|409:170|441:238|480:243|496:226,1,599.999981689454,4|0,0:1|0:0,0:0:0:0:
424,19,102570,5,12,0:1:0:0:
386,202,102752,1,0,0:0:0:0:
357,128,102934,1,0,0:0:0:0:
237,217,103115,6,0,B|195:213|162:181|173:147|173:147|200:144|222:123|222:123|204:144|214:186,1,200,4|0,0:1|0:0,0:0:0:0:
270,34,103661,2,0,B|272:112|352:170|418:161|444:77|444:77|437:83|437:83|392:42|323:63|318:121|318:121|389:202|344:284|344:284|359:230|325:195,1,699.999978637696,4|0,0:1|0:0,0:0:0:0:
216,127,104752,5,12,0:1:0:0:
269,294,104934,1,0,0:0:0:0:
208,348,105115,1,0,0:0:0:0:
380,348,105297,5,4,0:1:0:0:
222,220,105479,1,0,0:0:0:0:
490,106,105661,1,0,0:0:0:0:
362,282,105843,2,0,B|281:231|291:108|365:72|414:79|414:79|424:70|424:70|404:119|434:156|434:156|399:197|298:182|232:129|232:129|187:91|115:99|88:167|111:223|168:239|168:239|118:189|169:87|309:169|255:302,1,1119.99996582031,4|0,0:1|0:0,0:0:0:0:
186,357,107479,5,4,0:1:0:0:
168,162,107661,1,0,0:0:0:0:
6,288,107843,1,0,0:0:0:0:
210,308,108024,6,0,B|201:329|183:336|183:336|201:356|201:356|242:356|260:341|260:341|299:303|358:325,1,200,6|2,0:1|0:0,0:0:0:0:
487,381,108570,2,0,B|412:303|476:216|476:216|470:225|470:225|484:298,1,239.999992675781,4|0,0:1|0:0,0:0:0:0:
372,83,109115,5,12,0:1:0:0:
319,292,109297,1,0,0:0:0:0:
248,166,109479,1,0,0:0:0:0:
346,196,109661,5,4,0:1:0:0:
307,308,109843,1,0,0:0:0:0:
279,25,110024,1,0,0:0:0:0:
248,163,110206,2,0,B|203:174|130:186|63:152|43:79|82:14|82:14|83:33|83:33|147:36|191:79|196:144|171:192|171:192|83:229|96:332|152:355|152:355|195:326|203:295|203:295|198:278|198:278|280:337|320:262|384:282|384:282|456:277|500:379|373:445|311:351|342:298|384:283|384:283|447:246|441:172|428:119|428:119|410:34|491:-5|491:-5|484:29|509:59|509:59|483:134|435:143|435:143|358:161|264:117|245:12|245:12|291:48|356:22|356:22|335:79|348:129|348:129|351:161|378:208,1,2379.99992736817,4|0,0:2|0:0,0:0:0:0:
235,378,113479,5,12,0:1:0:0:
392,180,113661,1,0,0:0:0:0:
203,235,113843,1,0,0:0:0:0:
459,343,114024,2,0,P|420:271|450:158,1,139.999995727539,12|0,0:1|0:0,0:0:0:0:
501,88,114388,5,0,0:0:0:0:
377,0,114570,1,4,0:1:0:0:
13,15,132024,6,0,B|44:67|44:67|95:88,1,115,0|0,2:0|0:0,0:0:0:0:
230,166,134206,2,0,B|178:149|178:149|121:172,1,115,0|0,2:0|0:0,0:0:0:0:
47,284,136388,6,0,P|96:259|205:364,1,230,0|0,2:0|0:0,0:0:0:0:
352,324,138570,6,0,P|377:198|289:292,1,344.999989471436,0|0,2:0|0:0,0:0:0:0:
450,80,140752,6,0,B|431:141|466:184|466:184|500:237|479:308,1,230,0|0,2:0|0:0,0:0:0:0:
368,253,142934,2,0,B|296:243|274:191|274:191|282:227|264:252|264:252|296:258|309:282,1,230,0|0,2:0|0:0,0:0:0:0:
195,210,145115,6,0,L|200:92,1,115,0|0,2:0|0:0,0:0:0:0:
27,17,147297,6,0,P|61:24|60:133,1,164.9999949646,0|0,2:0|0:0,0:0:0:0:
44,373,148388,6,0,P|29:349|40:291,1,50,10|0,2:3|0:0,0:0:0:0:
71,228,148570,1,10,2:3:0:0:
90,232,148661,1,10,2:3:0:0:
103,245,148752,2,0,P|120:266|123:296,1,50,10|0,2:3|0:0,0:0:0:0:
222,357,148934,5,10,2:3:0:0:
226,336,149024,1,10,2:3:0:0:
236,321,149115,2,0,P|260:295|286:289,1,50,10|0,2:3|0:0,0:0:0:0:
386,258,149297,6,0,P|391:290|356:334,1,50,10|10,2:3|2:3,0:0:0:0:
264,148,149479,5,4,0:2:0:0:
293,114,149569,1,0,0:0:0:0:
335,101,149660,1,0,0:0:0:0:
378,112,149751,1,0,0:0:0:0:
408,144,149842,1,4,0:2:0:0:
451,157,149933,1,0,0:0:0:0:
493,142,150024,5,10,0:0:0:0:
460,113,150115,1,0,0:0:0:0:
416,109,150206,1,4,0:2:0:0:
378,132,150297,1,0,0:0:0:0:
360,172,150388,1,0,0:0:0:0:
370,216,150479,1,0,0:0:0:0:
403,245,150569,5,12,0:2:0:0:
416,203,150660,1,0,0:0:0:0:
397,163,150751,1,0,0:0:0:0:
356,148,150842,1,0,0:0:0:0:
315,164,150933,1,4,0:2:0:0:
279,189,151024,1,0,0:0:0:0:
235,183,151115,1,0,0:0:0:0:
206,150,151206,1,0,0:0:0:0:
203,107,151297,2,0,P|209:76|259:53,3,60,12|0|0|0,0:2|0:0|0:0|0:0,0:0:0:0:
343,7,151660,5,12,0:2:0:0:
319,44,151751,1,0,0:0:0:0:
324,88,151842,1,0,0:0:0:0:
356,119,151933,1,0,0:0:0:0:
400,123,152024,1,4,0:2:0:0:
437,99,152115,1,0,0:0:0:0:
450,57,152206,5,10,0:0:0:0:
408,68,152297,1,0,0:0:0:0:
386,106,152388,1,4,0:2:0:0:
399,148,152479,1,0,0:0:0:0:
415,185,152569,1,0,0:0:0:0:
404,227,152660,1,0,0:0:0:0:
367,251,152751,5,12,0:2:0:0:
355,200,152842,1,0,0:0:0:0:
315,164,152933,1,0,0:0:0:0:
262,157,153024,1,0,0:0:0:0:
215,182,153115,2,0,P|195:212|191:248,3,60,12|0|0|0,0:2|0:0|0:0|0:0,0:0:0:0:
267,350,153479,6,0,P|287:320|291:284,1,60,14|0,0:0|0:0,0:0:0:0:
156,107,153660,2,0,P|135:136|131:172,1,60,12|0,0:2|0:0,0:0:0:0:
92,330,153842,5,12,0:1:0:0:
65,318,153933,1,0,0:0:0:0:
42,299,154024,1,0,0:0:0:0:
28,273,154115,1,0,0:0:0:0:
24,243,154206,1,4,0:2:0:0:
32,214,154297,1,0,0:0:0:0:
76,157,154388,5,10,0:0:0:0:
106,158,154479,1,0,0:0:0:0:
133,146,154569,1,4,0:2:0:0:
153,124,154660,1,0,0:0:0:0:
162,96,154751,1,0,0:0:0:0:
158,66,154842,1,0,0:0:0:0:
116,7,154933,5,12,0:2:0:0:
93,26,155024,1,0,0:0:0:0:
81,53,155115,1,0,0:0:0:0:
83,83,155206,1,0,0:0:0:0:
97,109,155297,1,4,0:2:0:0:
117,131,155388,1,0,0:0:0:0:
126,159,155479,1,0,0:0:0:0:
123,189,155569,1,0,0:0:0:0:
84,249,155660,5,12,0:2:0:0:
98,249,155751,1,0,0:0:0:0:
113,253,155842,1,0,0:0:0:0:
126,260,155933,1,0,0:0:0:0:
171,317,156024,5,12,0:2:0:0:
188,292,156115,1,0,0:0:0:0:
213,276,156206,1,0,0:0:0:0:
242,269,156297,1,0,0:0:0:0:
272,273,156388,1,4,0:2:0:0:
298,287,156479,1,0,0:0:0:0:
343,349,156569,5,10,0:0:0:0:
329,355,156660,1,0,0:0:0:0:
315,360,156751,1,4,0:2:0:0:
300,361,156842,1,0,0:0:0:0:
285,360,156933,1,0,0:0:0:0:
271,357,157024,1,0,0:0:0:0:
200,361,157115,5,12,0:2:0:0:
222,341,157206,1,0,0:0:0:0:
234,314,157297,1,0,0:0:0:0:
235,284,157388,1,0,0:0:0:0:
228,254,157479,6,0,P|215:233|173:213,3,60,12|0|0|0,0:2|0:0|0:0|0:0,0:0:0:0:
40,182,157842,6,0,P|34:206|49:249,1,60,8|0,0:0|0:0,0:0:0:0:
298,278,158024,2,0,P|303:253|286:207,1,60,8|0,0:0|0:0,0:0:0:0:
196,74,158206,5,12,0:1:0:0:
231,48,158297,1,0,0:0:0:0:
274,55,158388,1,0,0:0:0:0:
300,90,158479,1,0,0:0:0:0:
337,113,158569,1,4,0:2:0:0:
380,103,158660,1,0,0:0:0:0:
403,66,158751,5,10,0:0:0:0:
366,90,158842,1,0,0:0:0:0:
353,132,158933,1,4,0:2:0:0:
370,172,159024,1,0,0:0:0:0:
410,192,159115,1,0,0:0:0:0:
453,182,159206,1,0,0:0:0:0:
479,147,159297,5,12,0:2:0:0:
435,139,159388,1,0,0:0:0:0:
397,161,159479,1,0,0:0:0:0:
381,202,159569,1,0,0:0:0:0:
396,244,159660,1,4,0:2:0:0:
407,287,159751,1,0,0:0:0:0:
390,327,159842,1,0,0:0:0:0:
351,348,159933,1,0,0:0:0:0:
307,341,160024,2,0,P|276:313|248:292,3,60,12|0|0|0,0:2|0:0|0:0|0:0,0:0:0:0:
113,191,160388,5,12,0:2:0:0:
144,221,160479,1,0,0:0:0:0:
188,226,160569,1,0,0:0:0:0:
226,204,160660,1,0,0:0:0:0:
260,175,160751,1,4,0:2:0:0:
304,172,160842,1,0,0:0:0:0:
341,196,160933,5,10,0:0:0:0:
317,233,161024,1,0,0:0:0:0:
276,253,161115,1,4,0:2:0:0:
232,248,161206,1,0,0:0:0:0:
197,221,161297,1,0,0:0:0:0:
181,179,161388,1,0,0:0:0:0:
190,135,161479,5,12,0:1:0:0:
237,159,161569,1,0,0:0:0:0:
287,143,161660,1,0,0:0:0:0:
314,98,161751,1,0,0:0:0:0:
302,46,161842,2,0,P|286:29|241:20,3,60,12|0|0|0,0:1|0:0|0:0|0:0,0:0:0:0:
60,21,162206,5,12,0:1:0:0:
98,41,162297,1,0,0:0:0:0:
108,83,162388,1,0,0:0:0:0:
83,119,162479,1,0,0:0:0:0:
40,124,162569,5,12,0:1:0:0:
92,99,162660,1,0,0:0:0:0:
142,128,162751,1,0,0:0:0:0:
148,185,162842,1,0,0:0:0:0:
160,241,162933,1,4,0:2:0:0:
214,262,163024,1,0,0:0:0:0:
261,228,163115,5,10,0:0:0:0:
292,277,163206,1,0,0:0:0:0:
350,287,163297,1,4,0:2:0:0:
396,251,163388,1,0,0:0:0:0:
452,234,163479,1,0,0:0:0:0:
501,265,163569,1,0,0:0:0:0:
511,322,163660,5,12,0:2:0:0:
467,313,163751,1,0,0:0:0:0:
435,282,163842,1,0,0:0:0:0:
424,239,163933,1,0,0:0:0:0:
439,197,164024,1,4,0:2:0:0:
458,157,164115,1,0,0:0:0:0:
454,113,164206,1,0,0:0:0:0:
426,78,164297,1,0,0:0:0:0:
384,64,164388,2,0,P|350:70|322:101,3,60,12|0|0|0,0:2|0:0|0:0|0:0,0:0:0:0:
304,299,164751,6,0,P|323:270|321:228,1,60,10|0,0:0|0:0,0:0:0:0:
189,61,164933,1,8,0:0:0:0:
146,74,165024,1,8,0:0:0:0:
127,115,165115,1,8,0:0:0:0:
96,148,165206,1,8,0:0:0:0:
96,193,165297,2,0,P|83:226|87:254,1,60,10|0,0:0|0:0,0:0:0:0:
212,372,165479,5,8,0:0:0:0:
255,362,165569,1,8,0:0:0:0:
266,318,165660,1,8,0:0:0:0:
303,293,165751,1,8,0:0:0:0:
312,248,165842,2,0,P|326:224|326:172,1,60,10|0,0:0|0:0,0:0:0:0:
408,26,166024,5,8,0:0:0:0:
411,70,166115,1,8,0:0:0:0:
443,101,166206,1,8,0:0:0:0:
435,145,166297,1,8,0:0:0:0:
449,187,166388,2,0,P|446:225|431:257,1,60,10|0,0:0|0:0,0:0:0:0:
276,348,166569,5,8,0:0:0:0:
266,304,166660,1,8,0:0:0:0:
229,276,166751,1,8,0:0:0:0:
226,231,166842,1,8,0:0:0:0:
188,206,166933,2,0,L|151:137,1,60,6|0,0:0|0:0,0:0:0:0:
103,16,167115,5,0,0:0:0:0:
108,45,167206,1,0,0:0:0:0:
100,73,167297,1,4,0:2:0:0:
79,94,167388,1,0,0:0:0:0:
10,114,167479,5,10,0:0:0:0:
37,124,167569,1,0,0:0:0:0:
59,144,167660,1,4,0:2:0:0:
72,171,167751,1,0,0:0:0:0:
74,201,167842,1,0,0:0:0:0:
64,229,167933,1,0,0:0:0:0:
9,275,168024,5,12,0:2:0:0:
31,293,168115,1,0,0:0:0:0:
60,301,168206,1,0,0:0:0:0:
90,297,168297,1,0,0:0:0:0:
115,281,168388,1,4,0:2:0:0:
139,264,168479,1,0,0:0:0:0:
168,257,168569,1,0,0:0:0:0:
198,261,168660,1,0,0:0:0:0:
222,271,168751,2,0,P|240:298|284:325,3,60,12|0|0|0,0:2|0:0|0:0|0:0,0:0:0:0:
430,363,169115,5,12,0:2:0:0:
386,357,169206,1,0,0:0:0:0:
353,327,169297,1,0,0:0:0:0:
345,284,169388,1,0,0:0:0:0:
365,244,169479,1,4,0:2:0:0:
404,224,169569,1,0,0:0:0:0:
448,231,169660,5,10,0:0:0:0:
405,243,169751,1,0,0:0:0:0:
364,227,169842,1,4,0:2:0:0:
339,191,169933,1,0,0:0:0:0:
339,146,170024,1,0,0:0:0:0:
366,111,170115,1,0,0:0:0:0:
408,97,170206,5,12,0:2:0:0:
381,51,170297,1,0,0:0:0:0:
332,29,170388,1,0,0:0:0:0:
280,40,170479,1,0,0:0:0:0:
244,78,170569,2,0,P|229:107|233:141,3,60,12|0|0|0,0:2|0:0|0:0|0:0,0:0:0:0:
276,273,170933,6,0,P|301:253|311:220,1,60,12|0,0:1|0:0,0:0:0:0:
162,51,171115,2,0,P|136:70|126:103,1,60,12|0,0:1|0:0,0:0:0:0:
10,211,171297,5,12,0:2:0:0:
7,255,171388,1,0,0:0:0:0:
26,295,171479,1,0,0:0:0:0:
61,322,171569,1,0,0:0:0:0:
105,329,171660,1,4,0:2:0:0:
147,314,171751,1,0,0:0:0:0:
177,280,171842,5,10,0:0:0:0:
184,323,171933,1,0,0:0:0:0:
216,354,172024,1,4,0:2:0:0:
260,358,172115,1,0,0:0:0:0:
297,335,172206,1,0,0:0:0:0:
313,294,172297,1,0,0:0:0:0:
301,251,172388,5,12,0:2:0:0:
278,270,172479,1,0,0:0:0:0:
266,297,172569,1,0,0:0:0:0:
267,327,172660,1,0,0:0:0:0:
281,353,172751,1,4,0:2:0:0:
306,370,172842,1,0,0:0:0:0:
335,374,172933,1,0,0:0:0:0:
364,364,173024,1,0,0:0:0:0:
415,313,173115,5,12,0:2:0:0:
404,302,173206,1,0,0:0:0:0:
396,289,173297,1,0,0:0:0:0:
392,275,173388,1,0,0:0:0:0:
394,203,173479,5,12,0:2:0:0:
377,227,173569,1,0,0:0:0:0:
351,243,173660,1,0,0:0:0:0:
322,246,173751,1,0,0:0:0:0:
293,238,173842,1,4,0:2:0:0:
271,219,173933,1,0,0:0:0:0:
199,228,174024,5,10,0:0:0:0:
209,217,174115,1,0,0:0:0:0:
217,204,174206,1,4,0:2:0:0:
220,190,174297,1,0,0:0:0:0:
220,175,174388,1,0,0:0:0:0:
215,161,174479,1,0,0:0:0:0:
230,89,174569,5,12,0:2:0:0:
260,88,174660,1,0,0:0:0:0:
288,98,174751,1,0,0:0:0:0:
309,120,174842,1,0,0:0:0:0:
387,105,174933,5,12,0:2:0:0:
371,130,175024,1,0,0:0:0:0:
367,159,175115,1,0,0:0:0:0:
376,188,175206,1,0,0:0:0:0:
397,209,175297,2,0,P|419:222|432:284,3,60,12|0|0|0,0:2|0:0|0:0|0:0,0:0:0:0:
310,338,175660,5,12,0:2:0:0:
266,330,175751,1,0,0:0:0:0:
231,302,175842,1,0,0:0:0:0:
217,260,175933,1,0,0:0:0:0:
225,216,176024,1,4,0:2:0:0:
255,183,176115,1,0,0:0:0:0:
298,170,176206,5,10,0:0:0:0:
295,214,176297,1,0,0:0:0:0:
264,245,176388,1,4,0:2:0:0:
220,246,176479,1,0,0:0:0:0:
174,237,176569,1,0,0:0:0:0:
135,256,176660,1,0,0:0:0:0:
115,296,176751,5,12,0:2:0:0:
156,279,176842,1,0,0:0:0:0:
175,239,176933,1,0,0:0:0:0:
162,197,177024,1,0,0:0:0:0:
125,174,177115,1,4,0:2:0:0:
97,139,177206,1,0,0:0:0:0:
93,95,177297,1,0,0:0:0:0:
116,57,177388,1,0,0:0:0:0:
157,40,177479,2,0,P|184:40|216:61,3,60,12|0|0|0,0:2|0:0|0:0|0:0,0:0:0:0:
241,206,177842,5,12,0:2:0:0:
278,182,177933,1,0,0:0:0:0:
323,188,178024,1,0,0:0:0:0:
352,221,178115,1,0,0:0:0:0:
384,251,178206,1,4,0:2:0:0:
428,247,178297,1,0,0:0:0:0:
456,213,178388,5,10,0:0:0:0:
411,212,178479,1,0,0:0:0:0:
371,231,178569,1,4,0:2:0:0:
345,268,178660,1,0,0:0:0:0:
337,311,178751,1,0,0:0:0:0:
351,354,178842,1,0,0:0:0:0:
383,384,178933,5,12,0:1:0:0:
381,326,179024,1,0,0:0:0:0:
342,282,179115,1,0,0:0:0:0:
284,273,179206,1,0,0:0:0:0:
234,304,179297,5,12,0:1:0:0:
222,247,179388,1,0,0:0:0:0:
179,207,179479,1,0,0:0:0:0:
121,200,179569,1,0,0:0:0:0:
70,229,179660,2,0,P|39:234|14:223,3,60,12|0|0|0,0:2|0:0|0:0|0:0,0:0:0:0:
1,109,180024,5,12,0:1:0:0:
39,130,180115,1,0,0:0:0:0:
82,124,180206,1,0,0:0:0:0:
112,91,180297,1,0,0:0:0:0:
142,59,180388,1,4,0:2:0:0:
186,55,180479,1,0,0:0:0:0:
220,82,180569,5,8,0:0:0:0:
256,55,180660,1,0,0:0:0:0:
300,51,180751,1,4,0:2:0:0:
339,71,180842,1,0,0:0:0:0:
362,110,180933,1,0,0:0:0:0:
360,154,181024,1,0,0:0:0:0:
335,191,181115,5,12,0:2:0:0:
342,162,181206,1,0,0:0:0:0:
336,133,181297,1,0,0:0:0:0:
318,109,181388,1,0,0:0:0:0:
292,94,181479,1,4,0:2:0:0:
262,93,181569,1,0,0:0:0:0:
235,104,181660,1,0,0:0:0:0:
215,126,181751,1,0,0:0:0:0:
205,154,181842,2,0,P|202:187|257:232,3,60,12|0|0|0,0:2|0:0|0:0|0:0,0:0:0:0:
306,362,182206,5,10,0:0:0:0:
350,353,182297,1,8,2:0:0:0:
373,314,182388,1,8,2:0:0:0:
410,289,182479,1,8,2:0:0:0:
412,244,182569,1,8,2:0:0:0:
437,207,182660,1,8,2:0:0:0:
426,169,182751,6,0,P|402:137|399:91,1,60,2|8,0:0|2:0,0:0:0:0:
340,11,182933,2,0,P|316:43|274:60,1,60,2|2,0:0|0:0,0:0:0:0:
129,67,183115,5,8,2:0:0:0:
82,94,183206,1,8,2:0:0:0:
96,132,183297,1,10,0:0:0:0:
66,165,183388,1,8,2:0:0:0:
104,188,183479,1,8,2:0:0:0:
91,231,183569,1,8,2:0:0:0:
132,248,183660,1,8,0:0:0:0:
145,286,183751,1,8,0:0:0:0:
180,281,183842,1,8,0:0:0:0:
199,305,183933,1,8,0:0:0:0:
223,294,184024,1,8,0:0:0:0:
249,290,184115,1,8,0:0:0:0:
255,263,184206,1,8,0:0:0:0:
275,254,184297,1,8,0:0:0:0:
353,263,184388,5,6,0:0:0:0:
354,320,184479,1,8,0:0:0:0:
313,363,184569,1,0,0:0:0:0:
254,364,184660,1,8,0:0:0:0:
213,324,184751,1,2,0:0:0:0:
211,265,184842,1,8,0:0:0:0:
252,223,184933,1,0,0:0:0:0:
276,170,185024,1,8,0:0:0:0:
261,113,185115,1,2,0:0:0:0:
219,78,185206,1,8,0:0:0:0:
170,77,185297,1,0,0:0:0:0:
133,97,185388,1,8,0:0:0:0:
115,127,185479,1,2,0:0:0:0:
115,157,185569,1,8,0:0:0:0:
126,179,185660,1,0,0:0:0:0:
140,189,185751,1,8,0:0:0:0:
157,192,185842,1,2,0:0:0:0:
174,187,185933,1,8,0:0:0:0:
184,172,186024,1,0,0:0:0:0:
184,153,186115,1,8,0:0:0:0:
170,141,186206,1,2,0:0:0:0:
152,144,186297,1,8,0:0:0:0:
140,157,186388,1,0,0:0:0:0:
140,175,186479,1,8,0:0:0:0:
125,244,186569,5,2,0:0:0:0:
174,210,186660,1,8,0:0:0:0:
233,210,186751,1,0,0:0:0:0:
282,242,186842,1,8,0:0:0:0:
304,297,186933,1,2,0:0:0:0:
355,328,187024,1,8,0:0:0:0:
413,323,187115,1,0,0:0:0:0:
457,284,187206,1,8,0:0:0:0:
472,225,187297,1,2,0:0:0:0:
427,206,187388,1,8,0:0:0:0:
405,178,187479,1,0,0:0:0:0:
401,153,187569,1,8,0:0:0:0:
400,69,187660,5,2,0:0:0:0:
398,94,187751,1,8,0:0:0:0:
390,116,187842,1,0,0:0:0:0:
375,135,187933,1,8,0:0:0:0:
352,211,188024,5,2,0:0:0:0:
330,183,188115,1,8,0:0:0:0:
299,166,188206,1,0,0:0:0:0:
263,165,188297,1,8,0:0:0:0:
232,183,188388,2,0,P|209:214|167:244,3,60,2|8|0|8,0:0|0:0|0:0|0:0,0:0:0:0:
41,331,188751,5,4,0:1:0:0:
76,373,188842,1,8,0:0:0:0:
135,377,188933,1,0,0:0:0:0:
174,333,189024,1,8,0:0:0:0:
169,276,189115,1,2,0:0:0:0:
122,242,189206,1,8,0:0:0:0:
66,255,189297,1,0,0:0:0:0:
15,224,189388,1,8,0:0:0:0:
0,168,189479,1,2,0:0:0:0:
26,116,189569,1,8,0:0:0:0:
81,95,189660,1,0,0:0:0:0:
135,119,189751,1,8,0:0:0:0:
160,172,189842,1,2,0:0:0:0:
208,204,189933,1,8,0:0:0:0:
264,190,190024,1,0,0:0:0:0:
292,139,190115,1,8,0:0:0:0:
272,84,190206,1,2,0:0:0:0:
227,66,190297,1,8,0:0:0:0:
192,77,190388,1,0,0:0:0:0:
180,98,190479,1,8,0:0:0:0:
184,116,190569,2,0,P|201:146|216:200,3,60,2|8|0|8,0:0|0:0|0:0|0:0,0:0:0:0:
205,340,190933,5,2,0:0:0:0:
224,284,191024,1,8,0:0:0:0:
272,251,191115,1,0,0:0:0:0:
331,253,191206,1,8,0:0:0:0:
377,290,191297,1,2,0:0:0:0:
432,310,191388,1,8,0:0:0:0:
486,290,191479,1,0,0:0:0:0:
512,238,191569,1,8,0:0:0:0:
502,181,191660,1,2,0:0:0:0:
463,152,191751,1,8,0:0:0:0:
426,151,191842,1,0,0:0:0:0:
405,163,191933,1,8,0:0:0:0:
434,235,192024,5,2,0:0:0:0:
402,190,192115,1,8,0:0:0:0:
344,185,192206,1,0,0:0:0:0:
298,221,192297,1,8,0:0:0:0:
289,278,192388,1,2,0:0:0:0:
250,322,192479,1,8,0:0:0:0:
192,327,192569,1,0,0:0:0:0:
146,290,192660,1,8,0:0:0:0:
137,232,192751,2,0,P|148:207|202:189,1,60,4|8,0:2|0:0,0:0:0:0:
353,244,192933,2,0,P|363:275|346:324,1,60,6|8,0:2|0:0,0:0:0:0:
293,61,193115,5,6,0:0:0:0:
249,21,193206,1,8,0:0:0:0:
191,25,193297,1,0,0:0:0:0:
153,70,193388,1,8,0:0:0:0:
159,128,193479,1,2,0:0:0:0:
205,164,193569,1,8,0:0:0:0:
263,156,193660,1,0,0:0:0:0:
321,146,193751,1,8,0:0:0:0:
367,180,193842,1,2,0:0:0:0:
374,238,193933,1,8,0:0:0:0:
337,283,194024,1,0,0:0:0:0:
279,287,194115,1,8,0:0:0:0:
236,247,194206,1,2,0:0:0:0:
182,225,194297,1,8,0:0:0:0:
128,248,194388,1,0,0:0:0:0:
106,303,194479,1,8,0:0:0:0:
129,356,194569,1,2,0:0:0:0:
179,376,194660,1,8,0:0:0:0:
224,360,194751,1,0,0:0:0:0:
243,323,194842,1,8,0:0:0:0:
232,288,194933,1,2,0:0:0:0:
205,273,195024,1,8,0:0:0:0:
181,278,195115,1,0,0:0:0:0:
171,293,195206,1,8,0:0:0:0:
112,341,195297,5,2,0:0:0:0:
139,275,195388,1,8,0:0:0:0:
90,224,195479,1,0,0:0:0:0:
27,186,195569,1,8,0:0:0:0:
14,114,195660,1,2,0:0:0:0:
56,61,195751,1,8,0:0:0:0:
115,57,195842,1,0,0:0:0:0:
157,87,195933,1,8,0:0:0:0:
164,131,196024,1,2,0:0:0:0:
147,164,196115,1,8,0:0:0:0:
118,172,196206,1,0,0:0:0:0:
99,159,196297,1,8,0:0:0:0:
24,143,196388,5,2,0:0:0:0:
0,211,196479,1,8,0:0:0:0:
35,275,196569,1,0,0:0:0:0:
107,290,196660,1,8,0:0:0:0:
165,246,196751,1,2,0:0:0:0:
213,212,196842,1,8,0:0:0:0:
257,220,196933,1,0,0:0:0:0:
274,244,197024,1,8,0:0:0:0:
272,327,197115,5,2,0:0:0:0:
277,311,197206,1,8,0:0:0:0:
285,298,197297,1,0,0:0:0:0:
296,288,197388,1,8,0:0:0:0:
377,294,197479,5,2,0:0:0:0:
343,358,197569,1,8,0:0:0:0:
273,376,197660,1,0,0:0:0:0:
212,335,197751,1,8,0:0:0:0:
203,263,197842,1,2,0:0:0:0:
251,208,197933,1,8,0:0:0:0:
324,208,198024,1,0,0:0:0:0:
387,172,198115,1,8,0:0:0:0:
401,101,198206,1,2,0:0:0:0:
358,48,198297,1,8,0:0:0:0:
298,40,198388,1,0,0:0:0:0:
257,74,198479,1,8,0:0:0:0:
297,137,198569,5,2,0:0:0:0:
259,113,198660,1,8,0:0:0:0:
215,111,198751,1,0,0:0:0:0:
176,133,198842,1,8,0:0:0:0:
154,171,198933,1,2,0:0:0:0:
125,195,199024,1,8,0:0:0:0:
95,199,199115,1,0,0:0:0:0:
74,190,199206,1,8,0:0:0:0:
59,172,199297,1,2,0:0:0:0:
53,149,199388,1,8,0:0:0:0:
59,127,199479,1,0,0:0:0:0:
73,110,199569,1,8,0:0:0:0:
82,35,199660,5,4,0:2:0:0:
114,83,199751,1,0,0:0:0:0:
171,94,199842,1,0,0:0:0:0:
219,60,199933,1,0,0:0:0:0:
266,26,200024,1,4,0:2:0:0:
323,36,200115,1,0,0:0:0:0:
396,16,200206,5,8,0:0:0:0:
374,36,200297,1,0,0:0:0:0:
362,64,200388,1,4,0:2:0:0:
362,93,200479,1,0,0:0:0:0:
370,122,200569,2,0,P|403:151|434:183,1,75
491,299,200751,5,12,0:2:0:0:
438,348,200842,1,0,0:0:0:0:
366,340,200933,1,0,0:0:0:0:
326,279,201024,1,0,0:0:0:0:
354,200,201115,5,8,0:0:0:0:
310,193,201206,1,8,0:0:0:0:
269,211,201297,1,8,0:0:0:0:
244,247,201388,1,8,0:0:0:0:
239,331,201479,5,8,0:0:0:0:
230,302,201569,1,8,0:0:0:0:
212,278,201660,1,8,0:0:0:0:
187,262,201751,1,8,0:0:0:0:
109,272,201842,5,4,0:2:0:0:
65,234,201933,1,8,0:0:0:0:
59,176,202024,1,0,0:0:0:0:
97,131,202115,1,8,0:0:0:0:
155,125,202206,1,2,0:0:0:0:
201,161,202297,1,8,0:0:0:0:
208,219,202388,1,0,0:0:0:0:
253,256,202479,1,8,0:0:0:0:
311,249,202569,1,2,0:0:0:0:
347,203,202660,1,8,0:0:0:0:
339,145,202751,1,0,0:0:0:0:
292,110,202842,1,8,0:0:0:0:
235,119,202933,5,2,0:0:0:0:
266,168,203024,1,8,0:0:0:0:
323,181,203115,1,0,0:0:0:0:
373,151,203206,1,8,0:0:0:0:
387,94,203297,1,2,0:0:0:0:
420,59,203388,1,8,0:0:0:0:
455,55,203479,1,0,0:0:0:0:
475,67,203569,1,8,0:0:0:0:
484,82,203660,2,0,P|465:111|469:167,3,60,2|8|0|8,0:0|0:0|0:0|0:0,0:0:0:0:
506,299,204024,5,2,0:0:0:0:
482,245,204115,1,8,0:0:0:0:
427,229,204206,1,0,0:0:0:0:
378,261,204297,1,8,0:0:0:0:
372,319,204388,1,2,0:0:0:0:
335,364,204479,1,8,0:0:0:0:
277,373,204569,1,0,0:0:0:0:
227,342,204660,1,8,0:0:0:0:
210,286,204751,1,2,0:0:0:0:
228,242,204842,1,8,0:0:0:0:
258,223,204933,1,0,0:0:0:0:
282,223,205024,1,8,0:0:0:0:
326,286,205115,5,2,0:0:0:0:
302,232,205206,1,8,0:0:0:0:
325,178,205297,1,0,0:0:0:0:
380,157,205388,1,8,0:0:0:0:
447,115,205479,5,2,0:0:0:0:
393,139,205569,1,8,0:0:0:0:
339,117,205660,1,0,0:0:0:0:
318,62,205751,1,8,0:0:0:0:
252,19,205842,5,2,0:0:0:0:
261,33,205933,1,8,0:0:0:0:
267,51,206024,1,0,0:0:0:0:
266,68,206115,1,8,0:0:0:0:
303,142,206206,5,4,0:1:0:0:
243,99,206297,1,8,0:0:0:0:
173,118,206388,1,0,0:0:0:0:
142,184,206479,1,8,0:0:0:0:
174,249,206569,1,2,0:0:0:0:
244,267,206660,1,8,0:0:0:0:
304,226,206751,1,0,0:0:0:0:
372,201,206842,1,8,0:0:0:0:
435,237,206933,1,2,0:0:0:0:
448,308,207024,1,8,0:0:0:0:
401,364,207115,1,0,0:0:0:0:
329,364,207206,1,8,0:0:0:0:
282,309,207297,5,2,0:0:0:0:
297,252,207388,1,8,0:0:0:0:
269,200,207479,1,0,0:0:0:0:
213,182,207569,1,8,0:0:0:0:
160,206,207660,1,2,0:0:0:0:
103,223,207751,1,8,0:0:0:0:
47,206,207842,1,0,0:0:0:0:
8,161,207933,1,8,0:0:0:0:
1,102,208024,1,2,0:0:0:0:
26,49,208115,1,8,0:0:0:0:
77,18,208206,1,0,0:0:0:0:
136,20,208297,1,8,0:0:0:0:
184,53,208388,5,2,0:0:0:0:
226,31,208479,1,8,0:0:0:0:
273,35,208569,1,0,0:0:0:0:
310,65,208660,1,8,0:0:0:0:
324,110,208751,1,2,0:0:0:0:
360,131,208842,1,8,0:0:0:0:
396,129,208933,1,0,0:0:0:0:
415,114,209024,1,8,0:0:0:0:
421,93,209115,2,0,P|422:62|381:24,3,75,2|8|0|8,0:0|0:0|0:0|0:0,0:0:0:0:
217,3,209479,5,4,0:1:0:0:
148,29,209569,1,8,0:0:0:0:
119,96,209660,1,0,0:0:0:0:
147,163,209751,1,8,0:0:0:0:
189,179,209842,1,4,0:1:0:0:
225,172,209933,1,8,0:0:0:0:
247,151,210024,5,0,0:0:0:0:
186,122,210115,1,8,0:0:0:0:
127,135,210206,1,4,0:1:0:0:
92,174,210297,1,8,0:0:0:0:
86,218,210388,1,0,0:0:0:0:
101,252,210479,1,8,0:0:0:0:
117,332,210569,5,4,0:1:0:0:
135,261,210660,1,8,0:0:0:0:
198,224,210751,1,0,0:0:0:0:
269,242,210842,1,8,0:0:0:0:
306,305,210933,1,2,0:0:0:0:
366,347,211024,1,8,0:0:0:0:
438,334,211115,1,0,0:0:0:0:
477,272,211206,1,8,0:0:0:0:
460,201,211297,1,2,0:0:0:0:
396,165,211388,1,8,0:0:0:0:
326,186,211479,1,0,0:0:0:0:
258,162,211569,1,8,0:0:0:0:
232,94,211660,1,2,0:0:0:0:
264,34,211751,1,8,0:0:0:0:
322,19,211842,1,0,0:0:0:0:
368,43,211933,1,8,0:0:0:0:
382,85,212024,1,2,0:0:0:0:
366,118,212115,1,8,0:0:0:0:
336,125,212206,1,0,0:0:0:0:
318,110,212297,1,8,0:0:0:0:
315,95,212388,2,0,P|350:112|381:155,3,75,2|8|0|8,0:0|0:0|0:0|0:0,0:0:0:0:
439,276,212751,5,2,0:0:0:0:
395,217,212842,1,8,0:0:0:0:
323,205,212933,1,0,0:0:0:0:
263,246,213024,1,8,0:0:0:0:
249,318,213115,1,2,0:0:0:0:
194,367,213206,1,8,0:0:0:0:
121,366,213297,1,0,0:0:0:0:
66,318,213388,1,8,0:0:0:0:
57,245,213479,1,2,0:0:0:0:
91,195,213569,1,8,0:0:0:0:
133,179,213660,1,0,0:0:0:0:
162,185,213751,1,8,0:0:0:0:
186,263,213842,5,2,0:0:0:0:
198,191,213933,1,8,0:0:0:0:
262,157,214024,1,0,0:0:0:0:
328,186,214115,1,8,0:0:0:0:
347,256,214206,1,2,0:0:0:0:
402,301,214297,1,8,0:0:0:0:
469,277,214388,1,0,0:0:0:0:
483,207,214479,1,8,0:0:0:0:
449,123,214569,5,2,0:0:0:0:
452,144,214660,1,8,0:0:0:0:
447,166,214751,1,0,0:0:0:0:
434,184,214842,1,8,0:0:0:0:
395,258,214933,5,2,0:0:0:0:
389,187,215024,1,8,0:0:0:0:
322,163,215115,1,0,0:0:0:0:
271,212,215206,1,8,0:0:0:0:
294,280,215297,1,2,0:0:0:0:
258,343,215388,1,8,0:0:0:0:
187,362,215479,1,0,0:0:0:0:
123,326,215569,1,8,0:0:0:0:
103,256,215660,1,2,0:0:0:0:
135,196,215751,1,8,0:0:0:0:
191,176,215842,1,0,0:0:0:0:
229,140,215933,1,8,0:0:0:0:
236,95,216024,1,2,0:0:0:0:
214,64,216115,1,8,0:0:0:0:
184,58,216206,1,0,0:0:0:0:
165,71,216297,1,8,0:0:0:0:
152,90,216388,2,0,P|182:115|191:175,3,75,2|8|0|8,0:0|0:0|0:0|0:0,0:0:0:0:
265,299,216751,2,0,P|303:288|320:222,3,75,2|8|0|8,0:0|0:0|0:0|0:0,0:0:0:0:
312,31,217115,5,4,0:0:0:0:
322,50,217183,1,8,2:0:0:0:
333,69,217251,1,8,2:0:0:0:
344,88,217319,1,8,2:0:0:0:
372,96,217387,5,8,2:0:0:0:
368,110,217455,1,8,2:0:0:0:
364,124,217524,1,8,2:0:0:0:
360,138,217592,1,8,2:0:0:0:
344,153,217660,6,0,L|370:215,3,56.2500021457673,0|8|8|8,0:0|0:3|0:3|0:3,0:0:0:0:
337,351,217933,2,0,L|274:325,3,56.2500021457673,8|8|8|0,0:0|0:0|0:0|0:0,0:0:0:0:
100,302,218205,5,0,0:0:0:0:
84,259,218274,1,0,0:0:0:0:
115,232,218342,1,0,0:0:0:0:
98,198,218410,1,8,0:0:0:0:
126,179,218478,1,8,0:0:0:0:
114,151,218546,1,8,0:0:0:0:
134,134,218615,1,8,0:0:0:0:
127,112,218683,1,8,0:0:0:0:
138,97,218751,2,0,P|164:83|199:78,3,56.2500021457673,8|8|8|8,0:0|0:0|0:0|0:0,0:0:0:0:
339,84,219024,2,0,P|333:113|309:140,3,56.2500021457673,8|8|8|8,0:0|0:0|0:0|0:0,0:0:0:0:
263,249,219296,5,4,2:1:0:0:
462,186,221478,6,0,B|456:152|456:152|477:124|477:124|482:155|503:176|503:176|504:234|465:256|465:256|427:278|411:346,1,300,4|0,0:2|0:0,0:0:0:0:
337,368,222569,6,0,B|315:308|259:295|259:295|261:305|261:305|211:275|145:308,1,225,4|0,0:1|0:0,0:0:0:0:
6,199,223115,5,2,0:0:0:0:
31,205,223183,1,8,0:0:0:0:
57,203,223251,1,2,0:0:0:0:
82,195,223319,1,8,0:0:0:0:
103,180,223387,1,2,0:0:0:0:
119,159,223455,1,8,0:0:0:0:
129,135,223524,1,2,0:0:0:0:
132,109,223592,1,8,0:0:0:0:
127,82,223660,5,4,0:1:0:0:
82,108,223728,1,8,0:0:0:0:
59,154,223796,1,0,0:0:0:0:
67,205,223865,1,8,0:0:0:0:
102,243,223933,1,2,0:0:0:0:
152,255,224001,1,8,0:0:0:0:
201,237,224069,1,0,0:0:0:0:
230,194,224137,1,8,0:0:0:0:
226,142,224205,1,2,0:0:0:0:
216,91,224274,1,8,0:0:0:0:
236,44,224342,1,0,0:0:0:0:
280,16,224410,1,8,0:0:0:0:
331,19,224478,1,2,0:0:0:0:
372,50,224546,1,8,0:0:0:0:
389,99,224615,1,0,0:0:0:0:
374,148,224683,1,8,0:0:0:0:
334,181,224751,2,0,P|303:186|268:176,3,52.4999983978272,2|8|0|8,0:0|0:0|0:0|0:0,0:0:0:0:
190,211,225024,2,0,P|164:192|146:160,3,52.4999983978272,2|8|0|8,0:0|0:0|0:0|0:0,0:0:0:0:
7,313,225296,5,2,0:0:0:0:
30,302,225365,1,8,0:0:0:0:
50,286,225433,1,0,0:0:0:0:
66,264,225501,1,8,0:0:0:0:
76,240,225569,1,2,0:0:0:0:
80,214,225637,1,8,0:0:0:0:
77,188,225705,1,0,0:0:0:0:
68,164,225774,1,8,0:0:0:0:
54,142,225842,5,2,0:0:0:0:
31,187,225910,1,8,0:0:0:0:
39,238,225978,1,0,0:0:0:0:
74,277,226046,1,8,0:0:0:0:
124,289,226115,1,2,0:0:0:0:
173,271,226183,1,8,0:0:0:0:
203,230,226251,1,0,0:0:0:0:
205,178,226319,1,8,0:0:0:0:
178,134,226387,1,2,0:0:0:0:
171,88,226455,1,8,0:0:0:0:
187,50,226524,1,0,0:0:0:0:
216,29,226592,1,8,0:0:0:0:
247,25,226660,1,2,0:0:0:0:
271,34,226728,1,8,0:0:0:0:
285,50,226796,1,0,0:0:0:0:
290,65,226865,1,8,0:0:0:0:
288,81,226933,5,2,0:0:0:0:
335,60,227001,1,8,0:0:0:0:
386,69,227069,1,0,0:0:0:0:
424,104,227137,1,8,0:0:0:0:
436,154,227205,1,2,0:0:0:0:
419,203,227274,1,8,0:0:0:0:
378,234,227342,1,0,0:0:0:0:
326,238,227410,1,8,0:0:0:0:
281,212,227478,5,2,0:0:0:0:
336,184,227546,1,8,0:0:0:0:
397,195,227615,1,0,0:0:0:0:
438,241,227683,1,8,0:0:0:0:
442,303,227751,1,2,0:0:0:0:
407,354,227819,1,8,0:0:0:0:
348,372,227887,1,0,0:0:0:0:
290,351,227955,1,8,0:0:0:0:
257,298,228024,5,2,0:0:0:0:
306,283,228092,1,8,0:0:0:0:
332,239,228160,1,0,0:0:0:0:
319,189,228228,1,8,0:0:0:0:
277,161,228296,1,2,0:0:0:0:
251,116,228365,1,8,0:0:0:0:
261,66,228433,1,0,0:0:0:0:
301,34,228501,1,8,0:0:0:0:
353,35,228569,5,2,0:0:0:0:
368,84,228637,1,8,0:0:0:0:
343,128,228705,1,0,0:0:0:0:
293,140,228774,1,8,0:0:0:0:
241,141,228842,1,2,0:0:0:0:
201,173,228910,1,8,0:0:0:0:
188,223,228978,1,0,0:0:0:0:
209,270,229046,1,8,0:0:0:0:
256,292,229115,5,2,0:0:0:0:
260,251,229183,1,8,0:0:0:0:
242,214,229251,1,0,0:0:0:0:
207,192,229319,1,8,0:0:0:0:
165,192,229387,1,2,0:0:0:0:
124,198,229455,1,8,0:0:0:0:
85,184,229524,1,0,0:0:0:0:
58,152,229592,1,8,0:0:0:0:
49,112,229660,5,2,0:0:0:0:
80,114,229728,1,8,0:0:0:0:
108,127,229796,1,0,0:0:0:0:
128,151,229865,1,8,0:0:0:0:
138,181,229933,1,2,0:0:0:0:
134,212,230001,1,8,0:0:0:0:
118,239,230069,1,0,0:0:0:0:
93,257,230137,1,8,0:0:0:0:
63,264,230205,5,2,0:0:0:0:
73,224,230274,1,8,0:0:0:0:
105,198,230342,1,0,0:0:0:0:
147,195,230410,1,8,0:0:0:0:
182,217,230478,1,2,0:0:0:0:
209,249,230546,1,8,0:0:0:0:
247,264,230615,1,0,0:0:0:0:
288,259,230683,1,8,0:0:0:0:
322,235,230751,5,2,0:0:0:0:
291,239,230819,1,8,0:0:0:0:
261,231,230887,1,0,0:0:0:0:
236,212,230955,1,8,0:0:0:0:
221,184,231024,1,2,0:0:0:0:
213,154,231092,1,8,0:0:0:0:
194,129,231160,1,0,0:0:0:0:
168,112,231228,1,8,0:0:0:0:
137,107,231296,5,2,0:0:0:0:
155,144,231365,1,8,0:0:0:0:
190,167,231433,1,0,0:0:0:0:
232,167,231501,1,8,0:0:0:0:
268,147,231569,1,2,0:0:0:0:
305,119,231637,1,8,0:0:0:0:
346,114,231705,1,0,0:0:0:0:
385,130,231774,1,8,0:0:0:0:
411,163,231842,5,2,0:0:0:0:
360,155,231910,1,8,0:0:0:0:
313,178,231978,1,0,0:0:0:0:
287,222,232046,1,8,0:0:0:0:
291,274,232115,1,2,0:0:0:0:
324,314,232183,1,8,0:0:0:0:
373,329,232251,1,0,0:0:0:0:
423,313,232319,1,8,0:0:0:0:
455,273,232387,5,4,0:1:0:0:
409,231,232455,1,8,0:0:0:0:
349,218,232524,1,0,0:0:0:0:
290,239,232592,1,8,0:0:0:0:
252,288,232660,1,2,0:0:0:0:
197,317,232728,1,8,0:0:0:0:
135,311,232796,1,0,0:0:0:0:
88,270,232865,1,8,0:0:0:0:
73,210,232933,1,2,0:0:0:0:
94,152,233001,1,8,0:0:0:0:
144,116,233069,1,0,0:0:0:0:
206,115,233137,1,8,0:0:0:0:
258,149,233205,1,2,0:0:0:0:
320,151,233274,1,8,0:0:0:0:
374,120,233342,1,0,0:0:0:0:
405,66,233410,1,8,0:0:0:0:
404,4,233478,5,2,0:0:0:0:
364,19,233546,1,8,0:0:0:0:
336,49,233615,1,0,0:0:0:0:
324,89,233683,1,8,0:0:0:0:
332,130,233751,1,2,0:0:0:0:
357,163,233819,1,8,0:0:0:0:
394,181,233887,1,0,0:0:0:0:
436,178,233955,1,8,0:0:0:0:
474,161,234024,2,0,P|491:136|496:101,3,52.4999983978272,2|8|0|8,0:0|0:0|0:0|0:0,0:0:0:0:
391,30,234296,2,0,P|396:60|417:88,3,52.4999983978272,2|8|0|8,0:0|0:0|0:0|0:0,0:0:0:0:
282,150,234569,6,0,P|249:137|230:54,2,69.9999978637696,4|8|8,0:2|2:0|2:0,0:0:0:0:
50,29,234842,6,0,P|83:42|101:125,2,69.9999978637696,4|8|8,0:2|2:0|2:0,0:0:0:0:
21,164,235115,5,4,0:2:0:0:
67,133,235205,1,8,0:0:0:0:
121,143,235296,1,8,0:0:0:0:
152,187,235387,1,8,0:0:0:0:
162,242,235478,1,8,0:0:0:0:
207,273,235569,1,8,0:0:0:0:
260,264,235660,5,4,0:2:0:0:
244,225,235751,1,8,2:0:0:0:
250,183,235842,1,8,2:0:0:0:
234,144,235933,1,8,2:0:0:0:
241,102,236024,1,8,2:0:0:0:
222,64,236115,1,8,2:0:0:0:
221,16,236205,5,8,2:0:0:0:
271,40,236296,1,8,2:0:0:0:
321,17,236387,1,8,2:0:0:0:
359,58,236478,1,8,2:0:0:0:
400,51,236569,1,8,2:0:0:0:
419,89,236660,1,8,2:0:0:0:
448,95,236751,5,4,0:1:0:0:
408,123,236842,1,0,0:0:0:0:
401,171,236933,1,0,0:0:0:0:
426,214,237024,2,0,P|449:226|473:258,2,50,12|0|0,0:2|0:0|0:0,0:0:0:0:
501,352,237296,5,4,0:2:0:0:
472,323,237387,1,0,0:0:0:0:
437,306,237478,1,0,0:0:0:0:
397,301,237569,1,12,0:2:0:0:
358,310,237660,1,0,0:0:0:0:
324,330,237751,1,0,0:0:0:0:
299,361,237842,5,4,0:2:0:0:
305,330,237933,1,0,0:0:0:0:
297,299,238024,1,0,0:0:0:0:
279,273,238115,1,12,0:2:0:0:
251,257,238205,1,0,0:0:0:0:
220,253,238296,1,0,0:0:0:0:
189,262,238387,5,4,0:2:0:0:
219,288,238478,1,0,0:0:0:0:
259,292,238569,1,0,0:0:0:0:
294,275,238660,1,12,0:2:0:0:
314,240,238751,1,0,0:0:0:0:
311,201,238842,1,0,0:0:0:0:
288,169,238933,5,4,0:2:0:0:
253,201,239024,1,0,0:0:0:0:
206,203,239115,1,0,0:0:0:0:
168,175,239205,1,12,0:2:0:0:
157,129,239296,1,0,0:0:0:0:
135,88,239387,1,0,0:0:0:0:
93,66,239478,5,4,0:2:0:0:
111,101,239569,1,0,0:0:0:0:
146,118,239660,1,0,0:0:0:0:
184,110,239751,1,12,0:2:0:0:
210,80,239842,1,0,0:0:0:0:
213,41,239933,1,0,0:0:0:0:
191,9,240024,5,4,0:2:0:0:
214,58,240115,1,0,0:0:0:0:
267,71,240205,1,0,0:0:0:0:
311,40,240296,1,12,0:2:0:0:
355,7,240387,1,0,0:0:0:0:
409,14,240478,1,0,0:0:0:0:
441,58,240569,5,4,0:2:0:0:
420,47,240660,1,0,0:0:0:0:
396,46,240751,1,0,0:0:0:0:
371,56,240842,2,0,P|348:65|332:91,2,40,12|0|0,0:2|0:0|0:0,0:0:0:0:
344,218,241115,5,4,0:1:0:0:
324,183,241205,1,0,0:0:0:0:
289,166,241296,1,0,0:0:0:0:
250,171,241387,1,12,0:2:0:0:
221,198,241478,1,0,0:0:0:0:
212,236,241569,1,0,0:0:0:0:
227,273,241660,1,4,0:2:0:0:
243,308,241751,1,0,0:0:0:0:
233,346,241842,1,0,0:0:0:0:
202,370,241933,1,12,0:2:0:0:
163,368,242024,1,0,0:0:0:0:
133,342,242115,1,0,0:0:0:0:
126,304,242205,5,4,0:2:0:0:
124,327,242296,1,0,0:0:0:0:
112,348,242387,1,0,0:0:0:0:
93,362,242478,1,12,0:2:0:0:
69,366,242569,1,0,0:0:0:0:
46,359,242660,1,0,0:0:0:0:
28,344,242751,5,4,0:2:0:0:
64,329,242842,1,0,0:0:0:0:
80,293,242933,1,0,0:0:0:0:
66,257,243024,1,12,0:2:0:0:
42,226,243115,1,0,0:0:0:0:
43,187,243205,1,0,0:0:0:0:
70,158,243296,5,4,0:2:0:0:
27,138,243387,1,0,0:0:0:0:
5,96,243478,1,0,0:0:0:0:
13,50,243569,1,12,0:2:0:0:
48,18,243660,1,0,0:0:0:0:
95,14,243751,1,0,0:0:0:0:
134,40,243842,5,4,0:2:0:0:
103,36,243933,1,0,0:0:0:0:
75,51,244024,1,0,0:0:0:0:
62,80,244115,1,12,0:2:0:0:
63,111,244205,1,0,0:0:0:0:
81,137,244296,1,0,0:0:0:0:
110,150,244387,6,0,P|135:135|161:132,1,40,4|0,0:1|0:0,0:0:0:0:
224,260,244569,2,0,P|196:253|175:237,1,40,4|8,0:1|0:0,0:0:0:0:
276,134,244751,2,0,P|304:141|325:157,1,40,4|0,0:1|0:0,0:0:0:0:
208,43,244933,2,0,P|193:18|190:-8,1,40,4|0,0:1|0:0,0:0:0:0:
110,150,245115,2,0,P|115:179|128:201,1,40,4|8,0:1|0:0,0:0:0:0:
298,264,245296,2,0,P|296:237|280:213,1,40,4|0,0:1|0:0,0:0:0:0:
177,69,245478,5,6,0:0:0:0:
158,129,245569,1,0,0:0:0:0:
184,186,245660,1,0,0:0:0:0:
241,212,245751,1,12,0:2:0:0:
301,195,245842,1,0,0:0:0:0:
336,143,245933,1,0,0:0:0:0:
328,81,246024,1,4,0:2:0:0:
357,25,246115,1,0,0:0:0:0:
416,3,246205,1,0,0:0:0:0:
475,24,246296,1,12,0:2:0:0:
505,79,246387,1,0,0:0:0:0:
493,140,246478,1,0,0:0:0:0:
443,179,246569,5,4,0:2:0:0:
460,135,246660,1,0,0:0:0:0:
451,88,246751,1,0,0:0:0:0:
418,54,246842,1,12,0:2:0:0:
372,44,246933,1,0,0:0:0:0:
327,60,247024,1,0,0:0:0:0:
302,102,247115,5,4,0:2:0:0:
340,95,247205,1,0,0:0:0:0:
378,108,247296,1,0,0:0:0:0:
404,137,247387,1,12,0:2:0:0:
412,176,247478,1,0,0:0:0:0:
400,214,247569,1,0,0:0:0:0:
366,236,247660,5,4,0:2:0:0:
405,262,247751,1,0,0:0:0:0:
418,307,247842,1,0,0:0:0:0:
400,350,247933,1,12,0:2:0:0:
359,372,248024,1,0,0:0:0:0:
313,363,248115,1,0,0:0:0:0:
278,330,248205,5,4,0:2:0:0:
250,358,248296,1,0,0:0:0:0:
212,369,248387,1,0,0:0:0:0:
174,358,248478,1,12,0:2:0:0:
147,329,248569,1,0,0:0:0:0:
139,290,248660,1,0,0:0:0:0:
153,253,248751,5,4,0:2:0:0:
167,306,248842,1,0,0:0:0:0:
144,356,248933,1,0,0:0:0:0:
94,379,249024,1,12,0:2:0:0:
41,364,249115,1,0,0:0:0:0:
11,319,249205,1,0,0:0:0:0:
19,263,249296,5,4,0:2:0:0:
37,305,249387,1,0,0:0:0:0:
82,315,249478,1,0,0:0:0:0:
129,301,249569,2,0,P|149:277|146:241,2,40,12|0|0,0:2|0:0|0:0,0:0:0:0:
103,142,249842,5,4,0:1:0:0:
70,87,249933,1,0,0:0:0:0:
88,28,250024,1,0,0:0:0:0:
145,0,250115,1,12,0:2:0:0:
203,21,250205,1,0,0:0:0:0:
227,79,250296,1,0,0:0:0:0:
202,136,250387,1,4,0:2:0:0:
204,198,250478,1,0,0:0:0:0:
251,240,250569,1,0,0:0:0:0:
313,237,250660,1,12,0:2:0:0:
355,190,250751,1,0,0:0:0:0:
351,128,250842,1,0,0:0:0:0:
305,86,250933,5,4,0:2:0:0:
284,137,251024,1,0,0:0:0:0:
299,190,251115,1,0,0:0:0:0:
343,223,251205,1,12,0:2:0:0:
391,248,251296,1,0,0:0:0:0:
412,299,251387,1,0,0:0:0:0:
395,351,251478,5,4,0:1:0:0:
390,297,251569,1,0,0:0:0:0:
349,261,251660,1,0,0:0:0:0:
295,263,251751,2,0,P|271:271|253:287,2,40,12|0|0,0:1|0:0|0:0,0:0:0:0:
181,373,252024,5,4,0:2:0:0:
178,341,252115,1,8,2:0:0:0:
164,312,252205,1,8,2:0:0:0:
141,290,252296,1,8,2:0:0:0:
112,277,252387,1,8,2:0:0:0:
80,276,252478,1,8,2:0:0:0:
50,285,252569,5,4,0:2:0:0:
84,305,252660,1,8,0:0:0:0:
124,305,252751,1,8,0:0:0:0:
158,285,252842,1,8,0:0:0:0:
177,250,252933,1,8,0:0:0:0:
175,211,253024,1,8,0:0:0:0:
154,178,253115,5,2,0:2:0:0:
188,189,253205,1,2,0:2:0:0:
219,183,253296,1,2,0:2:0:0:
241,166,253387,1,2,0:2:0:0:
251,144,253478,1,2,0:2:0:0:
250,123,253569,1,2,0:2:0:0:
236,105,253660,5,4,0:2:0:0:
275,100,253751,1,8,0:0:0:0:
312,115,253842,1,8,0:0:0:0:
337,145,253933,1,8,0:0:0:0:
346,184,254024,1,8,0:0:0:0:
335,222,254115,1,8,0:0:0:0:
308,248,254205,6,0,B|286:277|255:284|255:284|338:302|356:371,1,200,4|0,0:1|0:0,0:0:0:0:
445,185,254751,5,2,2:3:0:0:
398,38,254933,1,0,0:0:0:0:
377,274,255115,1,2,2:3:0:0:
267,79,255296,2,0,B|284:45|316:40|316:40|267:11|216:42|209:93,1,200,10|2,2:3|2:0,0:0:0:0:
152,227,255842,5,2,2:0:0:0:
65,43,256024,2,0,P|16:75|5:115,1,80,2|0,0:0|0:0,0:0:0:0:
97,134,256387,2,0,B|125:88|191:83|233:133|226:183|226:183|267:187|291:146|291:146|369:139|417:186|383:254|318:290|281:174|353:192,1,500,2|2,2:0|2:0,0:0:0:0:
437,27,257478,5,10,2:3:0:0:
504,221,257660,1,2,2:0:0:0:
444,298,257842,1,2,0:2:0:0:
355,134,258024,6,0,B|384:136|402:109|402:109|426:149|390:200|326:201|295:153,1,200,2|2,2:0|0:2,0:0:0:0:
251,59,258569,6,0,B|240:35|240:35|217:90|198:133|198:133|182:90,1,160,6|0,0:0|0:0,0:0:0:0:
0,173,259115,1,2,2:0:0:0:
0,173,259296,1,2,2:0:0:0:
0,173,259478,1,2,2:0:0:0:
2,191,259660,6,0,B|46:223|101:202|101:202|96:209|96:209|150:211|183:273,1,200,10|2,2:3|2:0,0:0:0:0:
196,367,260205,1,2,2:0:0:0:
73,317,260387,1,2,0:2:0:0:
58,142,260569,1,0,0:0:0:0:
91,314,260751,6,0,P|156:356|233:341,1,160,2|2,2:0|2:0,0:0:0:0:
357,216,261296,2,0,P|309:201|263:218,1,100,2|2,0:2|2:0,0:0:0:0:
175,278,261660,1,0,0:0:0:0:
175,278,261842,6,0,B|234:270|196:392|102:316|100:223|176:198,1,200,10|2,2:3|0:2,0:0:0:0:
141,51,262387,1,2,2:0:0:0:
176,126,262569,1,2,2:1:0:0:
72,238,262751,1,4,0:1:0:0:
67,64,262933,6,0,B|62:30|83:4|83:4|45:-4|-4:31|-9:71|34:126,1,200,4|0,0:1|0:0,0:0:0:0:
145,216,263478,2,0,B|155:243|142:274|142:274|181:253|185:220|185:220|185:186|231:142,1,200,2|4,2:0|2:0,0:0:0:0:
292,51,264024,6,0,B|274:27|274:27|303:7|303:7|312:121,1,160,10|2,2:3|2:0,0:0:0:0:
323,285,264569,1,2,2:0:0:0:
284,195,264751,1,2,0:2:0:0:
275,381,264933,1,2,0:2:0:0:
358,117,265115,6,0,B|388:98|406:104|406:104|406:112|406:112|448:126|454:180|429:216|429:216|423:217|423:217|420:246|453:269,1,239.999992675781,2|2,0:2|2:0,0:0:0:0:
427,369,265660,1,2,0:2:0:0:
507,223,265842,1,2,2:0:0:0:
383,108,266024,1,0,0:0:0:0:
244,189,266205,6,0,B|230:173|232:152|232:152|212:181|185:186|185:186|184:218|224:231|223:226|267:223|296:268,1,239.999992675781,10|2,2:3|0:2,0:0:0:0:
191,363,266751,2,0,B|195:328|226:316|226:316|173:291|170:331|136:341|136:341|87:311|125:243,1,239.999992675781,2|4,2:0|0:1,0:0:0:0:
111,41,267296,6,0,B|64:16|6:46|6:46|16:46|16:46|37:94|73:132|151:132|193:97|193:97|241:155|212:208|212:208|241:237|282:245|282:245|304:189|292:142,1,599.999981689454,4|2,0:1|2:0,0:0:0:0:
322,51,268387,5,10,2:3:0:0:
252,313,268569,1,2,2:0:0:0:
156,172,268751,1,2,2:0:0:0:
236,110,268933,5,2,2:0:0:0:
236,110,269115,1,2,0:2:0:0:
236,110,269296,1,2,0:2:0:0:
221,131,269478,6,0,B|207:151|184:157|184:157|218:181|218:181|265:135|345:151,1,200,2|2,0:2|2:0,0:0:0:0:
482,187,270024,2,0,B|500:179|500:179|459:155|459:155|468:218|407:253,1,160,2|2,0:2|0:2,0:0:0:0:
427,384,270569,5,10,0:0:0:0:
430,365,270637,1,10,2:3:0:0:
434,347,270705,1,8,2:3:0:0:
438,328,270774,1,10,2:3:0:0:
462,299,270842,5,10,2:3:0:0:
458,280,270910,1,10,2:3:0:0:
454,262,270978,1,10,2:3:0:0:
450,243,271046,1,10,2:3:0:0:
424,216,271115,5,8,0:3:0:0:
430,186,271183,1,8,0:3:0:0:
436,157,271251,1,8,0:3:0:0:
442,127,271319,1,8,0:3:0:0:
467,99,271387,5,0,0:0:0:0:
451,64,271455,1,0,0:0:0:0:
436,30,271524,2,0,L|374:8,1,37.5
203,16,271660,5,6,0:0:0:0:
240,17,271728,1,8,0:0:0:0:
271,37,271796,1,0,0:0:0:0:
288,70,271865,1,8,0:0:0:0:
286,107,271933,1,2,0:2:0:0:
267,138,272001,1,8,0:0:0:0:
234,155,272069,1,0,0:0:0:0:
197,154,272137,1,8,0:0:0:0:
165,134,272205,5,2,0:2:0:0:
201,104,272274,1,8,0:0:0:0:
248,105,272342,1,0,0:0:0:0:
284,136,272410,1,8,0:0:0:0:
292,182,272478,1,2,0:2:0:0:
292,218,272546,1,8,0:0:0:0:
307,236,272615,1,0,0:0:0:0:
324,240,272683,1,8,0:0:0:0:
341,234,272751,5,2,0:2:0:0:
313,182,272819,1,8,0:0:0:0:
256,173,272887,1,0,0:0:0:0:
214,213,272955,1,8,0:0:0:0:
220,270,273024,1,2,0:2:0:0:
205,326,273092,1,8,0:0:0:0:
152,348,273160,2,0,P|124:354|91:333,1,60,0|8,0:0|0:0,0:0:0:0:
18,186,273296,5,2,0:2:0:0:
22,149,273365,1,8,0:0:0:0:
43,120,273433,2,0,P|65:91|97:75,1,60,0|8,0:0|0:0,0:0:0:0:
252,45,273569,5,2,0:2:0:0:
282,64,273637,1,8,0:0:0:0:
299,95,273705,2,0,P|290:150|302:192,1,60,0|8,0:0|0:0,0:0:0:0:
388,357,273842,5,2,0:2:0:0:
444,345,273910,1,8,0:0:0:0:
471,293,273978,1,0,0:0:0:0:
447,241,274046,1,8,0:0:0:0:
391,226,274115,1,2,0:2:0:0:
345,262,274183,1,8,0:0:0:0:
286,257,274251,1,0,0:0:0:0:
245,215,274319,1,8,0:0:0:0:
242,156,274387,1,2,0:2:0:0:
272,119,274455,1,8,0:0:0:0:
307,112,274524,1,0,0:0:0:0:
327,125,274592,1,8,0:0:0:0:
330,142,274660,2,0,P|298:158|282:190,3,60,2|8|0|8,0:2|0:0|0:0|0:0,0:0:0:0:
191,364,274933,5,2,0:2:0:0:
233,384,275001,1,8,0:0:0:0:
278,370,275069,1,0,0:0:0:0:
303,330,275137,1,8,0:0:0:0:
296,284,275205,1,2,0:2:0:0:
321,250,275274,1,8,0:0:0:0:
354,239,275342,1,0,0:0:0:0:
377,246,275410,1,8,0:0:0:0:
390,259,275478,5,2,0:2:0:0:
374,315,275546,1,8,0:0:0:0:
324,345,275615,1,0,0:0:0:0:
267,333,275683,1,8,0:0:0:0:
233,285,275751,1,2,0:2:0:0:
195,255,275819,1,8,0:0:0:0:
160,246,275887,1,0,0:0:0:0:
138,256,275955,1,8,0:0:0:0:
129,271,276024,5,4,0:1:0:0:
143,301,276092,1,8,0:0:0:0:
172,322,276160,1,0,0:0:0:0:
207,326,276228,1,8,0:0:0:0:
240,314,276296,1,2,0:2:0:0:
260,291,276365,1,8,0:0:0:0:
265,267,276433,1,0,0:0:0:0:
263,249,276501,1,8,0:0:0:0:
251,230,276569,5,2,0:2:0:0:
290,253,276637,1,8,0:0:0:0:
334,237,276705,1,0,0:0:0:0:
348,193,276774,1,8,0:0:0:0:
322,154,276842,1,2,0:2:0:0:
315,108,276910,1,8,0:0:0:0:
346,74,276978,1,0,0:0:0:0:
392,78,277046,1,8,0:0:0:0:
417,117,277115,5,2,0:2:0:0:
376,159,277183,1,8,0:0:0:0:
317,164,277251,1,0,0:0:0:0:
269,131,277319,1,8,0:0:0:0:
253,75,277387,1,2,0:2:0:0:
213,32,277455,1,8,0:0:0:0:
155,28,277524,2,0,P|114:41|88:78,1,60,0|8,0:0|0:0,0:0:0:0:
4,198,277660,5,2,0:2:0:0:
48,212,277728,1,8,0:0:0:0:
69,254,277796,2,0,P|75:285|122:305,1,60,0|8,0:0|0:0,0:0:0:0:
273,255,277933,5,2,0:2:0:0:
286,208,278001,1,8,0:0:0:0:
325,179,278069,2,0,P|363:162|402:169,1,60,0|8,0:0|0:0,0:0:0:0:
508,285,278205,5,2,0:2:0:0:
490,353,278274,1,8,0:0:0:0:
426,382,278342,1,0,0:0:0:0:
364,353,278410,1,8,0:0:0:0:
345,286,278478,1,2,0:2:0:0:
385,229,278546,1,8,0:0:0:0:
376,159,278615,1,0,0:0:0:0:
321,116,278683,1,8,0:0:0:0:
252,122,278751,1,2,0:2:0:0:
209,173,278819,1,8,0:0:0:0:
212,234,278887,1,0,0:0:0:0:
249,273,278955,1,8,0:0:0:0:
295,279,279024,1,2,0:2:0:0:
330,256,279092,1,8,0:0:0:0:
342,224,279160,1,0,0:0:0:0:
333,195,279228,1,8,0:0:0:0:
314,181,279296,2,0,P|283:177|256:199,3,60,2|8|0|8,0:2|0:0|0:0|0:0,0:0:0:0:
102,152,279569,2,0,P|123:183|121:217,3,60,2|8|0|8,0:2|0:0|0:0|0:0,0:0:0:0:
97,329,279842,5,2,0:2:0:0:
128,345,279910,1,8,0:0:0:0:
164,346,279978,1,0,0:0:0:0:
195,329,280046,1,8,0:0:0:0:
216,300,280115,1,2,0:2:0:0:
233,268,280183,1,8,0:0:0:0:
263,249,280251,1,0,0:0:0:0:
298,248,280319,1,8,0:0:0:0:
330,264,280387,2,0,P|346:277|349:340,3,60,4|8|0|8,0:1|0:0|0:0|0:0,0:0:0:0:
492,358,280660,2,0,P|475:344|473:282,3,60,2|8|0|8,0:2|0:0|0:0|0:0,0:0:0:0:
512,139,280933,5,2,0:2:0:0:
484,99,281001,1,8,0:0:0:0:
439,87,281069,1,0,0:0:0:0:
396,107,281137,1,8,0:0:0:0:
377,149,281205,1,2,0:2:0:0:
385,184,281274,1,8,0:0:0:0:
403,199,281342,1,0,0:0:0:0:
420,202,281410,1,8,0:0:0:0:
434,197,281478,5,2,0:2:0:0:
410,143,281546,1,8,0:0:0:0:
354,127,281615,1,0,0:0:0:0:
305,158,281683,1,8,0:0:0:0:
256,190,281751,1,2,0:2:0:0:
200,176,281819,1,8,0:0:0:0:
172,125,281887,2,0,P|165:98|127:68,1,60,0|8,0:0|0:0,0:0:0:0:
1,29,282024,5,2,0:2:0:0:
57,13,282092,1,8,0:0:0:0:
106,44,282160,1,0,0:0:0:0:
117,101,282228,1,8,0:0:0:0:
82,147,282296,1,2,0:2:0:0:
76,195,282365,1,8,0:0:0:0:
95,224,282433,1,0,0:0:0:0:
117,232,282501,1,8,0:0:0:0:
134,228,282569,5,2,0:2:0:0:
114,182,282637,1,8,0:0:0:0:
72,162,282705,1,0,0:0:0:0:
27,174,282774,1,8,0:0:0:0:
0,213,282842,1,2,0:2:0:0:
6,259,282910,1,8,0:0:0:0:
39,294,282978,2,0,P|70:296|112:308,1,60,0|8,0:0|0:0,0:0:0:0:
291,340,283115,5,2,0:2:0:0:
304,293,283183,1,8,0:0:0:0:
288,250,283251,1,0,0:0:0:0:
250,223,283319,1,8,0:0:0:0:
204,223,283387,1,2,0:2:0:0:
168,255,283455,1,8,0:0:0:0:
177,289,283524,1,0,0:0:0:0:
197,299,283592,1,8,0:0:0:0:
212,301,283660,5,2,0:2:0:0:
236,249,283728,1,8,0:0:0:0:
209,197,283796,1,0,0:0:0:0:
151,189,283865,1,8,0:0:0:0:
100,162,283933,1,2,0:2:0:0:
88,106,284001,1,8,0:0:0:0:
128,64,284069,2,0,P|153:75|211:62,1,60,0|8,0:0|0:0,0:0:0:0:
372,16,284205,5,2,0:2:0:0:
325,23,284274,1,8,0:0:0:0:
293,58,284342,1,0,0:0:0:0:
289,105,284410,1,8,0:0:0:0:
315,144,284478,1,2,0:2:0:0:
359,160,284546,1,8,0:0:0:0:
404,145,284615,1,0,0:0:0:0:
430,105,284683,1,8,0:0:0:0:
427,57,284751,5,4,0:2:0:0:
368,65,284819,1,8,0:0:0:0:
329,109,284887,1,0,0:0:0:0:
326,167,284955,1,8,0:0:0:0:
360,215,285024,1,2,0:2:0:0:
397,260,285092,1,8,0:0:0:0:
391,318,285160,1,0,0:0:0:0:
345,354,285228,1,8,0:0:0:0:
287,345,285296,2,0,P|261:328|253:279,3,60,2|8|0|8,0:2|0:0|0:0|0:0,0:0:0:0:
256,121,285569,2,0,P|282:138|290:187,3,60,2|8|0|8,0:2|0:0|0:0|0:0,0:0:0:0:
148,264,285842,5,2,0:2:0:0:
101,259,285910,1,8,0:0:0:0:
72,223,285978,1,0,0:0:0:0:
77,176,286046,1,8,0:0:0:0:
114,148,286115,1,2,0:2:0:0:
138,113,286183,1,8,0:0:0:0:
135,77,286251,1,0,0:0:0:0:
118,59,286319,1,8,0:0:0:0:
98,52,286387,5,2,0:2:0:0:
76,94,286455,1,8,0:0:0:0:
80,141,286524,1,0,0:0:0:0:
109,179,286592,1,8,0:0:0:0:
153,196,286660,1,2,0:2:0:0:
194,188,286728,1,8,0:0:0:0:
222,165,286796,1,0,0:0:0:0:
232,143,286865,1,8,0:0:0:0:
233,124,286933,5,2,0:2:0:0:
174,124,287001,1,8,0:0:0:0:
138,170,287069,1,0,0:0:0:0:
151,227,287137,1,8,0:0:0:0:
166,283,287205,1,2,0:2:0:0:
135,333,287274,1,8,0:0:0:0:
78,345,287342,2,0,P|69:323|51:290,1,60,0|8,0:0|0:0,0:0:0:0:
39,138,287478,5,2,0:2:0:0:
64,178,287546,1,8,0:0:0:0:
107,197,287615,1,0,0:0:0:0:
153,189,287683,1,8,0:0:0:0:
188,157,287751,1,2,0:2:0:0:
225,128,287819,1,8,0:0:0:0:
272,125,287887,1,0,0:0:0:0:
313,149,287955,1,8,0:0:0:0:
332,192,288024,5,8,0:0:0:0:
270,199,288092,1,8,2:0:0:0:
222,173,288160,1,8,2:0:0:0:
201,130,288228,1,8,2:0:0:0:
206,90,288296,1,8,0:0:0:0:
228,64,288365,1,8,0:0:0:0:
253,54,288433,1,8,0:0:0:0:
272,57,288501,1,8,0:0:0:0:
281,68,288569,5,8,2:0:0:0:
277,133,288637,1,8,2:0:0:0:
229,178,288705,1,8,2:0:0:0:
163,176,288774,1,8,2:0:0:0:
117,129,288842,1,8,0:0:0:0:
84,105,288910,1,8,0:0:0:0:
57,108,288978,2,0,P|30:127|21:172,1,67.4999979400635,8|8,0:0|0:0,0:0:0:0:
59,333,289115,5,4,0:1:0:0:
94,351,289183,1,8,0:0:0:0:
134,347,289251,1,0,0:0:0:0:
165,322,289319,1,8,0:0:0:0:
179,285,289387,1,2,0:0:0:0:
193,247,289455,1,8,0:0:0:0:
225,224,289524,1,0,0:0:0:0:
265,223,289592,1,8,0:0:0:0:
299,244,289660,5,2,0:0:0:0:
263,283,289728,1,8,0:0:0:0:
211,292,289796,1,0,0:0:0:0:
164,268,289865,1,8,0:0:0:0:
143,219,289933,1,2,0:0:0:0:
156,168,290001,1,8,0:0:0:0:
197,135,290069,2,0,P|234:160|275:216,1,67.4999979400635,0|8,0:0|0:0,0:0:0:0:
341,334,290205,5,2,0:0:0:0:
392,347,290274,1,8,0:0:0:0:
441,327,290342,1,0,0:0:0:0:
467,282,290410,1,8,0:0:0:0:
460,229,290478,1,2,0:0:0:0:
427,195,290546,1,8,0:0:0:0:
386,187,290615,1,0,0:0:0:0:
361,197,290683,1,8,0:0:0:0:
346,214,290751,5,2,0:0:0:0:
387,257,290819,1,8,0:0:0:0:
446,263,290887,1,0,0:0:0:0:
496,230,290955,1,8,0:0:0:0:
512,173,291024,1,2,0:0:0:0:
487,119,291092,1,8,0:0:0:0:
433,94,291160,2,0,P|400:117|363:157,1,67.4999979400635,0|8,0:0|0:0,0:0:0:0:
218,294,291296,5,2,0:0:0:0:
158,265,291365,1,8,0:0:0:0:
149,201,291433,1,0,0:0:0:0:
197,158,291501,1,8,0:0:0:0:
260,173,291569,1,2,0:0:0:0:
313,162,291637,1,8,0:0:0:0:
334,126,291705,1,0,0:0:0:0:
327,100,291774,1,8,0:0:0:0:
309,89,291842,5,2,0:0:0:0:
260,112,291910,1,8,0:0:0:0:
238,160,291978,1,0,0:0:0:0:
252,210,292046,1,8,0:0:0:0:
296,240,292115,1,2,0:0:0:0:
343,249,292183,1,8,0:0:0:0:
370,279,292251,1,0,0:0:0:0:
373,304,292319,1,8,0:0:0:0:
362,324,292387,5,2,0:0:0:0:
291,328,292455,1,8,0:0:0:0:
242,276,292524,1,0,0:0:0:0:
252,204,292592,1,8,0:0:0:0:
315,170,292660,1,2,0:0:0:0:
381,196,292728,1,8,0:0:0:0:
454,194,292796,1,0,0:0:0:0:
506,143,292865,1,8,0:0:0:0:
512,72,292933,1,2,0:0:0:0:
471,18,293001,1,8,0:0:0:0:
411,6,293069,1,0,0:0:0:0:
361,27,293137,1,8,0:0:0:0:
336,67,293205,1,2,0:0:0:0:
342,107,293274,1,8,0:0:0:0:
364,130,293342,1,0,0:0:0:0:
390,136,293410,1,8,0:0:0:0:
408,128,293478,2,0,P|431:113|425:62,3,67.4999979400635,4|8|0|8,0:1|0:0|0:0|0:0,0:0:0:0:
279,6,293751,2,0,P|257:22|260:85,3,67.4999979400635,2|8|0|8,0:0|0:0|0:0|0:0,0:0:0:0:
341,219,294024,5,2,0:0:0:0:
304,257,294092,1,8,0:0:0:0:
251,266,294160,1,0,0:0:0:0:
204,242,294228,1,8,0:0:0:0:
179,195,294296,1,2,0:0:0:0:
186,148,294365,1,8,0:0:0:0:
213,117,294433,1,0,0:0:0:0:
239,111,294501,1,8,0:0:0:0:
261,117,294569,5,2,0:0:0:0:
261,176,294637,1,8,0:0:0:0:
221,220,294705,1,0,0:0:0:0:
162,224,294774,1,8,0:0:0:0:
116,187,294842,1,2,0:0:0:0:
71,156,294910,1,8,0:0:0:0:
31,162,294978,1,0,0:0:0:0:
11,181,295046,1,8,0:0:0:0:
8,201,295115,5,2,0:0:0:0:
49,229,295183,1,8,0:0:0:0:
102,224,295251,1,0,0:0:0:0:
142,189,295319,1,8,0:0:0:0:
150,137,295387,1,2,0:0:0:0:
193,107,295455,1,8,0:0:0:0:
244,118,295524,2,0,P|271:137|269:201,1,67.4999979400635,0|8,0:0|0:0,0:0:0:0:
311,356,295660,5,2,0:0:0:0:
276,304,295728,1,8,0:0:0:0:
283,245,295796,1,0,0:0:0:0:
324,202,295865,1,8,0:0:0:0:
383,195,295933,1,2,0:0:0:0:
428,225,296001,1,8,0:0:0:0:
444,262,296069,1,0,0:0:0:0:
441,289,296137,1,8,0:0:0:0:
424,302,296205,5,2,0:0:0:0:
376,280,296274,1,8,0:0:0:0:
346,235,296342,1,0,0:0:0:0:
345,182,296410,1,8,0:0:0:0:
372,136,296478,1,2,0:0:0:0:
414,114,296546,1,8,0:0:0:0:
455,115,296615,1,0,0:0:0:0:
478,127,296683,1,8,0:0:0:0:
490,143,296751,5,2,0:0:0:0:
453,197,296819,1,8,0:0:0:0:
388,200,296887,1,0,0:0:0:0:
345,151,296955,1,8,0:0:0:0:
358,87,297024,1,2,0:0:0:0:
334,26,297092,1,8,0:0:0:0:
272,4,297160,1,0,0:0:0:0:
215,35,297228,1,8,0:0:0:0:
200,99,297296,1,2,0:0:0:0:
239,152,297365,1,8,0:0:0:0:
270,205,297433,1,0,0:0:0:0:
255,256,297501,1,8,0:0:0:0:
216,283,297569,1,2,0:0:0:0:
175,280,297637,1,8,0:0:0:0:
150,256,297705,1,0,0:0:0:0:
145,229,297774,1,8,0:0:0:0:
149,209,297842,2,0,P|171:187|230:191,3,67.4999979400635,6|8|0|8,0:0|0:0|0:0|0:0,0:0:0:0:
183,350,298115,2,0,P|151:349|112:305,3,67.4999979400635,2|8|0|8,0:0|0:0|0:0|0:0,0:0:0:0:
12,191,298387,5,2,0:0:0:0:
71,197,298455,1,8,0:0:0:0:
123,169,298524,1,0,0:0:0:0:
150,115,298592,1,8,0:0:0:0:
141,56,298660,1,2,0:0:0:0:
104,17,298728,1,8,0:0:0:0:
64,7,298796,1,0,0:0:0:0:
37,13,298865,1,8,0:0:0:0:
25,29,298933,5,2,0:0:0:0:
57,86,299001,1,8,0:0:0:0:
119,110,299069,1,0,0:0:0:0:
181,88,299137,1,8,0:0:0:0:
229,43,299205,1,2,0:0:0:0:
295,47,299274,1,8,0:0:0:0:
338,96,299342,2,0,P|296:137|282:175,1,67.4999979400635,0|8,0:0|0:0,0:0:0:0:
242,338,299478,5,2,0:0:0:0:
267,297,299546,1,8,0:0:0:0:
305,280,299615,1,0,0:0:0:0:
338,283,299683,1,8,0:0:0:0:
359,299,299751,1,2,0:0:0:0:
368,316,299819,1,8,0:0:0:0:
369,336,299887,1,0,0:0:0:0:
360,352,299955,1,8,0:0:0:0:
343,364,300024,5,2,0:0:0:0:
313,305,300092,1,8,0:0:0:0:
332,241,300160,1,0,0:0:0:0:
389,209,300228,1,8,0:0:0:0:
453,225,300296,1,2,0:0:0:0:
498,195,300365,1,8,0:0:0:0:
512,157,300433,1,0,0:0:0:0:
508,129,300501,1,8,0:0:0:0:
496,112,300569,2,0,P|464:92|413:99,3,67.4999979400635,2|8|0|8,0:0|0:0|0:0|0:0,0:0:0:0:
344,8,300842,2,0,P|307:15|276:57,3,67.4999979400635,2|8|0|8,0:0|0:0|0:0|0:0,0:0:0:0:
330,230,301115,5,2,0:0:0:0:
286,260,301183,1,8,0:0:0:0:
234,251,301251,1,0,0:0:0:0:
203,209,301319,1,8,0:0:0:0:
210,157,301387,1,2,0:0:0:0:
246,128,301455,1,8,0:0:0:0:
287,128,301524,1,0,0:0:0:0:
307,144,301592,1,8,0:0:0:0:
316,164,301660,5,2,0:0:0:0:
266,197,301728,1,8,0:0:0:0:
206,192,301796,1,0,0:0:0:0:
163,152,301865,1,8,0:0:0:0:
153,93,301933,1,2,0:0:0:0:
179,46,302001,1,8,0:0:0:0:
215,28,302069,1,0,0:0:0:0:
241,30,302137,1,8,0:0:0:0:
260,42,302205,5,6,0:0:0:0:
284,102,302274,1,8,0:0:0:0:
251,157,302342,1,0,0:0:0:0:
186,164,302410,1,8,0:0:0:0:
143,116,302478,1,2,0:0:0:0:
87,83,302546,1,8,0:0:0:0:
28,110,302615,1,0,0:0:0:0:
18,175,302683,1,8,0:0:0:0:
64,219,302751,5,2,0:0:0:0:
117,192,302819,1,8,0:0:0:0:
175,205,302887,1,0,0:0:0:0:
211,251,302955,1,8,0:0:0:0:
210,311,303024,1,2,0:0:0:0:
243,360,303092,1,8,0:0:0:0:
301,374,303160,1,0,0:0:0:0:
353,346,303228,1,8,0:0:0:0:
374,290,303296,5,2,0:0:0:0:
321,250,303365,1,8,0:0:0:0:
255,253,303433,1,0,0:0:0:0:
206,298,303501,1,8,0:0:0:0:
156,343,303569,1,2,0:0:0:0:
91,335,303637,1,8,0:0:0:0:
57,279,303705,2,0,P|48:251|71:209,1,67.4999979400635,0|8,0:0|0:0,0:0:0:0:
168,49,303842,5,2,0:0:0:0:
153,106,303910,1,8,0:0:0:0:
185,148,303978,1,0,0:0:0:0:
231,157,304046,1,8,0:0:0:0:
266,135,304115,1,2,0:0:0:0:
297,121,304183,1,8,0:0:0:0:
323,125,304251,1,0,0:0:0:0:
336,141,304319,1,8,0:0:0:0:
336,160,304387,5,4,0:1:0:0:
285,126,304455,1,8,2:0:0:0:
271,73,304524,1,8,2:0:0:0:
290,31,304592,1,8,2:0:0:0:
325,10,304660,1,8,0:0:0:0:
365,15,304728,1,8,2:0:0:0:
395,43,304796,2,0,P|386:85|412:125,1,67.4999979400635,8|8,2:0|2:0,0:0:0:0:
428,219,304933,5,8,0:0:0:0:
394,218,305001,1,8,0:0:0:0:
363,232,305069,1,8,0:0:0:0:
340,256,305137,1,8,0:0:0:0:
329,288,305205,5,0,0:0:0:0:
314,265,305274,1,8,0:0:0:0:
291,251,305342,1,8,0:0:0:0:
266,243,305410,1,8,0:0:0:0:
239,247,305478,5,8,0:0:0:0:
205,288,305546,1,0,0:0:0:0:
154,305,305615,1,0,0:0:0:0:
101,290,305683,1,0,0:0:0:0:
66,250,305751,1,0,0:0:0:0:
60,195,305819,1,0,0:0:0:0:
90,148,305887,1,0,0:0:0:0:
139,129,305955,1,0,0:0:0:0:
191,144,306024,5,8,0:0:0:0:
177,182,306092,1,8,0:0:0:0:
185,221,306160,1,8,0:0:0:0:
210,251,306228,1,8,0:0:0:0:
248,266,306296,1,8,0:0:0:0:
280,259,306365,1,8,0:0:0:0:
300,240,306433,1,8,0:0:0:0:
306,220,306501,1,8,0:0:0:0:
303,197,306569,6,0,B|271:268|304:324|359:351|359:351|356:368|356:368|442:324|415:221|415:221|413:212|413:212|414:222|414:222|373:272|298:277|298:277|212:242|130:258|130:258|59:270|39:310|53:364|53:364|47:371|47:371|53:364|53:364|119:382|163:322|132:258|132:258|28:195|51:72|122:30|122:30|111:40|111:40|111:121|141:174|192:179|192:179|238:159|255:93|254:67|254:67|201:6|201:6|211:39|193:71|193:71|297:43|351:63|351:63|425:78|475:27|475:27|455:93|502:131|502:131|468:108|426:116|426:116|475:129|497:193,1,2350,14|0,0:0|0:0,0:0:0:0:
18,372,324024,6,0,P|30:314|79:289,1,115,6|0,2:3|0:0,0:0:0:0:
216,298,326205,6,0,L|169:193,1,110,0|0,2:0|0:0,0:0:0:0:
115,90,327296,6,0,P|202:86|282:122,1,164.9999949646,0|0,2:0|0:0,0:0:0:0:
388,49,328387,6,0,P|370:100|451:88,1,170,0|0,2:0|0:0,0:0:0:0:
296,7,330024,6,0,P|301:43|278:81,1,74.9999977111817,0|0,2:0|0:0,0:0:0:0:
168,155,330569,6,0,P|206:150|271:187,1,110,0|0,2:0|0:0,0:0:0:0:
290,297,331660,6,0,P|305:258|426:240,1,164.9999949646,0|0,2:0|0:0,0:0:0:0:
485,363,332751,6,0,B|465:349|445:350|445:350|430:365|411:364|411:364|391:348|371:354|371:354|356:370|331:368|331:368|312:349|287:353|287:353|280:367|256:370|256:370|236:353|216:357|216:357|205:370|205:370|168:371,1,340,0|0,2:0|0:0,0:0:0:0:
82,329,334387,5,0,2:0:0:0:
82,329,334478,1,0,2:0:0:0:
82,329,334569,2,0,P|106:295|135:278,1,60,0|0,2:2|2:2,2:2:0:0:
130,182,334933,6,0,B|176:188|203:228|203:228|211:195|255:172,1,164.9999949646,0|0,2:0|0:0,0:0:0:0:
294,264,336024,6,0,P|265:291|287:358,1,110,0|0,2:0|0:0,0:0:0:0:
404,378,337115,6,0,L|421:294,1,85,0|0,2:0|0:0,0:0:0:0:
512,177,338751,6,0,L|501:227,1,50,0|0,2:0|0:0,0:0:0:0:
383,261,339296,6,0,P|365:222|355:215,1,55,0|0,2:0|0:0,0:0:0:0:
296,99,340387,2,0,P|298:109|290:102,1,25,0|0,2:0|0:0,0:0:0:0:
402,31,340933,2,0,P|393:35|397:26,1,25,0|0,2:0|0:0,0:0:0:0:
498,91,341478,6,0,P|460:105|442:188,1,119.999996337891,4|0,0:2|0:0,0:0:0:0:
472,314,342024,1,8,0:0:0:0:
508,160,342205,1,8,0:0:0:0:
501,344,342387,1,8,0:0:0:0:
352,232,342569,6,0,P|399:223|419:194,1,80,10|8,2:3|0:0,0:0:0:0:
380,54,342933,5,8,0:0:0:0:
444,225,343115,1,8,0:0:0:0:
312,154,343296,1,8,0:0:0:0:
461,107,343478,1,8,0:0:0:0:
313,241,343660,6,0,B|270:257|270:257|176:174,1,160,8|8,0:0|0:0,0:0:0:0:
146,56,344205,1,8,0:0:0:0:
149,305,344387,1,8,0:0:0:0:
232,114,344569,1,8,0:0:0:0:
255,238,344751,6,0,B|246:263|254:297|254:297|243:244|182:214,1,150,10|0,2:3|0:0,0:0:0:0:
112,150,345115,1,8,0:0:0:0:
112,150,345478,5,8,0:0:0:0:
83,178,345569,1,8,0:0:0:0:
71,216,345660,1,8,0:0:0:0:
78,255,345751,1,8,0:0:0:0:
98,288,345842,6,0,P|161:262|249:281,1,160,8|8,0:0|0:0,0:0:0:0:
447,352,346387,2,0,P|416:316|430:185,1,160,8|8,0:0|0:0,0:0:0:0:
511,44,346933,6,0,P|495:86|452:102,1,80,10|8,2:3|0:0,0:0:0:0:
249,40,347296,2,0,P|293:43|321:79,1,80,8|8,0:0|0:0,0:0:0:0:
338,218,347660,5,8,0:0:0:0:
380,37,347842,1,8,0:0:0:0:
456,276,348024,2,0,B|464:234|464:234|491:276|491:276|426:345,1,160,8|8,0:0|0:0,0:0:0:0:
347,360,348569,5,8,0:0:0:0:
266,283,348751,1,8,0:0:0:0:
122,274,348933,1,8,0:0:0:0:
0,365,349115,2,0,P|76:346|204:378,1,200,10|8,2:3|0:0,0:0:0:0:
285,265,349660,5,8,0:0:0:0:
194,113,349842,1,8,0:0:0:0:
209,323,350024,1,8,0:0:0:0:
313,20,350205,2,0,B|348:73|327:122|327:122|338:117|338:117|323:176|378:224,1,200,8|8,0:0|0:0,0:0:0:0:
403,322,350751,5,8,0:0:0:0:
456,134,350933,1,8,0:0:0:0:
492,273,351115,1,8,0:0:0:0:
335,90,351296,2,0,B|348:58|336:28|336:28|357:70|398:82|398:82|375:112|379:150,1,200,10|8,2:3|0:0,0:0:0:0:
399,265,351842,5,8,0:0:0:0:
408,8,352024,1,8,0:0:0:0:
272,212,352205,1,8,0:0:0:0:
438,149,352387,2,0,P|359:136|292:93,1,160,8|8,0:0|0:0,0:0:0:0:
247,10,352933,5,8,0:0:0:0:
308,263,353115,1,8,0:0:0:0:
199,142,353296,1,8,0:0:0:0:
326,25,353478,2,0,P|330:72|299:111,1,80,10|8,2:3|0:0,0:0:0:0:
191,126,353842,5,8,0:0:0:0:
334,252,354024,1,8,0:0:0:0:
334,252,354205,5,8,0:0:0:0:
293,258,354296,1,8,0:0:0:0:
255,249,354387,1,8,0:0:0:0:
224,224,354478,1,8,0:0:0:0:
214,191,354569,6,0,P|269:156|285:50,1,160,8|8,0:0|0:0,0:0:0:0:
208,0,355115,1,8,0:0:0:0:
244,223,355296,1,0,0:0:0:0:
305,45,355478,1,8,0:0:0:0:
88,162,355660,2,0,P|128:185|189:172,1,80,10|8,2:3|0:0,0:0:0:0:
310,187,356024,2,0,P|319:233|287:286,1,80,8|0,0:0|0:0,0:0:0:0:
185,334,356387,5,8,0:0:0:0:
115,117,356569,1,8,0:0:0:0:
83,256,356751,6,0,P|121:253|157:236,1,80,8|8,0:0|0:0,0:0:0:0:
259,116,357115,1,8,0:0:0:0:
312,331,357296,1,8,0:0:0:0:
380,185,357478,1,8,0:0:0:0:
335,356,357660,1,8,0:0:0:0:
339,104,357842,5,10,2:3:0:0:
406,292,358024,1,8,0:0:0:0:
435,36,358205,5,8,0:0:0:0:
373,272,358387,1,8,0:0:0:0:
319,124,358569,5,8,0:0:0:0:
319,124,358660,1,0,2:0:0:0:
319,124,358751,1,4,2:0:0:0:
261,278,358933,5,4,0:1:0:0:
468,352,375309,6,0,P|483:328|470:263,1,75,8|8,0:0|2:0,0:0:0:0:
411,114,375490,1,8,2:0:0:0:
406,135,375581,1,8,2:0:0:0:
391,150,375672,6,0,P|355:172|305:156,1,75,8|8,0:0|2:0,0:0:0:0:
217,229,375854,1,8,2:0:0:0:
205,214,375945,1,8,2:0:0:0:
199,193,376036,6,0,P|197:150|236:115,1,75,8|8,0:0|2:0,0:0:0:0:
62,14,376218,6,0,P|99:33|110:84,1,75,8|8,2:0|2:0,0:0:0:0:
18,230,376399,1,6,0:0:0:0:
87,252,376490,1,0,0:0:0:0:
151,218,376581,1,0,0:0:0:0:
171,147,376672,1,0,0:0:0:0:
209,85,376763,1,4,0:2:0:0:
280,71,376854,1,0,0:0:0:0:
339,115,376945,5,8,0:0:0:0:
306,181,377036,1,0,0:0:0:0:
240,212,377127,1,4,0:2:0:0:
168,195,377218,1,0,0:0:0:0:
123,137,377309,1,0,0:0:0:0:
124,63,377399,1,0,0:0:0:0:
171,7,377490,5,12,0:2:0:0:
223,58,377581,1,0,0:0:0:0:
234,131,377672,1,0,0:0:0:0:
198,195,377763,1,0,0:0:0:0:
131,224,377854,1,4,0:2:0:0:
93,271,377945,1,0,0:0:0:0:
93,316,378036,1,0,0:0:0:0:
108,341,378127,1,0,0:0:0:0:
127,354,378218,2,0,P|171:356|219:303,3,75,12|0|0|0,0:2|0:0|0:0|0:0,0:0:0:0:
272,151,378581,5,12,0:2:0:0:
343,149,378672,1,0,0:0:0:0:
385,208,378763,1,0,0:0:0:0:
358,275,378854,1,0,0:0:0:0:
372,346,378945,1,4,0:2:0:0:
437,378,379036,1,0,0:0:0:0:
501,345,379127,5,8,0:0:0:0:
445,297,379218,1,0,0:0:0:0:
372,291,379309,1,4,0:2:0:0:
320,322,379399,1,0,0:0:0:0:
279,340,379490,1,0,0:0:0:0:
249,334,379581,1,0,0:0:0:0:
233,317,379672,5,12,0:2:0:0:
287,269,379763,1,0,0:0:0:0:
293,196,379854,1,0,0:0:0:0:
245,141,379945,1,0,0:0:0:0:
172,139,380036,2,0,P|133:155|115:198,3,75,12|0|0|0,0:2|0:0|0:0|0:0,0:0:0:0:
49,135,380399,6,0,P|31:173|49:217,1,75,12|0,0:2|0:0,0:0:0:0:
197,337,380581,2,0,P|214:298|196:254,1,75,12|0,0:2|0:0,0:0:0:0:
219,53,380763,5,4,0:1:0:0:
298,59,380854,1,0,0:0:0:0:
345,124,380945,1,0,0:0:0:0:
328,202,381036,1,0,0:0:0:0:
335,282,381127,1,4,0:2:0:0:
397,333,381218,1,0,0:0:0:0:
477,326,381309,5,8,0:0:0:0:
433,258,381399,1,0,0:0:0:0:
355,240,381490,1,4,0:2:0:0:
286,282,381581,1,0,0:0:0:0:
214,317,381672,1,0,0:0:0:0:
140,286,381763,1,0,0:0:0:0:
113,211,381854,5,12,0:2:0:0:
172,264,381945,1,0,0:0:0:0:
165,343,382036,1,0,0:0:0:0:
96,384,382127,1,0,0:0:0:0:
23,354,382218,1,4,0:2:0:0:
7,290,382309,1,0,0:0:0:0:
34,248,382399,1,0,0:0:0:0:
66,241,382490,1,0,0:0:0:0:
86,255,382581,2,0,P|69:274|56:333,3,82.5000025177003,12|0|0|0,0:2|0:0|0:0|0:0,0:0:0:0:
29,119,382945,5,12,0:2:0:0:
66,48,383036,1,0,0:0:0:0:
144,29,383127,1,0,0:0:0:0:
209,76,383218,1,0,0:0:0:0:
217,155,383309,1,4,0:2:0:0:
163,214,383399,1,0,0:0:0:0:
83,212,383490,5,8,0:0:0:0:
125,144,383581,1,0,0:0:0:0:
204,129,383672,1,4,0:2:0:0:
257,169,383763,1,0,0:0:0:0:
303,185,383854,1,0,0:0:0:0:
333,172,383945,1,0,0:0:0:0:
340,145,384036,5,12,0:2:0:0:
264,120,384127,1,0,0:0:0:0:
198,166,384218,1,0,0:0:0:0:
195,246,384309,1,0,0:0:0:0:
256,297,384399,2,0,P|297:298|336:271,3,82.5000025177003,12|0|0|0,0:2|0:0|0:0|0:0,0:0:0:0:
470,152,384763,6,0,P|442:122|395:114,1,82.5000025177003,12|0,0:2|0:0,0:0:0:0:
402,336,384945,2,0,P|429:365|476:373,1,82.5000025177003,12|0,0:2|0:0,0:0:0:0:
409,183,385127,5,12,0:1:0:0:
333,140,385218,1,0,0:0:0:0:
248,166,385309,1,0,0:0:0:0:
215,248,385399,1,0,0:0:0:0:
147,305,385490,1,4,0:2:0:0:
60,290,385581,1,0,0:0:0:0:
17,213,385672,5,8,0:0:0:0:
101,185,385763,1,0,0:0:0:0:
182,221,385854,1,4,0:2:0:0:
220,301,385945,1,0,0:0:0:0:
290,355,386036,1,0,0:0:0:0:
376,337,386127,1,0,0:0:0:0:
419,260,386218,5,12,0:2:0:0:
332,275,386309,1,0,0:0:0:0:
264,220,386399,1,0,0:0:0:0:
261,132,386490,1,0,0:0:0:0:
231,51,386581,1,4,0:2:0:0:
166,39,386672,1,0,0:0:0:0:
127,70,386763,1,0,0:0:0:0:
123,102,386854,1,0,0:0:0:0:
136,120,386945,2,0,P|177:98|223:93,3,82.5000025177003,12|0|0|0,0:2|0:0|0:0|0:0,0:0:0:0:
411,47,387309,5,12,0:2:0:0:
339,51,387399,1,0,0:0:0:0:
301,112,387490,1,0,0:0:0:0:
327,178,387581,1,0,0:0:0:0:
342,248,387672,1,4,0:2:0:0:
295,302,387763,1,0,0:0:0:0:
224,296,387854,5,8,0:0:0:0:
258,232,387945,1,0,0:0:0:0:
325,204,388036,1,4,0:2:0:0:
388,224,388127,1,0,0:0:0:0:
418,263,388218,1,0,0:0:0:0:
421,295,388309,1,0,0:0:0:0:
408,318,388399,5,12,0:1:0:0:
328,279,388490,1,0,0:0:0:0:
293,197,388581,1,0,0:0:0:0:
320,112,388672,1,0,0:0:0:0:
396,66,388763,5,12,0:1:0:0:
381,131,388854,1,0,0:0:0:0:
341,160,388945,1,0,0:0:0:0:
307,158,389036,1,0,0:0:0:0:
285,142,389127,2,0,P|272:101|220:57,3,82.5000025177003,12|0|0|0,0:1|0:0|0:0|0:0,0:0:0:0:
63,24,389490,5,12,0:2:0:0:
14,95,389580,1,0,0:0:0:0:
44,176,389671,1,0,0:0:0:0:
128,198,389762,1,0,0:0:0:0:
194,141,389853,1,4,0:2:0:0:
276,119,389944,1,0,0:0:0:0:
333,183,390036,5,8,0:0:0:0:
247,179,390126,1,0,0:0:0:0:
199,107,390217,1,4,0:2:0:0:
228,26,390308,1,0,0:0:0:0:
312,2,390399,1,0,0:0:0:0:
380,55,390490,1,0,0:0:0:0:
366,144,390581,5,12,0:2:0:0:
312,94,390671,1,0,0:0:0:0:
240,100,390762,1,0,0:0:0:0:
193,157,390853,1,0,0:0:0:0:
163,229,390944,1,4,0:2:0:0:
95,255,391035,1,0,0:0:0:0:
28,225,391126,1,0,0:0:0:0:
2,157,391217,1,0,0:0:0:0:
16,82,391309,2,0,P|51:81|88:108,3,75,12|0|0|0,0:2|0:0|0:0|0:0,0:0:0:0:
131,349,391672,5,12,0:2:0:0:
156,279,391763,1,0,0:0:0:0:
223,249,391854,1,0,0:0:0:0:
293,274,391945,1,0,0:0:0:0:
364,281,392036,1,4,0:2:0:0:
416,229,392127,1,0,0:0:0:0:
406,157,392218,5,8,0:0:0:0:
351,179,392309,1,0,0:0:0:0:
330,219,392399,1,4,0:2:0:0:
335,248,392490,1,0,0:0:0:0:
349,265,392581,2,0,P|384:288|449:275,1,75
199,350,392763,5,12,0:1:0:0:
150,314,392854,1,0,0:0:0:0:
143,254,392945,2,0,P|166:216|212:204,1,75
400,111,393127,5,12,0:1:0:0:
431,142,393218,1,0,0:0:0:0:
432,187,393309,2,0,P|417:221|376:260,1,75
136,22,393490,5,12,0:1:0:0:
208,4,393581,1,0,0:0:0:0:
270,45,393672,2,0,P|282:82|263:139,1,75
266,376,393854,5,12,0:2:0:0:
186,366,393945,1,0,0:0:0:0:
140,300,394036,1,0,0:0:0:0:
158,222,394127,1,0,0:0:0:0:
228,183,394218,1,4,0:2:0:0:
304,210,394309,1,0,0:0:0:0:
335,284,394399,5,8,0:0:0:0:
255,292,394490,1,0,0:0:0:0:
193,241,394581,1,4,0:2:0:0:
188,160,394672,1,0,0:0:0:0:
163,85,394763,1,0,0:0:0:0:
88,56,394854,1,0,0:0:0:0:
19,96,394945,5,12,0:2:0:0:
61,165,395036,1,0,0:0:0:0:
137,192,395127,1,0,0:0:0:0:
214,168,395218,1,0,0:0:0:0:
260,102,395309,1,4,0:2:0:0:
313,63,395399,1,0,0:0:0:0:
362,63,395490,1,0,0:0:0:0:
390,79,395581,1,0,0:0:0:0:
401,101,395672,2,0,P|404:137|364:192,3,82.5000025177003,12|0|0|0,0:2|0:0|0:0|0:0,0:0:0:0:
409,355,396036,5,12,0:2:0:0:
361,290,396127,1,0,0:0:0:0:
281,275,396218,1,0,0:0:0:0:
214,320,396309,1,0,0:0:0:0:
137,344,396399,1,4,0:2:0:0:
65,308,396490,1,0,0:0:0:0:
45,231,396581,5,8,0:0:0:0:
96,292,396672,1,0,0:0:0:0:
176,293,396763,1,4,0:2:0:0:
219,242,396854,1,0,0:0:0:0:
219,192,396945,2,0,P|201:147|149:122,1,82.5000025177003
66,8,397127,5,12,0:1:0:0:
10,44,397218,1,0,0:0:0:0:
1,109,397309,2,0,P|36:166|84:189,1,82.5000025177003
312,152,397490,5,12,0:1:0:0:
302,112,397581,1,0,0:0:0:0:
273,81,397672,1,0,0:0:0:0:
234,66,397763,1,0,0:0:0:0:
193,74,397854,2,0,P|154:96|146:174,1,82.5000025177003,12|0,0:2|0:0,0:0:0:0:
188,302,398036,2,0,P|227:279|235:202,1,82.5000025177003,8|0,0:0|0:0,0:0:0:0:
347,50,398218,5,12,0:2:0:0:
430,30,398309,1,0,0:0:0:0:
490,92,398399,1,0,0:0:0:0:
468,175,398490,1,0,0:0:0:0:
385,199,398581,1,4,0:2:0:0:
328,263,398672,1,0,0:0:0:0:
358,342,398763,5,8,0:0:0:0:
382,265,398854,1,0,0:0:0:0:
340,206,398945,1,4,0:2:0:0:
277,200,399036,1,0,0:0:0:0:
223,206,399127,1,0,0:0:0:0:
182,186,399218,1,0,0:0:0:0:
169,152,399309,5,12,0:2:0:0:
213,149,399399,1,0,0:0:0:0:
251,171,399490,1,0,0:0:0:0:
272,211,399581,1,0,0:0:0:0:
267,255,399672,1,4,0:2:0:0:
240,290,399763,1,0,0:0:0:0:
198,304,399854,1,0,0:0:0:0:
155,293,399945,1,0,0:0:0:0:
124,261,400036,5,12,0:2:0:0:
161,235,400127,1,0,0:0:0:0:
205,232,400218,1,0,0:0:0:0:
244,253,400309,1,0,0:0:0:0:
267,291,400399,5,12,0:2:0:0:
290,253,400490,1,0,0:0:0:0:
329,230,400581,1,0,0:0:0:0:
373,228,400672,1,0,0:0:0:0:
413,247,400763,1,4,0:2:0:0:
433,277,400854,1,0,0:0:0:0:
438,303,400945,5,8,0:0:0:0:
420,305,401036,1,0,0:0:0:0:
406,301,401127,2,0,P|376:287|353:245,3,44.999998626709,4|0|0|0,0:2|0:0|0:0|0:0,0:0:0:0:
262,86,401490,5,12,0:1:0:0:
310,51,401581,1,0,0:0:0:0:
369,56,401672,2,0,P|405:73|432:125,1,75
371,327,401854,5,12,0:1:0:0:
325,270,401945,1,0,0:0:0:0:
341,200,402036,1,0,0:0:0:0:
406,168,402127,1,0,0:0:0:0:
481,181,402218,2,0,P|510:226|496:292,1,75,12|0,0:1|0:0,0:0:0:0:
334,131,402399,2,0,P|367:89|434:82,1,75
403,331,402581,5,12,0:2:0:0:
349,379,402672,1,0,0:0:0:0:
275,378,402763,1,0,0:0:0:0:
225,325,402854,1,0,0:0:0:0:
226,253,402945,1,4,0:2:0:0:
278,202,403036,1,0,0:0:0:0:
351,202,403127,5,8,0:0:0:0:
306,261,403218,1,0,0:0:0:0:
234,277,403309,1,4,0:2:0:0:
168,246,403399,1,0,0:0:0:0:
136,178,403490,1,0,0:0:0:0:
155,107,403581,1,0,0:0:0:0:
213,62,403672,5,12,0:2:0:0:
230,127,403763,1,0,0:0:0:0:
208,183,403854,1,0,0:0:0:0:
164,213,403945,1,0,0:0:0:0:
118,215,404036,1,4,0:2:0:0:
85,232,404127,1,0,0:0:0:0:
69,259,404218,1,0,0:0:0:0:
68,282,404309,1,0,0:0:0:0:
78,303,404399,2,0,P|111:292|179:248,3,75,12|0|0|0,0:2|0:0|0:0|0:0,0:0:0:0:
274,87,404763,5,12,0:2:0:0:
198,57,404854,1,0,0:0:0:0:
130,102,404945,1,0,0:0:0:0:
131,183,405036,1,0,0:0:0:0:
200,223,405127,1,4,0:2:0:0:
240,293,405218,1,0,0:0:0:0:
191,358,405309,5,8,0:0:0:0:
194,286,405399,1,0,0:0:0:0:
234,250,405490,1,4,0:2:0:0:
269,247,405581,1,0,0:0:0:0:
302,260,405672,2,0,P|336:287|346:357,1,89.9999972534181
468,234,405854,5,12,0:2:0:0:
451,173,405945,1,0,0:0:0:0:
395,142,406036,2,0,P|349:154|319:219,1,89.9999972534181
76,306,406218,5,12,0:2:0:0:
138,310,406309,1,0,0:0:0:0:
182,266,406399,2,0,P|184:218|132:169,1,89.9999972534181
98,33,406581,6,0,P|62:64|65:136,1,89.9999972534181,12|0,0:2|0:0,0:0:0:0:
238,314,406763,2,0,P|273:282|270:210,1,89.9999972534181,8|0,0:0|0:0,0:0:0:0:
234,54,406945,5,12,0:2:0:0:
305,17,407036,1,0,0:0:0:0:
377,50,407127,1,0,0:0:0:0:
397,127,407218,1,0,0:0:0:0:
349,191,407309,1,4,0:2:0:0:
270,194,407399,1,0,0:0:0:0:
218,133,407490,5,8,0:0:0:0:
291,100,407581,1,0,0:0:0:0:
364,134,407672,1,4,0:2:0:0:
386,211,407763,1,0,0:0:0:0:
344,278,407854,1,0,0:0:0:0:
360,355,407945,1,0,0:0:0:0:
436,379,408036,5,12,0:2:0:0:
432,311,408127,1,0,0:0:0:0:
389,268,408218,1,0,0:0:0:0:
336,264,408309,1,0,0:0:0:0:
299,290,408399,1,4,0:2:0:0:
267,309,408490,1,0,0:0:0:0:
237,310,408581,1,0,0:0:0:0:
217,298,408672,1,0,0:0:0:0:
208,276,408763,2,0,P|243:261|265:215,3,75,12|0|0|0,0:2|0:0|0:0|0:0,0:0:0:0:
355,109,409127,2,0,P|337:73|293:52,1,75,10|0,0:0|0:0,0:0:0:0:
162,20,409309,5,8,0:0:0:0:
146,61,409399,1,8,0:0:0:0:
106,82,409490,1,8,0:0:0:0:
89,123,409581,1,0,0:0:0:0:
49,144,409672,2,0,B|15:169|2:224,1,75,10|0,0:0|0:0,0:0:0:0:
69,358,409854,5,8,0:0:0:0:
100,325,409945,1,8,0:0:0:0:
144,318,410036,1,8,0:0:0:0:
173,284,410127,1,0,0:0:0:0:
218,284,410218,2,0,B|289:246|289:246|327:185|327:185|405:145,1,225,10|8,0:0|0:0,0:0:0:0:
476,32,410581,5,0,0:0:0:0:
463,75,410672,1,0,0:0:0:0:
489,111,410763,2,0,B|507:148|507:148|497:196,1,75,10|0,0:0|0:0,0:0:0:0:
459,340,410945,5,8,0:0:0:0:
413,290,411036,1,8,0:0:0:0:
364,242,411127,2,0,L|306:175,1,75,8|8,0:0|0:0,0:0:0:0:
181,18,411309,5,4,0:2:0:0:
112,45,411399,1,0,0:0:0:0:
81,113,411490,1,0,0:0:0:0:
111,181,411581,1,0,0:0:0:0:
179,212,411672,1,4,0:2:0:0:
252,198,411763,1,0,0:0:0:0:
316,236,411854,1,0,0:0:0:0:
321,310,411945,1,0,0:0:0:0:
260,354,412036,1,4,0:2:0:0:
186,340,412127,1,0,0:0:0:0:
153,272,412218,1,0,0:0:0:0:
81,249,412309,1,0,0:0:0:0:
13,279,412399,5,10,0:0:0:0:
54,322,412490,1,0,0:0:0:0:
113,332,412581,1,0,0:0:0:0:
167,307,412672,1,0,0:0:0:0:
190,251,412763,1,4,0:2:0:0:
237,214,412854,1,0,0:0:0:0:
294,197,412945,1,0,0:0:0:0:
352,211,413036,1,0,0:0:0:0:
396,251,413127,5,4,0:2:0:0:
395,266,413218,1,0,0:0:0:0:
395,281,413309,1,0,0:0:0:0:
394,296,413399,1,0,0:0:0:0:
394,311,413490,5,4,0:2:0:0:
319,299,413581,1,0,0:0:0:0:
297,227,413672,1,0,0:0:0:0:
338,164,413763,1,0,0:0:0:0:
412,157,413854,1,4,0:2:0:0:
466,105,413945,1,0,0:0:0:0:
456,30,414036,1,0,0:0:0:0:
385,5,414127,1,0,0:0:0:0:
316,35,414218,1,4,0:2:0:0:
289,105,414309,1,0,0:0:0:0:
219,132,414399,1,0,0:0:0:0:
147,107,414490,1,0,0:0:0:0:
121,36,414581,5,10,0:0:0:0:
135,31,414672,1,0,0:0:0:0:
149,26,414763,2,0,L|199:11,1,37.5
111,181,414945,1,4,0:2:0:0:
97,176,415036,1,0,0:0:0:0:
83,171,415127,2,0,L|32:157,1,37.5
187,102,415309,6,0,L|248:91,1,56.2500021457673,4|0,0:2|0:0,0:0:0:0:
338,164,415490,2,0,L|415:177,1,75,4|0,0:2|0:0,0:0:0:0:
458,93,415672,5,4,0:1:0:0:
420,36,415763,1,0,0:0:0:0:
352,25,415854,1,0,0:0:0:0:
291,55,415945,1,0,0:0:0:0:
273,120,416036,1,4,0:2:0:0:
295,183,416127,1,0,0:0:0:0:
271,246,416218,1,0,0:0:0:0:
209,273,416309,1,0,0:0:0:0:
143,259,416399,1,4,0:2:0:0:
110,200,416490,1,0,0:0:0:0:
124,133,416581,1,0,0:0:0:0:
97,70,416672,1,0,0:0:0:0:
31,54,416763,5,10,0:0:0:0:
54,109,416854,1,0,0:0:0:0:
108,134,416945,1,0,0:0:0:0:
167,122,417036,1,0,0:0:0:0:
203,74,417127,1,4,0:2:0:0:
230,21,417217,1,0,0:0:0:0:
286,1,417308,1,0,0:0:0:0:
344,18,417399,1,0,0:0:0:0:
376,69,417490,2,0,L|369:112,3,37.5,4|0|0|0,0:2|0:0|0:0|0:0,0:0:0:0:
479,192,417854,5,4,0:1:0:0:
464,257,417945,1,0,0:0:0:0:
403,286,418036,1,0,0:0:0:0:
337,271,418127,1,0,0:0:0:0:
302,212,418218,1,4,0:2:0:0:
320,146,418309,1,0,0:0:0:0:
294,84,418399,1,0,0:0:0:0:
230,62,418490,1,0,0:0:0:0:
168,90,418581,1,4,0:2:0:0:
149,155,418672,1,0,0:0:0:0:
178,215,418763,1,0,0:0:0:0:
151,277,418854,1,0,0:0:0:0:
85,293,418945,2,0,P|83:266|74:244,3,37.5,10|0|0|0,0:0|0:0|0:0|0:0,0:0:0:0:
0,365,419309,5,4,0:2:0:0:
7,363,419399,1,0,0:0:0:0:
14,361,419490,1,0,0:0:0:0:
21,359,419581,1,0,0:0:0:0:
28,357,419672,6,0,L|88:362,1,56.2500021457673,4|0,0:2|0:0,0:0:0:0:
174,294,419854,2,0,L|257:286,1,75,4|0,0:2|0:0,0:0:0:0:
354,340,420036,5,4,0:2:0:0:
282,362,420127,1,0,0:0:0:0:
213,331,420218,1,0,0:0:0:0:
195,258,420309,1,0,0:0:0:0:
229,192,420399,1,4,0:2:0:0:
302,174,420490,1,0,0:0:0:0:
370,205,420581,1,0,0:0:0:0:
444,196,420672,1,0,0:0:0:0:
487,135,420763,1,4,0:2:0:0:
472,61,420854,1,0,0:0:0:0:
407,23,420945,1,0,0:0:0:0:
332,35,421036,1,0,0:0:0:0:
290,97,421127,5,10,0:0:0:0:
257,46,421218,1,0,0:0:0:0:
198,34,421309,1,0,0:0:0:0:
143,56,421399,1,0,0:0:0:0:
121,112,421490,1,4,0:2:0:0:
138,169,421581,1,0,0:0:0:0:
184,206,421672,1,0,0:0:0:0:
200,263,421763,1,0,0:0:0:0:
176,318,421854,2,0,P|164:300|148:293,3,37.5,4|0|0|0,0:2|0:0|0:0|0:0,0:0:0:0:
7,276,422218,5,4,0:2:0:0:
41,209,422309,1,0,0:0:0:0:
112,187,422399,1,0,0:0:0:0:
184,206,422490,1,0,0:0:0:0:
220,271,422581,1,4,0:2:0:0:
254,338,422673,1,0,0:0:0:0:
325,360,422763,1,0,0:0:0:0:
397,339,422854,1,0,0:0:0:0:
440,278,422945,1,4,0:2:0:0:
434,203,423036,1,0,0:0:0:0:
382,148,423127,1,0,0:0:0:0:
307,138,423218,1,0,0:0:0:0:
244,178,423309,5,10,0:0:0:0:
308,228,423399,1,0,0:0:0:0:
390,230,423490,1,0,0:0:0:0:
454,178,423581,1,0,0:0:0:0:
462,95,423672,1,4,0:2:0:0:
415,26,423763,1,0,0:0:0:0:
326,12,423854,1,0,0:0:0:0:
254,52,423945,1,0,0:0:0:0:
223,125,424036,2,0,L|248:188,3,56.2500021457673,4|0|0|0,0:2|0:0|0:0|0:0,0:0:0:0:
176,318,424399,5,4,0:1:0:0:
113,342,424490,1,0,0:0:0:0:
49,319,424581,1,0,0:0:0:0:
21,257,424672,1,0,0:0:0:0:
47,194,424763,1,4,0:2:0:0:
109,169,424854,1,0,0:0:0:0:
172,191,424945,1,0,0:0:0:0:
236,170,425036,1,0,0:0:0:0:
264,108,425127,1,4,0:2:0:0:
238,45,425218,1,0,0:0:0:0:
176,20,425309,1,0,0:0:0:0:
113,42,425400,1,0,0:0:0:0:
87,103,425490,5,10,0:0:0:0:
124,98,425581,1,0,0:0:0:0:
161,93,425672,1,0,0:0:0:0:
198,88,425763,1,0,0:0:0:0:
235,83,425854,1,4,0:2:0:0:
272,78,425945,1,0,0:0:0:0:
309,73,426036,1,0,0:0:0:0:
346,68,426127,1,0,0:0:0:0:
383,63,426218,2,0,L|440:54,3,56.2500021457673,4|0|0|0,0:2|0:0|0:0|0:0,0:0:0:0:
512,178,426581,5,4,0:2:0:0:
501,175,426672,1,0,0:0:0:0:
490,172,426763,1,0,0:0:0:0:
479,169,426854,1,0,0:0:0:0:
468,166,426945,1,4,0:2:0:0:
457,163,427036,1,0,0:0:0:0:
446,160,427127,1,0,0:0:0:0:
435,157,427218,1,0,0:0:0:0:
424,154,427309,2,0,L|374:139,3,37.5,4|0|0|0,0:2|0:0|0:0|0:0,0:0:0:0:
410,277,427672,5,10,0:0:0:0:
446,294,427763,1,0,0:0:0:0:
481,276,427854,2,0,P|490:247|487:223,1,37.5
355,229,428036,5,12,0:2:0:0:
322,251,428127,1,0,0:0:0:0:
320,290,428218,2,0,P|340:312|362:321,1,37.5
423,204,428399,5,12,0:2:0:0:
421,164,428490,1,0,0:0:0:0:
388,143,428581,2,0,P|358:149|339:164,1,37.5
176,318,428763,5,4,0:1:0:0:
116,311,428854,1,0,0:0:0:0:
81,261,428945,1,0,0:0:0:0:
88,201,429036,1,0,0:0:0:0:
136,164,429127,1,4,0:2:0:0:
196,165,429218,1,0,0:0:0:0:
245,130,429309,1,0,0:0:0:0:
260,72,429399,1,0,0:0:0:0:
231,18,429490,1,4,0:2:0:0:
172,3,429581,1,0,0:0:0:0:
115,24,429672,1,0,0:0:0:0:
88,78,429763,1,0,0:0:0:0:
104,135,429854,5,10,0:0:0:0:
139,95,429945,1,0,0:0:0:0:
190,87,430036,1,0,0:0:0:0:
241,97,430127,1,0,0:0:0:0:
277,134,430218,1,4,0:2:0:0:
323,159,430309,1,0,0:0:0:0:
374,160,430399,1,0,0:0:0:0:
422,140,430490,1,0,0:0:0:0:
449,95,430581,2,0,L|461:38,3,56.2500021457673,4|0|0|0,0:2|0:0|0:0|0:0,0:0:0:0:
494,202,430945,5,4,0:2:0:0:
467,251,431036,1,0,0:0:0:0:
414,270,431127,1,0,0:0:0:0:
358,260,431218,1,0,0:0:0:0:
323,215,431309,1,4,0:2:0:0:
323,159,431399,1,0,0:0:0:0:
297,108,431490,1,0,0:0:0:0:
241,97,431581,1,0,0:0:0:0:
191,123,431672,1,4,0:2:0:0:
183,178,431763,1,0,0:0:0:0:
212,226,431854,1,0,0:0:0:0:
211,282,431945,1,0,0:0:0:0:
174,325,432036,5,10,0:0:0:0:
169,314,432127,1,0,0:0:0:0:
164,303,432218,2,0,L|140:233,1,56.2500021457673
287,298,432399,5,4,0:2:0:0:
282,309,432490,1,0,0:0:0:0:
277,320,432581,2,0,L|253:390,1,56.2500021457673
88,384,432763,6,0,L|69:316,1,56.2500021457673,4|0,0:2|0:0,0:0:0:0:
124,238,432945,2,0,L|144:159,1,75,4|0,0:2|0:0,0:0:0:0:
69,16,433127,5,4,0:1:0:0:
18,61,433218,1,0,0:0:0:0:
24,128,433309,1,0,0:0:0:0:
75,170,433399,1,0,0:0:0:0:
142,165,433490,1,4,0:2:0:0:
190,118,433581,1,0,0:0:0:0:
196,50,433672,1,0,0:0:0:0:
247,6,433763,1,0,0:0:0:0:
314,10,433854,1,4,0:2:0:0:
362,56,433945,1,0,0:0:0:0:
363,123,434036,1,0,0:0:0:0:
319,175,434127,1,0,0:0:0:0:
251,174,434218,5,10,0:0:0:0:
277,120,434309,1,0,0:0:0:0:
335,108,434399,1,0,0:0:0:0:
388,135,434490,1,0,0:0:0:0:
407,191,434581,1,4,0:2:0:0:
381,245,434672,1,0,0:0:0:0:
322,259,434763,1,0,0:0:0:0:
297,313,434854,1,0,0:0:0:0:
327,365,434945,1,4,0:2:0:0:
385,379,435036,1,0,0:0:0:0:
431,340,435127,1,0,0:0:0:0:
430,279,435218,1,0,0:0:0:0:
381,245,435309,5,4,0:2:0:0:
368,252,435399,1,0,0:0:0:0:
355,259,435490,1,0,0:0:0:0:
342,266,435581,1,0,0:0:0:0:
329,273,435672,1,4,0:2:0:0:
316,280,435763,1,0,0:0:0:0:
303,287,435854,1,0,0:0:0:0:
290,294,435945,1,0,0:0:0:0:
277,301,436036,1,4,0:2:0:0:
264,308,436126,1,0,0:0:0:0:
251,315,436217,1,0,0:0:0:0:
238,322,436308,1,0,0:0:0:0:
225,329,436399,5,10,0:0:0:0:
257,374,436490,1,0,0:0:0:0:
313,378,436581,1,0,0:0:0:0:
361,349,436672,1,0,0:0:0:0:
371,293,436763,2,0,P|358:248|338:229,1,56.2500021457673,4|0,0:2|0:0,0:0:0:0:
176,223,436945,5,0,0:0:0:0:
133,184,437036,1,0,0:0:0:0:
132,127,437127,1,4,0:2:0:0:
165,82,437218,1,0,0:0:0:0:
219,67,437309,2,0,P|255:88|271:114,1,56.2500021457673,4|0,0:2|0:0,0:0:0:0:
225,329,437490,5,4,0:1:0:0:
152,367,437581,1,0,0:0:0:0:
70,351,437672,1,0,0:0:0:0:
24,282,437763,1,0,0:0:0:0:
40,201,437854,1,4,0:2:0:0:
108,155,437945,1,0,0:0:0:0:
190,162,438036,1,0,0:0:0:0:
246,222,438127,1,0,0:0:0:0:
322,253,438218,1,4,0:2:0:0:
403,240,438309,1,0,0:0:0:0:
457,179,438399,1,0,0:0:0:0:
454,96,438490,1,0,0:0:0:0:
393,40,438581,5,10,0:0:0:0:
383,76,438672,1,0,0:0:0:0:
373,112,438763,1,0,0:0:0:0:
363,148,438854,1,0,0:0:0:0:
353,184,438945,1,4,0:2:0:0:
343,220,439036,1,0,0:0:0:0:
333,256,439127,1,0,0:0:0:0:
323,292,439218,1,0,0:0:0:0:
313,328,439309,2,0,L|330:369,3,37.5,4|0|0|0,0:2|0:0|0:0|0:0,0:0:0:0:
512,286,439672,5,4,0:2:0:0:
464,218,439763,1,0,0:0:0:0:
386,189,439854,1,0,0:0:0:0:
306,210,439945,1,0,0:0:0:0:
256,276,440036,1,4,0:2:0:0:
208,344,440126,1,0,0:0:0:0:
130,373,440217,1,0,0:0:0:0:
50,352,440308,1,0,0:0:0:0:
0,285,440399,2,0,L|11:229,3,37.5,4|0|0|0,0:2|0:0|0:0|0:0,0:0:0:0:
163,4,440763,5,10,0:0:0:0:
238,52,440854,1,0,0:0:0:0:
259,139,440945,1,0,0:0:0:0:
217,219,441036,1,0,0:0:0:0:
130,245,441127,1,4,0:2:0:0:
54,195,441218,1,0,0:0:0:0:
28,108,441309,1,0,0:0:0:0:
79,35,441399,1,0,0:0:0:0:
163,4,441490,2,0,L|212:35,3,56.2500021457673,4|0|0|0,0:2|0:0|0:0|0:0,0:0:0:0:
306,210,441854,5,4,0:1:0:0:
376,235,441945,1,0,0:0:0:0:
449,217,442036,1,0,0:0:0:0:
486,151,442127,1,0,0:0:0:0:
476,76,442218,1,4,0:2:0:0:
418,27,442309,1,0,0:0:0:0:
343,26,442399,1,0,0:0:0:0:
282,70,442490,1,0,0:0:0:0:
254,139,442581,1,4,0:2:0:0:
182,161,442672,1,0,0:0:0:0:
113,129,442763,1,0,0:0:0:0:
106,54,442854,1,0,0:0:0:0:
163,4,442945,5,10,0:0:0:0:
183,60,443036,1,0,0:0:0:0:
165,117,443127,1,0,0:0:0:0:
109,140,443218,1,0,0:0:0:0:
48,137,443309,1,4,0:2:0:0:
1,170,443399,1,0,0:0:0:0:
1,230,443490,1,0,0:0:0:0:
43,272,443581,1,0,0:0:0:0:
103,269,443672,1,4,0:2:0:0:
137,219,443763,1,0,0:0:0:0:
196,210,443854,1,0,0:0:0:0:
246,241,443945,1,0,0:0:0:0:
249,300,444036,5,10,0:0:0:0:
209,278,444127,1,0,0:0:0:0:
193,235,444218,1,0,0:0:0:0:
205,191,444309,1,0,0:0:0:0:
241,165,444399,2,0,P|265:160|318:173,1,56.2500021457673,4|0,0:2|0:0,0:0:0:0:
356,296,444581,5,8,0:0:0:0:
379,320,444672,1,0,0:0:0:0:
410,331,444763,1,4,0:2:0:0:
443,329,444854,1,0,0:0:0:0:
472,313,444945,2,0,P|490:268|485:245,1,56.2500021457673
403,153,445127,5,12,0:2:0:0:
406,169,445218,1,0,0:0:0:0:
408,185,445309,2,0,L|419:267,1,56.2500021457673
299,87,445490,5,12,0:2:0:0:
302,71,445581,1,0,0:0:0:0:
304,55,445672,2,0,L|315:-27,1,56.2500021457673
412,0,445854,6,0,L|399:80,1,56.2500021457673,12|0,0:2|0:0,0:0:0:0:
305,218,446036,2,0,L|295:162,1,56.2500021457673
163,4,446218,5,4,0:1:0:0:
