osu file format v14

[General]
AudioFilename: audio.mp3
AudioLeadIn: 0
PreviewTime: 86914
Countdown: 0
SampleSet: Normal
StackLeniency: 0.7
Mode: 1
LetterboxInBreaks: 0
WidescreenStoryboard: 0

[Editor]
Bookmarks: 0,10971,21942,32914,43885,54857,65828,76800,87771,98742,112457,120685,131657,142628,153600,175542,197485,208457,222171,230400,241371,252342
DistanceSpacing: 0.8
BeatDivisor: 4
GridSize: 32
TimelineZoom: 2.1

[Metadata]
Title:Cross The Line (Ft. Ayah Marar) (Metrik Remix)
TitleUnicode:Cross The Line (Ft. Ayah Marar) (Metrik Remix)
Artist:Camo & Krooked
ArtistUnicode:Camo & Krooked
Creator:gaston_2199
Version:Limit
Source:
Tags:dnb drum and bass between the lines hospital records
BeatmapID:1932771
BeatmapSetID:925262

[Difficulty]
HPDrainRate:6
CircleSize:2
OverallDifficulty:6
ApproachRate:10
SliderMultiplier:1.4
SliderTickRate:1

[Events]
//Background and Video events
0,0,"BG.jpg",0,120
//Break Periods
//Storyboard Layer 0 (Background)
//Storyboard Layer 1 (Fail)
//Storyboard Layer 2 (Pass)
//Storyboard Layer 3 (Foreground)
//Storyboard Sound Samples

[TimingPoints]
0,342.857142857143,4,1,0,80,1,0
0,-133.333333333333,4,1,0,80,0,0
43028,-125,4,1,0,80,0,0
43200,-117.647058823529,4,1,0,80,0,0
43371,-111.111111111111,4,1,0,80,0,0
43542,-105.263157894737,4,1,0,80,0,0
43714,-100,4,1,0,80,0,0
43885,-76.9230769230769,4,1,0,80,0,0
44057,-71.4285714285714,4,1,0,80,0,0
44571,-76.9230769230769,4,1,0,80,0,0
45085,-100,4,1,0,80,0,0
45257,-83.3333333333333,4,1,0,80,0,0
45428,-71.4285714285714,4,1,0,80,0,0
45771,-66.6666666666667,4,1,0,80,0,0
45942,-58.8235294117647,4,1,0,80,0,0
46628,-76.9230769230769,4,1,0,80,0,0
48685,-100,4,1,0,80,0,0
48771,-98.0392156862745,4,1,0,80,0,0
48857,-96.1538461538461,4,1,0,80,0,0
48942,-94.3396226415094,4,1,0,80,0,0
49028,-92.5925925925926,4,1,0,80,0,0
49114,-90.0900900900901,4,1,0,80,0,0
49200,-87.719298245614,4,1,0,80,0,0
49285,-85.4700854700855,4,1,0,80,0,0
49371,-83.3333333333333,4,1,0,80,0,0
49542,-71.4285714285714,4,1,0,80,0,0
49885,-66.6666666666667,4,1,0,80,0,0
50742,-83.3333333333333,4,1,0,80,0,0
51257,-100,4,1,0,80,0,0
52114,-200,4,1,0,80,0,0
53828,-133.333333333333,4,1,0,80,0,0
54857,-76.9230769230769,4,1,0,80,0,0
55029,-71.4285714285714,4,1,0,80,0,0
55543,-76.9230769230769,4,1,0,80,0,0
56057,-100,4,1,0,80,0,0
56228,-83.3333333333333,4,1,0,80,0,0
56400,-71.4285714285714,4,1,0,80,0,0
56743,-66.6666666666667,4,1,0,80,0,0
56914,-58.8235294117647,4,1,0,80,0,0
57600,-66.6666666666667,4,1,0,80,0,0
59657,-100,4,1,0,80,0,0
59742,-98.0392156862745,4,1,0,80,0,0
59828,-96.1538461538461,4,1,0,80,0,0
59914,-94.3396226415094,4,1,0,80,0,0
60000,-92.5925925925926,4,1,0,80,0,0
60085,-90.0900900900901,4,1,0,80,0,0
60171,-87.719298245614,4,1,0,80,0,0
60257,-85.4700854700855,4,1,0,80,0,0
60342,-83.3333333333333,4,1,0,80,0,0
60514,-71.4285714285714,4,1,0,80,0,0
60857,-66.6666666666667,4,1,0,80,0,0
61714,-83.3333333333333,4,1,0,80,0,0
62228,-100,4,1,0,80,0,0
63085,-200,4,1,0,80,0,0
65828,-133.333333333333,4,1,0,80,0,0
76799,-125,4,1,0,80,0,0
78000,-123.456790123457,4,1,0,80,0,0
78085,-120.481927710843,4,1,0,80,0,0
78171,-117.647058823529,4,1,0,80,0,0
79371,-116.279069767442,4,1,0,80,0,0
79457,-114.942528735632,4,1,0,80,0,0
79542,-113.636363636364,4,1,0,80,0,0
79628,-112.359550561798,4,1,0,80,0,0
79714,-111.111111111111,4,1,0,80,0,0
80742,-109.89010989011,4,1,0,80,0,0
80828,-108.695652173913,4,1,0,80,0,0
80914,-107.52688172043,4,1,0,80,0,0
81000,-106.382978723404,4,1,0,80,0,0
81085,-105.263157894737,4,1,0,80,0,0
82285,-100,4,1,0,80,0,0
87085,-105.263157894737,4,1,0,80,0,0
87257,-111.111111111111,4,1,0,80,0,0
87428,-117.647058823529,4,1,0,80,0,0
87600,-125,4,1,0,80,0,0
87771,-100,4,1,0,90,0,1
88971,-95.2380952380952,4,1,0,90,0,1
89057,-90.9090909090909,4,1,0,90,0,1
89142,-86.9565217391304,4,1,0,90,0,1
90514,-90.9090909090909,4,1,0,90,0,1
90600,-95.2380952380952,4,1,0,90,0,1
90685,-100,4,1,0,90,0,1
92571,-98.0392156862745,4,1,0,90,0,1
92656,-96.1538461538461,4,1,0,90,0,1
92742,-92.5925925925926,4,1,0,90,0,1
92828,-89.2857142857143,4,1,0,90,0,1
92914,-86.2068965517241,4,1,0,90,0,1
92999,-83.3333333333333,4,1,0,90,0,1
93085,-80.6451612903226,4,1,0,90,0,1
93171,-78.125,4,1,0,90,0,1
93257,-75.7575757575758,4,1,0,90,0,0
93600,-100,4,1,0,90,0,1
93771,-102.040816326531,4,1,0,90,0,1
93857,-103.092783505155,4,1,0,90,0,1
93942,-104.166666666667,4,1,0,90,0,1
94114,-106.382978723404,4,1,0,90,0,1
94285,-108.695652173913,4,1,0,90,0,1
94457,-111.111111111111,4,1,0,90,0,1
94542,-112.359550561798,4,1,0,90,0,1
94628,-113.636363636364,4,1,0,90,0,1
94714,-114.942528735632,4,1,0,90,0,1
94800,-116.279069767442,4,1,0,90,0,1
94885,-117.647058823529,4,1,0,90,0,1
94971,-119.047619047619,4,1,0,90,0,1
95142,-121.951219512195,4,1,0,90,0,1
95228,-123.456790123457,4,1,0,90,0,1
95314,-125,4,1,0,90,0,1
95485,-128.205128205128,4,1,0,90,0,1
95657,-129.87012987013,4,1,0,90,0,1
95828,-131.578947368421,4,1,0,90,0,1
96000,-133.333333333333,4,1,0,90,0,0
96342,-100,4,1,0,90,0,1
96513,-102.040816326531,4,1,0,90,0,1
96599,-103.092783505155,4,1,0,90,0,1
96684,-104.166666666667,4,1,0,90,0,1
96856,-106.382978723404,4,1,0,90,0,1
97027,-108.695652173913,4,1,0,90,0,1
97199,-111.111111111111,4,1,0,90,0,1
97284,-112.359550561798,4,1,0,90,0,1
97370,-113.636363636364,4,1,0,90,0,1
97456,-114.942528735632,4,1,0,90,0,1
97542,-116.279069767442,4,1,0,90,0,1
97627,-117.647058823529,4,1,0,90,0,1
97713,-119.047619047619,4,1,0,90,0,1
97884,-121.951219512195,4,1,0,90,0,1
97970,-123.456790123457,4,1,0,90,0,1
98056,-125,4,1,0,90,0,1
98227,-128.205128205128,4,1,0,90,0,1
98400,-131.578947368421,4,1,0,90,0,0
98485,-135.135135135135,4,1,0,90,0,0
98570,-138.888888888889,4,1,0,90,0,0
98742,-100,4,1,0,90,0,1
99942,-95.2380952380952,4,1,0,90,0,1
100028,-90.9090909090909,4,1,0,90,0,1
100113,-86.9565217391304,4,1,0,90,0,1
101485,-90.9090909090909,4,1,0,90,0,1
101571,-95.2380952380952,4,1,0,90,0,1
101656,-100,4,1,0,90,0,1
103542,-98.0392156862745,4,1,0,90,0,1
103628,-96.1538461538461,4,1,0,90,0,1
103713,-92.5925925925926,4,1,0,90,0,1
103799,-89.2857142857143,4,1,0,90,0,1
103885,-86.2068965517241,4,1,0,90,0,1
103970,-83.3333333333333,4,1,0,90,0,1
104056,-80.6451612903226,4,1,0,90,0,1
104142,-78.125,4,1,0,90,0,1
104228,-75.7575757575758,4,1,0,90,0,0
104571,-100,4,1,0,90,0,1
104742,-102.040816326531,4,1,0,90,0,1
104828,-103.092783505155,4,1,0,90,0,1
104913,-104.166666666667,4,1,0,90,0,1
105085,-106.382978723404,4,1,0,90,0,1
105256,-108.695652173913,4,1,0,90,0,1
105428,-111.111111111111,4,1,0,90,0,1
105513,-112.359550561798,4,1,0,90,0,1
105599,-113.636363636364,4,1,0,90,0,1
105685,-114.942528735632,4,1,0,90,0,1
105771,-116.279069767442,4,1,0,90,0,1
105856,-117.647058823529,4,1,0,90,0,1
105942,-119.047619047619,4,1,0,90,0,1
106113,-121.951219512195,4,1,0,90,0,1
106199,-123.456790123457,4,1,0,90,0,1
106285,-125,4,1,0,90,0,1
106456,-128.205128205128,4,1,0,90,0,1
106628,-129.87012987013,4,1,0,90,0,1
106799,-131.578947368421,4,1,0,90,0,1
106971,-133.333333333333,4,1,0,90,0,0
107314,-100,4,1,0,90,0,1
107484,-102.040816326531,4,1,0,90,0,1
107570,-103.092783505155,4,1,0,90,0,1
107655,-104.166666666667,4,1,0,90,0,1
107827,-106.382978723404,4,1,0,90,0,1
107998,-108.695652173913,4,1,0,90,0,1
108170,-111.111111111111,4,1,0,90,0,1
108255,-112.359550561798,4,1,0,90,0,1
108341,-113.636363636364,4,1,0,90,0,1
108427,-114.942528735632,4,1,0,90,0,1
108513,-116.279069767442,4,1,0,90,0,1
108598,-117.647058823529,4,1,0,90,0,1
108684,-119.047619047619,4,1,0,90,0,1
108855,-121.951219512195,4,1,0,90,0,1
108941,-123.456790123457,4,1,0,90,0,1
109027,-125,4,1,0,90,0,1
109198,-128.205128205128,4,1,0,90,0,1
109371,-131.578947368421,4,1,0,90,0,0
109456,-135.135135135135,4,1,0,90,0,0
109541,-138.888888888889,4,1,0,90,0,0
109714,-100,4,1,0,90,0,0
111771,-105.263157894737,4,1,0,80,0,0
111942,-111.111111111111,4,1,0,80,0,0
112114,-117.647058823529,4,1,0,80,0,0
112285,-125,4,1,0,80,0,0
112457,-100,4,1,0,90,0,1
114514,-98.0392156862745,4,1,0,90,0,1
114599,-96.1538461538461,4,1,0,90,0,1
114685,-92.5925925925926,4,1,0,90,0,1
114771,-89.2857142857143,4,1,0,90,0,1
114857,-86.2068965517241,4,1,0,90,0,1
114942,-83.3333333333333,4,1,0,90,0,1
115028,-80.6451612903226,4,1,0,90,0,1
115114,-78.125,4,1,0,90,0,1
115200,-75.7575757575758,4,1,0,90,0,1
115371,-78.125,4,1,0,90,0,1
115542,-80.6451612903226,4,1,0,90,0,1
115714,-83.3333333333333,4,1,0,90,0,1
115800,-85.4700854700855,4,1,0,90,0,1
115885,-87.719298245614,4,1,0,90,0,1
115971,-90.0900900900901,4,1,0,90,0,1
116057,-92.5925925925926,4,1,0,90,0,1
116228,-96.1538461538461,4,1,0,90,0,1
116400,-100,4,1,0,90,0,1
116571,-95.2380952380952,4,1,0,90,0,1
116657,-90.9090909090909,4,1,0,90,0,1
116742,-86.9565217391304,4,1,0,90,0,1
117771,-90.9090909090909,4,1,0,90,0,1
117828,-93.4579439252336,4,1,0,90,0,1
117885,-96.1538461538461,4,1,0,90,0,1
117942,-100,4,1,0,90,0,1
122057,-95.2380952380952,4,1,0,90,0,1
122142,-90.9090909090909,4,1,0,90,0,1
122228,-86.9565217391304,4,1,0,90,0,1
123257,-89.2857142857143,4,1,0,90,0,1
123342,-91.743119266055,4,1,0,90,0,1
123428,-94.3396226415094,4,1,0,90,0,1
123514,-97.0873786407767,4,1,0,90,0,1
123600,-100,4,1,0,90,0,1
125485,-98.0392156862745,4,1,0,90,0,1
125571,-96.1538461538461,4,1,0,90,0,1
125656,-92.5925925925926,4,1,0,90,0,1
125742,-89.2857142857143,4,1,0,90,0,1
125828,-86.2068965517241,4,1,0,90,0,1
125913,-83.3333333333333,4,1,0,90,0,1
125999,-80.6451612903226,4,1,0,90,0,1
126085,-78.125,4,1,0,90,0,1
126171,-75.7575757575758,4,1,0,90,0,1
126514,-100,4,1,0,90,0,1
130971,-105.263157894737,4,1,0,90,0,1
131142,-111.111111111111,4,1,0,90,0,1
131314,-117.647058823529,4,1,0,90,0,1
131485,-125,4,1,0,90,0,1
131657,-100,4,1,0,80,0,0
136628,-95.2380952380952,4,1,0,80,0,0
136714,-92.5925925925926,4,1,0,80,0,0
136800,-90.0900900900901,4,1,0,80,0,0
136971,-88.4955752212389,4,1,0,80,0,0
137142,-86.9565217391304,4,1,0,80,0,0
137314,-89.2857142857143,4,1,0,80,0,0
137400,-91.743119266055,4,1,0,80,0,0
137485,-94.3396226415094,4,1,0,80,0,0
137657,-97.0873786407767,4,1,0,80,0,0
137742,-98.0392156862745,4,1,0,80,0,0
137828,-99.009900990099,4,1,0,80,0,0
138000,-100,4,1,0,80,0,0
142200,-97.0873786407767,4,1,0,80,0,0
142285,-94.3396226415094,4,1,0,80,0,0
142371,-91.743119266055,4,1,0,80,0,0
142457,-89.2857142857143,4,1,0,80,0,0
142628,-86.9565217391304,4,1,0,80,0,0
142800,-89.2857142857143,4,1,0,80,0,0
142885,-91.743119266055,4,1,0,80,0,0
142971,-94.3396226415094,4,1,0,80,0,0
143142,-97.0873786407767,4,1,0,80,0,0
143228,-98.0392156862745,4,1,0,80,0,0
143314,-99.009900990099,4,1,0,80,0,0
143485,-100,4,1,0,80,0,0
147600,-95.2380952380952,4,1,0,80,0,0
147685,-92.5925925925926,4,1,0,80,0,0
147771,-90.0900900900901,4,1,0,80,0,0
147942,-88.4955752212389,4,1,0,80,0,0
148114,-86.9565217391304,4,1,0,80,0,0
148285,-89.2857142857143,4,1,0,80,0,0
148371,-91.743119266055,4,1,0,80,0,0
148457,-94.3396226415094,4,1,0,80,0,0
148628,-97.0873786407767,4,1,0,80,0,0
148714,-98.0392156862745,4,1,0,80,0,0
148800,-99.009900990099,4,1,0,80,0,0
148885,-100,4,1,0,80,0,0
153685,-25,4,1,0,80,0,0
159085,-100,4,1,0,80,0,0
175542,-133.333333333333,4,1,0,80,0,0
179828,-129.87012987013,4,1,0,80,0,0
180000,-128.205128205128,4,1,0,80,0,0
180085,-126.582278481013,4,1,0,80,0,0
180171,-125,4,1,0,80,0,0
180342,-120.481927710843,4,1,0,80,0,0
180514,-113.636363636364,4,1,0,80,0,0
180600,-111.111111111111,4,1,0,80,0,0
180685,-108.695652173913,4,1,0,80,0,0
180771,-106.382978723404,4,1,0,80,0,0
180857,-102.040816326531,4,1,0,80,0,0
181028,-100,4,1,0,80,0,0
181371,-119.047619047619,4,1,0,80,0,0
181714,-133.333333333333,4,1,0,80,0,0
185314,-129.87012987013,4,1,0,80,0,0
185485,-128.205128205128,4,1,0,80,0,0
185571,-126.582278481013,4,1,0,80,0,0
185657,-125,4,1,0,80,0,0
185828,-120.481927710843,4,1,0,80,0,0
186000,-113.636363636364,4,1,0,80,0,0
186085,-111.111111111111,4,1,0,80,0,0
186171,-108.695652173913,4,1,0,80,0,0
186257,-106.382978723404,4,1,0,80,0,0
186342,-102.040816326531,4,1,0,80,0,0
186514,-100,4,1,0,80,0,0
186685,-105.263157894737,4,1,0,80,0,0
186857,-111.111111111111,4,1,0,80,0,0
187028,-117.647058823529,4,1,0,80,0,0
187114,-120.481927710843,4,1,0,80,0,0
187200,-125,4,1,0,80,0,0
187714,-123.456790123457,4,1,0,80,0,0
187799,-120.481927710843,4,1,0,80,0,0
187885,-117.647058823529,4,1,0,80,0,0
189085,-116.279069767442,4,1,0,80,0,0
189171,-114.942528735632,4,1,0,80,0,0
189256,-113.636363636364,4,1,0,80,0,0
189342,-112.359550561798,4,1,0,80,0,0
189428,-111.111111111111,4,1,0,80,0,0
190456,-109.89010989011,4,1,0,80,0,0
190542,-108.695652173913,4,1,0,80,0,0
190628,-107.52688172043,4,1,0,80,0,0
190714,-106.382978723404,4,1,0,80,0,0
190799,-105.263157894737,4,1,0,80,0,0
191999,-100,4,1,0,80,0,0
196799,-105.263157894737,4,1,0,80,0,0
196971,-111.111111111111,4,1,0,80,0,0
197142,-117.647058823529,4,1,0,80,0,0
197314,-125,4,1,0,80,0,0
197485,-100,4,1,0,90,0,1
198685,-97.0873786407767,4,1,0,90,0,1
198771,-94.3396226415094,4,1,0,90,0,1
198857,-91.743119266055,4,1,0,90,0,1
198942,-89.2857142857143,4,1,0,90,0,1
199028,-86.9565217391304,4,1,0,90,0,1
200228,-89.2857142857143,4,1,0,90,0,1
200314,-91.743119266055,4,1,0,90,0,1
200400,-94.3396226415094,4,1,0,90,0,1
200485,-97.0873786407767,4,1,0,90,0,1
200571,-100,4,1,0,90,0,1
202285,-98.0392156862745,4,1,0,90,0,1
202370,-96.1538461538461,4,1,0,90,0,1
202456,-92.5925925925926,4,1,0,90,0,1
202542,-89.2857142857143,4,1,0,90,0,1
202628,-86.2068965517241,4,1,0,90,0,1
202713,-83.3333333333333,4,1,0,90,0,1
202799,-80.6451612903226,4,1,0,90,0,1
202885,-78.125,4,1,0,90,0,1
202971,-75.7575757575758,4,1,0,90,0,0
203057,-80.6451612903226,4,1,0,90,0,0
203142,-86.2068965517241,4,1,0,90,0,0
203228,-92.5925925925926,4,1,0,90,0,0
203314,-100,4,1,0,90,0,1
203485,-102.040816326531,4,1,0,90,0,1
203571,-103.092783505155,4,1,0,90,0,1
203657,-104.166666666667,4,1,0,90,0,1
203828,-106.382978723404,4,1,0,90,0,1
204000,-108.695652173913,4,1,0,90,0,1
204085,-109.89010989011,4,1,0,90,0,1
204171,-111.111111111111,4,1,0,90,0,1
204257,-112.359550561798,4,1,0,90,0,1
204342,-113.636363636364,4,1,0,90,0,1
204428,-114.942528735632,4,1,0,90,0,1
204514,-116.279069767442,4,1,0,90,0,1
204600,-117.647058823529,4,1,0,90,0,1
204685,-119.047619047619,4,1,0,90,0,1
204857,-121.951219512195,4,1,0,90,0,1
204942,-123.456790123457,4,1,0,90,0,1
205028,-125,4,1,0,90,0,1
205114,-126.582278481013,4,1,0,90,0,1
205200,-128.205128205128,4,1,0,90,0,1
205371,-129.87012987013,4,1,0,90,0,1
205542,-131.578947368421,4,1,0,90,0,1
205714,-133.333333333333,4,1,0,90,0,0
206056,-100,4,1,0,90,0,1
206057,-100,4,1,0,90,0,1
206228,-102.040816326531,4,1,0,90,0,1
206314,-103.092783505155,4,1,0,90,0,1
206400,-104.166666666667,4,1,0,90,0,1
206571,-106.382978723404,4,1,0,90,0,1
206741,-108.695652173913,4,1,0,90,0,1
206828,-109.89010989011,4,1,0,90,0,1
206913,-111.111111111111,4,1,0,90,0,1
206998,-112.359550561798,4,1,0,90,0,1
207084,-113.636363636364,4,1,0,90,0,1
207170,-114.942528735632,4,1,0,90,0,1
207256,-116.279069767442,4,1,0,90,0,1
207341,-117.647058823529,4,1,0,90,0,1
207427,-119.047619047619,4,1,0,90,0,1
207598,-121.951219512195,4,1,0,90,0,1
207684,-123.456790123457,4,1,0,90,0,1
207770,-125,4,1,0,90,0,1
207941,-128.205128205128,4,1,0,90,0,1
208114,-131.578947368421,4,1,0,90,0,0
208199,-135.135135135135,4,1,0,90,0,0
208284,-138.888888888889,4,1,0,90,0,0
208457,-100,4,1,0,90,0,1
209657,-97.0873786407767,4,1,0,90,0,1
209742,-94.3396226415094,4,1,0,90,0,1
209828,-91.743119266055,4,1,0,90,0,1
209914,-89.2857142857143,4,1,0,90,0,1
210000,-88.4955752212389,4,1,0,90,0,1
210085,-87.719298245614,4,1,0,90,0,1
210171,-86.9565217391304,4,1,0,90,0,1
211200,-89.2857142857143,4,1,0,90,0,1
211285,-91.743119266055,4,1,0,90,0,1
211371,-94.3396226415094,4,1,0,90,0,1
211457,-97.0873786407767,4,1,0,90,0,1
211542,-100,4,1,0,90,0,1
213256,-98.0392156862745,4,1,0,90,0,1
213342,-96.1538461538461,4,1,0,90,0,1
213427,-92.5925925925926,4,1,0,90,0,1
213513,-89.2857142857143,4,1,0,90,0,1
213599,-86.2068965517241,4,1,0,90,0,1
213684,-83.3333333333333,4,1,0,90,0,1
213770,-80.6451612903226,4,1,0,90,0,1
213856,-78.125,4,1,0,90,0,1
213942,-75.7575757575758,4,1,0,90,0,0
214285,-100,4,1,0,90,0,1
214456,-102.040816326531,4,1,0,90,0,1
214542,-103.092783505155,4,1,0,90,0,1
214627,-104.166666666667,4,1,0,90,0,1
214799,-106.382978723404,4,1,0,90,0,1
214970,-108.695652173913,4,1,0,90,0,1
215057,-109.89010989011,4,1,0,90,0,1
215142,-111.111111111111,4,1,0,90,0,1
215227,-112.359550561798,4,1,0,90,0,1
215313,-113.636363636364,4,1,0,90,0,1
215399,-114.942528735632,4,1,0,90,0,1
215485,-116.279069767442,4,1,0,90,0,1
215570,-117.647058823529,4,1,0,90,0,1
215656,-119.047619047619,4,1,0,90,0,1
215827,-121.951219512195,4,1,0,90,0,1
215913,-123.456790123457,4,1,0,90,0,1
215999,-125,4,1,0,90,0,1
216085,-126.582278481013,4,1,0,90,0,1
216170,-128.205128205128,4,1,0,90,0,1
216342,-129.87012987013,4,1,0,90,0,1
216513,-131.578947368421,4,1,0,90,0,1
216685,-133.333333333333,4,1,0,90,0,0
217028,-100,4,1,0,90,0,1
217198,-102.040816326531,4,1,0,90,0,1
217284,-103.092783505155,4,1,0,90,0,1
217369,-104.166666666667,4,1,0,90,0,1
217541,-106.382978723404,4,1,0,90,0,1
217712,-108.695652173913,4,1,0,90,0,1
217800,-109.89010989011,4,1,0,90,0,1
217884,-111.111111111111,4,1,0,90,0,1
217969,-112.359550561798,4,1,0,90,0,1
218055,-113.636363636364,4,1,0,90,0,1
218141,-114.942528735632,4,1,0,90,0,1
218227,-116.279069767442,4,1,0,90,0,1
218312,-117.647058823529,4,1,0,90,0,1
218398,-119.047619047619,4,1,0,90,0,1
218569,-121.951219512195,4,1,0,90,0,1
218655,-123.456790123457,4,1,0,90,0,1
218741,-125,4,1,0,90,0,1
218912,-128.205128205128,4,1,0,90,0,1
219085,-131.578947368421,4,1,0,90,0,0
219170,-135.135135135135,4,1,0,90,0,0
219255,-138.888888888889,4,1,0,90,0,0
219428,-100,4,1,0,90,0,0
221485,-105.263157894737,4,1,0,80,0,0
221656,-111.111111111111,4,1,0,80,0,0
221828,-117.647058823529,4,1,0,80,0,0
221999,-125,4,1,0,80,0,0
222171,-100,4,1,0,90,0,1
224228,-98.0392156862745,4,1,0,90,0,1
224314,-96.1538461538461,4,1,0,90,0,1
224399,-92.5925925925926,4,1,0,90,0,1
224485,-89.2857142857143,4,1,0,90,0,1
224571,-86.2068965517241,4,1,0,90,0,1
224656,-83.3333333333333,4,1,0,90,0,1
224742,-80.6451612903226,4,1,0,90,0,1
224828,-78.125,4,1,0,90,0,1
224914,-75.7575757575758,4,1,0,90,0,1
225085,-78.125,4,1,0,90,0,1
225171,-79.3650793650794,4,1,0,90,0,1
225257,-80.6451612903226,4,1,0,90,0,1
225428,-83.3333333333333,4,1,0,90,0,1
225514,-85.4700854700855,4,1,0,90,0,1
225600,-87.719298245614,4,1,0,90,0,1
225685,-90.0900900900901,4,1,0,90,0,1
225771,-92.5925925925926,4,1,0,90,0,1
225942,-96.1538461538461,4,1,0,90,0,1
226114,-100,4,1,0,90,0,1
226285,-95.2380952380952,4,1,0,90,0,1
226371,-90.9090909090909,4,1,0,90,0,1
226457,-86.9565217391304,4,1,0,90,0,1
227485,-90.9090909090909,4,1,0,90,0,1
227542,-93.4579439252336,4,1,0,90,0,1
227599,-96.1538461538461,4,1,0,90,0,1
227656,-100,4,1,0,90,0,1
231600,-97.0873786407767,4,1,0,90,0,1
231685,-94.3396226415094,4,1,0,90,0,1
231771,-91.743119266055,4,1,0,90,0,1
231856,-89.2857142857143,4,1,0,90,0,1
231942,-86.9565217391304,4,1,0,90,0,1
232971,-89.2857142857143,4,1,0,90,0,1
233056,-91.743119266055,4,1,0,90,0,1
233142,-94.3396226415094,4,1,0,90,0,1
233228,-97.0873786407767,4,1,0,90,0,1
233314,-100,4,1,0,90,0,1
235200,-98.0392156862745,4,1,0,90,0,1
235285,-96.1538461538461,4,1,0,90,0,1
235370,-92.5925925925926,4,1,0,90,0,1
235456,-89.2857142857143,4,1,0,90,0,1
235542,-86.2068965517241,4,1,0,90,0,1
235627,-83.3333333333333,4,1,0,90,0,1
235713,-80.6451612903226,4,1,0,90,0,1
235799,-78.125,4,1,0,90,0,1
235885,-75.7575757575758,4,1,0,90,0,1
236228,-100,4,1,0,90,0,1
240685,-105.263157894737,4,1,0,90,0,1
240856,-111.111111111111,4,1,0,90,0,1
241028,-117.647058823529,4,1,0,90,0,1
241199,-125,4,1,0,90,0,1
241371,-100,4,1,0,80,0,0
246342,-95.2380952380952,4,1,0,80,0,0
246428,-92.5925925925926,4,1,0,80,0,0
246514,-90.0900900900901,4,1,0,80,0,0
246685,-88.4955752212389,4,1,0,80,0,0
246856,-86.9565217391304,4,1,0,80,0,0
247028,-89.2857142857143,4,1,0,80,0,0
247114,-91.743119266055,4,1,0,80,0,0
247199,-94.3396226415094,4,1,0,80,0,0
247371,-97.0873786407767,4,1,0,80,0,0
247456,-98.0392156862745,4,1,0,80,0,0
247542,-99.009900990099,4,1,0,80,0,0
247714,-100,4,1,0,80,0,0
251914,-97.0873786407767,4,1,0,80,0,0
251999,-94.3396226415094,4,1,0,80,0,0
252085,-91.743119266055,4,1,0,80,0,0
252171,-89.2857142857143,4,1,0,80,0,0
252342,-86.9565217391304,4,1,0,80,0,0
252514,-89.2857142857143,4,1,0,80,0,0
252600,-91.743119266055,4,1,0,80,0,0
252685,-94.3396226415094,4,1,0,80,0,0
252856,-97.0873786407767,4,1,0,80,0,0
252942,-98.0392156862745,4,1,0,80,0,0
253028,-99.009900990099,4,1,0,80,0,0
253199,-100,4,1,0,80,0,0
257314,-95.2380952380952,4,1,0,80,0,0
257400,-92.5925925925926,4,1,0,80,0,0
257485,-90.0900900900901,4,1,0,80,0,0
257656,-88.4955752212389,4,1,0,80,0,0
257828,-86.9565217391304,4,1,0,80,0,0
257999,-89.2857142857143,4,1,0,80,0,0
258085,-91.743119266055,4,1,0,80,0,0
258171,-94.3396226415094,4,1,0,80,0,0
258342,-97.0873786407767,4,1,0,80,0,0
258428,-98.0392156862745,4,1,0,80,0,0
258514,-99.009900990099,4,1,0,80,0,0
258599,-100,4,1,0,80,0,0
263399,-25,4,1,0,80,0,0
268799,-100,4,1,0,80,0,0

[HitObjects]
256,192,0,5,0,0:0:0:0:
256,192,342,1,8,0:0:0:0:
256,192,514,1,0,0:0:0:0:
256,192,857,1,0,0:0:0:0:
256,192,1028,1,8,0:0:0:0:
256,192,1200,1,0,0:0:0:0:
256,192,1371,1,8,0:0:0:0:
256,192,1714,1,0,0:0:0:0:
256,192,1885,1,8,0:0:0:0:
256,192,2228,1,0,0:0:0:0:
256,192,2400,1,8,0:0:0:0:
256,192,2571,1,8,0:0:0:0:
256,192,2742,5,0,0:0:0:0:
256,192,3085,1,8,0:0:0:0:
256,192,3257,1,0,0:0:0:0:
256,192,3600,1,0,0:0:0:0:
256,192,3771,1,8,0:0:0:0:
256,192,3942,1,0,0:0:0:0:
256,192,4114,1,0,0:0:0:0:
256,192,4457,1,8,0:0:0:0:
256,192,4628,1,0,0:0:0:0:
256,192,4971,1,0,0:0:0:0:
256,192,5142,1,8,0:0:0:0:
256,192,5314,1,0,0:0:0:0:
256,192,5485,5,8,0:0:0:0:
256,192,5828,1,8,0:0:0:0:
256,192,6000,1,0,0:0:0:0:
256,192,6342,1,8,0:0:0:0:
256,192,6514,1,8,0:0:0:0:
256,192,6685,1,0,0:0:0:0:
256,192,6857,1,8,0:0:0:0:
256,192,7200,1,0,0:0:0:0:
256,192,7371,1,8,0:0:0:0:
256,192,7714,1,0,0:0:0:0:
256,192,7885,1,8,0:0:0:0:
256,192,8057,1,8,0:0:0:0:
256,192,8228,5,0,0:0:0:0:
256,192,8571,1,8,0:0:0:0:
256,192,8742,1,0,0:0:0:0:
256,192,9085,1,0,0:0:0:0:
256,192,9257,1,8,0:0:0:0:
256,192,9428,1,0,0:0:0:0:
256,192,9600,1,8,0:0:0:0:
256,192,9942,1,8,0:0:0:0:
256,192,10114,1,0,0:0:0:0:
256,192,10457,1,0,0:0:0:0:
256,192,10628,1,8,0:0:0:0:
256,192,10800,1,8,0:0:0:0:
256,192,10971,5,0,0:0:0:0:
256,192,11314,1,8,0:0:0:0:
256,192,11485,1,0,0:0:0:0:
256,192,11828,1,0,0:0:0:0:
256,192,12000,1,8,0:0:0:0:
256,192,12171,1,0,0:0:0:0:
256,192,12342,1,8,0:0:0:0:
256,192,12685,1,0,0:0:0:0:
256,192,12857,1,8,0:0:0:0:
256,192,13028,1,8,0:0:0:0:
256,192,13200,1,0,0:0:0:0:
256,192,13371,1,8,0:0:0:0:
256,192,13542,1,8,0:0:0:0:
256,192,13714,5,0,0:0:0:0:
256,192,14057,1,8,0:0:0:0:
256,192,14228,1,0,0:0:0:0:
256,192,14400,1,0,0:0:0:0:
256,192,14571,1,0,0:0:0:0:
256,192,14742,1,8,0:0:0:0:
256,192,14914,1,0,0:0:0:0:
256,192,15085,1,8,0:0:0:0:
256,192,15428,1,0,0:0:0:0:
256,192,15600,1,8,0:0:0:0:
256,192,15771,1,8,0:0:0:0:
256,192,15942,1,0,0:0:0:0:
256,192,16114,1,0,0:0:0:0:
256,192,16285,1,8,0:0:0:0:
256,192,16457,5,0,0:0:0:0:
256,192,16800,1,8,0:0:0:0:
256,192,16971,1,0,0:0:0:0:
256,192,17314,1,8,0:0:0:0:
256,192,17485,1,8,0:0:0:0:
256,192,17657,1,0,0:0:0:0:
256,192,17828,1,8,0:0:0:0:
256,192,18171,1,0,0:0:0:0:
256,192,18342,1,8,0:0:0:0:
256,192,18514,1,8,0:0:0:0:
256,192,18685,1,0,0:0:0:0:
256,192,18857,1,8,0:0:0:0:
256,192,19028,1,8,0:0:0:0:
256,192,19200,5,0,0:0:0:0:
256,192,19542,1,8,0:0:0:0:
256,192,19714,1,0,0:0:0:0:
256,192,20057,1,0,0:0:0:0:
256,192,20228,1,8,0:0:0:0:
256,192,20400,1,0,0:0:0:0:
256,192,20571,1,8,0:0:0:0:
256,192,20914,1,8,0:0:0:0:
256,192,21085,1,0,0:0:0:0:
256,192,21428,1,0,0:0:0:0:
256,192,21600,1,8,0:0:0:0:
256,192,21771,1,8,0:0:0:0:
256,192,21942,5,0,0:0:0:0:
256,192,22285,1,8,0:0:0:0:
256,192,22457,1,0,0:0:0:0:
256,192,22800,1,0,0:0:0:0:
256,192,22971,1,8,0:0:0:0:
256,192,23142,1,0,0:0:0:0:
256,192,23314,1,8,0:0:0:0:
256,192,23657,1,0,0:0:0:0:
256,192,23828,1,8,0:0:0:0:
256,192,24171,1,0,0:0:0:0:
256,192,24342,1,8,0:0:0:0:
256,192,24514,1,8,0:0:0:0:
256,192,24685,5,0,0:0:0:0:
256,192,25028,1,8,0:0:0:0:
256,192,25200,1,0,0:0:0:0:
256,192,25542,1,0,0:0:0:0:
256,192,25714,1,8,0:0:0:0:
256,192,25885,1,0,0:0:0:0:
256,192,26057,1,0,0:0:0:0:
256,192,26400,1,8,0:0:0:0:
256,192,26571,1,0,0:0:0:0:
256,192,26914,1,0,0:0:0:0:
256,192,27085,1,8,0:0:0:0:
256,192,27257,1,0,0:0:0:0:
256,192,27428,5,8,0:0:0:0:
256,192,27771,1,8,0:0:0:0:
256,192,27942,1,0,0:0:0:0:
256,192,28285,1,8,0:0:0:0:
256,192,28457,1,8,0:0:0:0:
256,192,28628,1,0,0:0:0:0:
256,192,28800,1,8,0:0:0:0:
256,192,29142,1,0,0:0:0:0:
256,192,29314,1,8,0:0:0:0:
256,192,29657,1,0,0:0:0:0:
256,192,29828,1,8,0:0:0:0:
256,192,30000,1,8,0:0:0:0:
256,192,30171,5,0,0:0:0:0:
256,192,30514,1,8,0:0:0:0:
256,192,30685,1,0,0:0:0:0:
256,192,31028,1,0,0:0:0:0:
256,192,31200,1,8,0:0:0:0:
256,192,31371,1,0,0:0:0:0:
256,192,31542,1,8,0:0:0:0:
256,192,31885,1,8,0:0:0:0:
256,192,32057,1,0,0:0:0:0:
256,192,32400,1,0,0:0:0:0:
256,192,32571,1,8,0:0:0:0:
256,192,32742,1,8,0:0:0:0:
256,192,32914,5,0,0:0:0:0:
256,192,33257,1,8,0:0:0:0:
256,192,33428,1,0,0:0:0:0:
256,192,33771,1,0,0:0:0:0:
256,192,33942,1,8,0:0:0:0:
256,192,34114,1,0,0:0:0:0:
256,192,34285,1,8,0:0:0:0:
256,192,34628,1,0,0:0:0:0:
256,192,34800,1,8,0:0:0:0:
256,192,34971,1,8,0:0:0:0:
256,192,35142,1,0,0:0:0:0:
256,192,35314,1,8,0:0:0:0:
256,192,35485,1,8,0:0:0:0:
256,192,35657,5,0,0:0:0:0:
256,192,36000,1,8,0:0:0:0:
256,192,36171,1,0,0:0:0:0:
256,192,36342,1,0,0:0:0:0:
256,192,36514,1,0,0:0:0:0:
256,192,36685,1,8,0:0:0:0:
256,192,36857,1,0,0:0:0:0:
256,192,37028,1,8,0:0:0:0:
256,192,37371,1,0,0:0:0:0:
256,192,37542,1,8,0:0:0:0:
256,192,37714,1,8,0:0:0:0:
256,192,37885,1,0,0:0:0:0:
256,192,38057,1,0,0:0:0:0:
256,192,38228,1,8,0:0:0:0:
256,192,38400,5,0,0:0:0:0:
256,192,38742,1,8,0:0:0:0:
256,192,38914,1,0,0:0:0:0:
256,192,39257,1,8,0:0:0:0:
256,192,39428,1,8,0:0:0:0:
256,192,39600,1,0,0:0:0:0:
256,192,39771,1,8,0:0:0:0:
256,192,40114,1,0,0:0:0:0:
256,192,40285,1,8,0:0:0:0:
256,192,40628,1,0,0:0:0:0:
256,192,40800,1,8,0:0:0:0:
256,192,40971,1,0,0:0:0:0:
256,192,41142,12,0,42857,0:0:0:0:
128,256,43028,5,0,0:0:0:0:
160,224,43200,1,8,0:0:0:0:
256,192,43371,1,0,0:0:0:0:
256,192,43542,1,8,0:0:0:0:
256,192,43714,1,8,0:0:0:0:
256,192,43885,5,4,0:0:0:0:
256,192,44057,1,8,0:0:0:0:
256,192,44400,1,8,0:0:0:0:
256,192,44571,1,0,0:0:0:0:
256,192,45085,1,8,0:0:0:0:
256,192,45257,5,0,0:0:0:0:
256,192,45428,1,8,0:0:0:0:
256,192,45771,1,0,0:0:0:0:
256,192,45942,1,8,0:0:0:0:
182,171,46628,2,0,L|286:200,11,90.9999958343508
96,128,48685,5,0,0:0:0:0:
224,160,48771,1,8,0:0:0:0:
224,160,48857,1,0,0:0:0:0:
192,160,48942,1,0,0:0:0:0:
224,160,49028,1,8,0:0:0:0:
224,160,49114,1,0,0:0:0:0:
224,160,49200,1,8,0:0:0:0:
224,160,49285,1,8,0:0:0:0:
224,160,49371,5,0,0:0:0:0:
256,224,49542,1,8,0:0:0:0:
192,128,49885,1,8,0:0:0:0:
224,192,50057,1,8,0:0:0:0:
224,192,50742,5,0,0:0:0:0:
224,192,50914,1,8,0:0:0:0:
224,192,51257,1,8,0:0:0:0:
224,192,51428,1,0,0:0:0:0:
221,162,52114,2,0,L|258:185,8,35
448,224,53828,5,8,0:0:0:0:
256,192,54000,1,0,0:0:0:0:
320,224,54171,1,0,0:0:0:0:
256,192,54342,1,0,0:0:0:0:
256,192,54514,1,8,0:0:0:0:
256,192,54685,1,8,0:0:0:0:
256,192,54857,5,4,0:0:0:0:
256,192,55028,1,8,0:0:0:0:
256,192,55371,1,8,0:0:0:0:
256,192,55542,1,0,0:0:0:0:
256,192,56057,1,8,0:0:0:0:
256,192,56228,5,0,0:0:0:0:
256,192,56400,1,8,0:0:0:0:
256,192,56742,1,0,0:0:0:0:
256,192,56914,1,8,0:0:0:0:
132,148,57600,2,4,L|246:215,11,105.000004005432
128,128,59657,5,0,0:0:0:0:
160,128,59742,1,8,0:0:0:0:
160,160,59828,1,0,0:0:0:0:
192,160,59914,1,0,0:0:0:0:
224,160,60000,1,8,0:0:0:0:
256,160,60085,1,0,0:0:0:0:
256,192,60171,1,8,0:0:0:0:
256,192,60257,1,8,0:0:0:0:
256,192,60342,5,0,0:0:0:0:
256,192,60514,1,8,0:0:0:0:
256,192,60857,1,8,0:0:0:0:
256,192,61028,1,8,0:0:0:0:
256,192,61714,5,0,0:0:0:0:
256,192,61885,1,8,0:0:0:0:
256,192,62228,1,8,0:0:0:0:
256,192,62400,1,0,0:0:0:0:
221,162,63085,2,0,L|258:185,12,35
224,192,65828,5,4,0:0:0:0:
224,192,66171,1,8,0:0:0:0:
224,192,66514,1,0,0:0:0:0:
224,192,66685,1,0,0:0:0:0:
224,192,66857,1,8,0:0:0:0:
224,192,67200,1,0,0:0:0:0:
224,192,67542,1,8,0:0:0:0:
224,192,67714,1,0,0:0:0:0:
224,192,68057,1,0,0:0:0:0:
224,192,68228,1,8,0:0:0:0:
224,192,68571,5,0,0:0:0:0:
224,192,68914,1,8,0:0:0:0:
224,192,69257,1,0,0:0:0:0:
224,192,69428,1,0,0:0:0:0:
224,192,69600,1,8,0:0:0:0:
224,192,69942,1,0,0:0:0:0:
224,192,70285,1,8,0:0:0:0:
224,192,70457,1,0,0:0:0:0:
224,192,70800,1,0,0:0:0:0:
224,192,70971,1,8,0:0:0:0:
224,192,71314,5,0,0:0:0:0:
224,192,71657,1,8,0:0:0:0:
224,192,72000,1,0,0:0:0:0:
224,192,72171,1,0,0:0:0:0:
224,192,72342,1,8,0:0:0:0:
224,192,72514,1,8,0:0:0:0:
224,192,72685,1,0,0:0:0:0:
224,192,73028,1,8,0:0:0:0:
224,192,73200,1,0,0:0:0:0:
224,192,73542,1,0,0:0:0:0:
224,192,73714,1,8,0:0:0:0:
224,192,73885,1,0,0:0:0:0:
224,192,74057,5,0,0:0:0:0:
224,192,74400,1,8,0:0:0:0:
224,192,74742,1,0,0:0:0:0:
224,192,74914,1,0,0:0:0:0:
224,192,75085,1,8,0:0:0:0:
224,192,75257,1,8,0:0:0:0:
224,192,75428,1,0,0:0:0:0:
224,192,75771,1,8,0:0:0:0:
224,192,75942,1,0,0:0:0:0:
224,192,76285,1,0,0:0:0:0:
224,192,76457,1,8,0:0:0:0:
224,192,76628,1,0,0:0:0:0:
224,192,76800,5,0,0:0:0:0:
224,192,76971,1,8,0:0:0:0:
224,192,77142,1,0,0:0:0:0:
224,192,77314,1,8,0:0:0:0:
224,192,77400,1,0,0:0:0:0:
224,192,77485,1,0,0:0:0:0:
224,192,77657,1,8,0:0:0:0:
224,192,77828,1,0,0:0:0:0:
224,192,78000,1,8,0:0:0:0:
224,192,78085,1,0,0:0:0:0:
224,192,78171,5,8,0:0:0:0:
224,192,78342,1,8,0:0:0:0:
224,192,78514,1,0,0:0:0:0:
224,192,78685,1,8,0:0:0:0:
224,192,78771,1,0,0:0:0:0:
224,192,78857,1,0,0:0:0:0:
224,192,79028,1,8,0:0:0:0:
224,192,79200,1,0,0:0:0:0:
224,192,79371,1,8,0:0:0:0:
224,192,79457,1,8,0:0:0:0:
224,192,79542,5,0,0:0:0:0:
224,192,79628,1,0,0:0:0:0:
224,192,79714,1,8,0:0:0:0:
224,192,79885,1,0,0:0:0:0:
224,192,80057,1,8,0:0:0:0:
224,192,80142,1,8,0:0:0:0:
224,192,80228,1,0,0:0:0:0:
224,192,80400,1,8,0:0:0:0:
224,192,80571,1,0,0:0:0:0:
224,192,80742,1,8,0:0:0:0:
224,192,80828,1,0,0:0:0:0:
224,192,80914,5,0,0:0:0:0:
224,192,81000,1,0,0:0:0:0:
224,192,81085,1,8,0:0:0:0:
224,192,81257,1,0,0:0:0:0:
224,192,81428,1,8,0:0:0:0:
224,192,81514,1,8,0:0:0:0:
224,192,81600,1,0,0:0:0:0:
224,192,81771,1,8,0:0:0:0:
224,192,81942,1,0,0:0:0:0:
224,192,82114,1,8,0:0:0:0:
224,192,82285,5,0,0:0:0:0:
224,192,82371,1,8,0:0:0:0:
224,192,82457,1,0,0:0:0:0:
224,192,82542,1,0,0:0:0:0:
224,192,82628,1,8,0:0:0:0:
224,192,82714,1,0,0:0:0:0:
224,192,82800,1,8,0:0:0:0:
224,192,82885,1,8,0:0:0:0:
224,192,82971,1,0,0:0:0:0:
224,192,83057,1,0,0:0:0:0:
224,192,83142,1,8,0:0:0:0:
224,192,83228,1,0,0:0:0:0:
224,192,83314,1,8,0:0:0:0:
224,192,83400,1,0,0:0:0:0:
224,192,83485,1,8,0:0:0:0:
224,192,83571,1,8,0:0:0:0:
224,192,83657,5,0,0:0:0:0:
224,192,83742,1,8,0:0:0:0:
224,192,83828,1,0,0:0:0:0:
224,192,83914,1,0,0:0:0:0:
224,192,84000,1,8,0:0:0:0:
224,192,84085,1,0,0:0:0:0:
224,192,84171,1,8,0:0:0:0:
224,192,84257,1,8,0:0:0:0:
224,192,84342,1,0,0:0:0:0:
224,192,84428,1,0,0:0:0:0:
224,192,84514,1,8,0:0:0:0:
224,192,84600,1,0,0:0:0:0:
224,192,84685,1,8,0:0:0:0:
224,192,84771,1,0,0:0:0:0:
224,192,84857,1,8,0:0:0:0:
224,192,84914,1,8,0:0:0:0:
224,192,84971,1,8,0:0:0:0:
224,192,85028,5,0,0:0:0:0:
224,192,85114,1,0,0:0:0:0:
224,192,85200,1,8,0:0:0:0:
224,192,85285,1,0,0:0:0:0:
224,192,85371,1,8,0:0:0:0:
224,192,85457,1,0,0:0:0:0:
224,192,85542,1,8,0:0:0:0:
224,192,85628,1,8,0:0:0:0:
224,192,85714,5,0,0:0:0:0:
224,192,85800,1,0,0:0:0:0:
224,192,85885,1,8,0:0:0:0:
224,192,85971,1,0,0:0:0:0:
224,192,86057,1,8,0:0:0:0:
224,192,86142,1,0,0:0:0:0:
224,192,86228,1,8,0:0:0:0:
224,192,86314,1,8,0:0:0:0:
224,192,86914,5,0,0:0:0:0:
224,192,87085,1,8,0:0:0:0:
224,192,87257,1,0,0:0:0:0:
224,192,87428,1,8,0:0:0:0:
224,192,87600,1,8,0:0:0:0:
224,192,87771,5,4,0:0:0:0:
224,192,87942,1,0,0:0:0:0:
224,192,88028,1,0,0:0:0:0:
224,192,88114,1,8,0:0:0:0:
224,192,88285,1,8,0:0:0:0:
224,192,88457,1,8,0:0:0:0:
224,192,88542,1,8,0:0:0:0:
224,192,88628,1,0,0:0:0:0:
224,192,88800,1,8,0:0:0:0:
224,192,88971,1,0,0:0:0:0:
224,192,89057,1,0,0:0:0:0:
224,192,89142,1,8,0:0:0:0:
224,192,89314,1,0,0:0:0:0:
224,192,89485,1,8,0:0:0:0:
224,192,89657,1,8,0:0:0:0:
224,192,89742,1,0,0:0:0:0:
224,192,89828,1,8,0:0:0:0:
224,192,89914,1,8,0:0:0:0:
224,192,90000,1,0,0:0:0:0:
224,192,90171,1,8,0:0:0:0:
256,224,90342,1,0,0:0:0:0:
256,224,90514,5,8,0:0:0:0:
256,224,90600,1,8,0:0:0:0:
256,224,90685,1,0,0:0:0:0:
256,224,90857,1,8,0:0:0:0:
256,224,91028,1,0,0:0:0:0:
256,224,91114,1,0,0:0:0:0:
256,224,91200,1,8,0:0:0:0:
229,200,91285,1,0,0:0:0:0:
256,224,91371,1,8,0:0:0:0:
256,224,91542,1,8,0:0:0:0:
256,224,91714,1,8,0:0:0:0:
256,224,91800,1,8,0:0:0:0:
256,224,91885,1,0,0:0:0:0:
256,224,92057,1,0,0:0:0:0:
256,224,92228,1,8,0:0:0:0:
256,224,92400,1,8,0:0:0:0:
256,224,92571,5,0,0:0:0:0:
256,224,92657,1,8,0:0:0:0:
256,224,92742,1,0,0:0:0:0:
256,224,92828,1,0,0:0:0:0:
256,224,92914,1,8,0:0:0:0:
256,224,93000,1,0,0:0:0:0:
256,224,93085,1,8,0:0:0:0:
256,224,93171,1,8,0:0:0:0:
256,224,93257,1,0,0:0:0:0:
256,224,93600,5,8,0:0:0:0:
256,224,93771,1,0,0:0:0:0:
256,224,93857,1,0,0:0:0:0:
256,224,93942,1,0,0:0:0:0:
256,224,94114,1,0,0:0:0:0:
256,224,94285,1,8,0:0:0:0:
256,224,94457,1,8,0:0:0:0:
256,224,94542,1,8,0:0:0:0:
256,224,94628,1,0,0:0:0:0:
256,224,94714,1,8,0:0:0:0:
256,224,94800,1,0,0:0:0:0:
256,224,94885,1,0,0:0:0:0:
256,224,94971,1,8,0:0:0:0:
256,224,95142,1,8,0:0:0:0:
256,224,95228,1,8,0:0:0:0:
256,224,95314,1,0,0:0:0:0:
256,224,95485,1,0,0:0:0:0:
256,224,95657,1,8,0:0:0:0:
256,224,95828,1,8,0:0:0:0:
256,224,96000,1,0,0:0:0:0:
256,224,96342,5,8,0:0:0:0:
256,224,96514,1,0,0:0:0:0:
256,224,96600,1,0,0:0:0:0:
256,224,96685,1,0,0:0:0:0:
256,224,96857,1,0,0:0:0:0:
256,224,97028,1,8,0:0:0:0:
256,224,97200,1,0,0:0:0:0:
256,224,97285,1,8,0:0:0:0:
256,224,97371,1,0,0:0:0:0:
256,224,97457,1,0,0:0:0:0:
256,224,97542,1,8,0:0:0:0:
256,224,97628,1,0,0:0:0:0:
256,224,97714,1,8,0:0:0:0:
256,224,97885,1,8,0:0:0:0:
256,224,97971,1,8,0:0:0:0:
256,224,98057,1,0,0:0:0:0:
256,224,98228,1,8,0:0:0:0:
256,224,98400,1,0,0:0:0:0:
256,224,98485,1,8,0:0:0:0:
256,224,98571,1,0,0:0:0:0:
256,224,98742,5,4,0:0:0:0:
224,192,98914,1,8,0:0:0:0:
224,192,99000,1,8,0:0:0:0:
224,192,99085,1,8,0:0:0:0:
224,192,99257,1,0,0:0:0:0:
224,192,99428,1,8,0:0:0:0:
224,192,99514,1,0,0:0:0:0:
224,192,99600,1,0,0:0:0:0:
224,192,99771,1,8,0:0:0:0:
224,192,99942,1,0,0:0:0:0:
224,192,100028,1,0,0:0:0:0:
224,192,100114,1,8,0:0:0:0:
224,192,100285,1,8,0:0:0:0:
224,192,100371,1,8,0:0:0:0:
224,192,100457,1,8,0:0:0:0:
224,192,100628,1,0,0:0:0:0:
224,192,100714,1,0,0:0:0:0:
224,192,100800,1,8,0:0:0:0:
224,192,100885,1,8,0:0:0:0:
224,192,100971,1,0,0:0:0:0:
224,192,101142,1,8,0:0:0:0:
256,224,101314,1,0,0:0:0:0:
256,224,101485,5,0,0:0:0:0:
256,224,101571,1,8,0:0:0:0:
256,224,101657,1,0,0:0:0:0:
256,224,101828,1,8,0:0:0:0:
256,224,102000,1,0,0:0:0:0:
256,224,102085,1,0,0:0:0:0:
256,224,102171,1,8,0:0:0:0:
256,224,102342,1,0,0:0:0:0:
256,224,102514,1,8,0:0:0:0:
256,224,102685,1,8,0:0:0:0:
256,224,102771,1,8,0:0:0:0:
256,224,102857,1,0,0:0:0:0:
256,224,103028,1,0,0:0:0:0:
256,224,103200,1,8,0:0:0:0:
256,224,103371,1,8,0:0:0:0:
256,224,103542,5,0,0:0:0:0:
256,224,103628,1,8,0:0:0:0:
256,224,103714,1,0,0:0:0:0:
256,224,103800,1,0,0:0:0:0:
256,224,103885,1,8,0:0:0:0:
256,224,103971,1,0,0:0:0:0:
256,224,104057,1,8,0:0:0:0:
256,224,104142,1,8,0:0:0:0:
256,224,104228,1,0,0:0:0:0:
256,224,104571,5,8,0:0:0:0:
256,224,104742,1,0,0:0:0:0:
256,224,104828,1,0,0:0:0:0:
256,224,104914,1,0,0:0:0:0:
256,224,105085,1,0,0:0:0:0:
256,224,105257,1,8,0:0:0:0:
256,224,105428,1,0,0:0:0:0:
256,224,105514,1,0,0:0:0:0:
256,224,105600,1,8,0:0:0:0:
256,224,105685,1,8,0:0:0:0:
256,224,105771,1,0,0:0:0:0:
256,224,105857,1,0,0:0:0:0:
256,224,105942,1,8,0:0:0:0:
256,224,106114,1,8,0:0:0:0:
256,224,106200,1,8,0:0:0:0:
256,224,106285,1,0,0:0:0:0:
256,224,106457,1,0,0:0:0:0:
256,224,106628,1,8,0:0:0:0:
256,224,106800,1,8,0:0:0:0:
256,224,106971,1,0,0:0:0:0:
256,224,107314,5,8,0:0:0:0:
256,224,107485,1,0,0:0:0:0:
256,224,107571,1,0,0:0:0:0:
256,224,107657,1,0,0:0:0:0:
256,224,107828,1,0,0:0:0:0:
256,224,108000,1,8,0:0:0:0:
256,224,108171,1,0,0:0:0:0:
256,224,108257,1,0,0:0:0:0:
256,224,108342,1,8,0:0:0:0:
256,224,108428,1,0,0:0:0:0:
256,224,108514,1,0,0:0:0:0:
256,224,108600,1,0,0:0:0:0:
256,224,108685,1,8,0:0:0:0:
256,224,108857,1,8,0:0:0:0:
256,224,108942,1,8,0:0:0:0:
256,224,109028,1,0,0:0:0:0:
256,224,109200,1,0,0:0:0:0:
256,224,109371,1,8,0:0:0:0:
256,224,109457,1,0,0:0:0:0:
256,224,109542,1,8,0:0:0:0:
256,224,109714,5,4,0:0:0:0:
256,224,111600,1,0,0:0:0:0:
256,224,111771,1,8,0:0:0:0:
256,224,111942,1,0,0:0:0:0:
256,224,112114,1,8,0:0:0:0:
256,224,112285,1,8,0:0:0:0:
224,192,112457,5,4,0:0:0:0:
224,192,112628,1,0,0:0:0:0:
224,224,112714,1,0,0:0:0:0:
224,192,112800,1,8,0:0:0:0:
224,192,112971,1,8,0:0:0:0:
224,192,113057,1,8,0:0:0:0:
224,192,113142,1,0,0:0:0:0:
224,192,113228,1,8,0:0:0:0:
224,192,113314,1,0,0:0:0:0:
224,192,113485,1,8,0:0:0:0:
256,224,113657,1,0,0:0:0:0:
256,224,113742,1,8,0:0:0:0:
224,192,113828,1,0,0:0:0:0:
224,192,114000,1,0,0:0:0:0:
224,192,114171,1,8,0:0:0:0:
256,224,114257,1,8,0:0:0:0:
224,192,114342,1,0,0:0:0:0:
224,192,114514,5,0,0:0:0:0:
224,192,114600,1,8,0:0:0:0:
224,192,114685,1,0,0:0:0:0:
224,192,114771,1,0,0:0:0:0:
224,192,114857,1,8,0:0:0:0:
224,192,114942,1,0,0:0:0:0:
256,224,115028,1,8,0:0:0:0:
224,192,115114,1,8,0:0:0:0:
256,224,115200,5,0,0:0:0:0:
224,192,115371,1,0,0:0:0:0:
256,224,115542,1,8,0:0:0:0:
256,224,115714,1,0,0:0:0:0:
256,224,115800,1,0,0:0:0:0:
256,224,115885,1,8,0:0:0:0:
224,224,115971,1,8,0:0:0:0:
256,224,116057,1,0,0:0:0:0:
256,224,116228,1,8,0:0:0:0:
256,224,116400,1,0,0:0:0:0:
256,224,116571,1,8,0:0:0:0:
256,224,116657,1,0,0:0:0:0:
256,224,116742,1,8,0:0:0:0:
256,224,116914,1,8,0:0:0:0:
256,224,117085,1,8,0:0:0:0:
256,224,117171,1,0,0:0:0:0:
256,224,117257,1,8,0:0:0:0:
256,224,117342,1,8,0:0:0:0:
256,224,117428,1,0,0:0:0:0:
256,224,117600,1,8,0:0:0:0:
256,224,117771,1,0,0:0:0:0:
241,222,117828,1,0,0:0:0:0:
256,224,117885,1,0,0:0:0:0:
256,224,117942,5,8,0:0:0:0:
256,224,118114,1,0,0:0:0:0:
256,224,118285,1,8,0:0:0:0:
256,224,118457,1,8,0:0:0:0:
256,224,118542,1,0,0:0:0:0:
256,224,118628,1,8,0:0:0:0:
256,224,118800,1,0,0:0:0:0:
256,224,118971,1,8,0:0:0:0:
256,224,119142,1,8,0:0:0:0:
256,224,119228,1,8,0:0:0:0:
256,224,119314,1,0,0:0:0:0:
256,224,119485,1,0,0:0:0:0:
256,224,119657,1,8,0:0:0:0:
256,224,119742,1,8,0:0:0:0:
256,224,119828,1,0,0:0:0:0:
256,224,119914,1,0,0:0:0:0:
256,224,120000,1,8,0:0:0:0:
256,224,120171,1,0,0:0:0:0:
256,224,120342,1,8,0:0:0:0:
256,224,120514,1,0,0:0:0:0:
224,192,120685,5,12,0:0:0:0:
224,192,120857,1,0,0:0:0:0:
256,224,120942,1,0,0:0:0:0:
224,192,121028,1,8,0:0:0:0:
224,192,121200,1,0,0:0:0:0:
224,192,121285,1,0,0:0:0:0:
224,192,121371,1,8,0:0:0:0:
224,192,121457,1,8,0:0:0:0:
224,192,121542,1,0,0:0:0:0:
224,192,121714,1,8,0:0:0:0:
256,224,121885,1,0,0:0:0:0:
224,192,122057,1,8,0:0:0:0:
224,192,122142,1,0,0:0:0:0:
224,192,122228,1,0,0:0:0:0:
224,192,122400,1,8,0:0:0:0:
224,192,122571,1,8,0:0:0:0:
224,192,122657,1,0,0:0:0:0:
224,192,122742,1,8,0:0:0:0:
224,192,122828,1,8,0:0:0:0:
224,192,122914,1,0,0:0:0:0:
224,192,123085,1,8,0:0:0:0:
256,224,123257,1,0,0:0:0:0:
224,192,123342,1,0,0:0:0:0:
256,224,123428,5,8,0:0:0:0:
224,192,123514,1,8,0:0:0:0:
224,192,123600,1,0,0:0:0:0:
256,224,123771,1,8,0:0:0:0:
256,224,123942,1,8,0:0:0:0:
256,224,124028,1,0,0:0:0:0:
256,224,124114,1,8,0:0:0:0:
224,224,124200,1,8,0:0:0:0:
256,224,124285,1,0,0:0:0:0:
256,224,124457,1,8,0:0:0:0:
256,224,124628,1,0,0:0:0:0:
256,224,124714,1,0,0:0:0:0:
256,224,124800,1,8,0:0:0:0:
256,224,124971,1,0,0:0:0:0:
256,224,125142,1,8,0:0:0:0:
256,224,125314,1,8,0:0:0:0:
256,224,125485,5,0,0:0:0:0:
224,224,125571,1,8,0:0:0:0:
256,224,125657,1,0,0:0:0:0:
256,224,125742,1,0,0:0:0:0:
256,224,125828,1,8,0:0:0:0:
256,224,125914,1,0,0:0:0:0:
256,224,126000,1,8,0:0:0:0:
256,224,126085,1,8,0:0:0:0:
256,224,126171,5,0,0:0:0:0:
256,224,126514,1,8,0:0:0:0:
256,224,126685,1,0,0:0:0:0:
256,224,126857,1,8,0:0:0:0:
256,224,127371,1,8,0:0:0:0:
256,224,127542,5,0,0:0:0:0:
256,224,127714,1,0,0:0:0:0:
256,224,127885,1,8,0:0:0:0:
256,224,128057,1,0,0:0:0:0:
256,224,128228,1,8,0:0:0:0:
256,224,128571,1,8,0:0:0:0:
256,224,128742,1,8,0:0:0:0:
256,224,128914,5,4,0:0:0:0:
224,128,129257,1,0,0:0:0:0:
256,192,129428,1,0,0:0:0:0:
256,192,129600,1,8,0:0:0:0:
256,224,129771,1,0,0:0:0:0:
256,192,129942,1,0,0:0:0:0:
256,192,130114,1,8,0:0:0:0:
256,192,130285,1,0,0:0:0:0:
256,192,130800,5,8,0:0:0:0:
256,192,130971,1,0,0:0:0:0:
256,192,131142,1,0,0:0:0:0:
256,192,131314,1,8,0:0:0:0:
256,192,131485,1,8,0:0:0:0:
256,192,131657,5,4,0:0:0:0:
256,192,131828,1,0,0:0:0:0:
256,192,131914,1,0,0:0:0:0:
256,192,132000,1,8,0:0:0:0:
256,192,132171,1,0,0:0:0:0:
256,192,132257,1,8,0:0:0:0:
256,192,132342,1,0,0:0:0:0:
256,192,132514,1,0,0:0:0:0:
256,192,132685,1,8,0:0:0:0:
256,192,132857,5,8,0:0:0:0:
256,192,132942,1,8,0:0:0:0:
256,192,133028,1,0,0:0:0:0:
256,192,133200,1,0,0:0:0:0:
256,192,133371,1,8,0:0:0:0:
256,192,133542,1,0,0:0:0:0:
256,192,133628,1,0,0:0:0:0:
256,192,133714,1,8,0:0:0:0:
256,192,133800,1,8,0:0:0:0:
256,192,133885,1,0,0:0:0:0:
256,192,134057,1,8,0:0:0:0:
256,192,134228,5,8,0:0:0:0:
256,192,134314,1,0,0:0:0:0:
256,192,134400,1,0,0:0:0:0:
256,192,134571,1,0,0:0:0:0:
256,192,134657,1,0,0:0:0:0:
256,192,134742,1,8,0:0:0:0:
256,192,134914,1,0,0:0:0:0:
256,192,135000,1,0,0:0:0:0:
256,192,135085,1,0,0:0:0:0:
256,192,135257,1,0,0:0:0:0:
256,192,135428,1,8,0:0:0:0:
256,192,135600,5,0,0:0:0:0:
256,192,135685,1,8,0:0:0:0:
256,192,135771,1,8,0:0:0:0:
256,192,135942,1,0,0:0:0:0:
256,192,136114,1,8,0:0:0:0:
256,192,136285,1,0,0:0:0:0:
256,192,136628,1,0,0:0:0:0:
256,192,136714,1,0,0:0:0:0:
256,192,136800,1,8,0:0:0:0:
256,192,136971,1,0,0:0:0:0:
256,192,137142,5,12,0:0:0:0:
256,192,137314,1,0,0:0:0:0:
256,192,137400,1,0,0:0:0:0:
256,192,137485,1,8,0:0:0:0:
256,192,137657,1,0,0:0:0:0:
256,192,137742,1,0,0:0:0:0:
256,192,137828,1,0,0:0:0:0:
256,192,138000,1,0,0:0:0:0:
256,192,138171,1,8,0:0:0:0:
256,192,138342,5,8,0:0:0:0:
256,192,138428,1,8,0:0:0:0:
256,192,138514,1,0,0:0:0:0:
256,192,138685,1,0,0:0:0:0:
256,192,138771,1,0,0:0:0:0:
256,192,138857,1,8,0:0:0:0:
256,192,139028,1,0,0:0:0:0:
256,192,139114,1,8,0:0:0:0:
256,192,139200,1,0,0:0:0:0:
256,192,139371,1,0,0:0:0:0:
256,192,139542,1,8,0:0:0:0:
256,192,139714,5,8,0:0:0:0:
256,192,139800,1,8,0:0:0:0:
256,192,139885,1,8,0:0:0:0:
256,192,140057,1,0,0:0:0:0:
256,192,140228,1,8,0:0:0:0:
256,192,140400,1,8,0:0:0:0:
256,192,140485,1,8,0:0:0:0:
256,192,140571,1,0,0:0:0:0:
256,192,140742,1,0,0:0:0:0:
256,192,140914,1,8,0:0:0:0:
256,192,141085,5,0,0:0:0:0:
256,192,141171,1,8,0:0:0:0:
256,192,141257,1,8,0:0:0:0:
256,192,141342,1,8,0:0:0:0:
256,192,141428,1,0,0:0:0:0:
256,192,141600,1,8,0:0:0:0:
256,192,141771,1,0,0:0:0:0:
256,192,141857,1,8,0:0:0:0:
256,192,141942,1,0,0:0:0:0:
256,192,142114,1,0,0:0:0:0:
256,192,142200,1,0,0:0:0:0:
256,192,142285,1,8,0:0:0:0:
256,192,142371,1,8,0:0:0:0:
256,192,142457,1,0,0:0:0:0:
256,192,142628,5,12,0:0:0:0:
256,192,142800,1,0,0:0:0:0:
256,192,142885,1,0,0:0:0:0:
256,192,142971,1,8,0:0:0:0:
256,192,143142,1,0,0:0:0:0:
256,192,143228,1,8,0:0:0:0:
256,192,143314,1,8,0:0:0:0:
256,192,143485,1,0,0:0:0:0:
256,192,143657,1,8,0:0:0:0:
256,192,143828,5,8,0:0:0:0:
256,192,143914,1,8,0:0:0:0:
256,192,144000,1,0,0:0:0:0:
256,192,144171,1,0,0:0:0:0:
256,192,144342,1,8,0:0:0:0:
256,192,144514,1,0,0:0:0:0:
256,192,144600,1,8,0:0:0:0:
256,192,144685,1,0,0:0:0:0:
256,192,144857,1,0,0:0:0:0:
256,192,145028,1,8,0:0:0:0:
256,192,145200,5,8,0:0:0:0:
256,192,145285,1,0,0:0:0:0:
256,192,145371,1,0,0:0:0:0:
256,192,145542,1,0,0:0:0:0:
259,204,145628,1,0,0:0:0:0:
256,192,145714,1,8,0:0:0:0:
256,192,145885,1,0,0:0:0:0:
256,192,145971,1,0,0:0:0:0:
256,192,146057,1,8,0:0:0:0:
256,192,146142,1,8,0:0:0:0:
256,192,146228,1,0,0:0:0:0:
256,192,146400,1,8,0:0:0:0:
256,192,146571,5,0,0:0:0:0:
256,192,146657,1,8,0:0:0:0:
256,192,146742,1,8,0:0:0:0:
256,192,146914,1,0,0:0:0:0:
256,192,147085,1,8,0:0:0:0:
256,192,147257,1,8,0:0:0:0:
256,192,147342,1,8,0:0:0:0:
256,192,147428,1,0,0:0:0:0:
256,192,147600,1,0,0:0:0:0:
256,192,147685,1,0,0:0:0:0:
256,192,147771,1,8,0:0:0:0:
256,192,147942,1,0,0:0:0:0:
256,192,148114,5,12,0:0:0:0:
256,192,148285,1,0,0:0:0:0:
256,192,148371,1,0,0:0:0:0:
256,192,148457,1,8,0:0:0:0:
256,192,148628,1,0,0:0:0:0:
256,192,148714,1,0,0:0:0:0:
256,192,148800,1,0,0:0:0:0:
256,192,148885,1,8,0:0:0:0:
256,192,148971,1,0,0:0:0:0:
256,192,149142,1,8,0:0:0:0:
256,192,149314,5,8,0:0:0:0:
256,192,149400,1,8,0:0:0:0:
256,192,149485,1,0,0:0:0:0:
256,192,149657,1,0,0:0:0:0:
256,192,149828,1,8,0:0:0:0:
256,192,150000,1,0,0:0:0:0:
256,192,150085,1,8,0:0:0:0:
256,192,150171,1,0,0:0:0:0:
256,192,150342,1,0,0:0:0:0:
256,192,150514,1,8,0:0:0:0:
256,192,150685,5,8,0:0:0:0:
256,192,150771,1,8,0:0:0:0:
256,192,150857,1,8,0:0:0:0:
256,192,150942,1,0,0:0:0:0:
256,192,151028,1,0,0:0:0:0:
256,192,151200,1,8,0:0:0:0:
256,192,151371,1,8,0:0:0:0:
256,192,151457,1,8,0:0:0:0:
256,192,151542,1,0,0:0:0:0:
256,192,151714,1,0,0:0:0:0:
256,192,151885,1,8,0:0:0:0:
256,192,152057,5,8,0:0:0:0:
256,192,152228,1,4,0:0:0:0:
256,192,152571,1,8,0:0:0:0:
256,192,152742,1,0,0:0:0:0:
256,192,152828,1,8,0:0:0:0:
252,182,152914,1,8,0:0:0:0:
256,192,153000,1,8,0:0:0:0:
256,192,153085,1,0,0:0:0:0:
269,209,153171,1,0,0:0:0:0:
256,192,153257,5,8,0:0:0:0:
256,192,153342,1,0,0:0:0:0:
256,192,153428,1,8,0:0:0:0:
258,206,153600,1,4,0:0:0:0:
256,192,153685,12,0,158914,0:0:0:0:
256,192,159085,8,0,174171,0:0:0:0:
224,192,175542,5,4,0:0:0:0:
224,192,175885,1,8,0:0:0:0:
224,192,176228,1,0,0:0:0:0:
224,192,176400,1,0,0:0:0:0:
224,192,176571,1,8,0:0:0:0:
224,192,176914,1,0,0:0:0:0:
224,192,177257,1,8,0:0:0:0:
224,192,177428,1,0,0:0:0:0:
224,192,177771,1,0,0:0:0:0:
224,192,177942,1,8,0:0:0:0:
224,192,178285,5,0,0:0:0:0:
224,192,178628,1,8,0:0:0:0:
224,192,178971,1,0,0:0:0:0:
224,192,179142,1,0,0:0:0:0:
224,192,179314,1,8,0:0:0:0:
224,192,179657,1,0,0:0:0:0:
288,192,179828,1,8,0:0:0:0:
224,192,180000,1,0,0:0:0:0:
224,192,180085,1,8,0:0:0:0:
224,192,180171,1,0,0:0:0:0:
224,192,180342,1,8,0:0:0:0:
224,192,180514,1,0,0:0:0:0:
224,192,180600,1,8,0:0:0:0:
224,192,180685,1,0,0:0:0:0:
224,192,180771,1,0,0:0:0:0:
224,192,180857,1,8,0:0:0:0:
224,192,181028,5,0,0:0:0:0:
224,192,181371,1,8,0:0:0:0:
224,192,181714,1,0,0:0:0:0:
224,192,181885,1,0,0:0:0:0:
224,192,182057,1,8,0:0:0:0:
224,192,182228,1,8,0:0:0:0:
224,192,182400,1,0,0:0:0:0:
224,192,182742,1,8,0:0:0:0:
224,192,182914,1,0,0:0:0:0:
224,192,183257,1,0,0:0:0:0:
224,192,183428,1,8,0:0:0:0:
224,192,183600,1,0,0:0:0:0:
224,192,183771,5,0,0:0:0:0:
224,192,184114,1,8,0:0:0:0:
224,192,184457,1,0,0:0:0:0:
224,192,184628,1,0,0:0:0:0:
224,192,184800,1,8,0:0:0:0:
224,192,184971,1,8,0:0:0:0:
224,192,185142,1,0,0:0:0:0:
224,192,185314,1,8,0:0:0:0:
224,192,185485,1,0,0:0:0:0:
224,192,185571,1,8,0:0:0:0:
224,192,185657,1,0,0:0:0:0:
224,192,185828,1,8,0:0:0:0:
224,192,186000,1,0,0:0:0:0:
224,192,186085,1,8,0:0:0:0:
224,192,186171,1,0,0:0:0:0:
224,192,186257,1,0,0:0:0:0:
224,192,186342,1,8,0:0:0:0:
224,192,186514,5,0,0:0:0:0:
224,192,186685,1,8,0:0:0:0:
224,192,186857,1,0,0:0:0:0:
224,192,187028,1,8,0:0:0:0:
224,192,187114,1,0,0:0:0:0:
224,192,187200,1,0,0:0:0:0:
224,192,187371,1,8,0:0:0:0:
224,192,187542,1,0,0:0:0:0:
224,192,187714,1,8,0:0:0:0:
224,192,187800,1,0,0:0:0:0:
224,192,187885,5,8,0:0:0:0:
224,192,188057,1,8,0:0:0:0:
224,192,188228,1,0,0:0:0:0:
224,192,188400,1,8,0:0:0:0:
224,192,188485,1,0,0:0:0:0:
224,192,188571,1,0,0:0:0:0:
224,192,188742,1,8,0:0:0:0:
224,192,188914,1,0,0:0:0:0:
224,192,189085,1,8,0:0:0:0:
224,192,189171,1,8,0:0:0:0:
224,192,189257,5,0,0:0:0:0:
224,192,189342,1,0,0:0:0:0:
224,192,189428,1,8,0:0:0:0:
224,192,189600,1,0,0:0:0:0:
224,192,189771,1,8,0:0:0:0:
224,192,189857,1,8,0:0:0:0:
224,192,189942,1,0,0:0:0:0:
224,192,190114,1,8,0:0:0:0:
224,192,190285,1,0,0:0:0:0:
224,192,190457,1,8,0:0:0:0:
224,192,190542,1,0,0:0:0:0:
224,192,190628,5,0,0:0:0:0:
224,192,190714,1,0,0:0:0:0:
224,192,190800,1,8,0:0:0:0:
224,192,190971,1,0,0:0:0:0:
224,192,191142,1,8,0:0:0:0:
224,192,191228,1,8,0:0:0:0:
224,192,191314,1,0,0:0:0:0:
224,192,191485,1,8,0:0:0:0:
224,192,191657,1,0,0:0:0:0:
224,192,191828,1,8,0:0:0:0:
224,192,192000,5,0,0:0:0:0:
224,192,192085,1,8,0:0:0:0:
224,192,192171,1,0,0:0:0:0:
224,192,192257,1,0,0:0:0:0:
224,192,192342,1,8,0:0:0:0:
224,192,192428,1,0,0:0:0:0:
224,192,192514,1,8,0:0:0:0:
224,192,192600,1,8,0:0:0:0:
224,192,192685,1,0,0:0:0:0:
224,192,192771,1,0,0:0:0:0:
224,192,192857,1,8,0:0:0:0:
224,192,192942,1,0,0:0:0:0:
224,192,193028,1,8,0:0:0:0:
224,192,193114,1,0,0:0:0:0:
224,192,193200,1,8,0:0:0:0:
224,192,193285,1,8,0:0:0:0:
224,192,193371,5,0,0:0:0:0:
224,192,193457,1,8,0:0:0:0:
224,192,193542,1,0,0:0:0:0:
224,192,193628,1,0,0:0:0:0:
224,192,193714,1,8,0:0:0:0:
224,192,193800,1,0,0:0:0:0:
224,192,193885,1,8,0:0:0:0:
224,192,193971,1,8,0:0:0:0:
224,192,194057,1,0,0:0:0:0:
224,192,194142,1,0,0:0:0:0:
224,192,194228,1,8,0:0:0:0:
224,192,194314,1,0,0:0:0:0:
224,192,194400,1,8,0:0:0:0:
224,192,194485,1,0,0:0:0:0:
224,192,194571,1,8,0:0:0:0:
224,192,194628,1,8,0:0:0:0:
224,192,194685,1,8,0:0:0:0:
224,192,194742,5,0,0:0:0:0:
224,192,194828,1,0,0:0:0:0:
224,192,194914,1,8,0:0:0:0:
224,192,195000,1,0,0:0:0:0:
224,192,195085,1,8,0:0:0:0:
224,192,195171,1,0,0:0:0:0:
224,192,195257,1,8,0:0:0:0:
224,192,195342,1,8,0:0:0:0:
224,192,195428,5,0,0:0:0:0:
224,192,195514,1,0,0:0:0:0:
224,192,195600,1,8,0:0:0:0:
224,192,195685,1,0,0:0:0:0:
224,192,195771,1,8,0:0:0:0:
224,192,195857,1,0,0:0:0:0:
224,192,195942,1,8,0:0:0:0:
224,192,196028,1,8,0:0:0:0:
224,192,196628,5,0,0:0:0:0:
224,192,196800,1,8,0:0:0:0:
224,192,196971,1,0,0:0:0:0:
224,192,197142,1,8,0:0:0:0:
224,192,197314,1,8,0:0:0:0:
224,192,197485,5,4,0:0:0:0:
224,192,197657,1,0,0:0:0:0:
224,192,197742,1,0,0:0:0:0:
224,192,197828,1,8,0:0:0:0:
224,192,198000,1,8,0:0:0:0:
224,192,198085,1,0,0:0:0:0:
224,192,198171,1,8,0:0:0:0:
224,192,198257,1,8,0:0:0:0:
224,192,198342,1,0,0:0:0:0:
224,192,198514,1,8,0:0:0:0:
224,192,198685,1,0,0:0:0:0:
224,192,198771,1,0,0:0:0:0:
224,192,198857,1,8,0:0:0:0:
224,192,198942,1,8,0:0:0:0:
224,192,199028,1,0,0:0:0:0:
224,192,199200,1,8,0:0:0:0:
224,192,199371,1,8,0:0:0:0:
224,192,199457,1,0,0:0:0:0:
224,192,199542,1,8,0:0:0:0:
224,192,199628,1,8,0:0:0:0:
224,192,199714,1,0,0:0:0:0:
224,192,199800,1,0,0:0:0:0:
224,192,199885,1,8,0:0:0:0:
256,224,200057,1,0,0:0:0:0:
256,224,200228,5,8,0:0:0:0:
256,224,200314,1,8,0:0:0:0:
256,224,200400,1,0,0:0:0:0:
224,192,200485,1,0,0:0:0:0:
256,224,200571,1,8,0:0:0:0:
256,224,200742,1,0,0:0:0:0:
256,224,200828,1,0,0:0:0:0:
256,224,200914,1,8,0:0:0:0:
224,192,201000,1,0,0:0:0:0:
256,224,201085,1,8,0:0:0:0:
256,224,201257,1,8,0:0:0:0:
256,224,201428,1,8,0:0:0:0:
256,224,201514,1,8,0:0:0:0:
256,224,201600,1,0,0:0:0:0:
256,224,201771,1,0,0:0:0:0:
256,224,201942,1,8,0:0:0:0:
224,192,202028,1,0,0:0:0:0:
256,224,202114,1,8,0:0:0:0:
256,224,202285,5,0,0:0:0:0:
256,224,202371,1,8,0:0:0:0:
256,224,202457,1,0,0:0:0:0:
256,224,202542,1,0,0:0:0:0:
256,224,202628,1,8,0:0:0:0:
256,224,202714,1,0,0:0:0:0:
256,224,202800,1,8,0:0:0:0:
256,224,202885,1,8,0:0:0:0:
256,224,202971,1,0,0:0:0:0:
224,192,203057,1,8,0:0:0:0:
224,192,203142,1,0,0:0:0:0:
224,192,203228,1,0,0:0:0:0:
256,224,203314,5,8,0:0:0:0:
256,224,203485,1,0,0:0:0:0:
256,224,203571,1,0,0:0:0:0:
256,224,203657,1,0,0:0:0:0:
256,224,203828,1,0,0:0:0:0:
256,224,204000,1,8,0:0:0:0:
224,192,204085,1,0,0:0:0:0:
256,224,204171,1,8,0:0:0:0:
256,224,204257,1,8,0:0:0:0:
256,224,204342,1,0,0:0:0:0:
256,224,204428,1,8,0:0:0:0:
256,224,204514,1,0,0:0:0:0:
256,224,204600,1,0,0:0:0:0:
256,224,204685,1,8,0:0:0:0:
256,224,204857,1,8,0:0:0:0:
256,224,204942,1,8,0:0:0:0:
256,224,205028,1,0,0:0:0:0:
224,192,205114,1,8,0:0:0:0:
256,224,205200,1,0,0:0:0:0:
256,224,205371,1,8,0:0:0:0:
256,224,205542,1,8,0:0:0:0:
256,224,205714,1,0,0:0:0:0:
256,224,206057,5,8,0:0:0:0:
256,224,206228,1,0,0:0:0:0:
256,224,206314,1,0,0:0:0:0:
256,224,206400,1,0,0:0:0:0:
256,224,206571,1,0,0:0:0:0:
256,224,206742,1,8,0:0:0:0:
224,192,206828,1,8,0:0:0:0:
256,224,206914,1,0,0:0:0:0:
256,224,207000,1,8,0:0:0:0:
256,224,207085,1,0,0:0:0:0:
256,224,207171,1,0,0:0:0:0:
256,224,207257,1,8,0:0:0:0:
256,224,207342,1,0,0:0:0:0:
256,224,207428,1,8,0:0:0:0:
256,224,207600,1,8,0:0:0:0:
256,224,207685,1,8,0:0:0:0:
256,224,207771,1,0,0:0:0:0:
256,224,207942,1,8,0:0:0:0:
256,224,208114,1,0,0:0:0:0:
256,224,208200,1,8,0:0:0:0:
256,224,208285,1,0,0:0:0:0:
256,224,208457,5,4,0:0:0:0:
224,192,208628,1,8,0:0:0:0:
224,192,208714,1,8,0:0:0:0:
224,192,208800,1,8,0:0:0:0:
224,192,208971,1,0,0:0:0:0:
224,192,209057,1,0,0:0:0:0:
224,192,209142,1,8,0:0:0:0:
224,192,209228,1,0,0:0:0:0:
224,192,209314,1,0,0:0:0:0:
224,192,209485,1,8,0:0:0:0:
224,192,209657,1,0,0:0:0:0:
224,192,209742,1,0,0:0:0:0:
224,192,209828,1,8,0:0:0:0:
224,192,209914,1,0,0:0:0:0:
224,192,210000,1,8,0:0:0:0:
224,192,210085,1,8,0:0:0:0:
224,192,210171,1,8,0:0:0:0:
224,192,210342,1,0,0:0:0:0:
224,192,210428,1,0,0:0:0:0:
224,192,210514,1,8,0:0:0:0:
224,192,210600,1,8,0:0:0:0:
224,192,210685,1,0,0:0:0:0:
224,192,210857,1,8,0:0:0:0:
256,224,211028,1,0,0:0:0:0:
256,224,211200,5,0,0:0:0:0:
256,224,211285,1,8,0:0:0:0:
256,224,211371,1,0,0:0:0:0:
224,192,211457,1,0,0:0:0:0:
256,224,211542,1,8,0:0:0:0:
256,224,211714,1,0,0:0:0:0:
256,224,211800,1,0,0:0:0:0:
256,224,211885,1,8,0:0:0:0:
256,224,212057,1,0,0:0:0:0:
256,224,212228,1,8,0:0:0:0:
224,192,212314,1,0,0:0:0:0:
256,224,212400,1,8,0:0:0:0:
256,224,212485,1,8,0:0:0:0:
256,224,212571,1,0,0:0:0:0:
256,224,212742,1,0,0:0:0:0:
256,224,212914,1,8,0:0:0:0:
224,192,213000,1,0,0:0:0:0:
256,224,213085,1,8,0:0:0:0:
256,224,213257,5,0,0:0:0:0:
256,224,213342,1,8,0:0:0:0:
256,224,213428,1,0,0:0:0:0:
256,224,213514,1,0,0:0:0:0:
256,224,213600,1,8,0:0:0:0:
256,224,213685,1,0,0:0:0:0:
256,224,213771,1,8,0:0:0:0:
256,224,213857,1,8,0:0:0:0:
256,224,213942,1,0,0:0:0:0:
256,224,214285,5,8,0:0:0:0:
256,224,214457,1,0,0:0:0:0:
256,224,214542,1,0,0:0:0:0:
256,224,214628,1,0,0:0:0:0:
256,224,214800,1,0,0:0:0:0:
256,224,214971,1,8,0:0:0:0:
256,224,215057,1,0,0:0:0:0:
256,224,215142,1,0,0:0:0:0:
256,224,215228,1,0,0:0:0:0:
256,224,215314,1,8,0:0:0:0:
256,224,215400,1,8,0:0:0:0:
256,224,215485,1,0,0:0:0:0:
256,224,215571,1,0,0:0:0:0:
256,224,215657,1,8,0:0:0:0:
256,224,215828,1,8,0:0:0:0:
256,224,215914,1,8,0:0:0:0:
256,224,216000,1,0,0:0:0:0:
256,224,216085,1,8,0:0:0:0:
256,224,216171,1,0,0:0:0:0:
256,224,216342,1,8,0:0:0:0:
256,224,216514,1,8,0:0:0:0:
256,224,216685,1,0,0:0:0:0:
256,224,217028,5,8,0:0:0:0:
256,224,217200,1,0,0:0:0:0:
256,224,217285,1,0,0:0:0:0:
256,224,217371,1,0,0:0:0:0:
256,224,217542,1,0,0:0:0:0:
256,224,217714,1,8,0:0:0:0:
224,192,217800,1,8,0:0:0:0:
256,224,217885,1,0,0:0:0:0:
256,224,217971,1,0,0:0:0:0:
256,224,218057,1,8,0:0:0:0:
256,224,218142,1,0,0:0:0:0:
256,224,218228,1,0,0:0:0:0:
256,224,218314,1,0,0:0:0:0:
256,224,218400,1,8,0:0:0:0:
256,224,218571,1,8,0:0:0:0:
256,224,218657,1,8,0:0:0:0:
256,224,218742,1,0,0:0:0:0:
256,224,218914,1,0,0:0:0:0:
256,224,219085,1,8,0:0:0:0:
256,224,219171,1,0,0:0:0:0:
256,224,219257,1,8,0:0:0:0:
256,224,219428,5,4,0:0:0:0:
256,224,221314,1,0,0:0:0:0:
256,224,221485,1,8,0:0:0:0:
256,224,221657,1,0,0:0:0:0:
256,224,221828,1,8,0:0:0:0:
256,224,222000,1,8,0:0:0:0:
224,192,222171,5,4,0:0:0:0:
224,192,222342,1,0,0:0:0:0:
224,224,222428,1,0,0:0:0:0:
224,192,222514,1,8,0:0:0:0:
224,192,222685,1,8,0:0:0:0:
224,192,222771,1,8,0:0:0:0:
224,192,222857,1,0,0:0:0:0:
224,192,222942,1,8,0:0:0:0:
224,192,223028,1,0,0:0:0:0:
224,192,223114,1,0,0:0:0:0:
224,192,223200,1,8,0:0:0:0:
256,224,223371,1,0,0:0:0:0:
224,192,223457,1,8,0:0:0:0:
224,192,223542,1,0,0:0:0:0:
224,192,223714,1,0,0:0:0:0:
224,192,223885,1,8,0:0:0:0:
224,192,223971,1,8,0:0:0:0:
224,192,224057,1,0,0:0:0:0:
224,192,224228,5,0,0:0:0:0:
224,192,224314,1,8,0:0:0:0:
224,192,224400,1,0,0:0:0:0:
224,192,224485,1,0,0:0:0:0:
224,192,224571,1,8,0:0:0:0:
224,192,224657,1,0,0:0:0:0:
256,224,224742,1,8,0:0:0:0:
224,192,224828,1,8,0:0:0:0:
256,224,224914,5,0,0:0:0:0:
224,192,225085,1,0,0:0:0:0:
224,192,225171,1,0,0:0:0:0:
256,224,225257,1,8,0:0:0:0:
256,224,225428,1,0,0:0:0:0:
256,224,225514,1,0,0:0:0:0:
256,224,225600,1,8,0:0:0:0:
224,224,225685,1,8,0:0:0:0:
256,224,225771,1,0,0:0:0:0:
256,224,225942,1,8,0:0:0:0:
256,224,226114,1,0,0:0:0:0:
256,224,226285,1,8,0:0:0:0:
256,224,226371,1,0,0:0:0:0:
256,224,226457,1,8,0:0:0:0:
256,224,226628,1,8,0:0:0:0:
256,224,226800,1,8,0:0:0:0:
256,224,226885,1,0,0:0:0:0:
256,224,226971,1,8,0:0:0:0:
256,224,227057,1,8,0:0:0:0:
256,224,227142,1,0,0:0:0:0:
256,224,227314,1,8,0:0:0:0:
256,224,227485,1,0,0:0:0:0:
256,224,227542,1,0,0:0:0:0:
256,224,227600,1,0,0:0:0:0:
256,224,227657,5,8,0:0:0:0:
256,224,227828,1,0,0:0:0:0:
256,224,228000,1,8,0:0:0:0:
256,224,228171,1,8,0:0:0:0:
256,224,228257,1,0,0:0:0:0:
256,224,228342,1,8,0:0:0:0:
224,192,228428,1,8,0:0:0:0:
256,224,228514,1,0,0:0:0:0:
256,224,228685,1,8,0:0:0:0:
256,224,228857,1,8,0:0:0:0:
256,224,228942,1,8,0:0:0:0:
256,224,229028,1,0,0:0:0:0:
256,224,229200,1,0,0:0:0:0:
256,224,229371,1,8,0:0:0:0:
256,224,229457,1,8,0:0:0:0:
256,224,229542,1,0,0:0:0:0:
256,224,229628,1,0,0:0:0:0:
256,224,229714,1,8,0:0:0:0:
224,192,229800,1,0,0:0:0:0:
224,192,229885,1,0,0:0:0:0:
256,224,230057,1,8,0:0:0:0:
256,224,230228,1,0,0:0:0:0:
224,192,230400,5,12,0:0:0:0:
224,192,230571,1,0,0:0:0:0:
256,224,230657,1,0,0:0:0:0:
224,192,230742,1,8,0:0:0:0:
224,192,230914,1,0,0:0:0:0:
224,192,231000,1,0,0:0:0:0:
224,192,231085,1,8,0:0:0:0:
224,192,231171,1,8,0:0:0:0:
224,192,231257,1,0,0:0:0:0:
224,192,231342,1,0,0:0:0:0:
224,192,231428,1,8,0:0:0:0:
256,224,231600,1,0,0:0:0:0:
224,192,231685,1,0,0:0:0:0:
224,192,231771,1,8,0:0:0:0:
224,192,231857,1,0,0:0:0:0:
224,192,231942,1,0,0:0:0:0:
224,192,232114,1,8,0:0:0:0:
224,192,232285,1,8,0:0:0:0:
224,192,232371,1,0,0:0:0:0:
224,192,232457,1,8,0:0:0:0:
224,192,232542,1,8,0:0:0:0:
224,192,232628,1,0,0:0:0:0:
224,192,232800,1,8,0:0:0:0:
256,224,232971,1,0,0:0:0:0:
224,192,233057,1,0,0:0:0:0:
256,224,233142,5,8,0:0:0:0:
224,192,233228,1,8,0:0:0:0:
224,192,233314,1,0,0:0:0:0:
256,224,233485,1,8,0:0:0:0:
256,224,233657,1,8,0:0:0:0:
256,224,233742,1,0,0:0:0:0:
256,224,233828,1,8,0:0:0:0:
224,224,233914,1,8,0:0:0:0:
256,224,234000,1,0,0:0:0:0:
224,192,234085,1,0,0:0:0:0:
256,224,234171,1,8,0:0:0:0:
256,224,234342,1,0,0:0:0:0:
256,224,234428,1,0,0:0:0:0:
256,224,234514,1,8,0:0:0:0:
256,224,234685,1,0,0:0:0:0:
256,224,234857,1,8,0:0:0:0:
224,192,234942,1,0,0:0:0:0:
256,224,235028,1,8,0:0:0:0:
256,224,235200,5,0,0:0:0:0:
224,224,235285,1,8,0:0:0:0:
256,224,235371,1,0,0:0:0:0:
256,224,235457,1,0,0:0:0:0:
256,224,235542,1,8,0:0:0:0:
256,224,235628,1,0,0:0:0:0:
256,224,235714,1,8,0:0:0:0:
256,224,235800,1,8,0:0:0:0:
256,224,235885,5,0,0:0:0:0:
256,224,236228,1,8,0:0:0:0:
256,224,236400,1,0,0:0:0:0:
256,192,236485,1,0,0:0:0:0:
256,224,236571,1,8,0:0:0:0:
256,224,237085,1,8,0:0:0:0:
256,224,237257,5,0,0:0:0:0:
256,224,237428,1,0,0:0:0:0:
256,224,237600,1,8,0:0:0:0:
256,224,237771,1,0,0:0:0:0:
256,192,237857,1,0,0:0:0:0:
256,224,237942,1,8,0:0:0:0:
256,224,238285,1,8,0:0:0:0:
256,224,238457,1,8,0:0:0:0:
256,224,238628,5,4,0:0:0:0:
224,128,238971,1,0,0:0:0:0:
256,192,239142,1,0,0:0:0:0:
256,192,239314,1,8,0:0:0:0:
256,224,239485,1,0,0:0:0:0:
256,192,239657,1,0,0:0:0:0:
256,192,239828,1,8,0:0:0:0:
256,192,240000,1,0,0:0:0:0:
256,192,240514,5,8,0:0:0:0:
256,192,240685,1,0,0:0:0:0:
256,192,240857,1,0,0:0:0:0:
256,192,241028,1,8,0:0:0:0:
256,192,241200,1,8,0:0:0:0:
256,192,241371,5,4,0:0:0:0:
256,192,241542,1,0,0:0:0:0:
256,192,241628,1,0,0:0:0:0:
256,192,241714,1,8,0:0:0:0:
256,192,241885,1,0,0:0:0:0:
256,192,241971,1,8,0:0:0:0:
256,192,242057,1,0,0:0:0:0:
256,192,242142,1,0,0:0:0:0:
256,192,242228,1,0,0:0:0:0:
256,192,242400,1,8,0:0:0:0:
256,192,242571,5,8,0:0:0:0:
256,192,242657,1,8,0:0:0:0:
256,192,242742,1,0,0:0:0:0:
256,192,242914,1,0,0:0:0:0:
256,192,243085,1,8,0:0:0:0:
256,192,243257,1,0,0:0:0:0:
256,192,243342,1,0,0:0:0:0:
256,192,243428,1,8,0:0:0:0:
256,192,243514,1,8,0:0:0:0:
256,192,243600,1,0,0:0:0:0:
256,192,243771,1,8,0:0:0:0:
256,192,243942,5,8,0:0:0:0:
256,192,244028,1,0,0:0:0:0:
256,192,244114,1,0,0:0:0:0:
256,192,244285,1,0,0:0:0:0:
256,192,244371,1,0,0:0:0:0:
256,192,244457,1,8,0:0:0:0:
256,192,244628,1,0,0:0:0:0:
256,192,244714,1,0,0:0:0:0:
256,192,244800,1,0,0:0:0:0:
256,192,244885,1,8,0:0:0:0:
256,192,244971,1,0,0:0:0:0:
256,192,245142,1,8,0:0:0:0:
256,192,245314,5,0,0:0:0:0:
256,192,245400,1,8,0:0:0:0:
256,192,245485,1,8,0:0:0:0:
256,192,245657,1,0,0:0:0:0:
256,192,245828,1,8,0:0:0:0:
256,192,246000,1,8,0:0:0:0:
256,192,246085,1,8,0:0:0:0:
256,192,246171,1,0,0:0:0:0:
256,192,246342,1,0,0:0:0:0:
256,192,246428,1,0,0:0:0:0:
256,192,246514,1,8,0:0:0:0:
256,192,246685,1,0,0:0:0:0:
256,192,246857,5,12,0:0:0:0:
256,192,247028,1,0,0:0:0:0:
256,192,247114,1,0,0:0:0:0:
256,192,247200,1,8,0:0:0:0:
256,192,247371,1,0,0:0:0:0:
256,192,247457,1,0,0:0:0:0:
256,192,247542,1,0,0:0:0:0:
256,192,247628,1,8,0:0:0:0:
256,192,247714,1,0,0:0:0:0:
256,192,247885,1,8,0:0:0:0:
256,192,248057,5,8,0:0:0:0:
256,192,248142,1,8,0:0:0:0:
256,192,248228,1,0,0:0:0:0:
256,192,248400,1,0,0:0:0:0:
256,192,248485,1,0,0:0:0:0:
256,192,248571,1,8,0:0:0:0:
256,192,248742,1,0,0:0:0:0:
256,192,248828,1,8,0:0:0:0:
256,192,248914,1,0,0:0:0:0:
256,192,249000,1,0,0:0:0:0:
256,192,249085,1,0,0:0:0:0:
256,192,249257,1,8,0:0:0:0:
256,192,249428,5,8,0:0:0:0:
256,192,249514,1,8,0:0:0:0:
256,192,249600,1,8,0:0:0:0:
256,192,249685,1,0,0:0:0:0:
256,192,249771,1,0,0:0:0:0:
256,192,249942,1,8,0:0:0:0:
256,192,250114,1,8,0:0:0:0:
256,192,250200,1,8,0:0:0:0:
256,192,250285,1,0,0:0:0:0:
256,192,250457,1,0,0:0:0:0:
256,192,250628,1,8,0:0:0:0:
256,192,250800,5,0,0:0:0:0:
256,192,250885,1,8,0:0:0:0:
256,192,250971,1,8,0:0:0:0:
256,192,251057,1,8,0:0:0:0:
256,192,251142,1,0,0:0:0:0:
256,192,251314,1,8,0:0:0:0:
256,192,251485,1,0,0:0:0:0:
256,192,251571,1,8,0:0:0:0:
256,192,251657,1,0,0:0:0:0:
256,192,251828,1,0,0:0:0:0:
256,192,251914,1,0,0:0:0:0:
256,192,252000,1,8,0:0:0:0:
256,192,252085,1,8,0:0:0:0:
256,192,252171,1,0,0:0:0:0:
256,192,252342,5,12,0:0:0:0:
256,192,252514,1,0,0:0:0:0:
256,192,252600,1,0,0:0:0:0:
256,192,252685,1,8,0:0:0:0:
256,192,252857,1,0,0:0:0:0:
256,192,252942,1,8,0:0:0:0:
256,192,253028,1,8,0:0:0:0:
256,192,253114,1,0,0:0:0:0:
256,192,253200,1,0,0:0:0:0:
256,192,253371,1,8,0:0:0:0:
256,192,253542,5,8,0:0:0:0:
256,192,253628,1,8,0:0:0:0:
256,192,253714,1,0,0:0:0:0:
256,192,253885,1,0,0:0:0:0:
256,192,254057,1,8,0:0:0:0:
256,192,254228,1,0,0:0:0:0:
256,192,254314,1,8,0:0:0:0:
256,192,254400,1,8,0:0:0:0:
256,192,254485,1,8,0:0:0:0:
256,192,254571,1,0,0:0:0:0:
256,192,254742,1,8,0:0:0:0:
256,192,254914,5,8,0:0:0:0:
256,192,255000,1,0,0:0:0:0:
256,192,255085,1,0,0:0:0:0:
256,192,255257,1,0,0:0:0:0:
259,204,255342,1,0,0:0:0:0:
256,192,255428,1,8,0:0:0:0:
256,192,255600,1,0,0:0:0:0:
256,192,255685,1,0,0:0:0:0:
256,192,255771,1,8,0:0:0:0:
256,192,255857,1,8,0:0:0:0:
256,192,255942,1,0,0:0:0:0:
256,192,256114,1,8,0:0:0:0:
256,192,256285,5,0,0:0:0:0:
256,192,256371,1,8,0:0:0:0:
256,192,256457,1,8,0:0:0:0:
256,192,256542,1,0,0:0:0:0:
256,192,256628,1,0,0:0:0:0:
256,192,256800,1,8,0:0:0:0:
256,192,256971,1,8,0:0:0:0:
256,192,257057,1,8,0:0:0:0:
256,192,257142,1,0,0:0:0:0:
256,192,257314,1,0,0:0:0:0:
256,192,257400,1,0,0:0:0:0:
256,192,257485,1,8,0:0:0:0:
256,192,257657,1,0,0:0:0:0:
256,192,257828,5,12,0:0:0:0:
256,192,258000,1,0,0:0:0:0:
256,192,258085,1,0,0:0:0:0:
256,192,258171,1,8,0:0:0:0:
256,192,258342,1,0,0:0:0:0:
256,192,258428,1,0,0:0:0:0:
256,192,258514,1,0,0:0:0:0:
256,192,258600,1,8,0:0:0:0:
256,192,258685,1,0,0:0:0:0:
263,192,258771,1,0,0:0:0:0:
256,192,258857,1,8,0:0:0:0:
256,192,259028,5,8,0:0:0:0:
256,192,259114,1,8,0:0:0:0:
256,192,259200,1,0,0:0:0:0:
263,192,259285,1,0,0:0:0:0:
256,192,259371,1,0,0:0:0:0:
256,192,259542,1,8,0:0:0:0:
256,192,259714,1,0,0:0:0:0:
256,192,259800,1,8,0:0:0:0:
256,192,259885,1,0,0:0:0:0:
256,192,259971,1,0,0:0:0:0:
256,192,260057,1,0,0:0:0:0:
256,192,260228,1,8,0:0:0:0:
256,192,260400,5,8,0:0:0:0:
256,192,260485,1,8,0:0:0:0:
256,192,260571,1,8,0:0:0:0:
256,192,260657,1,0,0:0:0:0:
256,192,260742,1,0,0:0:0:0:
263,192,260828,1,0,0:0:0:0:
256,192,260914,1,8,0:0:0:0:
256,192,261085,1,8,0:0:0:0:
256,192,261171,1,8,0:0:0:0:
256,192,261257,1,0,0:0:0:0:
263,192,261342,1,8,0:0:0:0:
256,192,261428,1,0,0:0:0:0:
256,192,261600,1,8,0:0:0:0:
256,192,261771,1,8,0:0:0:0:
256,192,261942,5,4,0:0:0:0:
256,192,262285,1,8,0:0:0:0:
256,192,262457,1,0,0:0:0:0:
256,192,262542,1,8,0:0:0:0:
252,182,262628,1,8,0:0:0:0:
256,192,262714,1,8,0:0:0:0:
256,192,262800,1,0,0:0:0:0:
269,209,262885,1,0,0:0:0:0:
256,192,262971,5,8,0:0:0:0:
256,192,263057,1,0,0:0:0:0:
256,192,263142,1,8,0:0:0:0:
258,206,263314,5,4,0:0:0:0:
256,192,263400,12,0,268628,0:0:0:0:
256,192,268800,12,0,283885,0:0:0:0:
