osu file format v14

[General]
AudioFilename: audio.mp3
AudioLeadIn: 0
PreviewTime: 173816
Countdown: 0
SampleSet: Soft
StackLeniency: 0.3
Mode: 0
LetterboxInBreaks: 0
WidescreenStoryboard: 1

[Editor]
DistanceSpacing: 2
BeatDivisor: 4
GridSize: 8
TimelineZoom: 1.3

[Metadata]
Title:Havana
TitleUnicode:Havana
Artist:Camila Cabello feat. Young Thug
ArtistUnicode:Camila Cabello feat. Young Thug
Creator:hannody
Version:havannnna
Source:
Tags:
BeatmapID:1625098
BeatmapSetID:758622

[Difficulty]
HPDrainRate:6
CircleSize:3.5
OverallDifficulty:7
ApproachRate:8
SliderMultiplier:1.2
SliderTickRate:1

[Events]
//Background and Video events
0,0,"Havana Cuba_Ultra HD (2).jpg",0,0
//Break Periods
//Storyboard Layer 0 (Background)
//Storyboard Layer 1 (Fail)
//Storyboard Layer 2 (Pass)
//Storyboard Layer 3 (Foreground)
//Storyboard Sound Samples

[TimingPoints]
521,571.428571428571,4,2,0,0,1,0
27959,-100,4,2,0,0,0,1
28059,-100,4,2,0,0,0,0
46235,-66.6666666666667,4,2,0,0,0,0
46245,-66.6666666666667,4,2,0,0,0,0
49378,-100,4,2,0,0,0,0
49388,-100,4,2,0,0,0,0
55378,-66.6666666666667,4,2,0,0,0,0
55388,-66.6666666666667,4,2,0,0,0,0
58520,-100,4,2,0,0,0,0
58530,-100,4,2,0,0,0,0
64520,-83.3333333333333,4,2,0,0,0,0
83378,-133.333333333333,4,2,0,0,0,0
83388,-133.333333333333,4,2,0,0,0,0
91949,-100,4,2,0,0,0,0
91959,-100,4,2,0,0,0,0
91959,-100,4,2,0,0,0,1
92059,-100,4,2,0,0,0,0
95949,-66.6666666666667,4,2,0,0,0,0
95959,-66.6666666666667,4,2,0,0,0,0
96520,-100,4,2,0,0,0,0
96530,-100,4,2,0,0,0,0
101673,-100,4,2,0,0,0,1
101773,-100,4,2,0,0,0,0
119378,-83.3333333333333,4,2,0,0,0,0
119388,-83.3333333333333,4,2,0,0,0,1
137102,-83.3333333333333,4,2,0,0,0,0
137673,-83.3333333333333,4,2,0,0,0,1
138235,-76.9230769230769,4,2,0,0,0,1
138245,-76.9230769230769,4,2,0,0,0,1
138520,-66.6666666666667,4,2,0,0,0,1
138530,-66.6666666666667,4,2,0,0,0,1
139388,-83.3333333333333,4,2,0,0,0,1
142806,-66.6666666666667,4,2,0,0,0,1
142816,-66.6666666666667,4,2,0,0,0,1
143949,-83.3333333333333,4,2,0,0,0,1
143959,-83.3333333333333,4,2,0,0,0,1
147378,-66.6666666666667,4,2,0,0,0,1
147388,-66.6666666666667,4,2,0,0,0,1
148520,-83.3333333333333,4,2,0,0,0,1
148530,-83.3333333333333,4,2,0,0,0,1
151949,-66.6666666666667,4,2,0,0,0,1
151949,-66.6666666666667,4,2,0,0,0,1
151959,-66.6666666666667,4,2,0,0,0,1
153102,-83.3333333333333,4,2,0,0,0,1
155959,-100,4,2,0,0,0,0
165092,-66.6666666666667,4,2,0,0,0,0
165102,-66.6666666666667,4,2,0,0,0,0
173673,-66.6666666666667,4,2,0,0,0,0
174245,-62.5,4,2,0,0,0,1
192520,-100,4,2,0,0,0,1
192530,-100,4,2,0,0,0,0

[Colours]
Combo1 : 207,173,174
Combo2 : 255,64,64
Combo3 : 50,222,136
Combo4 : 250,208,163
Combo5 : 252,255,119
Combo6 : 227,244,253
Combo7 : 188,156,248
Combo8 : 252,186,114

[HitObjects]
32,224,521,6,0,L|160:228,1,120
270,224,1378,1,0,0:0:0:0:
151,227,1663,2,0,L|280:224,1,120
389,227,2520,1,0,0:0:0:0:
270,224,2806,2,0,L|396:228,1,120
480,308,3663,1,0,0:0:0:0:
389,227,3949,2,0,L|448:224,1,60
392,204,4378,1,0,0:0:0:0:
348,164,4520,2,0,L|364:96,1,60
248,64,5092,6,0,L|128:72,1,120
8,68,5949,1,0,0:0:0:0:
128,71,6235,2,0,L|0:68,1,120
22,187,7092,1,0,0:0:0:0:
8,68,7378,2,0,L|24:196,1,120
4,303,8235,1,0,0:0:0:0:
22,187,8520,2,0,P|24:224|0:312,1,120
120,340,9378,1,0,0:0:0:0:
228,292,9663,6,0,L|296:288,1,60
380,212,10235,2,0,L|312:208,2,60
472,136,11092,1,0,0:0:0:0:
472,136,11235,1,0,0:0:0:0:
436,88,11378,1,0,0:0:0:0:
436,88,11520,1,0,0:0:0:0:
400,40,11663,1,0,0:0:0:0:
160,16,12235,6,0,L|88:12,1,60
24,108,12806,2,0,L|88:104,2,60
100,200,13663,1,0,0:0:0:0:
100,200,13949,1,0,0:0:0:0:
204,260,14235,6,0,L|272:264,1,60
368,208,14806,2,0,L|300:212,2,60
460,128,15663,5,0,0:0:0:0:
460,128,15806,1,0,0:0:0:0:
428,76,15949,1,0,0:0:0:0:
428,76,16092,1,0,0:0:0:0:
392,28,16235,1,0,0:0:0:0:
152,28,16806,6,0,L|80:24,1,60
4,108,17378,2,0,L|68:104,2,60
80,200,18235,1,0,0:0:0:0:
80,200,18520,1,0,0:0:0:0:
160,288,18806,6,0,L|240:296,1,60
328,240,19378,2,0,L|256:248,2,60
424,160,20235,5,0,0:0:0:0:
424,160,20378,1,0,0:0:0:0:
408,104,20520,1,0,0:0:0:0:
408,104,20663,1,0,0:0:0:0:
384,48,20806,1,0,0:0:0:0:
144,16,21378,6,0,L|56:24,1,60
40,136,21949,2,0,L|112:144,2,60
128,216,22806,1,0,0:0:0:0:
128,216,23092,1,0,0:0:0:0:
232,280,23378,6,0,L|312:272,2,60
288,256,24092,1,0,0:0:0:0:
344,280,24235,2,0,L|352:344,1,60
400,232,24806,6,0,L|408:176,1,30
456,168,25092,2,0,L|448:96,1,60
336,64,25663,6,0,L|264:56,2,60
280,40,26378,1,0,0:0:0:0:
224,56,26520,5,0,0:0:0:0:
112,96,26806,1,0,0:0:0:0:
344,160,27092,1,0,0:0:0:0:
224,136,27378,1,0,0:0:0:0:
112,96,27663,1,0,0:0:0:0:
272,144,27949,6,0,P|280:180|272:208,1,60
156,196,28520,2,0,P|152:164|164:132,1,60
228,36,29092,1,0,0:0:0:0:
228,36,29378,1,0,0:0:0:0:
344,8,29663,2,0,B|396:4|396:4|440:0|452:40,1,120
512,128,30520,1,0,0:0:0:0:
460,236,30806,2,0,B|408:240|408:240|372:244|348:200,1,120
256,280,31663,1,0,0:0:0:0:
140,244,31949,6,0,P|116:240|92:244,1,45
96,272,32235,2,0,P|116:276|144:272,1,45
140,244,32520,2,0,P|132:212|140:184,1,60
256,184,33092,2,0,P|264:216|256:248,1,60
200,344,33663,1,0,0:0:0:0:
200,344,33949,1,0,0:0:0:0:
320,344,34235,6,0,P|360:360|432:328,1,120
360,232,35092,1,0,0:0:0:0:
400,120,35378,2,0,P|360:104|288:136,1,120
224,232,36235,1,0,0:0:0:0:
136,152,36520,6,0,P|120:144|88:160,1,45
96,184,36806,2,0,P|120:192|144:176,1,45
136,152,37092,2,0,P|128:128|136:88,1,60
256,96,37663,2,0,P|264:120|256:152,1,60
192,256,38235,1,0,0:0:0:0:
192,256,38520,1,0,0:0:0:0:
304,304,38806,6,0,B|344:296|368:304|368:304|400:320|432:312,1,120
472,208,39663,1,0,0:0:0:0:
432,96,39949,2,0,B|392:80|360:96|360:96|336:112|296:104,1,120
216,40,40806,1,0,0:0:0:0:
112,104,41092,5,0,0:0:0:0:
96,160,41235,1,0,0:0:0:0:
80,216,41378,1,0,0:0:0:0:
144,312,41663,6,0,P|176:328|256:304,1,120
248,184,42520,1,0,0:0:0:0:
253,306,42806,2,0,P|301:330|365:298,1,120
408,200,43663,1,0,0:0:0:0:
408,200,44235,2,0,L|400:136,2,60
504,272,45092,1,0,0:0:0:0:
512,152,45378,5,0,0:0:0:0:
496,96,45520,1,0,0:0:0:0:
472,40,45663,1,0,0:0:0:0:
360,0,45949,5,0,0:0:0:0:
192,56,46235,6,0,P|136:40|48:136,1,180.000006866455
48,296,47092,1,0,0:0:0:0:
224,344,47378,2,0,B|272:360|320:344|320:344|344:304|384:296|384:296|344:288|328:232|328:232|304:208|232:208,1,360.000013732911
243,208,48806,1,0,0:0:0:0:
243,208,49378,6,0,L|248:136,2,60
360,176,50235,2,0,L|368:88,1,60
488,112,50806,2,0,L|496:32,1,60
256,8,51663,6,0,L|184:16,2,60
176,96,52520,2,0,L|112:104,1,60
80,216,53092,2,0,L|8:224,1,60
20,222,53663,1,0,0:0:0:0:
376,312,54520,5,0,0:0:0:0:
416,272,54663,1,0,0:0:0:0:
432,216,54806,1,0,0:0:0:0:
424,160,54949,1,0,0:0:0:0:
392,112,55092,1,0,0:0:0:0:
336,88,55235,1,0,0:0:0:0:
248,80,55378,2,0,B|200:96|160:80|160:80|112:96|64:80,1,180.000006866455
24,256,56235,1,0,0:0:0:0:
184,336,56520,6,0,B|216:304|272:304|272:304|272:264|312:232|312:232|328:280|376:296|376:296|392:248|448:240,1,360.000013732911
435,242,57949,1,0,0:0:0:0:
435,242,58520,6,0,L|440:176,2,60
376,136,59378,2,0,L|368:56,1,60
472,16,59949,2,0,L|464:96,1,60
232,16,60806,6,0,L|224:80,2,60
160,112,61663,2,0,L|168:200,1,60
88,80,62235,1,0,0:0:0:0:
80,200,62520,5,0,0:0:0:0:
96,256,62663,1,0,0:0:0:0:
112,312,62806,1,0,0:0:0:0:
232,328,63092,5,0,0:0:0:0:
240,272,63235,1,0,0:0:0:0:
248,216,63378,1,0,0:0:0:0:
344,144,63663,5,0,0:0:0:0:
352,200,63806,1,0,0:0:0:0:
360,256,63949,1,0,0:0:0:0:
464,200,64235,1,0,0:0:0:0:
472,144,64378,1,0,0:0:0:0:
488,72,64520,6,0,L|568:64,1,71.9999978027344
488,56,64949,1,0,0:0:0:0:
424,16,65092,2,0,L|344:8,2,71.9999978027344
280,32,65949,5,0,0:0:0:0:
208,40,66092,1,0,0:0:0:0:
136,48,66235,1,0,0:0:0:0:
72,176,66520,1,0,0:0:0:0:
176,272,66806,6,0,L|256:280,2,71.9999978027344
48,200,67663,1,0,0:0:0:0:
160,288,67949,2,0,L|240:296,2,71.9999978027344
304,272,68806,1,0,0:0:0:0:
368,248,68949,1,0,0:0:0:0:
432,224,69092,6,0,L|456:296,1,71.9999978027344
448,224,69520,1,0,0:0:0:0:
472,152,69663,2,0,L|480:80,2,71.9999978027344
360,56,70520,5,0,0:0:0:0:
296,24,70663,1,0,0:0:0:0:
224,24,70806,1,0,0:0:0:0:
104,104,71092,1,0,0:0:0:0:
120,248,71378,6,0,L|112:320,2,71.9999978027344
72,112,72235,1,0,0:0:0:0:
72,256,72520,2,0,L|64:344,2,71.9999978027344
200,192,73378,5,0,0:0:0:0:
264,168,73520,1,0,0:0:0:0:
328,144,73663,2,0,L|352:224,1,71.9999978027344
344,144,74092,1,0,0:0:0:0:
376,72,74235,2,0,L|384:0,2,71.9999978027344
240,16,75092,5,0,0:0:0:0:
176,40,75235,1,0,0:0:0:0:
120,80,75378,1,0,0:0:0:0:
48,200,75663,1,0,0:0:0:0:
152,296,75949,6,0,P|192:304|240:288,1,71.9999978027344
360,248,76520,2,0,P|408:240|448:256,2,71.9999978027344
288,368,77378,1,0,0:0:0:0:
272,296,77520,1,0,0:0:0:0:
256,224,77663,1,0,0:0:0:0:
304,88,77949,1,0,0:0:0:0:
176,152,78235,1,0,0:0:0:0:
400,136,78520,5,0,0:0:0:0:
400,136,79092,6,0,L|392:56,2,71.9999978027344
448,272,79949,1,0,0:0:0:0:
312,232,80235,1,0,0:0:0:0:
296,376,80520,1,0,0:0:0:0:
240,168,80806,1,0,0:0:0:0:
176,208,80949,6,0,P|168:176|168:144,1,35.9999989013672
88,296,81378,1,0,0:0:0:0:
88,296,81520,2,0,L|96:328,1,17.9999994506836
104,352,81663,2,0,L|176:360,1,71.9999978027344
312,304,82235,1,0,0:0:0:0:
312,304,82520,1,0,0:0:0:0:
448,344,82806,6,0,P|424:280|480:312,1,143.999995605469
496,200,83663,1,0,0:0:0:0:
472,104,83949,6,0,P|488:56|456:64,1,90.0000034332277
384,80,84806,1,0,0:0:0:0:
288,40,85092,6,0,P|280:8|264:48,1,90.0000034332277
192,104,85949,1,0,0:0:0:0:
96,120,86235,6,0,P|64:128|96:152,1,90.0000034332277
152,216,87092,1,0,0:0:0:0:
216,288,87378,6,0,P|240:320|256:288,1,90.0000034332277
288,200,88235,1,0,0:0:0:0:
408,192,88520,1,0,0:0:0:0:
408,192,88806,1,0,0:0:0:0:
352,120,89092,5,0,0:0:0:0:
352,120,89378,1,0,0:0:0:0:
272,168,89663,1,0,0:0:0:0:
192,128,89949,1,0,0:0:0:0:
112,168,90235,1,0,0:0:0:0:
56,96,90520,1,0,0:0:0:0:
192,128,90806,1,0,0:0:0:0:
216,216,91092,5,0,0:0:0:0:
224,256,91235,1,0,0:0:0:0:
232,296,91378,1,0,0:0:0:0:
312,336,91663,1,0,0:0:0:0:
360,224,91949,5,0,0:0:0:0:
416,240,92092,1,0,0:0:0:0:
456,200,92235,1,0,0:0:0:0:
440,144,92378,1,0,0:0:0:0:
384,136,92520,1,0,0:0:0:0:
264,152,92806,6,0,L|184:136,1,60
96,80,93378,1,0,0:0:0:0:
96,80,93520,2,0,L|88:152,1,60
120,192,93949,2,0,L|128:240,1,30
160,272,94235,2,0,L|152:344,1,60
208,360,94663,2,0,L|200:288,1,60
240,248,95092,2,0,L|232:296,1,30
280,320,95378,2,0,L|272:240,1,60
312,216,95806,6,0,L|304:240,1,15
344,256,95949,6,0,B|376:256|376:256|416:232,1,67.5000025749207
416,192,96235,2,0,B|400:160|432:160|416:112,1,67.5000025749207
408,96,96520,6,0,P|392:48|456:24,1,120
444,19,97663,2,0,L|320:16,1,120
216,64,98520,1,0,0:0:0:0:
96,40,98806,1,0,0:0:0:0:
96,40,99092,1,0,0:0:0:0:
56,152,99378,1,0,0:0:0:0:
120,256,99663,1,0,0:0:0:0:
64,360,99949,1,0,0:0:0:0:
184,352,100235,5,0,0:0:0:0:
240,336,100378,1,0,0:0:0:0:
296,320,100520,1,0,0:0:0:0:
408,352,100806,1,0,0:0:0:0:
440,232,101092,6,0,L|432:176,1,45
400,184,101378,2,0,P|384:184|360:160,1,45
352,136,101663,5,0,0:0:0:0:
320,88,101806,1,0,0:0:0:0:
264,64,101949,1,0,0:0:0:0:
208,72,102092,1,0,0:0:0:0:
160,112,102235,2,0,P|128:136|40:128,1,120
50,134,103092,5,0,0:0:0:0:
56,192,103235,1,0,0:0:0:0:
80,248,103378,1,0,0:0:0:0:
128,280,103520,1,0,0:0:0:0:
184,296,103663,1,0,0:0:0:0:
240,288,103806,1,0,0:0:0:0:
288,248,103949,6,0,B|320:256|344:288|344:288|336:320|352:352,1,120
345,337,104806,1,0,0:0:0:0:
400,328,104949,1,0,0:0:0:0:
456,320,105092,1,0,0:0:0:0:
496,208,105378,5,0,0:0:0:0:
496,208,105520,1,0,0:0:0:0:
496,208,105663,2,0,L|488:112,1,90
440,80,106235,5,0,0:0:0:0:
392,48,106378,1,0,0:0:0:0:
336,32,106520,1,0,0:0:0:0:
280,24,106663,1,0,0:0:0:0:
224,32,106806,6,0,P|184:64|120:64,1,90
96,40,107378,2,0,L|88:144,1,90
144,152,107949,2,0,L|160:208,1,30
200,224,108235,2,0,L|208:184,1,30
264,192,108520,2,0,L|344:184,1,60
424,256,109092,2,0,L|344:264,2,60
480,368,109949,1,0,0:0:0:0:
496,248,110235,1,0,0:0:0:0:
480,368,110520,1,0,0:0:0:0:
360,360,110806,5,0,0:0:0:0:
72,136,111949,5,0,0:0:0:0:
512,16,113092,5,0,0:0:0:0:
120,296,114235,5,0,0:0:0:0:
240,320,114520,1,0,0:0:0:0:
232,200,114806,1,0,0:0:0:0:
456,112,115378,1,0,0:0:0:0:
72,48,116520,5,0,0:0:0:0:
256,192,117378,12,0,119235,0:0:0:0:
128,128,119378,6,0,L|216:120,1,71.9999978027344
136,152,119806,1,0,0:0:0:0:
72,192,119949,2,0,L|56:288,2,71.9999978027344
104,336,120806,1,0,0:0:0:0:
176,312,120949,1,0,0:0:0:0:
248,288,121092,1,0,0:0:0:0:
384,328,121378,5,0,0:0:0:0:
392,184,121663,2,0,L|400:112,2,71.9999978027344
432,320,122520,1,0,0:0:0:0:
440,176,122806,2,0,L|448:96,2,71.9999978027344
496,40,123663,1,0,0:0:0:0:
352,24,123949,6,0,L|272:16,1,71.9999978027344
344,48,124378,1,0,0:0:0:0:
424,8,124520,2,0,L|496:0,2,71.9999978027344
280,16,125378,5,0,0:0:0:0:
208,32,125520,1,0,0:0:0:0:
136,48,125663,1,0,0:0:0:0:
24,144,125949,1,0,0:0:0:0:
112,256,126235,6,0,B|120:288|120:288|112:328,2,71.9999978027344
48,128,127092,1,0,0:0:0:0:
136,240,127378,2,0,B|144:280|144:280|136:328,2,71.9999978027344
24,328,128235,1,0,0:0:0:0:
136,240,128520,6,0,L|208:232,1,71.9999978027344
136,216,128949,1,0,0:0:0:0:
64,224,129092,2,0,L|40:136,2,71.9999978027344
56,80,129949,5,0,0:0:0:0:
128,64,130092,1,0,0:0:0:0:
200,56,130235,1,0,0:0:0:0:
328,128,130520,1,0,0:0:0:0:
432,32,130806,6,0,L|440:112,2,71.9999978027344
336,136,131663,1,0,0:0:0:0:
448,48,131949,2,0,L|456:128,2,71.9999978027344
344,152,132806,1,0,0:0:0:0:
400,288,133092,6,0,L|320:280,1,71.9999978027344
120,328,133663,1,0,0:0:0:0:
120,184,133949,6,0,L|112:256,2,71.9999978027344
56,56,134806,1,0,0:0:0:0:
184,128,135092,2,0,L|280:120,1,71.9999978027344
440,0,135663,1,0,0:0:0:0:
392,56,135806,2,0,L|400:96,1,35.9999989013672
464,216,136235,6,0,L|456:296,2,71.9999978027344
368,320,137092,2,0,L|360:240,1,71.9999978027344
216,224,137663,6,0,B|184:208|144:208|144:208|112:232|80:240,2,143.999995605469
368,320,139092,1,0,0:0:0:0:
392,144,139378,2,0,L|400:88,1,45.0000017166138
360,160,139663,2,0,L|352:112,1,35.9999989013672
392,184,139949,2,0,L|408:128,1,35.9999989013672
360,208,140235,6,0,L|344:160,1,35.9999989013672
392,232,140520,2,0,L|408:192,1,35.9999989013672
368,256,140806,6,0,L|344:208,1,35.9999989013672
400,280,141092,2,0,L|416:232,1,35.9999989013672
376,304,141378,2,0,L|352:264,1,35.9999989013672
400,328,141663,2,0,L|424:288,1,35.9999989013672
376,360,141949,2,0,L|344:320,1,35.9999989013672
288,304,142235,6,0,B|272:320|272:320|248:224|248:224|280:240,1,143.999995605469
384,96,143092,1,0,0:0:0:0:
216,32,143378,6,0,L|232:-24,1,45.0000017166138
176,64,143663,2,0,L|160:16,1,45.0000017166138
208,80,143949,6,0,L|224:40,1,35.9999989013672
184,112,144235,2,0,L|160:64,1,35.9999989013672
208,136,144520,2,0,L|232:80,1,35.9999989013672
184,160,144806,2,0,L|160:112,1,35.9999989013672
200,192,145092,6,0,L|224:152,1,35.9999989013672
168,216,145378,2,0,L|144:176,1,35.9999989013672
192,248,145663,2,0,L|216:208,1,35.9999989013672
160,272,145949,2,0,L|136:224,1,35.9999989013672
192,296,146235,6,0,L|216:264,1,35.9999989013672
160,320,146520,2,0,L|136:288,1,35.9999989013672
200,336,146806,6,0,B|240:352|272:336|272:336|304:360|344:352,1,143.999995605469
480,248,147663,1,0,0:0:0:0:
376,96,147949,6,0,L|424:104,1,45.0000017166138
336,64,148235,2,0,L|400:56,1,45.0000017166138
320,104,148520,6,0,L|368:120,1,35.9999989013672
296,72,148806,2,0,L|344:48,1,35.9999989013672
288,112,149092,2,0,L|336:128,1,35.9999989013672
264,80,149378,2,0,L|296:56,1,35.9999989013672
240,112,149663,2,0,L|304:136,1,35.9999989013672
216,80,149949,6,0,L|264:64,1,35.9999989013672
184,104,150235,2,0,L|232:128,1,35.9999989013672
160,80,150520,2,0,L|224:64,1,35.9999989013672
136,112,150806,2,0,L|200:128,1,35.9999989013672
112,80,151092,2,0,L|176:64,1,35.9999989013672
80,104,151378,6,0,L|120:112,1,35.9999989013672
56,72,151663,2,0,L|112:64,1,35.9999989013672
16,112,151949,6,0,P|-8:160|16:288,1,180.000006866455
168,368,152806,1,0,0:0:0:0:
320,272,153092,2,0,L|328:168,2,90.0000034332277
320,272,154235,1,0,0:0:0:0:
464,24,154520,5,0,0:0:0:0:
464,24,154663,1,0,0:0:0:0:
464,24,154806,1,0,0:0:0:0:
320,40,155092,1,0,0:0:0:0:
256,80,155235,2,0,L|248:96,3,11.9999996337891
250,90,155949,6,0,P|192:80|120:136,1,143.999995605469
80,240,156806,1,0,0:0:0:0:
176,312,157092,2,0,P|216:320|256:304,1,60
336,256,157663,2,0,P|384:248|416:264,1,60
496,312,158235,2,0,L|488:208,1,90
488,160,158806,1,0,0:0:0:0:
32,16,159949,5,0,0:0:0:0:
120,96,160235,2,0,L|64:112,1,30
40,136,160520,2,0,L|128:152,1,90
184,168,161092,1,0,0:0:0:0:
240,272,161378,2,0,L|248:312,1,30
304,328,161663,2,0,L|312:280,1,30
336,248,161949,2,0,L|360:344,1,90
416,352,162520,2,0,L|424:304,1,30
472,296,162806,2,0,P|488:328|520:352,2,60
188,140,164235,5,0,0:0:0:0:
196,132,164378,1,0,0:0:0:0:
204,124,164520,1,0,0:0:0:0:
212,116,164663,1,0,0:0:0:0:
220,108,164806,1,0,0:0:0:0:
228,100,164949,1,0,0:0:0:0:
236,92,165092,6,0,B|352:32|464:120|380:264|256:224|240:304|240:304|224:224|104:276|-4:124|140:16|248:100,1,810.000030899049
124,192,169092,1,0,0:0:0:0:
180,116,169378,1,0,0:0:0:0:
256,28,169663,6,0,B|400:192|400:192|256:360|256:360|120:192|120:192|224:64,1,810.000030899049
256,192,172378,12,0,173949,0:0:0:0:
104,88,174235,6,0,P|160:72|200:88,1,90.0000034332277
216,272,174806,2,0,P|168:296|112:272,1,96
280,168,175378,1,0,0:0:0:0:
280,168,175663,1,0,0:0:0:0:
360,224,175806,1,0,0:0:0:0:
400,128,175949,1,0,0:0:0:0:
360,320,176235,6,0,L|368:368,1,48
272,344,176520,2,0,L|256:240,2,96
96,272,177378,2,0,L|88:336,1,48
176,352,177663,2,0,L|184:248,1,96
136,176,178092,1,0,0:0:0:0:
80,96,178235,2,0,L|72:0,1,96
104,88,178663,1,0,0:0:0:0:
200,104,178806,2,0,L|304:112,2,96
296,88,179520,1,0,0:0:0:0:
344,168,179663,6,0,L|352:232,1,48
416,144,179949,2,0,L|424:32,1,96
440,144,180378,1,0,0:0:0:0:
480,232,180520,2,0,L|472:304,1,48
400,344,180806,2,0,L|392:280,1,48
312,240,181092,2,0,B|264:232|264:232|192:248,1,96
312,216,181520,1,0,0:0:0:0:
288,120,181663,6,0,L|296:48,1,48
376,128,181949,2,0,L|384:176,1,48
304,120,182235,2,0,L|312:56,1,48
392,128,182520,2,0,L|408:200,1,48
320,128,182806,2,0,L|328:64,1,48
408,128,183092,2,0,L|424:192,1,48
336,136,183378,2,0,L|352:32,1,96
360,136,183806,1,0,0:0:0:0:
448,104,183949,2,0,L|552:96,2,96
280,16,184806,5,0,0:0:0:0:
184,8,184949,1,0,0:0:0:0:
104,64,185092,1,0,0:0:0:0:
104,64,185378,6,0,P|120:120|96:160,1,96
40,336,185949,2,0,P|24:288|48:240,2,96
64,240,186663,1,0,0:0:0:0:
144,296,186806,2,0,L|248:304,2,96
240,280,187520,1,0,0:0:0:0:
320,336,187663,2,0,L|328:256,1,48
250,233,187949,2,0,L|234:305,1,48
320,336,188235,2,0,L|336:224,1,96
344,336,188663,1,0,0:0:0:0:
440,360,188806,6,0,L|504:352,1,48
472,256,189092,2,0,L|536:248,1,48
512,152,189378,2,0,L|608:144,2,96
344,56,190235,5,0,0:0:0:0:
344,56,190520,5,0,0:0:0:0:
256,24,190663,1,0,0:0:0:0:
168,64,190806,1,0,0:0:0:0:
168,64,191092,6,0,L|160:160,2,96
152,256,191949,1,0,0:0:0:0:
216,328,192092,1,0,0:0:0:0:
288,264,192235,1,0,0:0:0:0:
168,272,192520,2,0,L|72:280,1,90
24,256,193092,1,0,0:0:0:0:
48,136,193378,6,0,L|56:184,1,30
112,152,193663,2,0,L|64:56,1,90
88,16,194235,1,0,0:0:0:0:
208,32,194520,6,0,L|280:40,2,60
208,32,195378,1,0,0:0:0:0:
416,240,196520,5,0,0:0:0:0:
304,288,196806,1,0,0:0:0:0:
304,288,196949,1,0,0:0:0:0:
304,288,197092,2,0,B|272:312|272:312|216:304,1,90
168,288,197663,1,0,0:0:0:0:
80,208,197949,5,0,0:0:0:0:
16,312,198235,2,0,L|-24:304,1,30
24,256,198520,2,0,L|56:352,1,90
112,352,199092,1,0,0:0:0:0:
112,352,199235,1,0,0:0:0:0:
112,352,199378,2,0,L|184:344,2,60
256,16,201092,6,0,L|264:96,1,60
360,152,201663,2,0,P|368:112|456:80,1,120
472,192,202520,1,0,0:0:0:0:
432,304,202806,2,0,P|400:312|368:304,1,60
256,280,203378,2,0,P|224:272|184:288,1,60
88,320,203949,1,0,0:0:0:0:
88,320,204235,1,0,0:0:0:0:
32,216,204520,6,0,L|24:160,1,30
80,152,204806,2,0,L|64:224,1,60
184,208,205378,2,0,L|160:144,1,60
280,152,205949,2,0,L|272:200,1,30
328,216,206235,2,0,L|304:104,1,90
352,88,206806,2,0,L|344:128,1,30
400,144,207092,2,0,L|384:88,1,30
440,80,207378,6,0,L|424:184,1,90
488,176,207949,2,0,L|472:112,2,60
488,176,209663,5,0,0:0:0:0:
440,288,209949,1,0,0:0:0:0:
256,128,210235,5,0,0:0:0:0:
344,208,210520,1,0,0:0:0:0:
440,288,210806,1,0,0:0:0:0:
