osu file format v14

[General]
AudioFilename: audio.mp3
AudioLeadIn: 0
PreviewTime: 173816
Countdown: 0
SampleSet: Soft
StackLeniency: 0.3
Mode: 0
LetterboxInBreaks: 0
WidescreenStoryboard: 1

[Editor]
DistanceSpacing: 2
BeatDivisor: 4
GridSize: 4
TimelineZoom: 1

[Metadata]
Title:Havana
TitleUnicode:Havana
Artist:Camila Cabello feat. Young Thug
ArtistUnicode:Camila Cabello feat. Young Thug
Creator:hannody
Version:Havana-ooh-na.na
Source:
Tags:
BeatmapID:1595641
BeatmapSetID:758622

[Difficulty]
HPDrainRate:6
CircleSize:4
OverallDifficulty:7
ApproachRate:8
SliderMultiplier:1.2
SliderTickRate:1

[Events]
//Background and Video events
0,0,"Havana Cuba_Ultra HD (2).jpg",0,0
//Break Periods
2,8148,8913
2,156149,164342
//Storyboard Layer 0 (Background)
//Storyboard Layer 1 (Fail)
//Storyboard Layer 2 (Pass)
//Storyboard Layer 3 (Foreground)
//Storyboard Sound Samples

[TimingPoints]
521,571.428571428571,4,2,0,0,1,0
27959,-100,4,2,0,0,0,1
28059,-100,4,2,0,0,0,0
46235,-66.6666666666667,4,2,0,0,0,0
46245,-66.6666666666667,4,2,0,0,0,0
49378,-100,4,2,0,0,0,0
49388,-100,4,2,0,0,0,0
55378,-66.6666666666667,4,2,0,0,0,0
55388,-66.6666666666667,4,2,0,0,0,0
58520,-100,4,2,0,0,0,0
58530,-100,4,2,0,0,0,0
83378,-133.333333333333,4,2,0,0,0,0
83388,-133.333333333333,4,2,0,0,0,0
91949,-100,4,2,0,0,0,0
91959,-100,4,2,0,0,0,1
91959,-100,4,2,0,0,0,0
92059,-100,4,2,0,0,0,0
95949,-66.6666666666667,4,2,0,0,0,0
95959,-66.6666666666667,4,2,0,0,0,0
96520,-100,4,2,0,0,0,0
96530,-100,4,2,0,0,0,0
101673,-100,4,2,0,0,0,1
101773,-100,4,2,0,0,0,0
119378,-83.3333333333333,4,2,0,0,0,0
119388,-83.3333333333333,4,2,0,0,0,1
137102,-83.3333333333333,4,2,0,0,0,0
137673,-83.3333333333333,4,2,0,0,0,1
138235,-76.9230769230769,4,2,0,0,0,1
138245,-76.9230769230769,4,2,0,0,0,1
138520,-66.6666666666667,4,2,0,0,0,1
138530,-66.6666666666667,4,2,0,0,0,1
139388,-83.3333333333333,4,2,0,0,0,1
142806,-66.6666666666667,4,2,0,0,0,1
142816,-66.6666666666667,4,2,0,0,0,1
143949,-83.3333333333333,4,2,0,0,0,1
143959,-83.3333333333333,4,2,0,0,0,1
147378,-66.6666666666667,4,2,0,0,0,1
147388,-66.6666666666667,4,2,0,0,0,1
148520,-83.3333333333333,4,2,0,0,0,1
148530,-83.3333333333333,4,2,0,0,0,1
151949,-66.6666666666667,4,2,0,0,0,1
151949,-66.6666666666667,4,2,0,0,0,1
151959,-66.6666666666667,4,2,0,0,0,1
153102,-83.3333333333333,4,2,0,0,0,1
155959,-100,4,2,0,0,0,0
165102,-66.6666666666667,4,2,0,0,0,0
173673,-66.6666666666667,4,2,0,0,0,0
174245,-62.5,4,2,0,0,0,1
192520,-100,4,2,0,0,0,1
192530,-100,4,2,0,0,0,0

[Colours]
Combo1 : 207,173,174
Combo2 : 255,64,64
Combo3 : 50,222,136
Combo4 : 250,208,163
Combo5 : 252,255,119
Combo6 : 227,244,253
Combo7 : 188,156,248
Combo8 : 252,186,114

[HitObjects]
80,224,521,6,0,B|96:216|120:216|144:232|144:232|176:216|208:224,1,120
288,296,1378,1,0,0:0:0:0:
288,296,1663,1,0,0:0:0:0:
400,264,1949,1,0,0:0:0:0:
400,264,2235,1,0,0:0:0:0:
496,336,2520,1,0,0:0:0:0:
464,96,3092,6,0,L|448:176,1,60
452,154,4235,2,0,P|472:184|512:200,2,60
336,136,5092,6,0,B|320:128|304:128|288:136|288:136|288:160|264:184|232:184,1,120
128,200,5949,1,0,0:0:0:0:
128,200,6235,1,0,0:0:0:0:
64,296,6520,1,0,0:0:0:0:
64,296,6806,1,0,0:0:0:0:
160,368,7092,1,0,0:0:0:0:
400,328,7663,6,0,L|360:320,2,30
80,224,9663,6,0,P|128:208|192:240,1,120
288,304,10520,1,0,0:0:0:0:
384,232,10806,1,0,0:0:0:0:
488,296,11092,1,0,0:0:0:0:
288,304,11378,2,0,P|280:328|280:368,1,60
176,16,12520,5,0,0:0:0:0:
176,16,13663,2,0,L|184:48,1,30
240,56,13949,2,0,L|232:96,1,30
272,136,14235,2,0,B|280:176|280:176|304:208|304:208|320:256,1,120
232,328,15092,1,0,0:0:0:0:
128,272,15378,1,0,0:0:0:0:
32,344,15663,1,0,0:0:0:0:
232,328,15949,2,0,P|264:320|304:328,1,60
40,64,17092,5,0,0:0:0:0:
40,64,18235,6,0,L|88:56,1,30
128,80,18520,2,0,L|176:88,1,30
216,80,18806,2,0,L|336:72,1,120
416,160,19663,1,0,0:0:0:0:
400,280,19949,1,0,0:0:0:0:
192,312,20235,1,0,0:0:0:0:
184,304,20378,1,0,0:0:0:0:
176,296,20520,6,0,P|144:272|136:240,1,60
176,80,21378,1,0,0:0:0:0:
288,120,21663,2,0,L|360:112,1,60
176,80,22235,2,0,L|96:72,2,60
280,24,23092,1,0,0:0:0:0:
280,24,23378,1,0,0:0:0:0:
432,128,23663,1,0,0:0:0:0:
432,128,24235,6,0,L|416:192,2,60
472,240,25092,1,0,0:0:0:0:
424,352,25378,1,0,0:0:0:0:
328,280,25663,2,0,P|304:280|280:288,2,30
256,192,26235,12,0,27663,0:0:0:0:
168,48,27949,5,0,0:0:0:0:
144,88,28140,1,0,0:0:0:0:
120,136,28330,1,0,0:0:0:0:
128,144,28520,1,0,0:0:0:0:
136,152,28711,1,0,0:0:0:0:
144,160,28901,1,0,0:0:0:0:
152,168,29092,6,0,L|168:240,1,60
272,176,29520,1,0,0:0:0:0:
280,160,29663,2,0,L|296:240,1,60
408,320,30520,5,0,0:0:0:0:
416,312,30663,1,0,0:0:0:0:
424,304,30806,1,0,0:0:0:0:
424,176,31092,6,0,P|416:152|416:128,1,45
440,208,31378,2,0,P|448:176|448:160,1,45
424,240,31663,2,0,P|416:216|416:192,1,45
440,272,31949,2,0,P|448:240|448:224,1,45
424,304,32235,2,0,P|416:272|416:248,1,45
336,256,32520,6,0,L|288:248,2,40
168,304,33092,2,0,L|216:312,2,40
296,249,33663,6,0,P|304:201|288:153,1,90
216,176,34235,2,0,P|208:208|224:248,1,60
328,88,35092,6,0,L|384:80,1,30
256,96,35378,1,0,0:0:0:0:
152,128,35663,6,0,L|104:128,1,45
168,160,35949,2,0,L|224:160,1,45
144,120,36235,2,0,L|96:120,1,45
176,168,36520,2,0,L|232:168,1,45
136,112,36806,2,0,L|88:112,1,45
184,176,37092,2,0,L|232:176,2,40
160,280,37663,6,0,L|104:280,2,40
248,336,38235,6,0,L|336:328,2,60
368,272,39092,1,0,0:0:0:0:
432,80,39663,5,0,0:0:0:0:
432,88,39806,1,0,0:0:0:0:
432,96,39949,1,0,0:0:0:0:
480,208,40235,1,0,0:0:0:0:
400,120,40520,1,0,0:0:0:0:
400,240,40806,1,0,0:0:0:0:
320,152,41092,1,0,0:0:0:0:
320,152,41235,1,0,0:0:0:0:
320,152,41378,1,0,0:0:0:0:
312,272,41663,6,0,P|312:320|328:352,1,60
360,368,42092,1,0,0:0:0:0:
360,368,42235,1,0,0:0:0:0:
472,320,42520,1,0,0:0:0:0:
432,208,42806,6,0,P|424:176|432:144,1,60
488,48,43235,1,0,0:0:0:0:
488,48,43378,2,0,P|496:96|480:128,1,60
384,64,43949,2,0,L|320:56,1,60
232,128,44520,2,0,L|152:112,1,60
72,184,45092,1,0,0:0:0:0:
40,296,45378,1,0,0:0:0:0:
136,376,45663,1,0,0:0:0:0:
72,184,45949,1,0,0:0:0:0:
168,256,46235,6,0,B|208:288|256:256|256:256|320:288|368:256|368:256|368:64|368:64|328:32|280:72|280:72|224:120|160:96|144:48|144:48|128:-8|192:-48|232:8|208:32,1,810.000030899049
211,27,49378,6,0,B|248:32|248:32|296:24,2,60
88,40,50235,1,0,0:0:0:0:
24,144,50520,1,0,0:0:0:0:
40,264,50806,2,0,L|48:312,1,30
136,376,51092,2,0,L|144:320,1,30
264,208,51378,1,0,0:0:0:0:
264,208,51663,2,0,L|344:200,2,60
160,152,52520,1,0,0:0:0:0:
64,224,52806,1,0,0:0:0:0:
32,112,53092,6,0,L|48:56,1,30
160,152,53378,2,0,L|176:96,1,30
256,48,53663,1,0,0:0:0:0:
336,136,53949,2,0,L|352:216,1,60
328,344,54520,5,0,0:0:0:0:
320,336,54663,1,0,0:0:0:0:
312,328,54806,1,0,0:0:0:0:
304,320,54949,1,0,0:0:0:0:
296,312,55092,1,0,0:0:0:0:
208,336,55378,6,0,B|192:280|160:248|104:224|104:224|48:208|48:128|88:88|152:80|184:104|184:144|184:144|224:64|312:120|336:192|288:248|216:240|184:264|184:264|144:296|128:344,1,810.000030899049
131,334,58520,2,0,B|96:328|96:328|56:336,2,60
248,360,59378,1,0,0:0:0:0:
344,288,59663,1,0,0:0:0:0:
432,368,59949,1,0,0:0:0:0:
432,368,60235,1,0,0:0:0:0:
496,136,60806,1,0,0:0:0:0:
416,48,61092,2,0,P|352:56|312:88,1,90
280,104,61663,2,0,L|208:88,1,60
221,90,62235,5,0,0:0:0:0:
16,208,62520,5,0,0:0:0:0:
112,280,62806,6,0,L|120:304,1,15
176,224,63092,2,0,L|200:232,1,15
192,136,63378,2,0,L|216:128,1,15
136,80,63663,2,0,L|144:64,1,15
56,80,63949,2,0,L|48:64,2,15
120,80,64235,2,0,L|136:64,2,15
88,128,64520,2,0,B|80:176|80:176|104:256,1,120
184,328,65378,1,0,0:0:0:0:
288,264,65663,2,0,P|352:240|408:264,1,120
456,152,66520,6,0,B|464:136|456:120|456:120|448:96|448:96|464:72|464:72|472:88|472:104,1,120
360,152,67378,1,0,0:0:0:0:
240,136,67663,1,0,0:0:0:0:
120,160,67949,1,0,0:0:0:0:
360,152,68235,1,0,0:0:0:0:
192,216,68520,1,0,0:0:0:0:
368,256,68806,1,0,0:0:0:0:
192,304,69092,6,0,L|104:312,1,60
132,309,69663,1,0,0:0:0:0:
24,200,69949,1,0,0:0:0:0:
72,88,70235,2,0,L|88:40,1,30
144,48,70520,2,0,L|176:24,1,30
224,56,70806,2,0,L|296:40,1,60
400,80,71378,1,0,0:0:0:0:
296,264,71663,5,0,0:0:0:0:
288,264,71806,1,0,0:0:0:0:
280,264,71949,1,0,0:0:0:0:
272,264,72092,1,0,0:0:0:0:
264,264,72235,1,0,0:0:0:0:
256,264,72378,1,0,0:0:0:0:
248,264,72520,2,0,P|240:216|256:184,1,60
320,160,72949,1,0,0:0:0:0:
320,160,73092,2,0,P|328:112|312:72,1,90
216,40,73663,6,0,L|168:48,1,30
168,48,73949,2,0,L|216:40,1,30
104,120,74235,6,0,B|96:144|96:144|96:168|96:168|80:200,2,60
232,160,75092,1,0,0:0:0:0:
240,168,75235,1,0,0:0:0:0:
248,176,75378,1,0,0:0:0:0:
256,184,75520,1,0,0:0:0:0:
264,192,75663,2,0,B|288:168|288:168|312:184|312:184|336:168|376:184,1,120
456,288,76520,1,0,0:0:0:0:
504,176,76806,1,0,0:0:0:0:
480,56,77092,6,0,L|472:16,1,30
504,176,77378,2,0,L|552:184,1,30
488,144,77663,1,0,0:0:0:0:
368,120,77949,1,0,0:0:0:0:
248,152,78235,2,0,L|176:136,1,60
80,192,78806,5,0,0:0:0:0:
80,192,78949,1,0,0:0:0:0:
80,192,79092,1,0,0:0:0:0:
120,304,79378,1,0,0:0:0:0:
240,328,79663,1,0,0:0:0:0:
352,296,79949,1,0,0:0:0:0:
464,344,80235,5,0,0:0:0:0:
464,344,80378,1,0,0:0:0:0:
464,344,80520,1,0,0:0:0:0:
488,224,80806,1,0,0:0:0:0:
488,224,80949,1,0,0:0:0:0:
488,224,81092,1,0,0:0:0:0:
448,112,81378,1,0,0:0:0:0:
344,168,81663,1,0,0:0:0:0:
248,96,81949,1,0,0:0:0:0:
144,160,82235,5,0,0:0:0:0:
344,168,82520,1,0,0:0:0:0:
336,184,82663,1,0,0:0:0:0:
328,200,82806,1,0,0:0:0:0:
352,296,83092,1,0,0:0:0:0:
176,336,83378,2,0,B|144:344|144:344|88:328,1,90.0000034332277
40,248,84235,1,0,0:0:0:0:
32,160,84520,1,0,0:0:0:0:
56,72,84806,6,0,L|64:40,1,22.5000008583069
136,80,85092,2,0,L|144:40,1,22.5000008583069
216,88,85378,2,0,L|224:48,1,22.5000008583069
296,104,85663,2,0,L|304:48,2,45.0000017166138
360,168,86520,5,0,0:0:0:0:
368,184,86663,1,0,0:0:0:0:
376,200,86806,1,0,0:0:0:0:
312,264,87092,5,0,0:0:0:0:
304,280,87235,1,0,0:0:0:0:
296,296,87378,1,0,0:0:0:0:
208,304,87663,1,0,0:0:0:0:
136,256,87949,1,0,0:0:0:0:
104,168,88235,1,0,0:0:0:0:
208,304,88520,1,0,0:0:0:0:
192,216,88806,1,0,0:0:0:0:
224,128,89092,5,0,0:0:0:0:
208,304,89378,1,0,0:0:0:0:
192,216,89663,6,0,L|136:208,1,45.0000017166138
56,200,90235,2,0,B|40:168|40:168|56:128,1,67.5000025749207
80,104,90806,2,0,L|160:96,1,67.5000025749207
184,64,91378,1,0,0:0:0:0:
400,136,91663,1,0,0:0:0:0:
184,64,91949,6,0,P|240:48|304:72,1,120
400,136,92806,1,0,0:0:0:0:
360,248,93092,6,0,L|344:328,1,75
320,328,93520,2,0,L|312:248,1,75
288,240,93949,2,0,L|280:272,1,30
208,320,94235,6,0,L|200:240,1,75
168,240,94663,2,0,L|160:288,1,45
128,296,94949,2,0,L|120:264,1,30
72,160,95378,1,0,0:0:0:0:
144,64,95663,5,0,0:0:0:0:
144,64,95806,1,0,0:0:0:0:
144,64,95949,6,0,L|216:56,1,67.5000025749207
128,88,96235,2,0,L|200:80,1,67.5000025749207
280,20,96520,2,0,B|288:60|288:60|260:148,1,120
352,264,97378,1,0,0:0:0:0:
352,264,97520,5,0,0:0:0:0:
352,264,97663,1,0,0:0:0:0:
248,320,97949,1,0,0:0:0:0:
136,264,98235,1,0,0:0:0:0:
32,320,98520,5,0,0:0:0:0:
32,320,98663,1,0,0:0:0:0:
32,320,98806,1,0,0:0:0:0:
136,264,99092,2,0,L|128:216,1,30
192,128,99378,2,0,L|184:208,2,60
104,48,100235,1,0,0:0:0:0:
104,48,100378,1,0,0:0:0:0:
104,48,100520,1,0,0:0:0:0:
224,16,100806,1,0,0:0:0:0:
336,56,101092,1,0,0:0:0:0:
160,24,101378,5,0,0:0:0:0:
400,32,101663,6,0,L|456:24,2,30
272,160,102235,1,0,0:0:0:0:
344,256,102520,6,0,L|320:304,2,30
272,352,103092,2,0,B|232:352|232:352|184:344,1,60
144,248,103663,1,0,0:0:0:0:
144,248,103949,1,0,0:0:0:0:
48,320,104235,1,0,0:0:0:0:
8,208,104520,1,0,0:0:0:0:
96,128,104806,2,0,L|88:88,1,30
96,128,105092,2,0,L|128:64,1,60
240,48,105663,1,0,0:0:0:0:
64,32,105949,5,0,0:0:0:0:
296,88,106235,6,0,L|344:80,2,30
168,216,106806,5,0,0:0:0:0:
280,264,107092,2,0,L|272:296,2,30
200,352,107663,2,0,B|168:352|168:352|136:344,1,60
40,280,108235,1,0,0:0:0:0:
96,176,108520,1,0,0:0:0:0:
32,72,108806,1,0,0:0:0:0:
136,16,109092,1,0,0:0:0:0:
224,96,109378,2,0,L|272:88,1,30
224,96,109663,2,0,L|288:112,1,60
400,80,110235,6,0,P|416:128|392:208,1,120
344,296,111092,1,0,0:0:0:0:
448,360,111378,1,0,0:0:0:0:
328,344,111663,1,0,0:0:0:0:
208,352,111949,2,0,L|128:360,2,60
280,256,112806,1,0,0:0:0:0:
232,144,113092,1,0,0:0:0:0:
112,120,113378,1,0,0:0:0:0:
32,208,113663,6,0,P|24:240|32:272,1,60
48,200,114092,1,0,0:0:0:0:
64,192,114235,2,0,P|80:152|72:112,1,60
80,16,114806,2,0,L|208:8,1,120
288,88,115663,1,0,0:0:0:0:
392,32,115949,1,0,0:0:0:0:
472,128,116235,1,0,0:0:0:0:
368,176,116520,1,0,0:0:0:0:
440,272,116806,1,0,0:0:0:0:
320,288,117092,6,0,L|192:280,1,120
152,168,117949,5,0,0:0:0:0:
96,336,118235,1,0,0:0:0:0:
240,232,118521,1,0,0:0:0:0:
64,200,118807,1,0,0:0:0:0:
176,344,119092,1,0,0:0:0:0:
64,200,119378,2,0,P|32:128|80:64,1,143.999995605469
184,8,120235,1,0,0:0:0:0:
304,80,120520,1,0,0:0:0:0:
440,24,120806,1,0,0:0:0:0:
304,80,121092,6,0,P|296:144|312:168,1,71.9999978027344
432,200,121663,2,0,L|424:248,1,35.9999989013672
432,200,121949,2,0,L|448:288,2,71.9999978027344
336,312,122806,1,0,0:0:0:0:
328,336,123092,1,0,0:0:0:0:
208,256,123378,1,0,0:0:0:0:
200,232,123663,1,0,0:0:0:0:
64,288,123949,6,0,B|48:232|48:232|64:184|64:184|64:232,1,143.999995605469
160,328,124806,1,0,0:0:0:0:
64,219,125092,2,0,B|72:187|72:187|56:147|64:115|88:115|96:115|96:139|80:155|72:163,1,143.999995605469
224,176,125949,2,0,B|264:160|296:184|296:184|296:224|336:240|336:240|328:296,1,179.999994506836
320,344,126806,1,0,0:0:0:0:
464,320,127092,1,0,0:0:0:0:
331,269,127378,1,0,0:0:0:0:
464,208,127663,1,0,0:0:0:0:
432,352,127949,5,0,0:0:0:0:
360,224,128235,1,0,0:0:0:0:
488,288,128520,6,0,B|600:280|600:280|560:312,1,143.999995605469
400,320,129378,1,0,0:0:0:0:
288,296,129663,2,0,B|176:288|176:288|224:320,1,143.999995605469
400,320,130520,2,0,B|400:296|384:264|384:264|408:232|432:240|432:240|432:208|480:208,1,179.999994506836
478,208,131378,1,0,0:0:0:0:
440,72,131663,1,0,0:0:0:0:
320,152,131949,1,0,0:0:0:0:
200,72,132235,1,0,0:0:0:0:
200,72,132378,1,0,0:0:0:0:
200,72,132520,1,0,0:0:0:0:
72,136,132806,6,0,L|72:176,1,35.9999989013672
144,160,133092,2,0,L|144:240,1,71.9999978027344
192,288,133520,1,0,0:0:0:0:
240,344,133663,1,0,0:0:0:0:
376,288,133949,5,0,0:0:0:0:
376,288,134235,1,0,0:0:0:0:
496,368,134520,1,0,0:0:0:0:
496,368,134806,1,0,0:0:0:0:
496,224,135092,1,0,0:0:0:0:
408,112,135378,1,0,0:0:0:0:
312,8,135663,5,0,0:0:0:0:
312,8,135806,1,0,0:0:0:0:
312,8,135949,1,0,0:0:0:0:
192,88,136235,1,0,0:0:0:0:
192,88,136378,1,0,0:0:0:0:
192,88,136520,2,0,L|128:88,1,35.9999989013672
144,160,136806,2,0,L|96:160,1,35.9999989013672
208,264,137092,6,0,L|256:264,1,35.9999989013672
264,336,137377,2,0,L|320:336,1,35.9999989013672
368,304,137663,6,0,P|384:272|360:208,1,107.999996704102
288,176,138235,2,0,P|280:160|280:120,1,58.4999973220826
352,104,138520,2,0,B|408:104|408:104|384:120,1,67.5000025749207
280,120,138806,2,0,B|224:120|224:120|248:136,1,67.5000025749207
352,104,139092,2,0,L|368:32,1,67.5000025749207
296,16,139378,2,0,L|316:108,2,90.0000034332277
136,120,140520,5,0,0:0:0:0:
88,208,140806,5,0,0:0:0:0:
80,216,140949,1,0,0:0:0:0:
72,224,141092,1,0,0:0:0:0:
136,352,141378,1,0,0:0:0:0:
240,272,141663,5,0,0:0:0:0:
248,264,141806,1,0,0:0:0:0:
256,256,141949,1,0,0:0:0:0:
264,248,142092,1,0,0:0:0:0:
272,240,142235,1,0,0:0:0:0:
280,232,142378,1,0,0:0:0:0:
288,224,142520,1,0,0:0:0:0:
296,216,142663,1,0,0:0:0:0:
304,208,142806,6,0,B|320:176|320:176|312:128,1,67.5000025749207
392,128,143092,2,0,B|440:120|440:120|432:144,1,67.5000025749207
500,84,143378,2,0,P|476:60|444:48,1,67.5000025749207
368,48,143663,2,0,L|464:32,2,90.0000034332277
256,192,144520,1,0,0:0:0:0:
184,112,144806,5,0,0:0:0:0:
272,232,145092,1,0,0:0:0:0:
192,288,145378,5,0,0:0:0:0:
184,296,145520,1,0,0:0:0:0:
176,304,145663,1,0,0:0:0:0:
96,240,145949,1,0,0:0:0:0:
128,152,146235,1,0,0:0:0:0:
136,144,146378,1,0,0:0:0:0:
144,136,146520,1,0,0:0:0:0:
152,128,146663,1,0,0:0:0:0:
160,120,146806,6,0,L|240:40,1,107.999996704102
312,64,147378,6,0,B|336:72|336:72|376:56,1,67.5000025749207
416,120,147663,2,0,L|344:144,1,67.5000025749207
384,208,147949,2,0,B|432:192|432:192|416:224,1,67.5000025749207
400,280,148235,2,0,L|392:360,1,67.5000025749207
464,360,148520,2,0,L|448:288,2,71.9999978027344
256,320,149663,5,0,0:0:0:0:
176,224,149949,5,0,0:0:0:0:
168,232,150092,1,0,0:0:0:0:
160,240,150235,1,0,0:0:0:0:
104,168,150520,1,0,0:0:0:0:
176,96,150806,5,0,0:0:0:0:
184,88,150949,1,0,0:0:0:0:
192,80,151092,1,0,0:0:0:0:
200,72,151235,1,0,0:0:0:0:
208,64,151378,1,0,0:0:0:0:
216,56,151520,1,0,0:0:0:0:
224,48,151663,1,0,0:0:0:0:
232,40,151806,1,0,0:0:0:0:
240,32,151949,2,0,P|272:24|312:32,1,67.5000025749207
368,72,152235,6,0,P|408:80|448:64,1,67.5000025749207
496,32,152520,2,0,B|520:24|520:24|512:72,1,67.5000025749207
488,136,152806,2,0,P|488:176|504:224,2,90.0000034332277
384,208,153663,5,0,0:0:0:0:
392,304,153949,5,0,0:0:0:0:
400,320,154092,1,0,0:0:0:0:
408,336,154235,1,0,0:0:0:0:
296,352,154520,1,0,0:0:0:0:
304,336,154663,1,0,0:0:0:0:
312,320,154806,1,0,0:0:0:0:
256,248,155092,6,0,L|248:240,7,8.99999972534181
256,248,155949,5,0,0:0:0:0:
31,190,165092,6,0,B|63:158|111:158|143:190|143:190|199:238|279:238|327:190|327:190|383:110|455:134|487:182|487:182|551:262|503:342|428:373|324:309|404:229,1,840
392,244,169663,6,0,B|364:264|304:264|292:204|292:204|292:148|264:128|264:128|236:148|236:204|236:204|220:268|164:268|132:232,2,405.000015449524
256,192,172378,12,0,174092,0:0:0:0:
392,244,174235,6,0,P|408:200|376:144,1,96
200,136,174806,2,0,P|184:192|208:240,2,96
336,0,175663,1,0,0:0:0:0:
336,0,175806,1,0,0:0:0:0:
336,0,175949,1,0,0:0:0:0:
304,192,176235,1,0,0:0:0:0:
184,48,176520,1,0,0:0:0:0:
368,96,176806,5,0,0:0:0:0:
184,152,177092,1,0,0:0:0:0:
280,16,177378,1,0,0:0:0:0:
320,200,177663,2,0,L|336:312,1,96
333,295,178092,1,0,0:0:0:0:
333,295,178235,1,0,0:0:0:0:
160,384,178520,5,0,0:0:0:0:
32,240,178806,2,0,P|16:184|48:128,1,96
216,112,179378,2,0,P|232:160|208:216,2,96
48,16,180235,5,0,0:0:0:0:
48,16,180378,1,0,0:0:0:0:
48,16,180520,1,0,0:0:0:0:
240,8,180806,1,0,0:0:0:0:
88,128,181092,1,0,0:0:0:0:
144,16,181378,1,0,0:0:0:0:
248,176,181663,1,0,0:0:0:0:
64,224,181949,5,0,0:0:0:0:
192,80,182235,1,0,0:0:0:0:
184,272,182520,1,0,0:0:0:0:
88,104,182806,1,0,0:0:0:0:
256,192,183092,1,0,0:0:0:0:
184,304,183378,2,0,L|128:312,1,48
128,312,183663,2,0,L|184:304,1,48
328,320,183949,2,0,B|360:312|360:312|384:320|384:320|424:304,2,96
176,200,184806,5,0,0:0:0:0:
176,200,184949,1,0,0:0:0:0:
176,200,185092,1,0,0:0:0:0:
304,56,185378,1,0,0:0:0:0:
304,56,185949,1,0,0:0:0:0:
464,160,186235,1,0,0:0:0:0:
384,24,186520,1,0,0:0:0:0:
360,216,186806,5,0,0:0:0:0:
472,64,187092,1,0,0:0:0:0:
296,136,187378,1,0,0:0:0:0:
296,136,187663,1,0,0:0:0:0:
112,96,187949,6,0,L|0:88,1,96
96,352,188806,1,0,0:0:0:0:
288,320,189092,1,0,0:0:0:0:
112,248,189378,1,0,0:0:0:0:
208,368,189663,1,0,0:0:0:0:
248,184,189949,1,0,0:0:0:0:
88,80,190235,6,0,L|184:104,1,96
181,103,191092,1,0,0:0:0:0:
264,88,191378,1,0,0:0:0:0:
344,72,191663,1,0,0:0:0:0:
504,112,191949,5,0,0:0:0:0:
424,96,192235,1,0,0:0:0:0:
344,72,192520,6,0,B|328:104|336:136|360:152|360:152|384:176|400:208|384:248,1,180
376,352,193663,1,0,0:0:0:0:
256,352,193949,1,0,0:0:0:0:
136,352,194235,1,0,0:0:0:0:
80,280,194520,5,0,0:0:0:0:
72,272,194663,1,0,0:0:0:0:
64,264,194806,1,0,0:0:0:0:
56,176,195092,1,0,0:0:0:0:
104,104,195378,5,0,0:0:0:0:
112,96,195520,1,0,0:0:0:0:
120,88,195663,1,0,0:0:0:0:
128,80,195806,1,0,0:0:0:0:
136,72,195949,1,0,0:0:0:0:
144,64,196092,1,0,0:0:0:0:
152,56,196235,1,0,0:0:0:0:
160,48,196378,1,0,0:0:0:0:
168,40,196520,1,0,0:0:0:0:
176,32,196663,1,0,0:0:0:0:
184,24,196806,6,0,L|192:8,2,15
256,56,197092,6,0,B|288:48|288:48|320:56|320:56|352:48|352:48|384:56|384:56|416:48|416:48|440:48,1,180
472,160,198235,1,0,0:0:0:0:
464,280,198520,1,0,0:0:0:0:
384,368,198806,1,0,0:0:0:0:
288,328,199092,1,0,0:0:0:0:
280,320,199235,1,0,0:0:0:0:
272,312,199378,1,0,0:0:0:0:
288,224,199663,5,0,0:0:0:0:
288,224,199949,1,0,0:0:0:0:
216,160,200235,5,0,0:0:0:0:
144,224,200520,1,0,0:0:0:0:
144,232,200663,1,0,0:0:0:0:
144,240,200806,1,0,0:0:0:0:
144,248,200949,1,0,0:0:0:0:
144,256,201092,1,0,0:0:0:0:
80,320,201378,5,0,0:0:0:0:
72,312,201520,1,0,0:0:0:0:
64,304,201663,2,0,B|40:264|40:264|24:184,1,120
88,88,202520,1,0,0:0:0:0:
88,88,202806,1,0,0:0:0:0:
192,152,203092,1,0,0:0:0:0:
192,152,203378,1,0,0:0:0:0:
288,80,203663,1,0,0:0:0:0:
384,152,203949,2,0,P|432:168|456:168,1,60
472,288,204520,5,0,0:0:0:0:
512,208,204806,2,0,L|576:200,1,60
472,288,205378,1,0,0:0:0:0:
480,304,205520,1,0,0:0:0:0:
488,320,205663,1,0,0:0:0:0:
376,360,205949,1,0,0:0:0:0:
384,344,206092,1,0,0:0:0:0:
392,328,206235,1,0,0:0:0:0:
256,192,206378,12,0,210806,0:0:0:0:
