osu file format v14

[General]
AudioFilename: audio.ogg
AudioLeadIn: 0
PreviewTime: 12058
Countdown: 0
SampleSet: Normal
StackLeniency: 0.7
Mode: 1
LetterboxInBreaks: 0
WidescreenStoryboard: 1

[Editor]
Bookmarks: 12058,21469,32672,42083,53286,67433,73014,93348
DistanceSpacing: 1
BeatDivisor: 4
GridSize: 32
TimelineZoom: 1.399999

[Metadata]
Title:Flying Through A Starry Sky
TitleUnicode:Flying Through A Starry Sky
Artist:Camellia, Toby Fox
ArtistUnicode:かめりあ, Toby Fox
Creator:doulph
Version:Futsuu
Source:Dweller's Empty Path
Tags:temmie chang tuyoki claire escaped chasm video game instrumental electronic chiptune 8bit 8-bit music vgm original soundtrack ost dwellers
BeatmapID:2616407
BeatmapSetID:1258670

[Difficulty]
HPDrainRate:7
CircleSize:5
OverallDifficulty:4
ApproachRate:5
SliderMultiplier:1.4
SliderTickRate:1

[Events]
//Background and Video events
0,0,"background.jpg",0,70
//Break Periods
//Storyboard Layer 0 (Background)
//Storyboard Layer 1 (Fail)
//Storyboard Layer 2 (Pass)
//Storyboard Layer 3 (Foreground)
//Storyboard Layer 4 (Overlay)
//Storyboard Sound Samples

[TimingPoints]
-24,428.571428571429,3,1,0,50,1,0
8547,461.538461538462,3,1,0,50,1,8
9008,508.474576271186,7,1,0,50,1,0
12058,392.156862745098,3,1,0,60,1,0
28528,413.793103448276,3,1,0,60,1,0
29769,483.870967741935,3,1,0,40,1,0
29769,-85.5172413793103,3,1,0,40,0,0
32672,392.156862745098,3,1,0,60,1,0
49142,413.793103448276,3,1,0,60,1,0
50383,483.870967741935,3,1,0,40,1,0
50383,-85.5172413793103,3,1,0,40,0,0
53286,392.156862745098,3,1,0,70,1,0
53286,-100,3,1,0,70,0,1
67011,422.535211267606,3,1,0,70,1,9
67011,-92.8104575163399,3,1,0,70,0,1
67433,422.535211267606,3,1,0,60,1,0
69545,444.444444444444,3,1,0,60,1,8
69545,-95.0704225352113,3,1,0,60,0,0
69989,444.444444444444,3,1,0,60,1,0
72211,428.571428571429,3,1,0,60,1,8
72211,-117.647058823529,3,1,0,60,0,0
73014,428.571428571429,3,1,0,60,1,0
73014,-117.647058823529,3,1,0,60,0,0
73335,-117.647058823529,3,1,0,50,0,0
91871,461.538461538462,3,1,0,50,1,8
91871,-117.647058823529,3,1,0,50,0,0
92332,508.474576271186,7,1,0,50,1,0
92332,-117.647058823529,7,1,0,50,0,0
95382,392.156862745098,3,1,0,60,1,0

[HitObjects]
256,192,12058,5,8,0:0:0:0:
256,192,12254,1,8,0:0:0:0:
256,192,12450,1,0,0:0:0:0:
256,192,12842,1,8,0:0:0:0:
256,192,13234,1,8,0:0:0:0:
256,192,13430,1,8,0:0:0:0:
256,192,13626,1,0,0:0:0:0:
256,192,14018,1,8,0:0:0:0:
256,192,14410,1,0,0:0:0:0:
256,192,14999,1,0,0:0:0:0:
256,192,15195,1,8,0:0:0:0:
256,192,15587,1,8,0:0:0:0:
256,192,15783,1,8,0:0:0:0:
256,192,15979,1,0,0:0:0:0:
256,192,16371,1,8,0:0:0:0:
256,192,16763,1,0,0:0:0:0:
256,192,17548,1,8,0:0:0:0:
256,192,17940,1,0,0:0:0:0:
256,192,18724,1,8,0:0:0:0:
256,192,19116,1,0,0:0:0:0:
256,192,19901,1,8,0:0:0:0:
256,192,20293,1,0,0:0:0:0:
256,192,21077,1,0,0:0:0:0:
256,192,21469,1,8,0:0:0:0:
256,192,21665,1,8,0:0:0:0:
256,192,21861,1,0,0:0:0:0:
256,192,22254,1,8,0:0:0:0:
256,192,22646,1,8,0:0:0:0:
256,192,22842,1,8,0:0:0:0:
256,192,23038,1,0,0:0:0:0:
256,192,23430,1,8,0:0:0:0:
256,192,23822,1,0,0:0:0:0:
256,192,24410,1,0,0:0:0:0:
256,192,24607,1,8,0:0:0:0:
256,192,24999,1,0,0:0:0:0:
256,192,25391,1,12,0:0:0:0:
256,192,25783,1,12,0:0:0:0:
256,192,26175,1,4,0:0:0:0:
256,192,26959,1,12,0:0:0:0:
256,192,27352,1,4,0:0:0:0:
256,192,28136,1,8,0:0:0:0:
256,192,28528,1,8,0:0:0:0:
256,192,28734,1,0,0:0:0:0:
256,192,28941,1,0,0:0:0:0:
256,192,29355,1,8,0:0:0:0:
256,192,29562,1,0,0:0:0:0:
256,192,29769,8,0,31946,0:0:0:0:
256,192,32672,5,8,0:0:0:0:
256,192,32868,1,8,0:0:0:0:
256,192,33064,1,0,0:0:0:0:
256,192,33456,1,8,0:0:0:0:
256,192,33848,1,8,0:0:0:0:
256,192,34044,1,8,0:0:0:0:
256,192,34240,1,0,0:0:0:0:
256,192,34632,1,8,0:0:0:0:
256,192,35024,1,0,0:0:0:0:
256,192,35613,1,0,0:0:0:0:
256,192,35809,1,8,0:0:0:0:
256,192,36201,1,8,0:0:0:0:
256,192,36397,1,8,0:0:0:0:
256,192,36593,1,0,0:0:0:0:
256,192,36985,1,8,0:0:0:0:
256,192,37377,1,8,0:0:0:0:
256,192,37573,1,0,0:0:0:0:
256,192,37770,1,8,0:0:0:0:
256,192,38162,1,8,0:0:0:0:
256,192,38554,1,0,0:0:0:0:
256,192,39338,1,8,0:0:0:0:
256,192,39730,1,0,0:0:0:0:
256,192,40515,1,8,0:0:0:0:
256,192,40907,1,0,0:0:0:0:
256,192,41691,1,0,0:0:0:0:
256,192,41887,1,0,0:0:0:0:
256,192,42083,1,8,0:0:0:0:
256,192,42279,1,8,0:0:0:0:
256,192,42475,1,0,0:0:0:0:
256,192,42868,1,8,0:0:0:0:
256,192,43260,1,8,0:0:0:0:
256,192,43456,1,8,0:0:0:0:
256,192,43652,1,0,0:0:0:0:
256,192,44044,1,8,0:0:0:0:
256,192,44436,1,0,0:0:0:0:
256,192,45024,1,0,0:0:0:0:
256,192,45221,1,8,0:0:0:0:
256,192,45613,1,0,0:0:0:0:
256,192,46005,1,12,0:0:0:0:
256,192,46397,1,12,0:0:0:0:
256,192,46789,1,4,0:0:0:0:
256,192,47573,1,12,0:0:0:0:
256,192,47966,1,4,0:0:0:0:
256,192,48750,1,8,0:0:0:0:
256,192,49142,1,8,0:0:0:0:
256,192,49348,1,0,0:0:0:0:
256,192,49555,1,0,0:0:0:0:
256,192,49969,1,8,0:0:0:0:
256,192,50176,1,0,0:0:0:0:
256,192,50383,8,0,52318,0:0:0:0:
256,192,53286,5,0,0:0:0:0:
256,192,53482,1,8,0:0:0:0:
256,192,53678,1,8,0:0:0:0:
256,192,54070,1,0,0:0:0:0:
256,192,54266,1,8,0:0:0:0:
256,192,54462,1,0,0:0:0:0:
256,192,54854,1,8,0:0:0:0:
256,192,55442,1,8,0:0:0:0:
256,192,55638,1,0,0:0:0:0:
256,192,56227,1,8,0:0:0:0:
256,192,56619,1,8,0:0:0:0:
256,192,56815,1,0,0:0:0:0:
256,192,57599,1,0,0:0:0:0:
256,192,57991,1,0,0:0:0:0:
256,192,58187,1,8,0:0:0:0:
256,192,58384,1,0,0:0:0:0:
256,192,58776,1,8,0:0:0:0:
256,192,59168,1,0,0:0:0:0:
256,192,59560,1,8,0:0:0:0:
256,192,60148,1,8,0:0:0:0:
256,192,60344,1,0,0:0:0:0:
256,192,61129,1,0,0:0:0:0:
256,192,61521,1,0,0:0:0:0:
256,192,61717,1,8,0:0:0:0:
256,192,61913,1,0,0:0:0:0:
256,192,62109,1,8,0:0:0:0:
256,192,62305,1,0,0:0:0:0:
256,192,62697,1,0,0:0:0:0:
256,192,62893,1,8,0:0:0:0:
256,192,63089,1,8,0:0:0:0:
256,192,63482,1,0,0:0:0:0:
256,192,63678,1,8,0:0:0:0:
256,192,63874,1,0,0:0:0:0:
256,192,64266,1,8,0:0:0:0:
256,192,64854,1,8,0:0:0:0:
256,192,65050,1,0,0:0:0:0:
256,192,65638,1,8,0:0:0:0:
256,192,66031,1,8,0:0:0:0:
256,192,66227,1,0,0:0:0:0:
256,192,67011,1,8,0:0:0:0:
256,192,67433,1,8,0:0:0:0:
256,192,67644,1,8,0:0:0:0:
256,192,67855,1,0,0:0:0:0:
256,192,68278,1,0,0:0:0:0:
256,192,68700,1,8,0:0:0:0:
256,192,69545,1,8,0:0:0:0:
256,192,69989,1,8,0:0:0:0:
256,192,70211,1,8,0:0:0:0:
256,192,70433,1,0,0:0:0:0:
256,192,70877,1,0,0:0:0:0:
256,192,71322,1,8,0:0:0:0:
256,192,71766,1,8,0:0:0:0:
256,192,72639,1,0,0:0:0:0:
256,192,73014,1,8,0:0:0:0:
256,192,73871,1,8,0:0:0:0:
256,192,74299,1,0,0:0:0:0:
256,192,75585,1,0,0:0:0:0:
256,192,76442,1,8,0:0:0:0:
256,192,76871,1,0,0:0:0:0:
256,192,77299,1,12,0:0:0:0:
256,192,77728,1,12,0:0:0:0:
256,192,78156,1,4,0:0:0:0:
256,192,79014,1,8,0:0:0:0:
256,192,79442,1,0,0:0:0:0:
256,192,80728,1,0,0:0:0:0:
256,192,81585,1,8,0:0:0:0:
256,192,82014,1,8,0:0:0:0:
256,192,82442,1,12,0:0:0:0:
256,192,82871,1,12,0:0:0:0:
256,192,83299,1,4,0:0:0:0:
256,192,84156,1,8,0:0:0:0:
256,192,84585,1,0,0:0:0:0:
256,192,85871,1,0,0:0:0:0:
256,192,86728,1,8,0:0:0:0:
256,192,87156,1,0,0:0:0:0:
256,192,87585,1,12,0:0:0:0:
256,192,88014,1,4,0:0:0:0:
256,192,88442,1,4,0:0:0:0:
256,192,89299,1,8,0:0:0:0:
256,192,89728,1,0,0:0:0:0:
256,192,91014,1,0,0:0:0:0:
256,192,92332,1,8,0:0:0:0:
256,192,92840,1,8,0:0:0:0:
256,192,93348,1,0,0:0:0:0:
