osu file format v14

[General]
AudioFilename: solvicious.ogg
AudioLeadIn: 0
PreviewTime: 184009
Countdown: 0
SampleSet: Soft
StackLeniency: 0.7
Mode: 3
LetterboxInBreaks: 0
SpecialStyle: 0
WidescreenStoryboard: 1

[Editor]
DistanceSpacing: 1.2
BeatDivisor: 8
GridSize: 8
TimelineZoom: 3.099999

[Metadata]
Title:Solvicious
TitleUnicode:Solvicious
Artist:Camellia vs. lapix
ArtistUnicode:かめりあ vs. lapix
Creator:yetii
Version:Solace
Source:
Tags:fa featured artist cametek kamelcamellia かめるかめりあ HiTech Ninja 大箭マサヤ 大箭将也 Masaya Oya L QWCE-90017 EXITTUNES Dance Production PONY CANION ポニーキャニオン GALAXY BURST QWCE-90016 first print bonus track 00 edm hi-tech psystyle j-core jcore electronic instrumental dubstek hybrid marathon osu!mania Malaysia Tournament OMMT laliga beat gang llbg
BeatmapID:2889524
BeatmapSetID:1400602

[Difficulty]
HPDrainRate:8
CircleSize:4
OverallDifficulty:7.5
ApproachRate:5
SliderMultiplier:1.5
SliderTickRate:2

[Events]
//Background and Video events
0,0,"bg.jpg",0,0
//Break Periods
//Storyboard Layer 0 (Background)
//Storyboard Layer 1 (Fail)
//Storyboard Layer 2 (Pass)
//Storyboard Layer 3 (Foreground)
//Storyboard Layer 4 (Overlay)
//Storyboard Sound Samples

[TimingPoints]
478,392.156862745098,4,2,1,65,1,0
1654,-62.5,4,2,1,65,0,0
1686,-250,4,2,1,65,0,0
1719,-62.5,4,2,1,65,0,0
1752,-250,4,2,1,65,0,0
1784,-62.5,4,2,1,65,0,0
1817,-250,4,2,1,65,0,0
1850,-62.5,4,2,1,65,0,0
1899,-250,4,2,1,65,0,0
1945,-62.5,4,2,1,65,0,0
1997,-250,4,2,1,65,0,0
2046,-100,4,2,1,65,0,0
7928,-125,4,2,1,65,0,0
7977,-120.481927710843,4,2,1,65,0,0
8026,-116.279069767442,4,2,1,65,0,0
8075,-112.359550561798,4,2,1,65,0,0
8124,-109.89010989011,4,2,1,65,0,0
8173,-106.382978723404,4,2,1,65,0,0
8222,-103.092783505155,4,2,1,65,0,0
8271,-100,4,2,1,65,0,0
8320,-76.9230769230769,4,2,1,65,0,0
8370,-111.111111111111,4,2,1,65,0,0
8517,-100,4,2,1,65,0,0
8713,-76.9230769230769,4,2,1,65,0,0
8762,-111.111111111111,4,2,1,65,0,0
8909,-100,4,2,1,65,0,0
9105,-76.9230769230769,4,2,1,65,0,0
9154,-111.111111111111,4,2,1,65,0,0
9301,-100,4,2,1,65,0,0
9399,-76.9230769230769,4,2,1,65,0,0
9448,-142.857142857143,4,2,1,65,0,0
9497,-76.9230769230769,4,2,1,65,0,0
9546,-111.111111111111,4,2,1,65,0,0
9693,-76.9230769230769,4,2,1,65,0,0
9742,-111.111111111111,4,2,1,65,0,0
9889,-76.9230769230769,4,2,1,65,0,0
9938,-111.111111111111,4,2,1,65,0,0
10085,-100,4,2,1,65,0,0
10281,-76.9230769230769,4,2,1,65,0,0
10330,-111.111111111111,4,2,1,65,0,0
10477,-100,4,2,1,65,0,0
10673,-76.9230769230769,4,2,1,65,0,0
10722,-111.111111111111,4,2,1,65,0,0
10870,-100,4,2,1,65,0,0
11066,-76.9230769230769,4,2,1,65,0,0
11115,-111.111111111111,4,2,1,65,0,0
11262,-76.9230769230769,4,2,1,65,0,0
11311,-111.111111111111,4,2,1,65,0,0
11458,-76.9230769230769,4,2,1,65,0,0
11507,-111.111111111111,4,2,1,65,0,0
11654,-100,4,2,1,65,0,0
11850,-76.9230769230769,4,2,1,65,0,0
11899,-111.111111111111,4,2,1,65,0,0
12046,-100,4,2,1,65,0,0
12242,-76.9230769230769,4,2,1,65,0,0
12291,-111.111111111111,4,2,1,65,0,0
12438,-100,4,2,1,65,0,0
12536,-76.9230769230769,4,2,1,65,0,0
12585,-142.857142857143,4,2,1,65,0,0
12634,-76.9230769230769,4,2,1,65,0,0
12683,-111.111111111111,4,2,1,65,0,0
12830,-76.9230769230769,4,2,1,65,0,0
12879,-111.111111111111,4,2,1,65,0,0
13026,-76.9230769230769,4,2,1,65,0,0
13075,-111.111111111111,4,2,1,65,0,0
13222,-100,4,2,1,65,0,0
13419,-76.9230769230769,4,2,1,65,0,0
13468,-111.111111111111,4,2,1,65,0,0
13615,-100,4,2,1,65,0,0
13811,-76.9230769230769,4,2,1,65,0,0
13860,-111.111111111111,4,2,1,65,0,0
14007,-100,4,2,1,65,0,0
14203,-76.9230769230769,4,2,1,65,0,0
14252,-111.111111111111,4,2,1,65,0,0
14399,-76.9230769230769,4,2,1,65,0,0
14448,-111.111111111111,4,2,1,65,0,0
14595,-62.5,4,2,1,65,0,0
14644,-125,4,2,1,65,0,0
14791,-100,4,2,1,65,0,0
14987,-62.5,4,2,1,65,0,0
15036,-166.666666666667,4,2,1,65,0,0
15183,-100,4,2,1,65,0,0
15379,-62.5,4,2,1,65,0,0
15428,-125,4,2,1,65,0,0
15575,-100,4,2,1,65,0,0
15673,-55.5555555555556,4,2,1,65,0,0
15722,-500,4,2,1,65,0,0
15771,-62.5,4,2,1,65,0,0
15820,-166.666666666667,4,2,1,65,0,0
15967,-62.5,4,2,1,65,0,0
16016,-125,4,2,1,65,0,0
16163,-62.5,4,2,1,65,0,0
16212,-125,4,2,1,65,0,0
16360,-100,4,2,1,65,0,0
16556,-62.5,4,2,1,65,0,0
16605,-125,4,2,1,65,0,0
16752,-100,4,2,1,65,0,0
16948,-62.5,4,2,1,65,0,0
16997,-125,4,2,1,65,0,0
17144,-100,4,2,1,65,0,0
17340,-62.5,4,2,1,65,0,0
17389,-125,4,2,1,65,0,0
17536,-62.5,4,2,1,65,0,0
17585,-125,4,2,1,65,0,0
17732,-62.5,4,2,1,65,0,0
17781,-125,4,2,1,65,0,0
17928,-100,4,2,1,65,0,0
18124,-62.5,4,2,1,65,0,0
18173,-125,4,2,1,65,0,0
18320,-100,4,2,1,65,0,0
18516,-62.5,4,2,1,65,0,0
18565,-125,4,2,1,65,0,0
18712,-100,4,2,1,65,0,0
18811,-55.5555555555556,4,2,1,65,0,0
18860,-500,4,2,1,65,0,0
18909,-62.5,4,2,1,65,0,0
18958,-125,4,2,1,65,0,0
19105,-62.5,4,2,1,65,0,0
19154,-125,4,2,1,65,0,0
19301,-62.5,4,2,1,65,0,0
19350,-125,4,2,1,65,0,0
19497,-100,4,2,1,65,0,0
19693,-62.5,4,2,1,65,0,0
19742,-125,4,2,1,65,0,0
19889,-100,4,2,1,65,0,0
20085,-62.5,4,2,1,65,0,0
20134,-125,4,2,1,65,0,0
20281,-100,4,2,1,65,0,0
20477,-62.5,4,2,1,65,0,0
20526,-125,4,2,1,65,0,0
20673,-62.5,4,2,1,65,0,0
20722,-125,4,2,1,65,0,0
20869,-62.5,4,2,1,65,0,0
20918,-166.666666666667,4,2,1,65,0,0
21065,-100,4,2,1,65,0,0
21262,-62.5,4,2,1,65,0,0
21311,-125,4,2,1,65,0,0
21458,-100,4,2,1,65,0,0
21654,-62.5,4,2,1,65,0,0
21703,-125,4,2,1,65,0,0
21850,-100,4,2,1,65,0,0
21948,-55.5555555555556,4,2,1,65,0,0
21997,-500,4,2,1,65,0,0
22046,-62.5,4,2,1,65,0,0
22095,-125,4,2,1,65,0,0
22242,-62.5,4,2,1,65,0,0
22291,-125,4,2,1,65,0,0
22438,-62.5,4,2,1,65,0,0
22487,-125,4,2,1,65,0,0
22634,-100,4,2,1,65,0,0
22830,-62.5,4,2,1,65,0,0
22879,-125,4,2,1,65,0,0
23026,-100,4,2,1,65,0,0
23222,-62.5,4,2,1,65,0,0
23271,-125,4,2,1,65,0,0
23418,-100,4,2,1,65,0,0
23614,-71.4285714285714,4,2,1,65,0,0
23712,-166.666666666667,4,2,1,65,0,0
23811,-71.4285714285714,4,2,1,65,0,0
23909,-166.666666666667,4,2,1,65,0,0
24007,-71.4285714285714,4,2,1,65,0,0
24105,-166.666666666667,4,2,1,65,0,0
24203,-71.4285714285714,4,2,1,65,0,0
24301,-166.666666666667,4,2,1,65,0,0
24399,-71.4285714285714,4,2,1,65,0,0
24497,-166.666666666667,4,2,1,65,0,0
24595,-71.4285714285714,4,2,1,65,0,0
24693,-166.666666666667,4,2,1,65,0,0
24791,-62.5,4,2,1,65,0,0
24840,-250,4,2,1,65,0,0
24889,-62.5,4,2,1,65,0,0
24938,-250,4,2,1,65,0,0
24987,-62.5,4,2,1,65,0,0
25036,-250,4,2,1,65,0,0
25085,-62.5,4,2,1,65,0,0
25134,-250,4,2,1,65,0,0
25183,-62.5,4,2,1,65,0,0
25232,-250,4,2,1,65,0,0
25281,-62.5,4,2,1,65,0,0
25330,-250,4,2,1,65,0,0
25379,-62.5,4,2,1,65,0,0
25428,-250,4,2,1,65,0,0
25477,-62.5,4,2,1,65,0,0
25526,-250,4,2,1,65,0,0
25575,-55.5555555555556,4,2,1,65,0,0
25600,-500,4,2,1,65,0,0
25624,-55.5555555555556,4,2,1,65,0,0
25649,-500,4,2,1,65,0,0
25673,-55.5555555555556,4,2,1,65,0,0
25698,-500,4,2,1,65,0,0
25722,-55.5555555555556,4,2,1,65,0,0
25747,-500,4,2,1,65,0,0
25771,-55.5555555555556,4,2,1,65,0,0
25796,-500,4,2,1,65,0,0
25820,-55.5555555555556,4,2,1,65,0,0
25845,-500,4,2,1,65,0,0
25869,-55.5555555555556,4,2,1,65,0,0
25894,-500,4,2,1,65,0,0
25918,-55.5555555555556,4,2,1,65,0,0
25943,-500,4,2,1,65,0,0
25967,-55.5555555555556,4,2,1,65,0,0
25992,-500,4,2,1,65,0,0
26016,-55.5555555555556,4,2,1,65,0,0
26041,-500,4,2,1,65,0,0
26065,-55.5555555555556,4,2,1,65,0,0
26090,-500,4,2,1,65,0,0
26114,-55.5555555555556,4,2,1,65,0,0
26139,-500,4,2,1,65,0,0
26163,-55.5555555555556,4,2,1,65,0,0
26188,-500,4,2,1,65,0,0
26212,-55.5555555555556,4,2,1,65,0,0
26237,-500,4,2,1,65,0,0
26262,-55.5555555555556,4,2,1,65,0,0
26286,-500,4,2,1,65,0,0
26311,-55.5555555555556,4,2,1,65,0,0
26335,-500,4,2,1,65,0,0
26360,-55.5555555555556,4,2,1,65,0,0
26384,-500,4,2,1,65,0,0
26409,-55.5555555555556,4,2,1,65,0,0
26433,-500,4,2,1,65,0,0
26458,-55.5555555555556,4,2,1,65,0,0
26482,-500,4,2,1,65,0,0
26507,-55.5555555555556,4,2,1,65,0,0
26531,-500,4,2,1,65,0,0
26556,-55.5555555555556,4,2,1,65,0,0
26580,-500,4,2,1,65,0,0
26605,-55.5555555555556,4,2,1,65,0,0
26629,-500,4,2,1,65,0,0
26654,-55.5555555555556,4,2,1,65,0,0
26678,-250,4,2,1,65,0,0
26703,-62.5,4,2,1,65,0,0
26727,-500,4,2,1,65,0,0
26752,-200,4,2,1,65,0,0
26948,-66.6666666666667,4,2,1,65,0,0
27144,-133.333333333333,4,2,1,65,0,0
27928,-125,4,2,1,65,0,0
28712,-117.647058823529,4,2,1,65,0,0
29497,-111.111111111111,4,2,1,65,0,0
30281,-105.263157894737,4,2,1,65,0,0
31065,-100,4,2,1,65,0,0
33026,-25,4,2,1,65,0,0
33075,-250,4,2,1,65,0,0
33124,-125,4,2,1,65,0,0
33173,-55.5555555555556,4,2,1,65,0,0
33198,-500,4,2,1,65,0,0
33222,-55.5555555555556,4,2,1,65,0,0
33247,-500,4,2,1,65,0,0
33271,-55.5555555555556,4,2,1,65,0,0
33296,-500,4,2,1,65,0,0
33320,-100,4,2,1,65,0,0
33418,-62.5,4,2,1,65,0,0
33467,-250,4,2,1,65,0,0
33516,-100,4,2,1,65,0,0
38124,-43.4782608695652,4,2,1,65,0,0
38173,-125,4,2,1,65,0,0
38418,-43.4782608695652,4,2,1,65,0,0
38467,-125,4,2,1,65,0,0
38712,-62.5,4,2,1,65,0,0
38762,-250,4,2,1,65,0,0
38811,-62.5,4,2,1,65,0,0
38860,-250,4,2,1,65,0,0
38909,-100,4,2,1,65,0,0
39105,-55.5555555555556,4,2,1,65,0,0
39129,-500,4,2,1,65,0,0
39154,-55.5555555555556,4,2,1,65,0,0
39178,-500,4,2,1,65,0,0
39203,-55.5555555555556,4,2,1,65,0,0
39227,-500,4,2,1,65,0,0
39252,-55.5555555555556,4,2,1,65,0,0
39276,-500,4,2,1,65,0,0
39301,-55.5555555555556,4,2,1,65,0,0
39325,-500,4,2,1,65,0,0
39350,-55.5555555555556,4,2,1,65,0,0
39374,-500,4,2,1,65,0,0
39399,-55.5555555555556,4,2,1,65,0,0
39423,-500,4,2,1,65,0,0
39448,-55.5555555555556,4,2,1,65,0,0
39472,-500,4,2,1,65,0,0
39497,-55.5555555555556,4,2,1,65,0,0
39521,-500,4,2,1,65,0,0
39546,-55.5555555555556,4,2,1,65,0,0
39570,-500,4,2,1,65,0,0
39595,-55.5555555555556,4,2,1,65,0,0
39619,-500,4,2,1,65,0,0
39644,-55.5555555555556,4,2,1,65,0,0
39668,-500,4,2,1,65,0,0
39693,-71.4285714285714,4,2,1,65,0,0
39742,-166.666666666667,4,2,1,65,0,0
39791,-100,4,2,1,65,0,0
42634,-62.5,4,2,1,65,0,0
42683,-250,4,2,1,65,0,0
42732,-62.5,4,2,1,65,0,0
42781,-250,4,2,1,65,0,0
42830,-71.4285714285714,4,2,1,65,0,0
42879,-166.666666666667,4,2,1,65,0,0
42928,-100,4,2,1,65,0,0
51654,-10,4,2,1,65,0,0
51752,-333.333333333333,4,2,1,65,0,0
51850,-250,4,2,1,65,0,0
51948,-200,4,2,1,65,0,0
51997,-166.666666666667,4,2,1,65,0,0
52046,-142.857142857143,4,2,1,65,0,0
52095,-125,4,2,1,65,0,0
52144,-111.111111111111,4,2,1,65,0,0
52193,-100,4,2,1,65,0,0
52242,-33.3333333333333,4,2,1,65,0,0
52291,-303.030303030303,4,2,1,65,0,0
52438,-142.857142857143,4,2,1,65,0,0
52585,-52.6315789473684,4,2,1,65,0,0
52634,-100,4,2,1,65,0,0
54203,-40,4,2,1,65,0,0
54227,-200,4,2,1,65,0,0
54301,-100,4,2,1,65,0,0
54399,-40,4,2,1,65,0,0
54424,-200,4,2,1,65,0,0
54497,-100,4,2,1,65,0,0
54693,-40,4,2,1,65,0,0
54718,-200,4,2,1,65,0,0
54791,-40,4,2,1,65,0,0
54816,-200,4,2,1,65,0,0
54889,-100,4,2,1,65,0,0
54987,-40,4,2,1,65,0,0
55012,-200,4,2,1,65,0,0
55159,-40,4,2,1,65,0,0
55208,-200,4,2,1,65,0,0
55355,-40,4,2,1,65,0,0
55404,-200,4,2,1,65,0,0
55477,-100,4,2,1,65,0,0
56948,-40,4,2,1,65,0,0
56973,-200,4,2,1,65,0,0
57120,-40,4,2,1,65,0,0
57169,-200,4,2,1,65,0,0
57316,-40,4,2,1,65,0,0
57365,-200,4,2,1,65,0,0
57512,-40,4,2,1,65,0,0
57561,-200,4,2,1,65,0,0
57634,-100,4,2,1,65,0,0
58517,-40,4,2,1,65,0,0
58566,-200,4,2,1,65,0,0
58713,-100,4,2,1,65,0,0
60477,-40,4,2,1,65,0,0
60502,-200,4,2,1,65,0,0
60575,-100,4,2,1,65,0,0
60673,-40,4,2,1,65,0,0
60698,-200,4,2,1,65,0,0
60771,-100,4,2,1,65,0,0
60967,-40,4,2,1,65,0,0
60992,-200,4,2,1,65,0,0
61065,-40,4,2,1,65,0,0
61090,-200,4,2,1,65,0,0
61163,-100,4,2,1,65,0,0
61261,-40,4,2,1,65,0,0
61286,-200,4,2,1,65,0,0
61433,-40,4,2,1,65,0,0
61482,-200,4,2,1,65,0,0
61629,-40,4,2,1,65,0,0
61678,-200,4,2,1,65,0,0
61752,-100,4,2,1,65,0,0
62830,-55.5555555555556,4,2,1,65,0,0
62855,-500,4,2,1,65,0,0
62879,-55.5555555555556,4,2,1,65,0,0
62904,-500,4,2,1,65,0,0
62928,-55.5555555555556,4,2,1,65,0,0
62953,-500,4,2,1,65,0,0
62977,-55.5555555555556,4,2,1,65,0,0
63002,-500,4,2,1,65,0,0
63026,-55.5555555555556,4,2,1,65,0,0
63051,-500,4,2,1,65,0,0
63075,-55.5555555555556,4,2,1,65,0,0
63100,-500,4,2,1,65,0,0
63124,-55.5555555555556,4,2,1,65,0,0
63149,-500,4,2,1,65,0,0
63173,-55.5555555555556,4,2,1,65,0,0
63198,-500,4,2,1,65,0,0
63222,-125,4,2,1,65,0,0
63418,-111.111111111111,4,2,1,65,0,0
63614,-100,4,2,1,65,0,0
63811,-55.5555555555556,4,2,1,65,0,0
63860,-500,4,2,1,65,0,0
63909,-55.5555555555556,4,2,1,65,0,0
63958,-500,4,2,1,65,0,0
64007,-55.5555555555556,4,2,1,65,0,0
64056,-500,4,2,1,65,0,0
64105,-100,4,2,1,65,0,0
64987,-142.857142857143,4,2,1,65,0,0
65134,-52.6315789473684,4,2,1,65,0,0
65183,-100,4,2,1,65,0,0
66752,-40,4,2,1,65,0,0
66777,-200,4,2,1,65,0,0
66850,-100,4,2,1,65,0,0
66948,-40,4,2,1,65,0,0
66973,-200,4,2,1,65,0,0
67046,-100,4,2,1,65,0,0
67242,-40,4,2,1,65,0,0
67267,-200,4,2,1,65,0,0
67340,-40,4,2,1,65,0,0
67365,-200,4,2,1,65,0,0
67438,-100,4,2,1,65,0,0
67536,-40,4,2,1,65,0,0
67561,-200,4,2,1,65,0,0
67708,-40,4,2,1,65,0,0
67757,-200,4,2,1,65,0,0
67928,-40,4,2,1,65,0,0
67953,-100,4,2,1,65,0,0
70281,-62.5,4,2,1,65,0,0
70379,-250,4,2,1,65,0,0
70477,-10,4,2,1,65,0,0
70575,-55.5555555555556,4,2,1,65,0,0
70600,-500,4,2,1,65,0,0
70624,-55.5555555555556,4,2,1,65,0,0
70649,-500,4,2,1,65,0,0
70673,-55.5555555555556,4,2,1,65,0,0
70698,-500,4,2,1,65,0,0
70722,-55.5555555555556,4,2,1,65,0,0
70747,-500,4,2,1,65,0,0
70771,-55.5555555555556,4,2,1,65,0,0
70796,-500,4,2,1,65,0,0
70820,-55.5555555555556,4,2,1,65,0,0
70845,-500,4,2,1,65,0,0
70869,-55.5555555555556,4,2,1,65,0,0
70894,-500,4,2,1,65,0,0
70918,-55.5555555555556,4,2,1,65,0,0
70943,-500,4,2,1,65,0,0
70967,-55.5555555555556,4,2,1,65,0,0
70992,-500,4,2,1,65,0,0
71016,-55.5555555555556,4,2,1,65,0,0
71041,-500,4,2,1,65,0,0
71065,-10,4,2,1,65,0,0
71163,-100,4,2,1,65,0,0
71262,-142.857142857143,4,2,1,65,0,0
71409,-52.6315789473684,4,2,1,65,0,0
71458,-100,4,2,1,65,0,0
72634,-40,4,2,1,65,0,0
72659,-200,4,2,1,65,0,0
72806,-40,4,2,1,65,0,0
72855,-200,4,2,1,65,0,0
73002,-40,4,2,1,65,0,0
73051,-200,4,2,1,65,0,0
73124,-100,4,2,1,65,0,0
73320,-55.5555555555556,4,2,1,65,0,0
73345,-500,4,2,1,65,0,0
73369,-55.5555555555556,4,2,1,65,0,0
73394,-500,4,2,1,65,0,0
73418,-55.5555555555556,4,2,1,65,0,0
73443,-500,4,2,1,65,0,0
73467,-100,4,2,1,65,0,0
73516,-66.6666666666667,4,2,1,65,0,0
73565,-200,4,2,1,65,0,0
73614,-100,4,2,1,65,0,0
73811,-66.6666666666667,4,2,1,65,0,0
73860,-200,4,2,1,65,0,0
73909,-55.5555555555556,4,2,1,65,0,0
73958,-500,4,2,1,65,0,0
74007,-66.6666666666667,4,2,1,65,0,0
74056,-200,4,2,1,65,0,0
74105,-100,4,2,1,65,0,0
74595,-40,4,2,1,65,0,0
74620,-200,4,2,1,65,0,0
74693,-100,4,2,1,65,0,0
74791,-40,4,2,1,65,0,0
74816,-200,4,2,1,65,0,0
74889,-100,4,2,1,65,0,0
75085,-40,4,2,1,65,0,0
75110,-200,4,2,1,65,0,0
75183,-40,4,2,1,65,0,0
75208,-200,4,2,1,65,0,0
75281,-100,4,2,1,65,0,0
75379,-66.6666666666667,4,2,1,65,0,0
75428,-200,4,2,1,65,0,0
75477,-100,4,2,1,65,0,0
75575,-66.6666666666667,4,2,1,65,0,0
75624,-200,4,2,1,65,0,0
75673,-100,4,2,1,65,0,0
75771,-66.6666666666667,4,2,1,65,0,0
75820,-200,4,2,1,65,0,0
75869,-100,4,2,1,65,0,0
75967,-66.6666666666667,4,2,1,65,0,0
76016,-200,4,2,1,65,0,0
76065,-100,4,2,1,65,0,0
83418,-142.857142857143,4,2,1,65,0,0
83565,-52.6315789473684,4,2,1,65,0,0
83614,-100,4,2,1,65,0,0
89889,-10,4,2,1,65,0,0
89938,-100,4,2,1,65,0,0
90085,-142.857142857143,4,2,1,65,0,0
90232,-52.6315789473684,4,2,1,65,0,0
90281,-100,4,2,1,65,0,0
96163,-52.6315789473684,4,2,1,65,0,0
96212,-142.857142857143,4,2,1,65,0,0
96360,-66.6666666666667,4,2,1,65,0,0
96409,-200,4,2,1,65,0,0
96458,-100,4,2,1,65,0,0
101654,-66.6666666666667,4,2,1,65,0,0
101703,-200,4,2,1,65,0,0
101752,-100,4,2,1,65,0,0
101850,-55.5555555555556,4,2,1,65,0,0
101899,-500,4,2,1,65,0,0
101948,-55.5555555555556,4,2,1,65,0,0
101997,-500,4,2,1,65,0,0
102046,-100,4,2,1,65,0,0
102144,-55.5555555555556,4,2,1,65,0,0
102193,-500,4,2,1,65,0,0
102242,-55.5555555555556,4,2,1,65,0,0
102291,-500,4,2,1,65,0,0
102340,-100,4,2,1,65,0,0
102438,-33.3333333333333,4,2,1,65,0,0
102487,-200,4,2,1,65,0,0
102634,-100,4,2,1,65,0,0
103026,-66.6666666666667,4,2,1,65,0,0
103075,-200,4,2,1,65,0,0
103124,-66.6666666666667,4,2,1,65,0,0
103173,-200,4,2,1,65,0,0
103222,-66.6666666666667,4,2,1,65,0,0
103271,-200,4,2,1,65,0,0
103320,-100,4,2,1,65,0,0
103516,-66.6666666666667,4,2,1,65,0,0
103565,-200,4,2,1,65,0,0
103614,-100,4,2,1,65,0,0
103712,-66.6666666666667,4,2,1,65,0,0
103762,-200,4,2,1,65,0,0
103811,-66.6666666666667,4,2,1,65,0,0
103860,-200,4,2,1,65,0,0
103909,-100,4,2,1,65,0,0
104007,-66.6666666666667,4,2,1,65,0,0
104056,-200,4,2,1,65,0,0
104105,-100,4,2,1,65,0,0
104301,-66.6666666666667,4,2,1,65,0,0
104350,-200,4,2,1,65,0,0
104399,-100,4,2,1,65,0,0
104497,-66.6666666666667,4,2,1,65,0,0
104546,-200,4,2,1,65,0,0
104595,-100,4,2,1,65,0,0
104791,-66.6666666666667,4,2,1,65,0,0
104840,-200,4,2,1,65,0,0
104889,-66.6666666666667,4,2,1,65,0,0
104938,-200,4,2,1,65,0,0
104987,-100,4,2,1,65,0,0
105085,-66.6666666666667,4,2,1,65,0,0
105134,-200,4,2,1,65,0,0
105183,-100,4,2,1,65,0,0
105281,-66.6666666666667,4,2,1,65,0,0
105330,-200,4,2,1,65,0,0
105379,-100,4,2,1,65,0,0
105575,-33.3333333333333,4,2,1,65,0,0
105624,-200,4,2,1,65,0,0
105771,-100,4,2,1,65,0,0
105869,-66.6666666666667,4,2,1,65,0,0
105918,-200,4,2,1,65,0,0
105967,-100,4,2,1,65,0,0
106163,-66.6666666666667,4,2,1,65,0,0
106212,-200,4,2,1,65,0,0
106261,-66.6666666666667,4,2,1,65,0,0
106311,-200,4,2,1,65,0,0
106360,-66.6666666666667,4,2,1,65,0,0
106409,-200,4,2,1,65,0,0
106458,-100,4,2,1,65,0,0
106654,-66.6666666666667,4,2,1,65,0,0
106703,-200,4,2,1,65,0,0
106752,-100,4,2,1,65,0,0
106850,-66.6666666666667,4,2,1,65,0,0
106899,-200,4,2,1,65,0,0
106948,-66.6666666666667,4,2,1,65,0,0
106997,-200,4,2,1,65,0,0
107046,-100,4,2,1,65,0,0
107144,-66.6666666666667,4,2,1,65,0,0
107193,-200,4,2,1,65,0,0
107242,-100,4,2,1,65,0,0
107438,-66.6666666666667,4,2,1,65,0,0
107487,-200,4,2,1,65,0,0
107536,-100,4,2,1,65,0,0
107634,-66.6666666666667,4,2,1,65,0,0
107683,-200,4,2,1,65,0,0
107732,-100,4,2,1,65,0,0
107830,-55.5555555555556,4,2,1,65,0,0
107855,-500,4,2,1,65,0,0
107879,-55.5555555555556,4,2,1,65,0,0
107904,-500,4,2,1,65,0,0
107928,-55.5555555555556,4,2,1,65,0,0
107977,-500,4,2,1,65,0,0
108026,-55.5555555555556,4,2,1,65,0,0
108075,-500,4,2,1,65,0,0
108124,-55.5555555555556,4,2,1,65,0,0
108173,-500,4,2,1,65,0,0
108222,-55.5555555555556,4,2,1,65,0,0
108271,-500,4,2,1,65,0,0
108320,-55.5555555555556,4,2,1,65,0,0
108369,-500,4,2,1,65,0,0
108418,-55.5555555555556,4,2,1,65,0,0
108467,-500,4,2,1,65,0,0
108516,-55.5555555555556,4,2,1,65,0,0
108565,-500,4,2,1,65,0,0
108614,-55.5555555555556,4,2,1,65,0,0
108663,-500,4,2,1,65,0,0
108712,-33.3333333333333,4,2,1,65,0,0
108761,-200,4,2,1,65,0,0
108909,-100,4,2,1,65,0,0
109007,-55.5555555555556,4,2,1,65,0,0
109031,-500,4,2,1,65,0,0
109056,-55.5555555555556,4,2,1,65,0,0
109080,-500,4,2,1,65,0,0
109105,-100,4,2,1,65,0,0
109203,-66.6666666666667,4,2,1,65,0,0
109252,-200,4,2,1,65,0,0
109301,-66.6666666666667,4,2,1,65,0,0
109350,-200,4,2,1,65,0,0
109399,-100,4,2,1,65,0,0
109497,-66.6666666666667,4,2,1,65,0,0
109546,-200,4,2,1,65,0,0
109595,-66.6666666666667,4,2,1,65,0,0
109644,-200,4,2,1,65,0,0
109693,-66.6666666666667,4,2,1,65,0,0
109742,-200,4,2,1,65,0,0
109791,-66.6666666666667,4,2,1,65,0,0
109840,-200,4,2,1,65,0,0
109889,-66.6666666666667,4,2,1,65,0,0
109938,-200,4,2,1,65,0,0
109987,-100,4,2,1,65,0,0
110036,-55.5555555555556,4,2,1,65,0,0
110061,-500,4,2,1,65,0,0
110085,-55.5555555555556,4,2,1,65,0,0
110110,-500,4,2,1,65,0,0
110134,-100,4,2,1,65,0,0
110183,-66.6666666666667,4,2,1,65,0,0
110232,-200,4,2,1,65,0,0
110281,-66.6666666666667,4,2,1,65,0,0
110330,-200,4,2,1,65,0,0
110379,-66.6666666666667,4,2,1,65,0,0
110428,-200,4,2,1,65,0,0
110477,-66.6666666666667,4,2,1,65,0,0
110526,-200,4,2,1,65,0,0
110575,-55.5555555555556,4,2,1,65,0,0
110600,-500,4,2,1,65,0,0
110624,-55.5555555555556,4,2,1,65,0,0
110649,-500,4,2,1,65,0,0
110673,-100,4,2,1,65,0,0
110771,-66.6666666666667,4,2,1,65,0,0
110820,-200,4,2,1,65,0,0
110869,-100,4,2,1,65,0,0
110967,-55.5555555555556,4,2,1,65,0,0
110992,-500,4,2,1,65,0,0
111016,-55.5555555555556,4,2,1,65,0,0
111041,-500,4,2,1,65,0,0
111065,-66.6666666666667,4,2,1,65,0,0
111114,-200,4,2,1,65,0,0
111163,-100,4,2,1,65,0,0
111261,-66.6666666666667,4,2,1,65,0,0
111311,-200,4,2,1,65,0,0
111360,-55.5555555555556,4,2,1,65,0,0
111384,-500,4,2,1,65,0,0
111409,-55.5555555555556,4,2,1,65,0,0
111433,-500,4,2,1,65,0,0
111458,-66.6666666666667,4,2,1,65,0,0
111507,-200,4,2,1,65,0,0
111556,-55.5555555555556,4,2,1,65,0,0
111580,-500,4,2,1,65,0,0
111605,-55.5555555555556,4,2,1,65,0,0
111629,-500,4,2,1,65,0,0
111654,-66.6666666666667,4,2,1,65,0,0
111703,-200,4,2,1,65,0,0
111752,-100,4,2,1,65,0,0
111850,-33.3333333333333,4,2,1,65,0,0
111899,-200,4,2,1,65,0,0
112046,-100,4,2,1,65,0,0
112144,-55.5555555555556,4,2,1,65,0,0
112168,-500,4,2,1,65,0,0
112193,-55.5555555555556,4,2,1,65,0,0
112217,-500,4,2,1,65,0,0
112242,-66.6666666666667,4,2,1,65,0,0
112291,-200,4,2,1,65,0,0
112340,-66.6666666666667,4,2,1,65,0,0
112389,-200,4,2,1,65,0,0
112438,-66.6666666666667,4,2,1,65,0,0
112487,-200,4,2,1,65,0,0
112536,-100,4,2,1,65,0,0
112634,-66.6666666666667,4,2,1,65,0,0
112683,-200,4,2,1,65,0,0
112732,-66.6666666666667,4,2,1,65,0,0
112781,-200,4,2,1,65,0,0
112830,-66.6666666666667,4,2,1,65,0,0
112879,-200,4,2,1,65,0,0
112928,-66.6666666666667,4,2,1,65,0,0
112977,-200,4,2,1,65,0,0
113026,-66.6666666666667,4,2,1,65,0,0
113075,-200,4,2,1,65,0,0
113124,-55.5555555555556,4,2,1,65,0,0
113149,-500,4,2,1,65,0,0
113173,-55.5555555555556,4,2,1,65,0,0
113198,-500,4,2,1,65,0,0
113222,-66.6666666666667,4,2,1,65,0,0
113271,-200,4,2,1,65,0,0
113320,-66.6666666666667,4,2,1,65,0,0
113369,-200,4,2,1,65,0,0
113418,-66.6666666666667,4,2,1,65,0,0
113467,-200,4,2,1,65,0,0
113516,-66.6666666666667,4,2,1,65,0,0
113565,-200,4,2,1,65,0,0
113614,-66.6666666666667,4,2,1,65,0,0
113663,-200,4,2,1,65,0,0
113712,-55.5555555555556,4,2,1,65,0,0
113737,-500,4,2,1,65,0,0
113761,-55.5555555555556,4,2,1,65,0,0
113786,-500,4,2,1,65,0,0
113811,-100,4,2,1,65,0,0
113909,-66.6666666666667,4,2,1,65,0,0
113958,-200,4,2,1,65,0,0
114007,-100,4,2,1,65,0,0
114105,-55.5555555555556,4,2,1,65,0,0
114129,-500,4,2,1,65,0,0
114154,-55.5555555555556,4,2,1,65,0,0
114178,-500,4,2,1,65,0,0
114203,-100,4,2,1,65,0,0
114399,-66.6666666666667,4,2,1,65,0,0
114448,-142.857142857143,4,2,1,65,0,0
114497,-66.6666666666667,4,2,1,65,0,0
114546,-200,4,2,1,65,0,0
114595,-76.9230769230769,4,2,1,65,0,0
114644,-142.857142857143,4,2,1,65,0,0
114693,-76.9230769230769,4,2,1,65,0,0
114742,-142.857142857143,4,2,1,65,0,0
114791,-83.3333333333333,4,2,1,65,0,0
114840,-125,4,2,1,65,0,0
114889,-83.3333333333333,4,2,1,65,0,0
114938,-125,4,2,1,65,0,0
114987,-12.5,4,2,1,65,0,0
115011,-1000,4,2,1,65,0,0
115379,-400,4,2,1,65,0,0
115477,-200,4,2,1,65,0,0
115575,-133.333333333333,4,2,1,65,0,0
115673,-100,4,2,1,65,0,0
115722,-50,4,2,1,65,0,0
115771,-12.5,4,2,1,65,0,0
115796,-1000,4,2,1,65,0,0
116163,-400,4,2,1,65,0,0
116261,-200,4,2,1,65,0,0
116360,-133.333333333333,4,2,1,65,0,0
116458,-100,4,2,1,65,0,0
116507,-50,4,2,1,65,0,0
116556,-12.5,4,2,1,65,0,0
116580,-1000,4,2,1,65,0,0
116948,-400,4,2,1,65,0,0
117046,-200,4,2,1,65,0,0
117144,-133.333333333333,4,2,1,65,0,0
117242,-100,4,2,1,65,0,0
117291,-50,4,2,1,65,0,0
117340,-12.5,4,2,1,65,0,0
117364,-1000,4,2,1,65,0,0
117732,-400,4,2,1,65,0,0
117830,-200,4,2,1,65,0,0
117928,-133.333333333333,4,2,1,65,0,0
118026,-100,4,2,1,65,0,0
118075,-50,4,2,1,65,0,0
118124,-12.5,4,2,1,65,0,0
118149,-1000,4,2,1,65,0,0
118516,-400,4,2,1,65,0,0
118614,-200,4,2,1,65,0,0
118712,-133.333333333333,4,2,1,65,0,0
118811,-100,4,2,1,65,0,0
118860,-50,4,2,1,65,0,0
118909,-12.5,4,2,1,65,0,0
118933,-1000,4,2,1,65,0,0
119301,-400,4,2,1,65,0,0
119399,-200,4,2,1,65,0,0
119497,-133.333333333333,4,2,1,65,0,0
119595,-100,4,2,1,65,0,0
119644,-50,4,2,1,65,0,0
119693,-12.5,4,2,1,65,0,0
119717,-1000,4,2,1,65,0,0
120085,-400,4,2,1,65,0,0
120183,-200,4,2,1,65,0,0
120281,-133.333333333333,4,2,1,65,0,0
120379,-100,4,2,1,65,0,0
120428,-50,4,2,1,65,0,0
120477,-66.6666666666667,4,2,1,65,0,0
120575,-200,4,2,1,65,0,0
120675,-100,4,2,1,65,0,0
120869,-55.5555555555556,4,2,1,65,0,0
120918,-500,4,2,1,65,0,0
120967,-55.5555555555556,4,2,1,65,0,0
121016,-500,4,2,1,65,0,0
121065,-55.5555555555556,4,2,1,65,0,0
121114,-500,4,2,1,65,0,0
121163,-100,4,2,1,65,0,0
121261,-12.5,4,2,1,65,0,0
121311,-10000,4,2,1,65,0,0
121360,-200,4,2,1,65,0,0
121458,-133.333333333333,4,2,1,65,0,0
121556,-100,4,2,1,65,0,0
121605,-50,4,2,1,65,0,0
121654,-12.5,4,2,1,65,0,0
121703,-10000,4,2,1,65,0,0
121752,-200,4,2,1,65,0,0
121850,-133.333333333333,4,2,1,65,0,0
121948,-100,4,2,1,65,0,0
121997,-50,4,2,1,65,0,0
122046,-12.5,4,2,1,65,0,0
122095,-10000,4,2,1,65,0,0
122144,-200,4,2,1,65,0,0
122242,-133.333333333333,4,2,1,65,0,0
122340,-100,4,2,1,65,0,0
122389,-50,4,2,1,65,0,0
122438,-12.5,4,2,1,65,0,0
122487,-10000,4,2,1,65,0,0
122536,-200,4,2,1,65,0,0
122634,-133.333333333333,4,2,1,65,0,0
122732,-100,4,2,1,65,0,0
122781,-50,4,2,1,65,0,0
122830,-12.5,4,2,1,65,0,0
122879,-10000,4,2,1,65,0,0
122928,-200,4,2,1,65,0,0
123026,-133.333333333333,4,2,1,65,0,0
123124,-100,4,2,1,65,0,0
123173,-50,4,2,1,65,0,0
123222,-12.5,4,2,1,65,0,0
123271,-10000,4,2,1,65,0,0
123320,-200,4,2,1,65,0,0
123418,-133.333333333333,4,2,1,65,0,0
123516,-100,4,2,1,65,0,0
123565,-50,4,2,1,65,0,0
123614,-12.5,4,2,1,65,0,0
123663,-10000,4,2,1,65,0,0
123712,-200,4,2,1,65,0,0
123811,-133.333333333333,4,2,1,65,0,0
123909,-100,4,2,1,65,0,0
123958,-50,4,2,1,65,0,0
124007,-12.5,4,2,1,65,0,0
124056,-10000,4,2,1,65,0,0
124105,-200,4,2,1,65,0,0
124203,-133.333333333333,4,2,1,65,0,0
124301,-100,4,2,1,65,0,0
124350,-50,4,2,1,65,0,0
124399,-66.6666666666667,4,2,1,65,0,0
124448,-200,4,2,1,65,0,0
124497,-100,4,2,1,65,0,0
124595,-66.6666666666667,4,2,1,65,0,0
124644,-200,4,2,1,65,0,0
124693,-100,4,2,1,65,0,0
124791,-66.6666666666667,4,2,1,65,0,0
124840,-200,4,2,1,65,0,0
124889,-100,4,2,1,65,0,0
124987,-66.6666666666667,4,2,1,65,0,0
125036,-200,4,2,1,65,0,0
125085,-100,4,2,1,65,0,0
125183,-62.5,4,2,1,65,0,0
125232,-250,4,2,1,65,0,0
125281,-62.5,4,2,1,65,0,0
125330,-250,4,2,1,65,0,0
125379,-62.5,4,2,1,65,0,0
125428,-250,4,2,1,65,0,0
125477,-62.5,4,2,1,65,0,0
125526,-250,4,2,1,65,0,0
125575,-62.5,4,2,1,65,0,0
125624,-250,4,2,1,65,0,0
125673,-62.5,4,2,1,65,0,0
125722,-250,4,2,1,65,0,0
125771,-62.5,4,2,1,65,0,0
125820,-250,4,2,1,65,0,0
125869,-62.5,4,2,1,65,0,0
125918,-250,4,2,1,65,0,0
125967,-62.5,4,2,1,65,0,0
125992,-250,4,2,1,65,0,0
126016,-62.5,4,2,1,65,0,0
126041,-250,4,2,1,65,0,0
126065,-62.5,4,2,1,65,0,0
126090,-250,4,2,1,65,0,0
126114,-62.5,4,2,1,65,0,0
126139,-250,4,2,1,65,0,0
126163,-62.5,4,2,1,65,0,0
126188,-250,4,2,1,65,0,0
126212,-62.5,4,2,1,65,0,0
126237,-250,4,2,1,65,0,0
126261,-62.5,4,2,1,65,0,0
126286,-500,4,2,1,65,0,0
126311,-62.5,4,2,1,65,0,0
126335,-250,4,2,1,65,0,0
126360,-62.5,4,2,1,65,0,0
126384,-250,4,2,1,65,0,0
126409,-62.5,4,2,1,65,0,0
126433,-250,4,2,1,65,0,0
126458,-62.5,4,2,1,65,0,0
126482,-250,4,2,1,65,0,0
126507,-62.5,4,2,1,65,0,0
126531,-250,4,2,1,65,0,0
126556,-62.5,4,2,1,65,0,0
126580,-250,4,2,1,65,0,0
126605,-62.5,4,2,1,65,0,0
126629,-250,4,2,1,65,0,0
126654,-62.5,4,2,1,65,0,0
126679,-250,4,2,1,65,0,0
126703,-62.5,4,2,1,65,0,0
126727,-250,4,2,1,65,0,0
126752,-62.5,4,2,1,65,0,0
126776,-250,4,2,1,65,0,0
126801,-62.5,4,2,1,65,0,0
126825,-250,4,2,1,65,0,0
126850,-62.5,4,2,1,65,0,0
126874,-250,4,2,1,65,0,0
126899,-62.5,4,2,1,65,0,0
126923,-250,4,2,1,65,0,0
126948,-62.5,4,2,1,65,0,0
126972,-250,4,2,1,65,0,0
126997,-62.5,4,2,1,65,0,0
127021,-250,4,2,1,65,0,0
127046,-62.5,4,2,1,65,0,0
127070,-250,4,2,1,65,0,0
127095,-62.5,4,2,1,65,0,0
127119,-250,4,2,1,65,0,0
127144,-62.5,4,2,1,65,0,0
127168,-250,4,2,1,65,0,0
127193,-62.5,4,2,1,65,0,0
127217,-250,4,2,1,65,0,0
127242,-62.5,4,2,1,65,0,0
127266,-250,4,2,1,65,0,0
127291,-62.5,4,2,1,65,0,0
127315,-250,4,2,1,65,0,0
127340,-62.5,4,2,1,65,0,0
127364,-250,4,2,1,65,0,0
127389,-62.5,4,2,1,65,0,0
127413,-250,4,2,1,65,0,0
127438,-62.5,4,2,1,65,0,0
127462,-250,4,2,1,65,0,0
127487,-62.5,4,2,1,65,0,0
127511,-250,4,2,1,65,0,0
127536,-111.111111111111,4,2,1,65,0,0
131066,-100,4,2,1,65,0,0
151360,-83.3333333333333,4,2,1,65,0,0
151409,-125,4,2,1,65,0,0
151458,-83.3333333333333,4,2,1,65,0,0
151507,-125,4,2,1,65,0,0
151556,-83.3333333333333,4,2,1,65,0,0
151605,-125,4,2,1,65,0,0
151654,-71.4285714285714,4,2,1,65,0,0
151703,-166.666666666667,4,2,1,65,0,0
151752,-71.4285714285714,4,2,1,65,0,0
151801,-166.666666666667,4,2,1,65,0,0
151850,-62.5,4,2,1,65,0,0
151899,-250,4,2,1,65,0,0
151948,-62.5,4,2,1,65,0,0
151997,-250,4,2,1,65,0,0
152046,-62.5,4,2,1,65,0,0
152095,-250,4,2,1,65,0,0
152144,-62.5,4,2,1,65,0,0
152193,-250,4,2,1,65,0,0
152242,-66.6666666666667,4,2,1,65,0,0
152389,-200,4,2,1,65,0,0
152536,-100,4,2,1,65,0,0
164791,-55.5555555555556,4,2,1,65,0,0
164824,-500,4,2,1,65,0,0
164856,-100,4,2,1,65,0,0
165183,-62.5,4,2,1,65,0,0
165232,-125,4,2,1,65,0,0
165379,-100,4,2,1,65,0,0
165575,-62.5,4,2,1,65,0,0
165624,-125,4,2,1,65,0,0
165724,-100,4,2,1,65,0,0
165967,-62.5,4,2,1,65,0,0
166016,-125,4,2,1,65,0,0
166163,-100,4,2,1,65,0,0
166752,-62.5,4,2,1,65,0,0
166801,-125,4,2,1,65,0,0
166948,-100,4,2,1,65,0,0
167144,-62.5,4,2,1,65,0,0
167193,-125,4,2,1,65,0,0
167340,-100,4,2,1,65,0,0
167536,-62.5,4,2,1,65,0,0
167585,-125,4,2,1,65,0,0
167732,-100,4,2,1,65,0,0
167928,-62.5,4,2,1,65,0,0
167977,-125,4,2,1,65,0,0
168124,-100,4,2,1,65,0,0
168320,-62.5,4,2,1,65,0,0
168369,-125,4,2,1,65,0,0
168516,-100,4,2,1,65,0,0
168712,-62.5,4,2,1,65,0,0
168762,-125,4,2,1,65,0,0
168909,-100,4,2,1,65,0,0
169105,-62.5,4,2,1,65,0,0
169154,-125,4,2,1,65,0,0
169301,-100,4,2,1,65,0,0
169497,-62.5,4,2,1,65,0,0
169546,-125,4,2,1,65,0,0
169693,-100,4,2,1,65,0,0
169889,-62.5,4,2,1,65,0,0
169938,-125,4,2,1,65,0,0
170085,-100,4,2,1,65,0,0
170281,-62.5,4,2,1,65,0,0
170330,-125,4,2,1,65,0,0
170477,-100,4,2,1,65,0,0
170673,-62.5,4,2,1,65,0,0
170722,-125,4,2,1,65,0,0
170869,-100,4,2,1,65,0,0
171065,-62.5,4,2,1,65,0,0
171114,-125,4,2,1,65,0,0
171262,-100,4,2,1,65,0,0
172634,-62.5,4,2,1,65,0,0
172659,-250,4,2,1,65,0,0
172683,-62.5,4,2,1,65,0,0
172708,-250,4,2,1,65,0,0
172732,-62.5,4,2,1,65,0,0
172757,-250,4,2,1,65,0,0
172781,-62.5,4,2,1,65,0,0
172806,-250,4,2,1,65,0,0
172830,-62.5,4,2,1,65,0,0
172879,-250,4,2,1,65,0,0
172928,-62.5,4,2,1,65,0,0
172977,-250,4,2,1,65,0,0
173026,-100,4,2,1,65,0,0
173614,-55.5555555555556,4,2,1,65,0,0
173647,-500,4,2,1,65,0,0
173680,-55.5555555555556,4,2,1,65,0,0
173712,-500,4,2,1,65,0,0
173745,-55.5555555555556,4,2,1,65,0,0
173778,-500,4,2,1,65,0,0
173811,-100,4,2,1,65,0,0
174399,-62.5,4,2,1,65,0,0
174423,-250,4,2,1,65,0,0
174448,-62.5,4,2,1,65,0,0
174472,-250,4,2,1,65,0,0
174497,-62.5,4,2,1,65,0,0
174521,-250,4,2,1,65,0,0
174546,-62.5,4,2,1,65,0,0
174570,-250,4,2,1,65,0,0
174595,-100,4,2,1,65,0,0
174987,-62.5,4,2,1,65,0,0
175012,-250,4,2,1,65,0,0
175036,-62.5,4,2,1,65,0,0
175061,-250,4,2,1,65,0,0
175085,-62.5,4,2,1,65,0,0
175110,-250,4,2,1,65,0,0
175134,-62.5,4,2,1,65,0,0
175159,-250,4,2,1,65,0,0
175183,-100,4,2,1,65,0,0
175771,-62.5,4,2,1,65,0,0
175796,-250,4,2,1,65,0,0
175820,-62.5,4,2,1,65,0,0
175845,-250,4,2,1,65,0,0
175869,-62.5,4,2,1,65,0,0
175894,-250,4,2,1,65,0,0
175918,-62.5,4,2,1,65,0,0
175943,-250,4,2,1,65,0,0
175967,-100,4,2,1,65,0,0
176752,-55.5555555555556,4,2,1,65,0,0
176784,-500,4,2,1,65,0,0
176817,-55.5555555555556,4,2,1,65,0,0
176850,-500,4,2,1,65,0,0
176882,-55.5555555555556,4,2,1,65,0,0
176915,-500,4,2,1,65,0,0
176948,-100,4,2,1,65,0,0
177340,-62.5,4,2,1,65,0,0
177438,-250,4,2,1,65,0,0
177536,-62.5,4,2,1,65,0,0
177585,-250,4,2,1,65,0,0
177634,-62.5,4,2,1,65,0,0
177683,-250,4,2,1,65,0,0
177732,-100,4,2,1,65,0,0
179693,-55.5555555555556,4,2,1,65,0,0
179717,-500,4,2,1,65,0,0
179742,-55.5555555555556,4,2,1,65,0,0
179766,-500,4,2,1,65,0,0
179791,-55.5555555555556,4,2,1,65,0,0
179815,-500,4,2,1,65,0,0
179840,-55.5555555555556,4,2,1,65,0,0
179864,-500,4,2,1,65,0,0
179889,-100,4,2,1,65,0,0
183124,-62.5,4,2,1,65,0,0
183149,-250,4,2,1,65,0,0
183173,-62.5,4,2,1,65,0,0
183198,-250,4,2,1,65,0,0
183222,-62.5,4,2,1,65,0,0
183247,-250,4,2,1,65,0,0
183271,-62.5,4,2,1,65,0,0
183296,-250,4,2,1,65,0,0
183320,-62.5,4,2,1,65,0,0
183345,-250,4,2,1,65,0,0
183369,-62.5,4,2,1,65,0,0
183394,-250,4,2,1,65,0,0
183418,-62.5,4,2,1,65,0,0
183443,-250,4,2,1,65,0,0
183467,-62.5,4,2,1,65,0,0
183492,-250,4,2,1,65,0,0
183516,-62.5,4,2,1,65,0,0
183541,-250,4,2,1,65,0,0
183565,-62.5,4,2,1,65,0,0
183590,-250,4,2,1,65,0,0
183614,-62.5,4,2,1,65,0,0
183639,-250,4,2,1,65,0,0
183663,-62.5,4,2,1,65,0,0
183688,-250,4,2,1,65,0,0
183712,-62.5,4,2,1,65,0,0
183737,-250,4,2,1,65,0,0
183762,-62.5,4,2,1,65,0,0
183786,-250,4,2,1,65,0,0
183811,-142.857142857143,4,2,1,65,0,0
183958,-52.6315789473684,4,2,1,65,0,0
184007,-100,4,2,1,65,0,0
189693,-10,4,2,1,65,0,0
189742,-1000,4,2,1,65,0,0
189840,-500,4,2,1,65,0,0
189889,-333.333333333333,4,2,1,65,0,0
189938,-250,4,2,1,65,0,0
189987,-200,4,2,1,65,0,0
190036,-166.666666666667,4,2,1,65,0,0
190085,-142.857142857143,4,2,1,65,0,0
190232,-52.6315789473684,4,2,1,65,0,0
190281,-100,4,2,1,65,0,1
201850,-58.8235294117647,4,2,1,65,0,1
201899,-333.333333333333,4,2,1,65,0,1
201948,-100,4,2,1,65,0,1
209889,-71.4285714285714,4,2,1,65,0,1
209938,-166.666666666667,4,2,1,65,0,1
209987,-71.4285714285714,4,2,1,65,0,1
210036,-166.666666666667,4,2,1,65,0,1
210085,-100,4,2,1,65,0,1
210281,-62.5,4,2,1,65,0,1
210306,-250,4,2,1,65,0,1
210330,-62.5,4,2,1,65,0,1
210355,-250,4,2,1,65,0,1
210379,-62.5,4,2,1,65,0,1
210404,-250,4,2,1,65,0,1
210428,-62.5,4,2,1,65,0,1
210453,-250,4,2,1,65,0,1
210477,-100,4,2,1,65,0,1
211458,-71.4285714285714,4,2,1,65,0,1
211507,-166.666666666667,4,2,1,65,0,1
211556,-71.4285714285714,4,2,1,65,0,1
211605,-166.666666666667,4,2,1,65,0,1
211654,-100,4,2,1,65,0,1
211850,-62.5,4,2,1,65,0,1
211874,-250,4,2,1,65,0,1
211899,-62.5,4,2,1,65,0,1
211923,-250,4,2,1,65,0,1
211948,-62.5,4,2,1,65,0,1
211972,-250,4,2,1,65,0,1
211997,-62.5,4,2,1,65,0,1
212021,-250,4,2,1,65,0,1
212046,-100,4,2,1,65,0,1
213124,-62.5,4,2,1,65,0,1
213173,-250,4,2,1,65,0,1
213222,-100,4,2,1,65,0,1
215379,-58.8235294117647,4,2,1,65,0,1
215428,-333.333333333333,4,2,1,65,0,1
215477,-100,4,2,1,65,0,1
215575,-55.5555555555556,4,2,1,65,0,1
215624,-500,4,2,1,65,0,1
215673,-100,4,2,1,65,0,1
215771,-55.5555555555556,4,2,1,65,0,1
215820,-500,4,2,1,65,0,1
215869,-100,4,2,1,65,0,1
215967,-62.5,4,2,1,65,0,1
215992,-250,4,2,1,65,0,1
216016,-62.5,4,2,1,65,0,1
216041,-250,4,2,1,65,0,1
216065,-62.5,4,2,1,65,0,1
216090,-250,4,2,1,65,0,1
216114,-62.5,4,2,1,65,0,1
216139,-250,4,2,1,65,0,1
216163,-100,4,2,1,65,0,1
216948,-62.5,4,2,1,65,0,1
216997,-250,4,2,1,65,0,1
217046,-100,4,2,1,65,0,1
217144,-62.5,4,2,1,65,0,1
217168,-250,4,2,1,65,0,1
217193,-62.5,4,2,1,65,0,1
217217,-250,4,2,1,65,0,1
217242,-62.5,4,2,1,65,0,1
217266,-250,4,2,1,65,0,1
217291,-62.5,4,2,1,65,0,1
217315,-250,4,2,1,65,0,1
217340,-62.5,4,2,1,65,0,1
217389,-250,4,2,1,65,0,1
217438,-100,4,2,1,65,0,1
217536,-62.5,4,2,1,65,0,1
217561,-250,4,2,1,65,0,1
217585,-62.5,4,2,1,65,0,1
217610,-250,4,2,1,65,0,1
217634,-62.5,4,2,1,65,0,1
217659,-250,4,2,1,65,0,1
217683,-62.5,4,2,1,65,0,1
217708,-250,4,2,1,65,0,1
217732,-62.5,4,2,1,65,0,1
217781,-250,4,2,1,65,0,1
217830,-100,4,2,1,65,0,1
218124,-62.5,4,2,1,65,0,1
218149,-250,4,2,1,65,0,1
218173,-62.5,4,2,1,65,0,1
218198,-250,4,2,1,65,0,1
218222,-62.5,4,2,1,65,0,1
218247,-250,4,2,1,65,0,1
218271,-62.5,4,2,1,65,0,1
218296,-250,4,2,1,65,0,1
218320,-62.5,4,2,1,65,0,1
218345,-250,4,2,1,65,0,1
218369,-62.5,4,2,1,65,0,1
218394,-250,4,2,1,65,0,1
218418,-62.5,4,2,1,65,0,1
218443,-250,4,2,1,65,0,1
218467,-62.5,4,2,1,65,0,1
218492,-250,4,2,1,65,0,1
218516,-66.6666666666667,4,2,1,65,0,1
218565,-200,4,2,1,65,0,1
218614,-100,4,2,1,65,0,1
221654,-50,4,2,1,65,0,1
221703,-10000,4,2,1,65,0,1
221752,-100,4,2,1,65,0,1
221850,-142.857142857143,4,2,1,65,0,1
221997,-52.6315789473684,4,2,1,65,0,1
222046,-100,4,2,1,65,0,1
222242,-62.5,4,2,1,65,0,1
222291,-250,4,2,1,65,0,1
222340,-62.5,4,2,1,65,0,1
222389,-250,4,2,1,65,0,1
222438,-62.5,4,2,1,65,0,1
222487,-250,4,2,1,65,0,1
222536,-62.5,4,2,1,65,0,1
222585,-250,4,2,1,65,0,1
222634,-62.5,4,2,1,65,0,1
222659,-250,4,2,1,65,0,1
222683,-62.5,4,2,1,65,0,1
222708,-250,4,2,1,65,0,1
222732,-62.5,4,2,1,65,0,1
222757,-250,4,2,1,65,0,1
222781,-62.5,4,2,1,65,0,1
222806,-250,4,2,1,65,0,1
222830,-100,4,2,1,65,0,1
223320,-62.5,4,2,1,65,0,1
223369,-250,4,2,1,65,0,1
223418,-100,4,2,1,65,0,1
224007,-66.6666666666667,4,2,1,65,0,1
224072,-200,4,2,1,65,0,1
224137,-66.6666666666667,4,2,1,65,0,1
224203,-200,4,2,1,65,0,1
224268,-66.6666666666667,4,2,1,65,0,1
224333,-200,4,2,1,65,0,1
224399,-66.6666666666667,4,2,1,65,0,1
224464,-200,4,2,1,65,0,1
224529,-66.6666666666667,4,2,1,65,0,1
224595,-200,4,2,1,65,0,1
224660,-66.6666666666667,4,2,1,65,0,1
224726,-200,4,2,1,65,0,1
224791,-100,4,2,1,65,0,1
226556,-62.5,4,2,1,65,0,1
226580,-250,4,2,1,65,0,1
226605,-62.5,4,2,1,65,0,1
226629,-250,4,2,1,65,0,1
226654,-62.5,4,2,1,65,0,1
226678,-250,4,2,1,65,0,1
226703,-62.5,4,2,1,65,0,1
226727,-250,4,2,1,65,0,1
226752,-55.5555555555556,4,2,1,65,0,1
226801,-500,4,2,1,65,0,1
226850,-100,4,2,1,65,0,1
226948,-55.5555555555556,4,2,1,65,0,1
226997,-500,4,2,1,65,0,1
227046,-100,4,2,1,65,0,1
227536,-20,4,2,1,65,0,1
227585,-1000,4,2,1,65,0,1
227634,-100,4,2,1,65,0,1
227732,-142.857142857143,4,2,1,65,0,1
227879,-52.6315789473684,4,2,1,65,0,1
227928,-100,4,2,1,65,0,1
230673,-66.6666666666667,4,2,1,65,0,1
230771,-200,4,2,1,65,0,1
230869,-66.6666666666667,4,2,1,65,0,1
230918,-200,4,2,1,65,0,1
230967,-66.6666666666667,4,2,1,65,0,1
231016,-200,4,2,1,65,0,1
231066,-100,4,2,1,65,0,1
232634,-62.5,4,2,1,65,0,1
232659,-250,4,2,1,65,0,1
232683,-62.5,4,2,1,65,0,1
232708,-250,4,2,1,65,0,1
232732,-62.5,4,2,1,65,0,1
232757,-250,4,2,1,65,0,1
232781,-62.5,4,2,1,65,0,1
232806,-250,4,2,1,65,0,1
232830,-100,4,2,1,65,0,1
233026,-62.5,4,2,1,65,0,1
233051,-250,4,2,1,65,0,1
233075,-62.5,4,2,1,65,0,1
233100,-250,4,2,1,65,0,1
233124,-62.5,4,2,1,65,0,1
233149,-250,4,2,1,65,0,1
233173,-62.5,4,2,1,65,0,1
233198,-250,4,2,1,65,0,1
233222,-100,4,2,1,65,0,1
235379,-10,4,2,1,65,0,1
235428,-333.333333333333,4,2,1,65,0,1
235477,-250,4,2,1,65,0,1
235526,-200,4,2,1,65,0,1
235575,-166.666666666667,4,2,1,65,0,1
235624,-142.857142857143,4,2,1,65,0,1
235673,-125,4,2,1,65,0,1
235722,-111.111111111111,4,2,1,65,0,1
235771,-100,4,2,1,65,0,1
236948,-55.5555555555556,4,2,1,65,0,1
236972,-500,4,2,1,65,0,1
236997,-55.5555555555556,4,2,1,65,0,1
237021,-500,4,2,1,65,0,1
237046,-55.5555555555556,4,2,1,65,0,1
237070,-500,4,2,1,65,0,1
237095,-55.5555555555556,4,2,1,65,0,1
237119,-500,4,2,1,65,0,1
237144,-55.5555555555556,4,2,1,65,0,1
237168,-500,4,2,1,65,0,1
237193,-55.5555555555556,4,2,1,65,0,1
237217,-500,4,2,1,65,0,1
237242,-55.5555555555556,4,2,1,65,0,1
237266,-500,4,2,1,65,0,1
237291,-100,4,2,1,65,0,1
237340,-66.6666666666667,4,2,1,65,0,1
237389,-200,4,2,1,65,0,1
237438,-100,4,2,1,65,0,1
237634,-66.6666666666667,4,2,1,65,0,1
237683,-200,4,2,1,65,0,1
237732,-100,4,2,1,65,0,1
237928,-66.6666666666667,4,2,1,65,0,1
237977,-200,4,2,1,65,0,1
238027,-100,4,2,1,65,0,1
239007,-62.5,4,2,1,65,0,0
239031,-250,4,2,1,65,0,0
239056,-62.5,4,2,1,65,0,0
239080,-250,4,2,1,65,0,0
239105,-62.5,4,2,1,65,0,0
239129,-250,4,2,1,65,0,0
239154,-62.5,4,2,1,65,0,0
239178,-250,4,2,1,65,0,0
239203,-62.5,4,2,1,65,0,0
239227,-250,4,2,1,65,0,0
239252,-62.5,4,2,1,65,0,0
239276,-250,4,2,1,65,0,0
239301,-62.5,4,2,1,65,0,0
239325,-250,4,2,1,65,0,0
239350,-62.5,4,2,1,65,0,0
239374,-250,4,2,1,65,0,0
239399,-62.5,4,2,1,65,0,0
239423,-250,4,2,1,65,0,0
239448,-62.5,4,2,1,65,0,0
239472,-250,4,2,1,65,0,0
239497,-62.5,4,2,1,65,0,0
239546,-250.000000000001,4,2,1,65,0,0
239595,-62.5,4,2,1,65,0,0
239644,-250.000000000001,4,2,1,65,0,0
239693,-62.5,4,2,1,65,0,0
239742,-250.000000000001,4,2,1,65,0,0
239791,-62.5,4,2,1,65,0,0
239840,-250.000000000001,4,2,1,65,0,0
239889,-62.5,4,2,1,65,0,0
239938,-250.000000000001,4,2,1,65,0,0
239987,-62.5,4,2,1,65,0,0
240036,-250.000000000001,4,2,1,65,0,0
240085,-62.5,4,2,1,65,0,0
240134,-250.000000000001,4,2,1,65,0,0
240183,-62.5,4,2,1,65,0,0
240232,-250.000000000001,4,2,1,65,0,0
240281,-62.5,4,2,1,65,0,0
240330,-250.000000000001,4,2,1,65,0,0
240379,-62.5,4,2,1,65,0,0
240428,-250.000000000001,4,2,1,65,0,0
240477,-20,4,2,1,65,0,0
240526,-90.9090909090909,4,2,1,65,0,0
240673,-142.857142857143,4,2,1,65,0,0
240820,-52.6315789473684,4,2,1,65,0,0
240869,-100,4,2,1,65,0,0
242046,-35.7142857142857,4,2,1,65,0,0
242070,-250.000000000001,4,2,1,65,0,0
242144,-100,4,2,1,65,0,0
242340,-35.7142857142857,4,2,1,65,0,0
242364,-250.000000000001,4,2,1,65,0,0
242438,-100,4,2,1,65,0,0
242634,-35.7142857142857,4,2,1,65,0,0
242659,-250.000000000001,4,2,1,65,0,0
242732,-100,4,2,1,65,0,0
242928,-35.7142857142857,4,2,1,65,0,0
242953,-250.000000000001,4,2,1,65,0,0
243026,-100,4,2,1,65,0,0
243222,-35.7142857142857,4,2,1,65,0,0
243247,-250.000000000001,4,2,1,65,0,0
243320,-100,4,2,1,65,0,0
243467,-250,4,2,1,65,0,0
243516,-62.5,4,2,1,65,0,0
243565,-250,4,2,1,65,0,0
243614,-100,4,2,1,65,0,0
245183,-35.7142857142857,4,2,1,65,0,0
245208,-250,4,2,1,65,0,0
245281,-100,4,2,1,65,0,0
245379,-35.7142857142857,4,2,1,65,0,0
245404,-250,4,2,1,65,0,0
245477,-100,4,2,1,65,0,0
245575,-35.7142857142857,4,2,1,65,0,0
245600,-250,4,2,1,65,0,0
245673,-100,4,2,1,65,0,0
245771,-62.5,4,2,1,65,0,0
245820,-250,4,2,1,65,0,0
245869,-100,4,2,1,65,0,0
245967,-35.7142857142857,4,2,1,65,0,0
245992,-250,4,2,1,65,0,0
246065,-100,4,2,1,65,0,0
246163,-62.5,4,2,1,65,0,0
246188,-250,4,2,1,65,0,0
246212,-62.5,4,2,1,65,0,0
246237,-250,4,2,1,65,0,0
246261,-62.5,4,2,1,65,0,0
246286,-250,4,2,1,65,0,0
246311,-62.5,4,2,1,65,0,0
246335,-250,4,2,1,65,0,0
246360,-62.5,4,2,1,65,0,0
246384,-250,4,2,1,65,0,0
246409,-62.5,4,2,1,65,0,0
246433,-250,4,2,1,65,0,0
246458,-62.5,4,2,1,65,0,0
246482,-250,4,2,1,65,0,0
246507,-62.5,4,2,1,65,0,0
246531,-250,4,2,1,65,0,0
246556,-62.5,4,2,1,65,0,0
246580,-250,4,2,1,65,0,0
246605,-62.5,4,2,1,65,0,0
246629,-250,4,2,1,65,0,0
246654,-62.5,4,2,1,65,0,0
246678,-250,4,2,1,65,0,0
246703,-62.5,4,2,1,65,0,0
246727,-250,4,2,1,65,0,0
246752,-33.3333333333333,4,2,1,65,0,0
246801,-200,4,2,1,65,0,0
246948,-100,4,2,1,65,0,0
247340,-62.5,4,2,1,65,0,0
247364,-250,4,2,1,65,0,0
247389,-62.5,4,2,1,65,0,0
247413,-250,4,2,1,65,0,0
247438,-62.5,4,2,1,65,0,0
247462,-250,4,2,1,65,0,0
247487,-62.5,4,2,1,65,0,0
247511,-250,4,2,1,65,0,0
247536,-100,4,2,1,65,0,0
248516,-62.5,4,2,1,65,0,0
248541,-250,4,2,1,65,0,0
248565,-62.5,4,2,1,65,0,0
248590,-250,4,2,1,65,0,0
248614,-62.5,4,2,1,65,0,0
248639,-250,4,2,1,65,0,0
248663,-62.5,4,2,1,65,0,0
248688,-250,4,2,1,65,0,0
248712,-100,4,2,1,65,0,0
248909,-66.6666666666667,4,2,1,65,0,0
248958,-200,4,2,1,65,0,0
249007,-100,4,2,1,65,0,0
249203,-58.8235294117647,4,2,1,65,0,0
249252,-333.333333333333,4,2,1,65,0,0
249301,-58.8235294117647,4,2,1,65,0,0
249350,-333.333333333333,4,2,1,65,0,0
249399,-100,4,2,1,65,0,0
249497,-33.3333333333333,4,2,1,65,0,0
249546,-200,4,2,1,65,0,0
249693,-100,4,2,1,65,0,0
249889,-62.5,4,2,1,65,0,0
249913,-250,4,2,1,65,0,0
249938,-62.5,4,2,1,65,0,0
249962,-250,4,2,1,65,0,0
249987,-62.5,4,2,1,65,0,0
250011,-250,4,2,1,65,0,0
250036,-62.5,4,2,1,65,0,0
250061,-250,4,2,1,65,0,0
250085,-62.5,4,2,1,65,0,0
250134,-250,4,2,1,65,0,0
250183,-62.5,4,2,1,65,0,0
250232,-250,4,2,1,65,0,0
250281,-62.5,4,2,1,65,0,0
250306,-250,4,2,1,65,0,0
250330,-62.5,4,2,1,65,0,0
250355,-250,4,2,1,65,0,0
250379,-62.5,4,2,1,65,0,0
250404,-250,4,2,1,65,0,0
250428,-62.5,4,2,1,65,0,0
250453,-250,4,2,1,65,0,0
250477,-62.5,4,2,1,65,0,0
250526,-250,4,2,1,65,0,0
250575,-62.5,4,2,1,65,0,0
250624,-250,4,2,1,65,0,0
250673,-45.4545454545455,4,2,1,65,0,0
250706,-166.666666666667,4,2,1,65,0,0
250804,-45.4545454545455,4,2,1,65,0,0
250837,-166.666666666667,4,2,1,65,0,0
250935,-45.4545454545455,4,2,1,65,0,0
250968,-166.666666666667,4,2,1,65,0,0
251066,-45.4545454545455,4,2,1,65,0,0
251098,-166.666666666667,4,2,1,65,0,0
251196,-45.4545454545455,4,2,1,65,0,0
251229,-166.666666666667,4,2,1,65,0,0
251327,-45.4545454545455,4,2,1,65,0,0
251360,-166.666666666667,4,2,1,65,0,0
251450,-100,4,2,1,65,0,0
253026,-33.3333333333333,4,2,1,65,0,0
253075,-200,4,2,1,65,0,0
253222,-100,4,2,1,65,0,0
253614,-62.5,4,2,1,65,0,0
253663,-250.000000000001,4,2,1,65,0,0
253712,-62.5,4,2,1,65,0,0
253761,-250.000000000001,4,2,1,65,0,0
253811,-62.5,4,2,1,65,0,0
253860,-250,4,2,1,65,0,0
253909,-100,4,2,1,65,0,0
254105,-62.5,4,2,1,65,0,0
254154,-250.000000000001,4,2,1,65,0,0
254203,-100,4,2,1,65,0,0
254301,-62.5,4,2,1,65,0,0
254350,-250,4,2,1,65,0,0
254399,-62.5,4,2,1,65,0,0
254448,-250.000000000001,4,2,1,65,0,0
254497,-100,4,2,1,65,0,0
254595,-62.5,4,2,1,65,0,0
254644,-250.000000000001,4,2,1,65,0,0
254693,-100,4,2,1,65,0,0
254889,-62.5,4,2,1,65,0,0
254938,-250,4,2,1,65,0,0
254987,-100,4,2,1,65,0,0
255085,-62.5,4,2,1,65,0,0
255134,-250.000000000001,4,2,1,65,0,0
255183,-100,4,2,1,65,0,0
255379,-62.5,4,2,1,65,0,0
255428,-250,4,2,1,65,0,0
255477,-62.5,4,2,1,65,0,0
255526,-250.000000000001,4,2,1,65,0,0
255575,-100,4,2,1,65,0,0
255673,-62.5,4,2,1,65,0,0
255722,-250.000000000001,4,2,1,65,0,0
255771,-100,4,2,1,65,0,0
255869,-62.5,4,2,1,65,0,0
255918,-250.000000000001,4,2,1,65,0,0
255967,-100,4,2,1,65,0,0
256163,-33.3333333333333,4,2,1,65,0,0
256212,-200,4,2,1,65,0,0
256360,-100,4,2,1,65,0,0
256460,-62.5,4,2,1,65,0,0
256507,-250,4,2,1,65,0,0
256556,-100,4,2,1,65,0,0
256752,-62.5,4,2,1,65,0,0
256801,-250.000000000001,4,2,1,65,0,0
256850,-62.5,4,2,1,65,0,0
256899,-250.000000000001,4,2,1,65,0,0
256948,-62.5,4,2,1,65,0,0
256997,-250.000000000001,4,2,1,65,0,0
257046,-100,4,2,1,65,0,0
257242,-62.5,4,2,1,65,0,0
257291,-250.000000000001,4,2,1,65,0,0
257340,-100,4,2,1,65,0,0
257438,-62.5,4,2,1,65,0,0
257487,-250,4,2,1,65,0,0
257536,-62.5,4,2,1,65,0,0
257585,-250.000000000001,4,2,1,65,0,0
257634,-100,4,2,1,65,0,0
257732,-62.5,4,2,1,65,0,0
257781,-250.000000000001,4,2,1,65,0,0
257830,-100,4,2,1,65,0,0
258026,-62.5,4,2,1,65,0,0
258075,-250,4,2,1,65,0,0
258124,-100,4,2,1,65,0,0
258222,-62.5,4,2,1,65,0,0
258271,-250,4,2,1,65,0,0
258320,-100,4,2,1,65,0,0
258418,-55.5555555555556,4,2,1,65,0,0
258443,-500,4,2,1,65,0,0
258467,-55.5555555555556,4,2,1,65,0,0
258492,-500,4,2,1,65,0,0
258516,-100,4,2,1,65,0,0
258614,-55.5555555555556,4,2,1,65,0,0
258663,-500,4,2,1,65,0,0
258712,-55.5555555555556,4,2,1,65,0,0
258761,-500,4,2,1,65,0,0
258811,-55.5555555555556,4,2,1,65,0,0
258860,-500,4,2,1,65,0,0
258909,-55.5555555555556,4,2,1,65,0,0
258958,-500,4,2,1,65,0,0
259007,-55.5555555555556,4,2,1,65,0,0
259056,-500,4,2,1,65,0,0
259105,-55.5555555555556,4,2,1,65,0,0
259154,-500,4,2,1,65,0,0
259203,-55.5555555555556,4,2,1,65,0,0
259252,-500,4,2,1,65,0,0
259301,-33.3333333333333,4,2,1,65,0,0
259350,-200,4,2,1,65,0,0
259497,-100,4,2,1,65,0,0
259595,-55.5555555555556,4,2,1,65,0,0
259619,-500,4,2,1,65,0,0
259644,-55.5555555555556,4,2,1,65,0,0
259668,-500,4,2,1,65,0,0
259693,-62.5,4,2,1,65,0,0
259742,-250.000000000001,4,2,1,65,0,0
259791,-62.5,4,2,1,65,0,0
259840,-250.000000000001,4,2,1,65,0,0
259889,-62.5,4,2,1,65,0,0
259938,-250.000000000001,4,2,1,65,0,0
259987,-100,4,2,1,65,0,0
260085,-62.5,4,2,1,65,0,0
260134,-250.000000000001,4,2,1,65,0,0
260183,-62.5,4,2,1,65,0,0
260232,-250.000000000001,4,2,1,65,0,0
260281,-62.5,4,2,1,65,0,0
260330,-250.000000000001,4,2,1,65,0,0
260379,-62.5,4,2,1,65,0,0
260428,-250.000000000001,4,2,1,65,0,0
260477,-62.5,4,2,1,65,0,0
260526,-250.000000000001,4,2,1,65,0,0
260575,-100,4,2,1,65,0,0
260624,-55.5555555555556,4,2,1,65,0,0
260649,-500,4,2,1,65,0,0
260673,-62.5,4,2,1,65,0,0
260698,-250,4,2,1,65,0,0
260722,-100,4,2,1,65,0,0
260771,-62.5,4,2,1,65,0,0
260820,-250.000000000001,4,2,1,65,0,0
260869,-62.5,4,2,1,65,0,0
260918,-250.000000000001,4,2,1,65,0,0
260967,-62.5,4,2,1,65,0,0
261016,-250.000000000001,4,2,1,65,0,0
261065,-62.5,4,2,1,65,0,0
261114,-250.000000000001,4,2,1,65,0,0
261163,-55.5555555555556,4,2,1,65,0,0
261188,-500,4,2,1,65,0,0
261212,-55.5555555555556,4,2,1,65,0,0
261237,-500,4,2,1,65,0,0
261261,-62.5,4,2,1,65,0,0
261311,-250,4,2,1,65,0,0
261360,-62.5,4,2,1,65,0,0
261409,-250,4,2,1,65,0,0
261458,-100,4,2,1,65,0,0
261556,-55.5555555555556,4,2,1,65,0,0
261580,-500,4,2,1,65,0,0
261605,-55.5555555555556,4,2,1,65,0,0
261629,-500,4,2,1,65,0,0
261654,-62.5,4,2,1,65,0,0
261703,-250,4,2,1,65,0,0
261752,-100,4,2,1,65,0,0
261850,-62.5,4,2,1,65,0,0
261899,-250,4,2,1,65,0,0
261948,-55.5555555555556,4,2,1,65,0,0
261972,-500,4,2,1,65,0,0
261997,-55.5555555555556,4,2,1,65,0,0
262021,-500,4,2,1,65,0,0
262046,-62.5,4,2,1,65,0,0
262095,-250,4,2,1,65,0,0
262144,-55.5555555555556,4,2,1,65,0,0
262168,-500,4,2,1,65,0,0
262193,-55.5555555555556,4,2,1,65,0,0
262217,-500,4,2,1,65,0,0
262242,-62.5,4,2,1,65,0,0
262291,-250,4,2,1,65,0,0
262340,-55.5555555555556,4,2,1,65,0,0
262364,-500,4,2,1,65,0,0
262389,-55.5555555555556,4,2,1,65,0,0
262413,-500,4,2,1,65,0,0
262438,-33.3333333333333,4,2,1,65,0,0
262487,-200,4,2,1,65,0,0
262634,-100,4,2,1,65,0,0
262732,-55.5555555555556,4,2,1,65,0,0
262757,-500,4,2,1,65,0,0
262781,-55.5555555555556,4,2,1,65,0,0
262806,-500,4,2,1,65,0,0
262830,-62.5,4,2,1,65,0,0
262879,-250.000000000001,4,2,1,65,0,0
262928,-62.5,4,2,1,65,0,0
262977,-250.000000000001,4,2,1,65,0,0
263026,-62.5,4,2,1,65,0,0
263075,-250.000000000001,4,2,1,65,0,0
263124,-100,4,2,1,65,0,0
263222,-62.5,4,2,1,65,0,0
263271,-250,4,2,1,65,0,0
263320,-62.5,4,2,1,65,0,0
263369,-250.000000000001,4,2,1,65,0,0
263418,-62.5,4,2,1,65,0,0
263467,-250.000000000001,4,2,1,65,0,0
263516,-62.5,4,2,1,65,0,0
263565,-250.000000000001,4,2,1,65,0,0
263614,-62.5,4,2,1,65,0,0
263663,-250.000000000001,4,2,1,65,0,0
263712,-55.5555555555556,4,2,1,65,0,0
263737,-500,4,2,1,65,0,0
263761,-55.5555555555556,4,2,1,65,0,0
263786,-500,4,2,1,65,0,0
263811,-62.5,4,2,1,65,0,0
263860,-250.000000000001,4,2,1,65,0,0
263909,-62.5,4,2,1,65,0,0
263958,-250.000000000001,4,2,1,65,0,0
264007,-62.5,4,2,1,65,0,0
264056,-250.000000000001,4,2,1,65,0,0
264105,-62.5,4,2,1,65,0,0
264154,-250.000000000001,4,2,1,65,0,0
264203,-62.5,4,2,1,65,0,0
264252,-250.000000000001,4,2,1,65,0,0
264301,-55.5555555555556,4,2,1,65,0,0
264325,-500,4,2,1,65,0,0
264350,-55.5555555555556,4,2,1,65,0,0
264374,-500,4,2,1,65,0,0
264399,-62.5,4,2,1,65,0,0
264448,-250,4,2,1,65,0,0
264497,-62.5,4,2,1,65,0,0
264546,-250,4,2,1,65,0,0
264644,-100,4,2,1,65,0,0
264693,-55.5555555555556,4,2,1,65,0,0
264717,-500,4,2,1,65,0,0
264742,-55.5555555555556,4,2,1,65,0,0
264766,-500,4,2,1,65,0,0
264791,-100,4,2,1,65,0,0
264987,-71.4285714285714,4,2,1,65,0,0
265036,-166.666666666667,4,2,1,65,0,0
265085,-71.4285714285714,4,2,1,65,0,0
265134,-166.666666666667,4,2,1,65,0,0
265183,-76.9230769230769,4,2,1,65,0,0
265232,-142.857142857143,4,2,1,65,0,0
265281,-76.9230769230769,4,2,1,65,0,0
265330,-142.857142857143,4,2,1,65,0,0
265379,-83.3333333333333,4,2,1,65,0,0
265428,-125,4,2,1,65,0,0
265477,-83.3333333333333,4,2,1,65,0,0
265526,-125,4,2,1,65,0,0
265575,-200,4,2,1,65,0,0

[HitObjects]
64,192,870,128,0,1654:0:0:0:0:
192,192,1654,1,0,0:0:0:0:
448,192,1719,1,0,0:0:0:0:
64,192,1785,1,0,0:0:0:0:
320,192,1850,1,0,0:0:0:0:
192,192,1948,1,0,0:0:0:0:
320,192,2046,1,0,0:0:0:0:
448,192,2046,128,0,3615:0:0:0:50:bassK.wav
64,192,2046,1,0,0:0:0:0:
192,192,2242,1,0,0:0:0:0:
192,192,3615,128,0,5183:0:0:0:0:
448,192,5183,128,0,6556:0:0:0:0:
64,192,5183,1,0,0:0:0:0:
320,192,5772,1,0,0:0:0:0:
192,192,5837,1,0,0:0:0:0:
64,192,5902,1,0,0:0:0:0:
320,192,5968,1,0,0:0:0:0:
192,192,6556,1,0,0:0:0:0:
320,192,6621,1,0,0:0:0:0:
448,192,6687,1,0,0:0:0:0:
192,192,6752,1,0,0:0:0:0:
64,192,6752,128,0,8321:0:0:0:0:
192,192,7340,1,0,0:0:0:0:
320,192,7406,1,0,0:0:0:0:
448,192,7471,1,0,0:0:0:0:
192,192,7536,1,0,0:0:0:0:
448,192,7928,128,0,8321:0:0:0:0:
192,192,8321,1,0,0:0:0:70:normal-hitwhistle4.wav
320,192,8321,1,0,0:0:0:0:
64,192,8517,1,0,0:0:0:0:
448,192,8713,1,0,0:0:0:0:
320,192,8713,1,0,0:0:0:70:normal-hitwhistle4.wav
448,192,8909,1,0,0:0:0:0:
64,192,9105,1,0,0:0:0:0:
192,192,9105,1,0,0:0:0:70:normal-hitwhistle4.wav
64,192,9301,1,0,0:0:0:0:
448,192,9399,1,0,0:0:0:70:normal-hitwhistle4.wav
192,192,9399,1,0,0:0:0:0:
320,192,9497,1,0,0:0:0:0:
448,192,9497,1,0,0:0:0:70:normal-hitwhistle4.wav
64,192,9693,1,0,0:0:0:70:normal-hitwhistle4.wav
192,192,9693,1,0,0:0:0:0:
448,192,9889,1,0,0:0:0:0:
64,192,9889,1,0,0:0:0:70:normal-hitwhistle4.wav
448,192,10085,1,0,0:0:0:0:
192,192,10281,1,0,0:0:0:0:
320,192,10281,1,0,0:0:0:70:normal-hitwhistle4.wav
192,192,10478,1,0,0:0:0:0:
448,192,10674,1,0,0:0:0:70:normal-hitwhistle4.wav
64,192,10674,1,0,0:0:0:0:
448,192,10870,1,0,0:0:0:0:
192,192,11066,1,0,0:0:0:70:normal-hitwhistle4.wav
320,192,11066,1,0,0:0:0:0:
320,192,11262,1,0,0:0:0:0:
192,192,11262,1,0,0:0:0:70:normal-hitwhistle4.wav
64,192,11458,1,0,0:0:0:70:normal-hitwhistle4.wav
448,192,11458,1,0,0:0:0:0:
448,192,11654,1,0,0:0:0:0:
64,192,11850,1,0,0:0:0:0:
192,192,11850,1,0,0:0:0:70:normal-hitwhistle4.wav
64,192,12046,1,0,0:0:0:0:
448,192,12242,1,0,0:0:0:0:
320,192,12242,1,0,0:0:0:70:normal-hitwhistle4.wav
448,192,12438,1,0,0:0:0:0:
320,192,12536,1,0,0:0:0:0:
64,192,12536,1,0,0:0:0:70:normal-hitwhistle4.wav
192,192,12634,1,0,0:0:0:0:
64,192,12634,1,0,0:0:0:70:normal-hitwhistle4.wav
320,192,12830,1,0,0:0:0:70:normal-hitwhistle4.wav
448,192,12830,1,0,0:0:0:0:
64,192,13027,1,0,0:0:0:0:
320,192,13027,1,0,0:0:0:70:normal-hitwhistle4.wav
192,192,13223,1,0,0:0:0:0:
448,192,13419,1,0,0:0:0:70:normal-hitwhistle4.wav
64,192,13419,1,0,0:0:0:0:
448,192,13615,1,0,0:0:0:0:
64,192,13811,128,0,14595:0:0:0:0:
192,192,13811,1,0,0:0:0:70:normal-hitwhistle4.wav
448,192,14007,1,0,0:0:0:0:
192,192,14203,1,0,0:0:0:0:
320,192,14203,1,0,0:0:0:70:Snare 7.wav
320,192,14399,1,0,0:0:0:70:normal-hitwhistle4.wav
448,192,14399,1,0,0:0:0:0:
192,192,14595,1,0,0:0:0:0:
448,192,14595,1,2,0:0:0:0:
320,192,14595,1,0,0:0:0:0:
64,192,14791,1,0,0:0:0:0:
448,192,14987,1,0,0:0:0:0:
320,192,14987,1,0,0:0:0:70:Snare 7.wav
192,192,14987,1,0,0:0:0:0:
320,192,15183,1,0,0:0:0:0:
64,192,15379,1,0,0:0:0:0:
448,192,15379,1,2,0:0:0:0:
192,192,15576,1,0,0:0:0:0:
448,192,15674,1,2,0:0:0:0:
64,192,15674,1,0,0:0:0:0:
320,192,15772,1,0,0:0:0:70:Snare 7.wav
448,192,15772,1,0,0:0:0:0:
192,192,15772,1,0,0:0:0:0:
192,192,15968,1,2,0:0:0:0:
448,192,15968,1,0,0:0:0:0:
64,192,16164,1,2,0:0:0:0:
320,192,16164,1,0,0:0:0:0:
448,192,16360,1,0,0:0:0:0:
192,192,16556,1,0,0:0:0:0:
64,192,16556,1,0,0:0:0:70:Snare 7.wav
448,192,16556,1,0,0:0:0:0:
320,192,16752,1,0,0:0:0:0:
320,192,16948,1,0,0:0:0:0:
192,192,16948,1,2,0:0:0:0:
64,192,17144,1,0,0:0:0:0:
64,192,17340,1,0,0:0:0:70:Snare 7.wav
448,192,17340,1,0,0:0:0:0:
320,192,17340,1,0,0:0:0:0:
192,192,17536,1,2,0:0:0:0:
320,192,17536,1,0,0:0:0:0:
192,192,17732,1,0,0:0:0:0:
448,192,17732,1,2,0:0:0:0:
64,192,17928,1,0,0:0:0:0:
64,192,18125,1,0,0:0:0:0:
192,192,18125,1,0,0:0:0:0:
320,192,18125,1,0,0:0:0:70:Snare 7.wav
448,192,18321,1,0,0:0:0:0:
448,192,18517,1,2,0:0:0:0:
64,192,18517,1,0,0:0:0:0:
320,192,18713,1,0,0:0:0:0:
192,192,18811,1,0,0:0:0:0:
448,192,18811,1,2,0:0:0:0:
320,192,18909,1,0,0:0:0:70:Snare 7.wav
448,192,18909,1,0,0:0:0:0:
64,192,18909,1,0,0:0:0:0:
192,192,19105,1,2,0:0:0:0:
64,192,19105,1,0,0:0:0:0:
448,192,19301,1,0,0:0:0:0:
320,192,19301,1,2,0:0:0:0:
192,192,19497,1,0,0:0:0:0:
64,192,19693,1,0,0:0:0:70:Snare 7.wav
192,192,19693,1,0,0:0:0:0:
448,192,19693,1,0,0:0:0:0:
320,192,19889,1,0,0:0:0:0:
320,192,20085,1,2,0:0:0:0:
64,192,20085,1,0,0:0:0:0:
448,192,20281,1,0,0:0:0:0:
448,192,20478,1,0,0:0:0:70:Snare 7.wav
320,192,20478,1,0,0:0:0:0:
64,192,20478,1,0,0:0:0:0:
320,192,20674,1,0,0:0:0:0:
192,192,20674,1,2,0:0:0:0:
64,192,20870,1,0,0:0:0:0:
192,192,20870,1,2,0:0:0:0:
448,192,21066,1,0,0:0:0:0:
448,192,21262,1,0,0:0:0:0:
64,192,21262,1,0,0:0:0:70:Snare 7.wav
320,192,21262,1,0,0:0:0:0:
192,192,21458,1,0,0:0:0:0:
192,192,21654,1,0,0:0:0:0:
64,192,21654,1,2,0:0:0:0:
448,192,21850,1,0,0:0:0:0:
64,192,21948,1,0,0:0:0:0:
320,192,21948,1,2,0:0:0:0:
64,192,22046,1,0,0:0:0:0:
192,192,22046,1,0,0:0:0:70:Snare 7.wav
448,192,22046,1,0,0:0:0:0:
448,192,22242,1,2,0:0:0:0:
320,192,22242,1,0,0:0:0:0:
64,192,22438,1,0,0:0:0:0:
192,192,22438,1,2,0:0:0:0:
448,192,22634,1,0,0:0:0:0:
448,192,22830,1,0,0:0:0:0:
192,192,22830,1,0,0:0:0:70:Snare 7.wav
64,192,22830,1,0,0:0:0:0:
320,192,23027,1,0,0:0:0:0:
320,192,23223,1,2,0:0:0:0:
64,192,23223,1,0,0:0:0:0:
64,192,23419,1,0,0:0:0:0:
320,192,23615,1,0,0:0:0:70:Snare 7.wav
448,192,23615,1,0,0:0:0:0:
192,192,23615,1,0,0:0:0:0:
192,192,23811,1,2,0:0:0:0:
64,192,23811,1,0,0:0:0:0:
448,192,24007,5,0,0:0:0:70:Snare 7.wav
320,192,24007,1,0,0:0:0:0:
64,192,24007,1,2,0:0:0:0:
320,192,24203,1,2,0:0:0:0:
192,192,24203,1,0,0:0:0:0:
192,192,24399,1,0,0:0:0:0:
448,192,24399,1,0,0:0:0:70:Snare 7.wav
64,192,24399,1,2,0:0:0:0:
320,192,24595,1,0,0:0:0:0:
448,192,24595,1,2,0:0:0:0:
64,192,24791,5,0,0:0:0:70:Snare 7.wav
192,192,24791,1,2,0:0:0:0:
320,192,24889,1,2,0:0:0:0:
448,192,24889,1,0,0:0:0:0:
192,192,24987,1,2,0:0:0:0:
64,192,24987,1,0,0:0:0:0:
320,192,25085,1,2,0:0:0:0:
448,192,25085,1,0,0:0:0:0:
192,192,25183,1,2,0:0:0:0:
64,192,25183,1,0,0:0:0:70:Snare 7.wav
320,192,25281,1,2,0:0:0:0:
448,192,25281,1,0,0:0:0:0:
192,192,25379,1,2,0:0:0:0:
64,192,25379,1,0,0:0:0:0:
320,192,25478,1,2,0:0:0:0:
448,192,25478,1,0,0:0:0:0:
64,192,25576,1,0,0:0:0:35:LR4_KickSWHBD.wav
448,192,25625,1,0,0:0:0:35:LR4_KickSWHBD.wav
192,192,25674,1,0,0:0:0:35:LR4_KickSWHBD.wav
320,192,25723,1,0,0:0:0:35:LR4_KickSWHBD.wav
64,192,25772,1,0,0:0:0:35:LR4_KickSWHBD.wav
448,192,25821,1,0,0:0:0:35:LR4_KickSWHBD.wav
192,192,25870,1,0,0:0:0:35:LR4_KickSWHBD.wav
320,192,25919,1,0,0:0:0:35:LR4_KickSWHBD.wav
64,192,25968,1,0,0:0:0:35:LR4_KickSWHBD.wav
192,192,26017,1,0,0:0:0:35:LR4_KickSWHBD.wav
448,192,26066,1,0,0:0:0:35:LR4_KickSWHBD.wav
320,192,26115,1,0,0:0:0:35:LR4_KickSWHBD.wav
192,192,26164,1,0,0:0:0:35:LR4_KickSWHBD.wav
448,192,26213,1,0,0:0:0:35:LR4_KickSWHBD.wav
64,192,26262,1,0,0:0:0:35:LR4_KickSWHBD.wav
320,192,26311,1,0,0:0:0:35:LR4_KickSWHBD.wav
192,192,26360,1,0,0:0:0:35:LR4_KickSWHBD.wav
448,192,26409,1,0,0:0:0:35:LR4_KickSWHBD.wav
64,192,26458,1,0,0:0:0:35:LR4_KickSWHBD.wav
320,192,26507,1,0,0:0:0:35:LR4_KickSWHBD.wav
192,192,26556,1,0,0:0:0:35:LR4_KickSWHBD.wav
64,192,26605,1,0,0:0:0:35:LR4_KickSWHBD.wav
448,192,26654,1,0,0:0:0:35:LR4_KickSWHBD.wav
320,192,26703,1,0,0:0:0:35:LR4_KickSWHBD.wav
64,192,26752,1,0,0:0:0:0:
192,192,26752,1,2,0:0:0:0:
448,192,27144,1,0,0:0:0:0:
320,192,27144,1,0,0:0:0:0:
192,192,27144,1,0,0:0:0:0:
64,192,27144,1,0,0:0:0:35:bassK.wav
192,192,27536,1,0,0:0:0:0:
192,192,27928,1,0,0:0:0:0:
192,192,28321,1,0,0:0:0:0:
192,192,28713,1,0,0:0:0:0:
192,192,29105,1,0,0:0:0:0:
320,192,29497,1,0,0:0:0:0:
320,192,29889,1,0,0:0:0:0:
320,192,30281,1,0,0:0:0:0:
320,192,30674,1,0,0:0:0:0:
320,192,31066,1,0,0:0:0:0:
448,192,31164,1,0,0:0:0:0:
192,192,31262,1,0,0:0:0:0:
320,192,31360,1,0,0:0:0:0:
64,192,31458,1,0,0:0:0:0:
192,192,31556,1,0,0:0:0:0:
448,192,31654,1,0,0:0:0:0:
320,192,31752,1,0,0:0:0:0:
64,192,31850,1,0,0:0:0:0:
192,192,31948,1,0,0:0:0:0:
320,192,32046,1,0,0:0:0:0:
64,192,32144,1,0,0:0:0:0:
448,192,32242,1,0,0:0:0:0:
192,192,32340,1,0,0:0:0:0:
320,192,32438,1,0,0:0:0:0:
64,192,32536,1,0,0:0:0:0:
448,192,32634,1,0,0:0:0:0:
320,192,32732,1,0,0:0:0:0:
192,192,32830,1,0,0:0:0:0:
64,192,32928,1,0,0:0:0:0:
448,192,33027,128,0,33321:0:0:0:50:BassL.wav
320,192,33027,128,2,33321:0:0:0:0:
192,192,33027,128,0,33321:0:0:0:0:
64,192,33419,1,0,0:0:0:50:bassK.wav
320,192,33419,1,8,0:0:0:0:
448,192,33419,1,0,0:0:0:0:
192,192,33517,1,0,0:0:0:0:
320,192,33615,1,0,0:0:0:0:
64,192,33713,1,0,0:0:0:0:
448,192,33811,1,0,0:0:0:0:
320,192,33909,1,0,0:0:0:0:
64,192,34007,1,0,0:0:0:0:
192,192,34105,1,0,0:0:0:0:
448,192,34203,1,0,0:0:0:0:
192,192,34301,1,0,0:0:0:0:
320,192,34399,1,0,0:0:0:0:
64,192,34497,1,0,0:0:0:0:
448,192,34595,1,0,0:0:0:0:
320,192,34693,1,0,0:0:0:0:
192,192,34791,1,0,0:0:0:0:
448,192,34889,1,0,0:0:0:0:
64,192,34987,1,0,0:0:0:0:
320,192,35085,1,0,0:0:0:0:
192,192,35183,1,0,0:0:0:0:
64,192,35281,1,0,0:0:0:0:
448,192,35379,1,0,0:0:0:0:
192,192,35478,1,0,0:0:0:0:
320,192,35576,1,0,0:0:0:0:
64,192,35674,1,0,0:0:0:0:
448,192,35772,1,0,0:0:0:0:
192,192,35870,1,0,0:0:0:0:
320,192,35968,1,0,0:0:0:0:
448,192,36066,1,0,0:0:0:0:
64,192,36164,1,0,0:0:0:0:
320,192,36262,1,0,0:0:0:0:
192,192,36360,1,0,0:0:0:0:
448,192,36458,1,0,0:0:0:0:
320,192,36556,1,0,0:0:0:0:
64,192,36654,1,0,0:0:0:0:
192,192,36752,1,0,0:0:0:0:
448,192,36850,1,0,0:0:0:0:
64,192,36948,1,0,0:0:0:0:
320,192,37046,1,0,0:0:0:0:
192,192,37144,1,0,0:0:0:0:
448,192,37242,1,0,0:0:0:0:
320,192,37340,1,0,0:0:0:0:
64,192,37438,1,0,0:0:0:0:
192,192,37536,1,0,0:0:0:0:
320,192,37634,1,0,0:0:0:0:
64,192,37732,1,0,0:0:0:0:
448,192,37830,1,0,0:0:0:0:
320,192,37928,1,0,0:0:0:0:
192,192,38027,1,0,0:0:0:0:
64,192,38125,1,0,0:0:0:0:
320,192,38125,1,8,0:0:0:0:
448,192,38125,1,2,0:0:0:0:
320,192,38419,1,8,0:0:0:0:
448,192,38419,1,2,0:0:0:0:
64,192,38419,1,0,0:0:0:0:
448,192,38713,1,0,0:0:0:0:
192,192,38713,1,8,0:0:0:0:
64,192,38713,1,2,0:0:0:0:
320,192,38811,1,2,0:0:0:0:
448,192,38811,1,8,0:0:0:0:
192,192,38909,128,0,39301:0:0:0:0:
64,192,38909,128,2,39301:0:0:0:0:
320,192,39007,128,0,39595:0:0:0:0:
448,192,39105,128,0,39595:0:0:0:0:
64,192,39399,128,0,39595:0:0:0:0:
192,192,39399,128,0,39595:0:0:0:0:
64,192,39693,1,0,0:0:0:50:bassK.wav
192,192,39693,1,0,0:0:0:0:
448,192,39693,1,0,0:0:0:0:
320,192,39791,1,0,0:0:0:0:
448,192,39889,1,0,0:0:0:0:
64,192,39889,1,0,0:0:0:0:
192,192,39987,1,0,0:0:0:0:
320,192,40085,1,0,0:0:0:0:
448,192,40085,1,0,0:0:0:0:
192,192,40183,1,0,0:0:0:0:
64,192,40281,1,0,0:0:0:0:
320,192,40281,1,0,0:0:0:0:
448,192,40379,1,0,0:0:0:0:
192,192,40478,1,0,0:0:0:0:
320,192,40478,1,0,0:0:0:0:
64,192,40576,1,0,0:0:0:0:
448,192,40674,1,0,0:0:0:0:
320,192,40674,1,0,0:0:0:0:
192,192,40772,1,0,0:0:0:0:
64,192,40870,1,0,0:0:0:0:
448,192,40870,1,0,0:0:0:0:
320,192,40968,1,0,0:0:0:0:
192,192,41066,1,0,0:0:0:0:
64,192,41066,1,0,0:0:0:0:
320,192,41164,1,0,0:0:0:0:
448,192,41262,1,0,0:0:0:0:
192,192,41262,1,0,0:0:0:0:
64,192,41360,1,0,0:0:0:0:
320,192,41458,1,0,0:0:0:0:
448,192,41458,1,0,0:0:0:0:
192,192,41556,1,0,0:0:0:0:
64,192,41654,1,0,0:0:0:0:
320,192,41654,1,0,0:0:0:0:
448,192,41752,1,0,0:0:0:0:
192,192,41850,1,0,0:0:0:0:
64,192,41850,1,0,0:0:0:0:
320,192,41948,1,0,0:0:0:0:
448,192,42046,1,0,0:0:0:0:
64,192,42046,1,0,0:0:0:0:
192,192,42144,1,0,0:0:0:0:
320,192,42242,1,0,0:0:0:0:
64,192,42242,1,0,0:0:0:0:
448,192,42340,1,0,0:0:0:0:
192,192,42438,1,0,0:0:0:0:
64,192,42438,1,0,0:0:0:0:
320,192,42536,1,0,0:0:0:0:
192,192,42634,1,0,0:0:0:0:
448,192,42634,1,0,0:0:0:0:
448,192,42732,1,0,0:0:0:0:
448,192,42830,1,0,0:0:0:0:
64,192,42830,1,0,0:0:0:0:
192,192,42928,1,0,0:0:0:0:
448,192,43027,1,0,0:0:0:0:
320,192,43027,1,0,0:0:0:0:
192,192,43125,1,0,0:0:0:0:
64,192,43223,1,0,0:0:0:0:
448,192,43223,1,0,0:0:0:0:
320,192,43321,1,0,0:0:0:0:
192,192,43419,1,0,0:0:0:0:
64,192,43419,1,0,0:0:0:0:
320,192,43517,1,0,0:0:0:0:
448,192,43615,1,0,0:0:0:0:
64,192,43615,1,0,0:0:0:0:
192,192,43713,1,0,0:0:0:0:
320,192,43811,1,0,0:0:0:0:
448,192,43811,1,0,0:0:0:0:
192,192,43909,1,0,0:0:0:0:
320,192,44007,1,0,0:0:0:0:
64,192,44007,1,0,0:0:0:0:
448,192,44105,1,0,0:0:0:0:
192,192,44203,1,0,0:0:0:0:
64,192,44203,1,0,0:0:0:0:
320,192,44301,1,0,0:0:0:0:
448,192,44399,1,0,0:0:0:0:
192,192,44399,1,0,0:0:0:0:
64,192,44497,1,0,0:0:0:0:
448,192,44595,1,0,0:0:0:0:
320,192,44595,1,0,0:0:0:0:
192,192,44693,1,0,0:0:0:0:
64,192,44791,1,0,0:0:0:0:
448,192,44791,1,0,0:0:0:0:
320,192,44889,1,0,0:0:0:0:
192,192,44987,1,0,0:0:0:0:
64,192,44987,1,0,0:0:0:0:
448,192,45085,1,0,0:0:0:0:
320,192,45183,1,0,0:0:0:0:
192,192,45183,1,0,0:0:0:0:
64,192,45281,1,0,0:0:0:0:
448,192,45379,1,0,0:0:0:0:
320,192,45379,1,0,0:0:0:0:
192,192,45478,1,0,0:0:0:0:
64,192,45576,1,0,0:0:0:0:
320,192,45576,1,0,0:0:0:0:
448,192,45674,1,0,0:0:0:0:
64,192,45772,1,0,0:0:0:0:
192,192,45772,1,0,0:0:0:0:
320,192,45870,1,0,0:0:0:0:
64,192,45968,1,0,0:0:0:0:
448,192,45968,1,2,0:0:0:0:
192,192,46017,1,0,0:0:0:0:
320,192,46066,1,0,0:0:0:0:
448,192,46115,1,0,0:0:0:0:
64,192,46164,1,0,0:0:0:0:
192,192,46213,1,0,0:0:0:0:
320,192,46262,1,0,0:0:0:0:
64,192,46311,1,0,0:0:0:0:
448,192,46360,1,0,0:0:0:0:
192,192,46409,1,0,0:0:0:0:
320,192,46458,1,0,0:0:0:0:
64,192,46507,1,0,0:0:0:0:
192,192,46556,1,0,0:0:0:0:
448,192,46605,1,0,0:0:0:0:
320,192,46654,1,0,0:0:0:0:
64,192,46703,1,0,0:0:0:0:
448,192,46752,1,0,0:0:0:0:
192,192,46801,1,0,0:0:0:0:
320,192,46850,1,0,0:0:0:0:
448,192,46899,1,0,0:0:0:0:
64,192,46948,1,0,0:0:0:0:
320,192,46997,1,0,0:0:0:0:
192,192,47046,1,0,0:0:0:0:
448,192,47095,1,0,0:0:0:0:
64,192,47144,1,0,0:0:0:0:
320,192,47193,1,0,0:0:0:0:
192,192,47242,1,0,0:0:0:0:
64,192,47291,1,0,0:0:0:0:
448,192,47340,1,0,0:0:0:0:
192,192,47389,1,0,0:0:0:0:
320,192,47438,1,0,0:0:0:0:
448,192,47487,1,0,0:0:0:0:
64,192,47536,1,0,0:0:0:0:
192,192,47585,1,0,0:0:0:0:
320,192,47634,1,0,0:0:0:0:
64,192,47683,1,0,0:0:0:0:
448,192,47732,1,0,0:0:0:0:
320,192,47781,1,0,0:0:0:0:
192,192,47830,1,0,0:0:0:0:
448,192,47879,1,0,0:0:0:0:
64,192,47928,1,0,0:0:0:0:
192,192,47978,1,0,0:0:0:0:
448,192,48027,1,0,0:0:0:0:
320,192,48076,1,0,0:0:0:0:
192,192,48125,1,0,0:0:0:0:
64,192,48174,1,0,0:0:0:0:
320,192,48223,1,0,0:0:0:0:
448,192,48272,1,0,0:0:0:0:
192,192,48321,1,0,0:0:0:0:
320,192,48370,1,0,0:0:0:0:
448,192,48419,1,0,0:0:0:0:
64,192,48468,1,0,0:0:0:0:
192,192,48517,1,0,0:0:0:0:
448,192,48566,1,0,0:0:0:0:
320,192,48615,1,0,0:0:0:0:
64,192,48664,1,0,0:0:0:0:
448,192,48713,1,0,0:0:0:0:
320,192,48762,1,0,0:0:0:0:
192,192,48811,1,0,0:0:0:0:
448,192,48860,1,0,0:0:0:0:
64,192,48909,1,0,0:0:0:0:
192,192,48958,1,0,0:0:0:0:
448,192,49007,1,0,0:0:0:0:
320,192,49056,1,0,0:0:0:0:
64,192,49105,1,8,0:0:0:0:
192,192,49105,1,2,0:0:0:0:
448,192,49154,1,0,0:0:0:0:
320,192,49203,1,0,0:0:0:0:
192,192,49252,1,0,0:0:0:0:
64,192,49301,1,0,0:0:0:0:
448,192,49350,1,0,0:0:0:0:
320,192,49399,1,8,0:0:0:0:
192,192,49399,1,2,0:0:0:0:
64,192,49448,1,0,0:0:0:0:
448,192,49497,1,0,0:0:0:0:
320,192,49546,1,0,0:0:0:0:
192,192,49595,1,0,0:0:0:0:
64,192,49644,1,0,0:0:0:0:
448,192,49693,1,8,0:0:0:0:
320,192,49693,1,2,0:0:0:0:
192,192,49742,1,0,0:0:0:0:
64,192,49791,1,0,0:0:0:0:
448,192,49840,1,0,0:0:0:0:
192,192,49889,1,8,0:0:0:0:
320,192,49889,1,2,0:0:0:0:
64,192,49938,1,0,0:0:0:0:
448,192,49987,1,0,0:0:0:0:
320,192,50036,1,0,0:0:0:0:
64,192,50085,1,0,0:0:0:0:
192,192,50134,1,0,0:0:0:0:
320,192,50183,1,0,0:0:0:0:
448,192,50232,1,0,0:0:0:0:
64,192,50281,1,0,0:0:0:0:
192,192,50330,1,0,0:0:0:0:
448,192,50379,1,0,0:0:0:0:
320,192,50428,1,0,0:0:0:0:
192,192,50478,1,0,0:0:0:0:
64,192,50527,1,0,0:0:0:0:
448,192,50576,1,0,0:0:0:0:
320,192,50625,1,0,0:0:0:0:
192,192,50674,1,8,0:0:0:0:
64,192,50674,128,2,51654:0:0:0:0:
448,192,51654,1,2,0:0:0:0:
320,192,52242,1,0,0:0:0:0:
64,192,52242,1,0,0:0:0:0:
192,192,52242,1,0,0:0:0:0:
448,192,52242,1,2,0:0:0:0:
448,192,52634,1,2,0:0:0:0:
192,192,52634,1,0,0:0:0:0:
64,192,52634,1,0,0:0:0:0:
320,192,52732,1,0,0:0:0:0:
192,192,52830,1,0,0:0:0:0:
448,192,52928,1,0,0:0:0:0:
64,192,52928,128,0,53027:0:0:0:0:
320,192,53027,1,0,0:0:0:0:
448,192,53027,1,2,0:0:0:0:
192,192,53027,1,0,0:0:0:0:
192,192,53125,1,0,0:0:0:0:
64,192,53223,1,0,0:0:0:0:
448,192,53321,1,0,0:0:0:0:
64,192,53419,128,2,53615:0:0:0:0:
448,192,53419,1,0,0:0:0:0:
192,192,53419,1,0,0:0:0:0:
320,192,53517,128,0,53615:0:0:0:0:
192,192,53615,128,0,53713:0:0:0:0:
448,192,53615,1,0,0:0:0:0:
320,192,53713,128,0,53811:0:0:0:0:
64,192,53811,1,0,0:0:0:0:
192,192,53811,1,2,0:0:0:0:
448,192,53909,1,0,0:0:0:0:
64,192,54007,1,0,0:0:0:0:
320,192,54105,1,0,0:0:0:0:
448,192,54105,1,0,0:0:0:0:
64,192,54203,128,2,54301:0:0:0:0:
192,192,54203,1,0,0:0:0:0:
320,192,54203,1,0,0:0:0:0:
448,192,54301,1,0,0:0:0:0:
320,192,54399,1,0,0:0:0:0:
192,192,54497,1,0,0:0:0:0:
192,192,54595,1,2,0:0:0:0:
448,192,54595,1,0,0:0:0:0:
64,192,54595,1,0,0:0:0:0:
320,192,54693,1,0,0:0:0:0:
320,192,54791,1,0,0:0:0:0:
64,192,54889,1,0,0:0:0:0:
448,192,54889,1,0,0:0:0:0:
192,192,54987,1,0,0:0:0:0:
320,192,54987,1,0,0:0:0:0:
64,192,54987,1,2,0:0:0:0:
320,192,55183,1,0,0:0:0:0:
448,192,55183,1,2,0:0:0:0:
192,192,55183,1,0,0:0:0:0:
448,192,55379,1,2,0:0:0:0:
192,192,55379,128,0,55576:0:0:0:0:
64,192,55379,128,0,55576:0:0:0:0:
448,192,55576,1,0,0:0:0:0:
320,192,55674,1,0,0:0:0:0:
192,192,55772,1,0,0:0:0:0:
64,192,55772,1,2,0:0:0:0:
448,192,55772,1,0,0:0:0:0:
320,192,55870,1,0,0:0:0:0:
192,192,55968,1,0,0:0:0:0:
448,192,56066,1,0,0:0:0:0:
64,192,56066,128,0,56164:0:0:0:0:
448,192,56164,1,2,0:0:0:0:
320,192,56164,1,0,0:0:0:0:
192,192,56164,1,0,0:0:0:0:
64,192,56262,1,0,0:0:0:0:
320,192,56360,1,0,0:0:0:0:
192,192,56458,1,0,0:0:0:0:
64,192,56458,1,0,0:0:0:0:
320,192,56556,128,0,56752:0:0:0:0:
64,192,56556,1,2,0:0:0:0:
448,192,56556,1,0,0:0:0:0:
192,192,56654,128,0,56752:0:0:0:0:
64,192,56752,128,0,56850:0:0:0:0:
448,192,56752,1,2,0:0:0:0:
192,192,56850,128,0,56948:0:0:0:0:
448,192,56948,1,2,0:0:0:0:
320,192,56948,1,0,0:0:0:0:
192,192,57144,1,0,0:0:0:0:
64,192,57144,1,0,0:0:0:0:
320,192,57340,1,0,0:0:0:0:
64,192,57340,1,0,0:0:0:0:
448,192,57340,1,2,0:0:0:0:
448,192,57536,1,0,0:0:0:0:
64,192,57536,1,0,0:0:0:0:
192,192,57634,1,0,0:0:0:0:
448,192,57732,128,0,58027:0:0:0:0:
64,192,57732,128,2,58027:0:0:0:0:
320,192,57732,128,0,57830:0:0:0:0:
192,192,57830,128,0,57928:0:0:0:0:
320,192,57928,128,0,58027:0:0:0:0:
448,192,58125,128,0,58419:0:0:0:0:
64,192,58125,128,2,58419:0:0:0:0:
192,192,58125,128,0,58223:0:0:0:0:
320,192,58223,128,0,58321:0:0:0:0:
192,192,58321,128,0,58419:0:0:0:0:
320,192,58517,1,2,0:0:0:0:
64,192,58517,1,0,0:0:0:0:
448,192,58517,1,0,0:0:0:0:
448,192,58713,1,0,0:0:0:0:
320,192,58811,1,0,0:0:0:0:
64,192,58811,1,0,0:0:0:0:
192,192,58909,1,8,0:0:0:0:
64,192,58909,1,0,0:0:0:0:
448,192,58909,1,0,0:0:0:0:
320,192,59007,1,0,0:0:0:0:
192,192,59105,1,0,0:0:0:0:
448,192,59203,1,0,0:0:0:0:
64,192,59203,128,0,59301:0:0:0:0:
192,192,59301,1,2,0:0:0:0:
320,192,59301,1,0,0:0:0:0:
448,192,59301,1,0,0:0:0:0:
64,192,59399,1,0,0:0:0:0:
320,192,59497,1,0,0:0:0:0:
192,192,59595,1,0,0:0:0:0:
320,192,59693,128,0,59889:0:0:0:0:
64,192,59693,1,8,0:0:0:0:
448,192,59693,1,0,0:0:0:0:
192,192,59791,128,0,59889:0:0:0:0:
64,192,59889,128,0,59987:0:0:0:0:
448,192,59889,1,0,0:0:0:0:
192,192,59987,128,0,60085:0:0:0:0:
320,192,60085,1,0,0:0:0:0:
448,192,60085,1,2,0:0:0:0:
64,192,60183,1,0,0:0:0:0:
320,192,60281,1,0,0:0:0:0:
64,192,60379,1,0,0:0:0:0:
192,192,60379,1,0,0:0:0:0:
64,192,60477,1,8,0:0:0:0:
320,192,60477,1,0,0:0:0:0:
448,192,60477,128,0,60576:0:0:0:0:
192,192,60576,1,0,0:0:0:0:
64,192,60674,1,0,0:0:0:0:
448,192,60772,1,0,0:0:0:0:
320,192,60772,1,0,0:0:0:0:
192,192,60870,1,0,0:0:0:0:
320,192,60870,1,2,0:0:0:0:
448,192,60870,1,0,0:0:0:0:
64,192,60968,1,0,0:0:0:0:
64,192,61066,1,0,0:0:0:0:
320,192,61164,1,0,0:0:0:0:
448,192,61164,1,0,0:0:0:0:
448,192,61262,1,0,0:0:0:0:
192,192,61262,1,8,0:0:0:0:
64,192,61262,1,0,0:0:0:0:
320,192,61458,1,0,0:0:0:0:
448,192,61458,1,0,0:0:0:0:
64,192,61458,1,2,0:0:0:0:
320,192,61654,128,0,61850:0:0:0:0:
448,192,61654,128,0,61850:0:0:0:0:
192,192,61654,1,2,0:0:0:0:
64,192,61850,1,0,0:0:0:0:
192,192,61948,1,0,0:0:0:0:
320,192,62046,1,0,0:0:0:0:
448,192,62046,1,8,0:0:0:0:
64,192,62046,1,0,0:0:0:0:
192,192,62144,1,0,0:0:0:0:
448,192,62242,1,0,0:0:0:0:
64,192,62340,1,0,0:0:0:0:
320,192,62340,128,0,62438:0:0:0:0:
192,192,62438,1,0,0:0:0:0:
448,192,62438,1,0,0:0:0:0:
64,192,62438,1,2,0:0:0:0:
320,192,62536,1,0,0:0:0:0:
64,192,62634,1,0,0:0:0:0:
448,192,62634,1,0,0:0:0:0:
192,192,62732,1,0,0:0:0:0:
448,192,62830,1,8,0:0:0:0:
320,192,62830,1,0,0:0:0:0:
64,192,62879,1,0,0:0:0:0:
192,192,62928,1,0,0:0:0:0:
320,192,62977,1,0,0:0:0:0:
448,192,63027,1,0,0:0:0:0:
192,192,63076,1,0,0:0:0:0:
64,192,63125,1,0,0:0:0:0:
320,192,63174,1,0,0:0:0:0:
448,192,63223,128,2,64301:0:0:0:0:
192,192,63223,128,0,63321:0:0:0:0:
320,192,63419,128,0,63517:0:0:0:0:
64,192,63615,128,0,63713:0:0:0:0:
320,192,63811,1,0,0:0:0:0:
320,192,63909,1,0,0:0:0:0:
320,192,64007,128,0,64301:0:0:0:0:
192,192,64203,128,0,64497:0:0:0:0:
64,192,64203,128,0,64693:0:0:0:0:
320,192,64399,128,0,64497:0:0:0:0:
448,192,64399,128,0,64693:0:0:0:0:
192,192,64595,128,0,64693:0:0:0:0:
320,192,64595,128,0,64693:0:0:0:0:
192,192,64791,1,0,0:0:0:0:
320,192,64791,1,2,0:0:0:0:
448,192,64791,1,0,0:0:0:0:
64,192,64791,1,0,0:0:0:0:
448,192,65183,1,0,0:0:0:0:
320,192,65183,1,8,0:0:0:0:
192,192,65183,1,0,0:0:0:0:
64,192,65281,1,0,0:0:0:0:
192,192,65379,1,0,0:0:0:0:
448,192,65478,1,0,0:0:0:0:
320,192,65478,128,0,65576:0:0:0:0:
64,192,65576,1,0,0:0:0:0:
448,192,65576,1,2,0:0:0:0:
192,192,65576,1,0,0:0:0:0:
320,192,65674,1,0,0:0:0:0:
192,192,65772,1,0,0:0:0:0:
448,192,65870,1,0,0:0:0:0:
64,192,65870,1,0,0:0:0:0:
320,192,65968,1,0,0:0:0:0:
192,192,65968,128,0,66164:0:0:0:0:
64,192,65968,1,8,0:0:0:0:
448,192,66066,128,0,66164:0:0:0:0:
320,192,66164,128,0,66262:0:0:0:0:
64,192,66164,1,2,0:0:0:0:
448,192,66262,128,0,66360:0:0:0:0:
64,192,66360,1,2,0:0:0:0:
192,192,66360,1,0,0:0:0:0:
320,192,66458,1,0,0:0:0:0:
448,192,66556,1,0,0:0:0:0:
192,192,66556,1,0,0:0:0:0:
64,192,66654,1,0,0:0:0:0:
320,192,66752,1,0,0:0:0:0:
192,192,66752,1,0,0:0:0:0:
448,192,66752,128,8,66850:0:0:0:0:
64,192,66850,1,0,0:0:0:0:
320,192,66948,1,0,0:0:0:0:
64,192,67046,1,0,0:0:0:0:
192,192,67144,1,2,0:0:0:0:
448,192,67144,1,0,0:0:0:0:
64,192,67144,1,0,0:0:0:0:
320,192,67242,1,0,0:0:0:0:
320,192,67340,1,0,0:0:0:0:
64,192,67438,1,0,0:0:0:0:
448,192,67438,1,0,0:0:0:0:
448,192,67536,1,8,0:0:0:0:
320,192,67536,1,0,0:0:0:0:
192,192,67536,1,0,0:0:0:0:
64,192,67732,1,0,0:0:0:0:
192,192,67732,1,0,0:0:0:0:
320,192,67732,1,2,0:0:0:0:
192,192,67928,128,0,68125:0:0:0:0:
448,192,67928,128,0,68125:0:0:0:0:
320,192,67928,1,2,0:0:0:0:
64,192,68125,1,0,0:0:0:0:
320,192,68223,1,0,0:0:0:0:
448,192,68321,1,0,0:0:0:0:
192,192,68321,1,0,0:0:0:0:
64,192,68321,1,8,0:0:0:0:
320,192,68419,1,0,0:0:0:0:
192,192,68517,1,0,0:0:0:0:
448,192,68615,1,0,0:0:0:0:
64,192,68615,128,0,68713:0:0:0:0:
448,192,68713,1,2,0:0:0:0:
320,192,68713,1,0,0:0:0:0:
192,192,68713,1,0,0:0:0:0:
64,192,68811,1,0,0:0:0:0:
192,192,68909,1,0,0:0:0:0:
320,192,69007,1,0,0:0:0:0:
448,192,69007,1,0,0:0:0:0:
448,192,69105,1,8,0:0:0:0:
64,192,69105,1,0,0:0:0:0:
192,192,69105,128,0,69301:0:0:0:0:
320,192,69203,128,0,69301:0:0:0:0:
64,192,69301,1,0,0:0:0:0:
448,192,69301,128,2,69399:0:0:0:0:
320,192,69399,128,0,69497:0:0:0:0:
64,192,69497,1,0,0:0:0:0:
192,192,69497,1,2,0:0:0:0:
448,192,69595,1,0,0:0:0:0:
320,192,69693,1,0,0:0:0:0:
192,192,69791,1,0,0:0:0:0:
64,192,69791,1,0,0:0:0:0:
64,192,69889,1,8,0:0:0:0:
320,192,69889,1,0,0:0:0:0:
448,192,69889,1,0,0:0:0:0:
192,192,69987,1,0,0:0:0:0:
448,192,70085,1,0,0:0:0:0:
320,192,70183,1,0,0:0:0:0:
192,192,70281,1,0,0:0:0:0:
64,192,70281,1,2,0:0:0:0:
448,192,70281,1,0,0:0:0:0:
64,192,70478,1,2,0:0:0:0:
192,192,70478,1,0,0:0:0:0:
448,192,70478,1,0,0:0:0:0:
320,192,71066,1,0,0:0:0:0:
448,192,71066,1,0,0:0:0:0:
192,192,71066,1,0,0:0:0:0:
64,192,71066,1,0,0:0:0:50:BassL.wav
448,192,71458,1,0,0:0:0:0:
192,192,71458,1,0,0:0:0:0:
64,192,71458,1,8,0:0:0:0:
320,192,71556,1,0,0:0:0:0:
64,192,71556,1,0,0:0:0:0:
192,192,71654,1,0,0:0:0:0:
448,192,71752,1,2,0:0:0:0:
64,192,71752,128,0,71850:0:0:0:0:
448,192,71850,1,2,0:0:0:0:
320,192,71850,1,0,0:0:0:0:
192,192,71850,1,0,0:0:0:0:
64,192,71948,1,0,0:0:0:0:
448,192,72046,1,0,0:0:0:0:
320,192,72144,1,2,0:0:0:0:
192,192,72144,1,0,0:0:0:0:
448,192,72242,128,0,72438:0:0:0:0:
64,192,72340,1,2,0:0:0:0:
320,192,72340,128,0,72438:0:0:0:0:
64,192,72438,1,2,0:0:0:0:
192,192,72438,128,0,72536:0:0:0:0:
320,192,72536,128,0,72634:0:0:0:0:
192,192,72634,1,0,0:0:0:0:
448,192,72634,1,2,0:0:0:0:
64,192,72634,1,0,0:0:0:0:
64,192,72830,1,0,0:0:0:0:
320,192,72830,1,0,0:0:0:0:
448,192,72830,1,2,0:0:0:0:
320,192,73027,1,0,0:0:0:0:
192,192,73027,1,0,0:0:0:0:
64,192,73027,1,8,0:0:0:0:
192,192,73223,1,2,0:0:0:0:
64,192,73223,1,0,0:0:0:0:
320,192,73321,1,2,0:0:0:0:
448,192,73321,1,0,0:0:0:0:
192,192,73370,1,2,0:0:0:0:
64,192,73370,1,0,0:0:0:0:
448,192,73419,1,0,0:0:0:0:
320,192,73419,1,2,0:0:0:0:
192,192,73517,1,8,0:0:0:0:
320,192,73615,1,0,0:0:0:0:
448,192,73713,1,0,0:0:0:0:
64,192,73713,1,2,0:0:0:0:
192,192,73811,1,8,0:0:0:0:
448,192,73909,1,2,0:0:0:0:
320,192,73909,1,0,0:0:0:0:
64,192,74007,1,0,0:0:0:0:
448,192,74007,1,8,0:0:0:0:
192,192,74007,1,0,0:0:0:0:
192,192,74203,1,2,0:0:0:0:
64,192,74203,1,0,0:0:0:0:
192,192,74301,1,2,0:0:0:0:
64,192,74301,1,0,0:0:0:0:
320,192,74399,1,0,0:0:0:0:
448,192,74497,1,2,0:0:0:0:
192,192,74497,1,0,0:0:0:0:
64,192,74497,1,0,0:0:0:0:
320,192,74595,1,8,0:0:0:0:
448,192,74693,1,0,0:0:0:0:
192,192,74791,1,2,0:0:0:0:
64,192,74791,1,0,0:0:0:0:
448,192,74889,1,0,0:0:0:0:
320,192,74889,1,0,0:0:0:0:
192,192,74987,1,0,0:0:0:0:
448,192,74987,1,0,0:0:0:0:
64,192,74987,1,2,0:0:0:0:
320,192,75085,1,8,0:0:0:0:
320,192,75183,1,0,0:0:0:0:
448,192,75281,1,2,0:0:0:0:
64,192,75379,1,8,0:0:0:0:
192,192,75379,1,0,0:0:0:0:
320,192,75379,1,0,0:0:0:0:
192,192,75576,1,2,0:0:0:0:
448,192,75576,1,0,0:0:0:0:
448,192,75772,1,8,0:0:0:0:
64,192,75772,1,0,0:0:0:0:
320,192,75772,1,2,0:0:0:0:
64,192,75968,1,0,0:0:0:0:
448,192,75968,1,8,0:0:0:0:
192,192,75968,1,2,0:0:0:0:
448,192,76164,1,0,0:0:0:0:
64,192,76164,1,0,0:0:0:0:
192,192,76229,1,0,0:0:0:0:
320,192,76294,1,0,0:0:0:0:
64,192,76360,128,0,76850:0:0:0:0:
448,192,76360,128,0,76458:0:0:0:0:
192,192,76458,128,0,76654:0:0:0:0:
448,192,76556,128,0,76850:0:0:0:0:
320,192,76556,128,0,76654:0:0:0:0:
192,192,76752,128,0,77242:0:0:0:0:
320,192,76752,128,0,77046:0:0:0:0:
64,192,76948,128,0,77046:0:0:0:0:
448,192,76948,128,0,77242:0:0:0:0:
64,192,77144,128,0,77242:0:0:0:0:
320,192,77144,128,0,77242:0:0:0:0:
64,192,77340,1,8,0:0:0:0:
192,192,77340,1,0,0:0:0:0:
448,192,77340,128,0,78909:0:0:0:50:bassK.wav
320,192,77340,1,0,0:0:0:0:
64,192,77536,128,0,77634:0:0:0:0:
192,192,77634,128,0,77732:0:0:0:0:
64,192,77732,128,0,77830:0:0:0:0:
320,192,77928,128,0,78027:0:0:0:0:
192,192,78027,128,0,78125:0:0:0:0:
64,192,78125,128,0,78223:0:0:0:0:
192,192,78321,128,0,78419:0:0:0:0:
320,192,78419,128,0,78615:0:0:0:0:
64,192,78909,128,0,80281:0:0:0:0:
192,192,78909,1,0,0:0:0:0:
448,192,79105,128,0,79203:0:0:0:0:
320,192,79203,128,0,79301:0:0:0:0:
448,192,79301,128,0,79399:0:0:0:0:
192,192,79497,128,0,79595:0:0:0:0:
320,192,79595,128,0,79693:0:0:0:0:
448,192,79693,128,0,79791:0:0:0:0:
192,192,79889,128,0,79987:0:0:0:0:
320,192,79987,128,0,80183:0:0:0:0:
448,192,80281,128,0,82046:0:0:0:0:
192,192,80281,1,0,0:0:0:0:
192,192,80379,1,0,0:0:0:0:
192,192,80478,1,0,0:0:0:0:
64,192,80674,128,0,80772:0:0:0:0:
192,192,80772,128,0,80870:0:0:0:0:
64,192,80870,128,0,80968:0:0:0:0:
320,192,81066,128,0,81164:0:0:0:0:
192,192,81164,128,0,81262:0:0:0:0:
64,192,81262,128,0,81360:0:0:0:0:
320,192,81458,128,0,81556:0:0:0:0:
192,192,81556,128,0,81752:0:0:0:0:
64,192,82046,128,0,83223:0:0:0:0:
320,192,82046,128,0,82144:0:0:0:0:
192,192,82242,128,0,82340:0:0:0:0:
320,192,82438,128,0,82536:0:0:0:0:
448,192,82634,128,0,82732:0:0:0:0:
448,192,82830,128,0,83223:0:0:0:0:
320,192,82830,1,0,0:0:0:0:
320,192,83223,1,0,0:0:0:0:
192,192,83223,1,0,0:0:0:0:
64,192,83615,1,2,0:0:0:0:
448,192,83615,1,0,0:0:0:0:
320,192,83664,1,0,0:0:0:0:
192,192,83713,1,0,0:0:0:0:
64,192,83762,1,0,0:0:0:0:
448,192,83811,1,0,0:0:0:0:
320,192,83860,1,0,0:0:0:0:
64,192,83909,1,0,0:0:0:0:
448,192,83958,1,0,0:0:0:0:
320,192,84007,1,0,0:0:0:0:
192,192,84056,1,0,0:0:0:0:
448,192,84105,1,0,0:0:0:0:
64,192,84154,1,0,0:0:0:0:
192,192,84203,1,0,0:0:0:0:
320,192,84252,1,0,0:0:0:0:
448,192,84301,1,0,0:0:0:0:
64,192,84350,1,0,0:0:0:0:
192,192,84399,1,0,0:0:0:0:
448,192,84448,1,0,0:0:0:0:
320,192,84497,1,0,0:0:0:0:
192,192,84546,1,0,0:0:0:0:
448,192,84595,1,0,0:0:0:0:
64,192,84644,1,0,0:0:0:0:
192,192,84693,1,0,0:0:0:0:
448,192,84742,1,0,0:0:0:0:
64,192,84791,1,0,0:0:0:0:
320,192,84840,1,0,0:0:0:0:
192,192,84889,1,0,0:0:0:0:
448,192,84938,1,0,0:0:0:0:
320,192,84987,1,0,0:0:0:0:
64,192,85036,1,0,0:0:0:0:
192,192,85085,1,0,0:0:0:0:
448,192,85134,1,0,0:0:0:0:
64,192,85183,1,0,0:0:0:0:
320,192,85232,1,0,0:0:0:0:
448,192,85281,1,0,0:0:0:0:
192,192,85330,1,0,0:0:0:0:
320,192,85379,1,0,0:0:0:0:
448,192,85428,1,0,0:0:0:0:
64,192,85478,1,0,0:0:0:0:
320,192,85527,1,0,0:0:0:0:
192,192,85576,1,0,0:0:0:0:
448,192,85625,1,0,0:0:0:0:
320,192,85674,1,0,0:0:0:0:
192,192,85723,1,0,0:0:0:0:
64,192,85772,1,0,0:0:0:0:
320,192,85821,1,0,0:0:0:0:
192,192,85870,1,0,0:0:0:0:
64,192,85919,1,0,0:0:0:0:
320,192,85968,1,0,0:0:0:0:
448,192,86017,1,0,0:0:0:0:
64,192,86066,1,0,0:0:0:0:
192,192,86115,1,0,0:0:0:0:
448,192,86164,1,0,0:0:0:0:
64,192,86213,1,0,0:0:0:0:
320,192,86262,1,0,0:0:0:0:
192,192,86311,1,0,0:0:0:0:
448,192,86360,1,0,0:0:0:0:
320,192,86409,1,0,0:0:0:0:
192,192,86458,1,0,0:0:0:0:
64,192,86507,1,0,0:0:0:0:
448,192,86556,1,0,0:0:0:0:
320,192,86605,1,0,0:0:0:0:
64,192,86654,1,0,0:0:0:0:
192,192,86703,1,0,0:0:0:0:
448,192,86752,1,8,0:0:0:0:
320,192,86752,1,0,0:0:0:0:
64,192,86801,1,0,0:0:0:0:
192,192,86850,1,0,0:0:0:0:
320,192,86899,1,0,0:0:0:0:
448,192,86948,1,0,0:0:0:0:
64,192,86997,1,0,0:0:0:0:
320,192,87046,1,2,0:0:0:0:
192,192,87046,1,8,0:0:0:0:
448,192,87095,1,0,0:0:0:0:
64,192,87144,1,0,0:0:0:0:
192,192,87193,1,0,0:0:0:0:
320,192,87242,1,0,0:0:0:0:
448,192,87291,1,0,0:0:0:0:
192,192,87340,1,2,0:0:0:0:
64,192,87340,1,8,0:0:0:0:
320,192,87389,1,0,0:0:0:0:
448,192,87438,1,0,0:0:0:0:
64,192,87487,1,0,0:0:0:0:
192,192,87536,1,8,0:0:0:0:
320,192,87536,1,2,0:0:0:0:
448,192,87585,1,0,0:0:0:0:
64,192,87634,1,0,0:0:0:0:
192,192,87683,1,0,0:0:0:0:
320,192,87732,128,2,89791:0:0:0:0:
448,192,87732,128,8,89791:0:0:0:0:
192,192,88321,128,8,89791:0:0:0:0:
64,192,88321,128,2,89791:0:0:0:0:
320,192,89889,1,0,0:0:0:0:
192,192,89889,1,0,0:0:0:0:
64,192,89889,1,0,0:0:0:0:
448,192,89889,1,2,0:0:0:0:
320,192,90281,1,0,0:0:0:0:
64,192,90281,1,8,0:0:0:0:
448,192,90281,1,0,0:0:0:0:
320,192,90379,1,0,0:0:0:0:
64,192,90478,1,0,0:0:0:0:
448,192,90478,1,0,0:0:0:0:
320,192,90576,128,0,90674:0:0:0:0:
64,192,90674,1,0,0:0:0:0:
192,192,90674,1,2,0:0:0:0:
448,192,90674,1,0,0:0:0:0:
64,192,90772,1,0,0:0:0:0:
192,192,90870,1,0,0:0:0:0:
448,192,90870,1,0,0:0:0:0:
320,192,90968,1,0,0:0:0:0:
192,192,91066,1,0,0:0:0:0:
64,192,91066,1,8,0:0:0:0:
448,192,91066,1,0,0:0:0:0:
448,192,91164,1,0,0:0:0:0:
320,192,91262,1,0,0:0:0:0:
64,192,91262,1,0,0:0:0:0:
192,192,91360,1,0,0:0:0:0:
448,192,91458,1,2,0:0:0:0:
320,192,91458,1,0,0:0:0:0:
64,192,91458,1,0,0:0:0:0:
320,192,91556,1,0,0:0:0:0:
448,192,91654,1,0,0:0:0:0:
64,192,91654,1,0,0:0:0:0:
192,192,91752,128,0,91850:0:0:0:0:
320,192,91850,1,8,0:0:0:0:
448,192,91850,1,0,0:0:0:0:
64,192,91850,1,0,0:0:0:0:
64,192,91948,1,0,0:0:0:0:
192,192,92046,1,0,0:0:0:0:
320,192,92046,1,0,0:0:0:0:
448,192,92144,128,0,92242:0:0:0:0:
192,192,92242,1,0,0:0:0:0:
64,192,92242,1,2,0:0:0:0:
320,192,92242,1,0,0:0:0:0:
320,192,92340,1,0,0:0:0:0:
64,192,92438,1,0,0:0:0:0:
448,192,92438,1,0,0:0:0:0:
192,192,92536,1,0,0:0:0:0:
448,192,92634,1,0,0:0:0:0:
64,192,92634,1,0,0:0:0:0:
320,192,92634,1,8,0:0:0:0:
64,192,92732,1,0,0:0:0:0:
192,192,92830,1,0,0:0:0:0:
448,192,92830,1,0,0:0:0:0:
320,192,92928,1,0,0:0:0:0:
448,192,93027,1,0,0:0:0:0:
192,192,93027,1,2,0:0:0:0:
64,192,93027,128,0,93223:0:0:0:0:
448,192,93125,1,0,0:0:0:0:
192,192,93223,1,0,0:0:0:0:
320,192,93321,128,0,93419:0:0:0:0:
448,192,93321,128,0,93419:0:0:0:0:
192,192,93419,1,0,0:0:0:0:
64,192,93419,1,8,0:0:0:0:
320,192,93517,128,0,93615:0:0:0:0:
448,192,93517,128,0,93615:0:0:0:0:
192,192,93615,128,0,93713:0:0:0:0:
64,192,93615,128,0,93713:0:0:0:0:
320,192,93713,1,0,0:0:0:0:
192,192,93811,1,0,0:0:0:0:
448,192,93811,1,2,0:0:0:0:
64,192,93811,128,0,94007:0:0:0:0:
448,192,93909,1,0,0:0:0:0:
192,192,94007,1,0,0:0:0:0:
448,192,94105,128,0,94203:0:0:0:0:
320,192,94105,128,0,94203:0:0:0:0:
64,192,94203,1,8,0:0:0:0:
192,192,94203,1,0,0:0:0:0:
320,192,94301,128,0,94399:0:0:0:0:
448,192,94301,128,0,94399:0:0:0:0:
192,192,94399,128,0,94497:0:0:0:0:
64,192,94399,128,0,94497:0:0:0:0:
320,192,94497,1,0,0:0:0:0:
448,192,94595,1,2,0:0:0:0:
192,192,94595,128,0,94791:0:0:0:0:
64,192,94595,1,0,0:0:0:0:
448,192,94693,1,0,0:0:0:0:
64,192,94791,1,0,0:0:0:0:
320,192,94889,128,0,94987:0:0:0:0:
448,192,94889,128,0,94987:0:0:0:0:
192,192,94987,1,0,0:0:0:0:
64,192,94987,1,8,0:0:0:0:
448,192,95085,128,0,95183:0:0:0:0:
320,192,95085,128,0,95183:0:0:0:0:
192,192,95183,128,0,95281:0:0:0:0:
64,192,95183,128,0,95281:0:0:0:0:
320,192,95281,1,0,0:0:0:0:
448,192,95379,1,2,0:0:0:0:
192,192,95379,128,0,95576:0:0:0:0:
64,192,95379,1,0,0:0:0:0:
448,192,95478,1,0,0:0:0:0:
64,192,95576,1,0,0:0:0:0:
448,192,95674,128,0,95772:0:0:0:0:
320,192,95674,128,0,95772:0:0:0:0:
192,192,95772,1,0,0:0:0:0:
64,192,95772,1,8,0:0:0:0:
320,192,95870,128,0,95968:0:0:0:0:
448,192,95870,128,0,95968:0:0:0:0:
192,192,95968,128,0,96066:0:0:0:0:
64,192,95968,128,0,96066:0:0:0:0:
448,192,96066,1,0,0:0:0:0:
192,192,96164,1,0,0:0:0:0:
64,192,96164,1,0,0:0:0:0:
320,192,96164,1,8,0:0:0:0:
448,192,96360,1,0,0:0:0:0:
320,192,96360,1,0,0:0:0:0:
192,192,96458,1,0,0:0:0:0:
64,192,96458,1,2,0:0:0:0:
320,192,96556,1,8,0:0:0:0:
448,192,96556,1,0,0:0:0:0:
64,192,96556,1,0,0:0:0:0:
192,192,96654,1,0,0:0:0:0:
448,192,96654,1,0,0:0:0:0:
320,192,96752,1,2,0:0:0:0:
64,192,96752,1,0,0:0:0:0:
192,192,96850,128,0,96948:0:0:0:0:
448,192,96948,1,0,0:0:0:0:
320,192,96948,1,2,0:0:0:0:
64,192,96948,1,0,0:0:0:0:
448,192,97046,1,0,0:0:0:0:
320,192,97144,1,0,0:0:0:0:
192,192,97144,1,0,0:0:0:0:
64,192,97242,1,0,0:0:0:0:
320,192,97340,1,0,0:0:0:0:
448,192,97340,1,8,0:0:0:0:
192,192,97340,1,0,0:0:0:0:
192,192,97438,1,0,0:0:0:0:
320,192,97536,1,0,0:0:0:0:
64,192,97536,1,0,0:0:0:0:
448,192,97634,1,0,0:0:0:0:
64,192,97732,1,2,0:0:0:0:
320,192,97732,1,0,0:0:0:0:
192,192,97732,1,0,0:0:0:0:
320,192,97830,1,0,0:0:0:0:
64,192,97928,1,0,0:0:0:0:
448,192,97928,1,0,0:0:0:0:
192,192,98027,128,0,98125:0:0:0:0:
320,192,98125,1,0,0:0:0:0:
64,192,98125,1,8,0:0:0:0:
448,192,98125,1,0,0:0:0:0:
320,192,98223,1,0,0:0:0:0:
448,192,98321,1,0,0:0:0:0:
64,192,98321,1,0,0:0:0:0:
320,192,98419,128,0,98517:0:0:0:0:
192,192,98517,1,2,0:0:0:0:
448,192,98517,1,0,0:0:0:0:
64,192,98517,1,0,0:0:0:0:
64,192,98615,1,0,0:0:0:0:
320,192,98713,1,0,0:0:0:0:
192,192,98713,1,0,0:0:0:0:
448,192,98811,1,0,0:0:0:0:
64,192,98909,1,0,0:0:0:0:
320,192,98909,1,0,0:0:0:0:
192,192,98909,1,8,0:0:0:0:
320,192,99007,1,0,0:0:0:0:
448,192,99105,1,0,0:0:0:0:
64,192,99105,1,0,0:0:0:0:
192,192,99203,1,0,0:0:0:0:
448,192,99301,128,0,99497:0:0:0:50:Snare 7.wav
64,192,99301,1,0,0:0:0:0:
320,192,99301,1,2,0:0:0:0:
64,192,99399,1,0,0:0:0:0:
320,192,99497,1,0,0:0:0:0:
192,192,99595,128,0,99693:0:0:0:0:
64,192,99595,128,2,99693:0:0:0:0:
448,192,99693,1,0,0:0:0:0:
320,192,99693,1,0,0:0:0:0:
192,192,99791,128,0,99889:0:0:0:0:
64,192,99791,128,0,99889:0:0:0:0:
320,192,99889,128,2,99987:0:0:0:0:
448,192,99889,128,0,99987:0:0:0:0:
192,192,99987,1,0,0:0:0:0:
64,192,100085,128,0,100281:0:0:0:0:
448,192,100183,1,0,0:0:0:0:
448,192,100281,1,0,0:0:0:0:
64,192,100379,128,0,100478:0:0:0:0:
192,192,100379,128,0,100478:0:0:0:0:
320,192,100478,1,8,0:0:0:0:
448,192,100478,1,0,0:0:0:0:
192,192,100576,128,0,100674:0:0:0:0:
64,192,100576,128,0,100674:0:0:0:0:
320,192,100674,128,0,100772:0:0:0:0:
448,192,100674,128,0,100772:0:0:0:0:
192,192,100772,1,0,0:0:0:0:
320,192,100870,128,0,101066:0:0:0:50:Snare 7.wav
64,192,100870,1,0,0:0:0:0:
448,192,100870,1,8,0:0:0:0:
64,192,100968,1,0,0:0:0:0:
448,192,101066,1,0,0:0:0:0:
192,192,101164,128,2,101262:0:0:0:0:
64,192,101164,128,0,101262:0:0:0:0:
320,192,101262,1,0,0:0:0:0:
448,192,101262,1,0,0:0:0:0:
64,192,101360,128,0,101458:0:0:0:0:
192,192,101360,128,0,101458:0:0:0:0:
320,192,101458,128,2,101556:0:0:0:0:
448,192,101458,128,0,101556:0:0:0:0:
192,192,101556,1,0,0:0:0:0:
64,192,101654,1,0,0:0:0:0:
448,192,101654,1,0,0:0:0:0:
320,192,101654,1,2,0:0:0:0:
64,192,101850,1,0,0:0:0:0:
320,192,101850,1,0,0:0:0:0:
192,192,101948,1,0,0:0:0:0:
448,192,101948,1,0,0:0:0:0:
448,192,102144,1,0,0:0:0:0:
64,192,102144,1,0,0:0:0:0:
192,192,102242,1,0,0:0:0:0:
320,192,102242,1,0,0:0:0:0:
320,192,102438,128,0,102683:0:0:0:0:
448,192,102438,128,2,102732:0:0:0:0:
192,192,102732,1,0,0:0:0:0:
64,192,102830,1,0,0:0:0:0:
64,192,102928,1,0,0:0:0:0:
320,192,103027,1,2,0:0:0:0:
448,192,103027,1,0,0:0:0:0:
320,192,103125,1,2,0:0:0:0:
448,192,103125,1,0,0:0:0:0:
192,192,103223,1,8,0:0:0:0:
64,192,103223,1,0,0:0:0:0:
448,192,103223,1,0,0:0:0:0:
192,192,103321,1,0,0:0:0:0:
320,192,103419,1,0,0:0:0:0:
320,192,103517,1,2,0:0:0:0:
448,192,103517,1,0,0:0:0:0:
64,192,103615,1,0,0:0:0:0:
64,192,103713,1,0,0:0:0:0:
192,192,103713,1,2,0:0:0:0:
448,192,103811,1,0,0:0:0:0:
320,192,103811,1,2,0:0:0:0:
448,192,103909,1,0,0:0:0:0:
192,192,104007,1,2,0:0:0:0:
64,192,104007,1,0,0:0:0:0:
192,192,104105,1,0,0:0:0:0:
320,192,104203,1,0,0:0:0:0:
320,192,104301,1,0,0:0:0:0:
448,192,104301,1,2,0:0:0:0:
64,192,104399,1,0,0:0:0:0:
192,192,104497,1,0,0:0:0:0:
64,192,104497,1,2,0:0:0:0:
448,192,104595,1,0,0:0:0:0:
448,192,104693,1,0,0:0:0:0:
320,192,104791,1,8,0:0:0:0:
64,192,104791,1,0,0:0:0:0:
192,192,104791,1,0,0:0:0:0:
64,192,104889,1,0,0:0:0:0:
192,192,104889,1,2,0:0:0:0:
320,192,104987,1,0,0:0:0:0:
320,192,105085,1,0,0:0:0:0:
448,192,105085,1,2,0:0:0:0:
64,192,105183,1,0,0:0:0:0:
64,192,105281,1,0,0:0:0:0:
192,192,105281,1,2,0:0:0:0:
448,192,105379,1,0,0:0:0:0:
448,192,105477,1,0,0:0:0:0:
192,192,105576,128,0,105821:0:0:0:0:
64,192,105576,128,2,105870:0:0:0:0:
320,192,105870,1,2,0:0:0:0:
448,192,105870,1,0,0:0:0:0:
448,192,105968,1,0,0:0:0:0:
64,192,106066,1,0,0:0:0:0:
64,192,106164,1,0,0:0:0:0:
192,192,106164,1,2,0:0:0:0:
448,192,106262,1,0,0:0:0:0:
320,192,106262,1,2,0:0:0:0:
448,192,106360,1,0,0:0:0:0:
64,192,106360,1,8,0:0:0:0:
320,192,106360,1,0,0:0:0:0:
192,192,106458,1,0,0:0:0:0:
192,192,106556,1,0,0:0:0:0:
320,192,106654,1,0,0:0:0:0:
448,192,106654,1,2,0:0:0:0:
320,192,106752,1,0,0:0:0:0:
192,192,106850,1,0,0:0:0:0:
64,192,106850,1,2,0:0:0:0:
64,192,106948,1,2,0:0:0:0:
192,192,106948,1,0,0:0:0:0:
448,192,107046,1,0,0:0:0:0:
448,192,107144,1,2,0:0:0:0:
320,192,107144,1,0,0:0:0:0:
64,192,107242,1,0,0:0:0:0:
64,192,107340,1,0,0:0:0:0:
320,192,107438,1,0,0:0:0:0:
448,192,107438,1,2,0:0:0:0:
320,192,107536,1,0,0:0:0:0:
64,192,107634,1,0,0:0:0:0:
192,192,107634,1,2,0:0:0:0:
64,192,107732,1,0,0:0:0:0:
448,192,107830,1,0,0:0:0:0:
320,192,107879,1,0,0:0:0:0:
192,192,107928,1,8,0:0:0:0:
64,192,107928,1,0,0:0:0:0:
448,192,108027,1,0,0:0:0:0:
320,192,108027,1,2,0:0:0:0:
448,192,108125,1,0,0:0:0:0:
320,192,108125,1,2,0:0:0:0:
64,192,108223,1,0,0:0:0:0:
192,192,108223,1,2,0:0:0:0:
64,192,108321,1,0,0:0:0:0:
192,192,108321,1,2,0:0:0:0:
320,192,108419,1,2,0:0:0:0:
448,192,108419,1,0,0:0:0:0:
448,192,108517,1,0,0:0:0:0:
320,192,108517,1,2,0:0:0:0:
192,192,108615,1,2,0:0:0:0:
64,192,108615,1,0,0:0:0:0:
192,192,108713,128,0,108958:0:0:0:0:
64,192,108713,128,2,109007:0:0:0:0:
448,192,109007,1,2,0:0:0:0:
320,192,109056,1,2,0:0:0:0:
192,192,109105,1,2,0:0:0:0:
64,192,109105,1,0,0:0:0:0:
320,192,109203,1,2,0:0:0:0:
448,192,109203,1,0,0:0:0:0:
320,192,109301,1,2,0:0:0:0:
448,192,109301,1,0,0:0:0:0:
192,192,109497,1,0,0:0:0:0:
64,192,109497,1,8,0:0:0:0:
192,192,109595,1,0,0:0:0:0:
64,192,109595,1,2,0:0:0:0:
320,192,109693,1,2,0:0:0:0:
448,192,109693,1,0,0:0:0:0:
320,192,109791,1,2,0:0:0:0:
448,192,109791,1,0,0:0:0:0:
192,192,109889,1,2,0:0:0:0:
64,192,109889,1,0,0:0:0:0:
64,192,110036,1,0,0:0:0:0:
192,192,110036,1,2,0:0:0:0:
320,192,110085,1,2,0:0:0:0:
448,192,110085,1,0,0:0:0:0:
448,192,110183,1,0,0:0:0:0:
320,192,110183,1,2,0:0:0:0:
192,192,110281,1,2,0:0:0:0:
64,192,110281,1,0,0:0:0:0:
64,192,110379,1,0,0:0:0:0:
192,192,110379,1,2,0:0:0:0:
320,192,110477,1,2,0:0:0:0:
448,192,110477,1,0,0:0:0:0:
64,192,110576,1,2,0:0:0:0:
192,192,110625,1,2,0:0:0:0:
320,192,110674,1,2,0:0:0:0:
448,192,110674,1,0,0:0:0:0:
192,192,110772,1,2,0:0:0:0:
64,192,110772,1,0,0:0:0:0:
448,192,110968,1,2,0:0:0:0:
320,192,111017,1,2,0:0:0:0:
192,192,111066,1,8,0:0:0:0:
64,192,111066,1,0,0:0:0:0:
320,192,111262,1,2,0:0:0:0:
448,192,111262,1,0,0:0:0:0:
64,192,111360,1,2,0:0:0:0:
192,192,111409,1,2,0:0:0:0:
320,192,111458,1,2,0:0:0:0:
448,192,111458,1,0,0:0:0:0:
64,192,111556,1,2,0:0:0:0:
192,192,111605,1,2,0:0:0:0:
320,192,111654,1,2,0:0:0:0:
448,192,111654,1,0,0:0:0:0:
64,192,111752,1,2,0:0:0:0:
192,192,111801,1,2,0:0:0:0:
320,192,111850,128,2,112095:0:0:0:0:
448,192,111850,128,0,112144:0:0:0:0:
64,192,112144,1,2,0:0:0:0:
192,192,112193,1,2,0:0:0:0:
320,192,112242,1,2,0:0:0:0:
448,192,112242,1,0,0:0:0:0:
320,192,112340,1,2,0:0:0:0:
448,192,112340,1,0,0:0:0:0:
192,192,112438,1,2,0:0:0:0:
64,192,112438,1,0,0:0:0:0:
192,192,112634,1,8,0:0:0:0:
64,192,112634,1,0,0:0:0:0:
192,192,112732,1,2,0:0:0:0:
64,192,112732,1,0,0:0:0:0:
448,192,112830,1,0,0:0:0:0:
320,192,112830,1,2,0:0:0:0:
320,192,112928,1,2,0:0:0:0:
448,192,112928,1,0,0:0:0:0:
192,192,113027,1,2,0:0:0:0:
64,192,113027,1,0,0:0:0:0:
192,192,113174,1,2,0:0:0:0:
64,192,113174,1,0,0:0:0:0:
320,192,113223,1,2,0:0:0:0:
448,192,113223,1,0,0:0:0:0:
320,192,113321,1,2,0:0:0:0:
448,192,113321,1,0,0:0:0:0:
64,192,113419,1,0,0:0:0:0:
192,192,113419,1,2,0:0:0:0:
192,192,113517,1,2,0:0:0:0:
64,192,113517,1,0,0:0:0:0:
320,192,113615,1,2,0:0:0:0:
448,192,113615,1,0,0:0:0:0:
64,192,113713,1,2,0:0:0:0:
192,192,113762,1,2,0:0:0:0:
448,192,113811,1,0,0:0:0:0:
320,192,113811,1,2,0:0:0:0:
192,192,113909,1,2,0:0:0:0:
64,192,113909,1,0,0:0:0:0:
448,192,114105,1,2,0:0:0:0:
320,192,114154,1,2,0:0:0:0:
192,192,114203,128,8,114399:0:0:0:0:
64,192,114203,128,0,114399:0:0:0:0:
448,192,114399,1,0,0:0:0:0:
448,192,114497,1,0,0:0:0:0:
64,192,114595,1,0,0:0:0:0:
64,192,114693,1,0,0:0:0:0:
320,192,114791,1,0,0:0:0:0:
320,192,114889,1,0,0:0:0:0:
64,192,114987,1,0,0:0:0:0:
448,192,114987,1,2,0:0:0:0:
192,192,114987,1,0,0:0:0:0:
448,192,115772,1,2,0:0:0:0:
320,192,115772,1,0,0:0:0:0:
64,192,115772,1,0,0:0:0:0:
320,192,116556,1,0,0:0:0:0:
192,192,116556,1,0,0:0:0:0:
64,192,116556,1,2,0:0:0:0:
448,192,117340,1,2,0:0:0:0:
320,192,117340,1,0,0:0:0:0:
192,192,117340,1,0,0:0:0:0:
448,192,118125,1,0,0:0:0:0:
320,192,118125,1,0,0:0:0:0:
64,192,118125,1,2,0:0:0:0:
64,192,118909,1,2,0:0:0:0:
192,192,118909,1,0,0:0:0:0:
320,192,118909,1,0,0:0:0:0:
448,192,119693,1,2,0:0:0:0:
192,192,119693,1,0,0:0:0:0:
64,192,119693,1,0,0:0:0:0:
448,192,120477,1,2,0:0:0:0:
320,192,120477,1,0,0:0:0:0:
192,192,120477,1,0,0:0:0:0:
320,192,120870,128,0,121164:0:0:0:0:
448,192,120870,128,0,121164:0:0:0:50:BassL.wav
192,192,120870,128,0,121164:0:0:0:0:
64,192,120870,128,0,121164:0:0:0:0:
448,192,121262,1,2,0:0:0:0:
64,192,121262,1,0,0:0:0:0:
320,192,121262,1,0,0:0:0:0:
448,192,121654,1,2,0:0:0:0:
64,192,121654,1,0,0:0:0:0:
192,192,121654,1,0,0:0:0:0:
448,192,122046,1,2,0:0:0:0:
320,192,122046,1,0,0:0:0:0:
192,192,122046,1,0,0:0:0:0:
64,192,122438,1,2,0:0:0:0:
192,192,122438,1,0,0:0:0:0:
320,192,122438,1,0,0:0:0:0:
448,192,122830,1,0,0:0:0:0:
192,192,122830,1,0,0:0:0:0:
64,192,122830,1,2,0:0:0:0:
448,192,123223,1,0,0:0:0:0:
320,192,123223,1,0,0:0:0:0:
64,192,123223,1,2,0:0:0:0:
320,192,123615,1,0,0:0:0:0:
64,192,123615,1,2,0:0:0:0:
192,192,123615,1,0,0:0:0:0:
448,192,124007,1,2,0:0:0:0:
320,192,124007,1,0,0:0:0:0:
192,192,124007,1,0,0:0:0:0:
448,192,124399,1,2,0:0:0:0:
192,192,124399,1,0,0:0:0:0:
64,192,124399,1,0,0:0:0:0:
320,192,124595,1,0,0:0:0:0:
448,192,124595,1,2,0:0:0:0:
192,192,124595,1,0,0:0:0:0:
64,192,124791,1,0,0:0:0:0:
192,192,124791,1,0,0:0:0:0:
320,192,124791,1,2,0:0:0:0:
448,192,124987,1,0,0:0:0:0:
320,192,124987,1,2,0:0:0:0:
64,192,124987,1,0,0:0:0:0:
192,192,125183,1,2,0:0:0:0:
64,192,125183,1,0,0:0:0:0:
320,192,125281,1,2,0:0:0:0:
448,192,125281,1,0,0:0:0:0:
192,192,125379,1,2,0:0:0:0:
64,192,125379,1,0,0:0:0:0:
448,192,125477,1,0,0:0:0:0:
320,192,125477,1,2,0:0:0:0:
64,192,125576,1,0,0:0:0:0:
192,192,125576,1,2,0:0:0:0:
320,192,125674,1,2,0:0:0:0:
448,192,125674,1,0,0:0:0:0:
64,192,125772,1,0,0:0:0:0:
192,192,125772,1,2,0:0:0:0:
320,192,125870,1,2,0:0:0:0:
448,192,125870,1,0,0:0:0:0:
64,192,125968,1,0,0:0:0:35:soft-hitnormal3.wav
192,192,126017,1,0,0:0:0:35:soft-hitnormal3.wav
448,192,126066,1,0,0:0:0:35:soft-hitnormal3.wav
320,192,126115,1,0,0:0:0:35:soft-hitnormal3.wav
64,192,126164,1,0,0:0:0:35:soft-hitnormal3.wav
448,192,126213,1,0,0:0:0:35:soft-hitnormal3.wav
192,192,126262,1,0,0:0:0:35:soft-hitnormal3.wav
320,192,126311,1,0,0:0:0:35:soft-hitnormal3.wav
448,192,126360,1,0,0:0:0:35:soft-hitnormal3.wav
64,192,126409,1,0,0:0:0:35:soft-hitnormal3.wav
192,192,126458,1,0,0:0:0:35:soft-hitnormal3.wav
448,192,126507,1,0,0:0:0:35:soft-hitnormal3.wav
64,192,126556,1,0,0:0:0:35:soft-hitnormal3.wav
192,192,126605,1,0,0:0:0:35:soft-hitnormal3.wav
320,192,126654,1,0,0:0:0:35:soft-hitnormal3.wav
64,192,126703,1,0,0:0:0:35:soft-hitnormal3.wav
448,192,126752,1,0,0:0:0:35:soft-hitnormal3.wav
320,192,126801,1,0,0:0:0:35:soft-hitnormal3.wav
192,192,126850,1,0,0:0:0:35:soft-hitnormal3.wav
448,192,126899,1,0,0:0:0:35:soft-hitnormal3.wav
64,192,126948,1,0,0:0:0:35:soft-hitnormal3.wav
320,192,126997,1,0,0:0:0:35:soft-hitnormal3.wav
192,192,127046,1,0,0:0:0:35:soft-hitnormal3.wav
64,192,127095,1,0,0:0:0:35:soft-hitnormal3.wav
448,192,127144,1,0,0:0:0:35:soft-hitnormal3.wav
320,192,127193,1,0,0:0:0:0:
192,192,127242,1,0,0:0:0:35:soft-hitnormal3.wav
64,192,127291,1,0,0:0:0:0:
320,192,127340,1,0,0:0:0:35:soft-hitnormal3.wav
192,192,127389,1,0,0:0:0:0:
448,192,127438,1,0,0:0:0:35:soft-hitnormal3.wav
320,192,127487,1,0,0:0:0:0:
192,192,127536,1,8,0:0:0:0:
64,192,127536,128,0,131066:0:0:0:50:bassK.wav
448,192,128125,1,0,0:0:0:0:
448,192,133419,128,0,133811:0:0:0:0:
192,192,133811,1,0,0:0:0:0:
320,192,134105,1,0,0:0:0:0:
448,192,134399,1,0,0:0:0:0:
64,192,134693,1,0,0:0:0:0:
192,192,134791,1,0,0:0:0:0:
320,192,134889,1,0,0:0:0:0:
192,192,134987,1,0,0:0:0:0:
64,192,136948,1,0,0:0:0:0:
192,192,137536,1,0,0:0:0:0:
320,192,137602,1,0,0:0:0:0:
448,192,137667,1,0,0:0:0:0:
64,192,137732,1,0,0:0:0:0:
320,192,138321,1,0,0:0:0:0:
64,192,138386,1,0,0:0:0:0:
448,192,138451,1,0,0:0:0:0:
192,192,138517,1,0,0:0:0:0:
448,192,139105,1,0,0:0:0:0:
192,192,139170,1,0,0:0:0:0:
64,192,139236,1,0,0:0:0:0:
320,192,139301,1,0,0:0:0:0:
448,192,139301,128,0,139987:0:0:0:0:
64,192,139693,128,0,139987:0:0:0:0:
64,192,140085,1,0,0:0:0:0:
448,192,140085,1,0,0:0:0:50:bassK.wav
192,192,140085,1,0,0:0:0:0:
320,192,140085,1,8,0:0:0:0:
192,192,141066,1,0,0:0:0:0:
64,192,141164,1,0,0:0:0:0:
192,192,141262,1,0,0:0:0:0:
320,192,141360,1,0,0:0:0:0:
448,192,141458,1,0,0:0:0:0:
64,192,141458,1,0,0:0:0:0:
192,192,141556,1,0,0:0:0:0:
320,192,141654,1,0,0:0:0:0:
448,192,141752,1,0,0:0:0:0:
320,192,141850,1,0,0:0:0:0:
64,192,141948,1,0,0:0:0:0:
192,192,142046,1,0,0:0:0:0:
320,192,142144,1,0,0:0:0:0:
64,192,142242,1,0,0:0:0:0:
192,192,142340,1,0,0:0:0:0:
448,192,142438,1,0,0:0:0:0:
64,192,143223,1,0,0:0:0:0:
64,192,143811,1,0,0:0:0:0:
320,192,143876,1,0,0:0:0:0:
192,192,143942,1,0,0:0:0:0:
448,192,144007,1,0,0:0:0:0:
320,192,144595,1,0,0:0:0:0:
192,192,144661,1,0,0:0:0:0:
64,192,144726,1,0,0:0:0:0:
448,192,144791,1,0,0:0:0:0:
320,192,145379,1,0,0:0:0:0:
192,192,145445,1,0,0:0:0:0:
64,192,145510,1,0,0:0:0:0:
448,192,145576,1,0,0:0:0:0:
448,192,146360,128,0,147928:0:0:0:0:
192,192,147340,1,0,0:0:0:0:
320,192,147438,1,0,0:0:0:0:
192,192,147536,1,0,0:0:0:0:
64,192,147634,1,0,0:0:0:0:
320,192,147732,1,0,0:0:0:0:
64,192,147830,1,0,0:0:0:0:
192,192,147928,128,0,149497:0:0:0:0:
320,192,148027,1,0,0:0:0:0:
448,192,148125,1,0,0:0:0:0:
320,192,148223,1,0,0:0:0:0:
64,192,148321,1,0,0:0:0:0:
320,192,148419,1,0,0:0:0:0:
448,192,148517,1,0,0:0:0:0:
64,192,148615,1,0,0:0:0:0:
320,192,148713,1,0,0:0:0:0:
64,192,149497,128,0,150870:0:0:0:0:
448,192,149497,1,0,0:0:0:0:
448,192,150085,1,0,0:0:0:0:
320,192,150151,1,0,0:0:0:0:
192,192,150216,1,0,0:0:0:0:
448,192,150281,1,0,0:0:0:0:
448,192,150870,1,0,0:0:0:0:
320,192,150935,1,0,0:0:0:0:
64,192,151000,1,0,0:0:0:0:
192,192,151066,128,0,151360:0:0:0:0:
448,192,151066,1,0,0:0:0:0:
64,192,151360,1,0,0:0:0:0:
320,192,151458,1,2,0:0:0:0:
320,192,151556,1,2,0:0:0:0:
64,192,151654,1,2,0:0:0:0:
64,192,151752,1,2,0:0:0:0:
192,192,151752,1,0,0:0:0:0:
320,192,151850,1,2,0:0:0:0:
448,192,151850,1,0,0:0:0:0:
320,192,151948,1,2,0:0:0:0:
448,192,151948,1,0,0:0:0:0:
64,192,152046,1,0,0:0:0:0:
192,192,152046,1,2,0:0:0:0:
64,192,152144,1,0,0:0:0:0:
192,192,152144,1,2,0:0:0:0:
320,192,152242,1,8,0:0:0:0:
448,192,152242,128,0,152634:0:0:0:0:
64,192,152634,128,8,153223:0:0:0:0:
192,192,152634,1,0,0:0:0:50:bassK.wav
320,192,152634,1,0,0:0:0:0:
448,192,153223,1,0,0:0:0:0:
320,192,153288,1,0,0:0:0:0:
192,192,153353,1,0,0:0:0:0:
448,192,153419,128,0,153811:0:0:0:0:
64,192,153419,1,0,0:0:0:0:
64,192,153811,1,0,0:0:0:0:
192,192,153876,1,0,0:0:0:0:
320,192,153942,1,0,0:0:0:0:
448,192,154007,1,0,0:0:0:0:
192,192,154072,1,0,0:0:0:0:
64,192,154138,1,0,0:0:0:0:
320,192,154203,128,0,154791:0:0:0:0:
448,192,154203,1,0,0:0:0:0:
64,192,154791,1,0,0:0:0:0:
192,192,154857,1,0,0:0:0:0:
448,192,154922,1,0,0:0:0:0:
320,192,154987,128,0,155576:0:0:0:0:
64,192,154987,1,0,0:0:0:0:
448,192,155576,1,0,0:0:0:0:
64,192,155641,1,0,0:0:0:0:
320,192,155706,1,0,0:0:0:0:
192,192,155772,128,0,156360:0:0:0:0:
448,192,155772,1,0,0:0:0:0:
448,192,156360,1,0,0:0:0:0:
320,192,156425,1,0,0:0:0:0:
192,192,156491,1,0,0:0:0:0:
64,192,156556,128,0,157144:0:0:0:0:
448,192,156556,1,0,0:0:0:0:
448,192,157144,1,0,0:0:0:0:
320,192,157210,1,0,0:0:0:0:
192,192,157275,1,0,0:0:0:0:
64,192,157340,128,0,157928:0:0:0:0:
448,192,157340,1,0,0:0:0:0:
448,192,157928,1,0,0:0:0:0:
320,192,157994,1,0,0:0:0:0:
192,192,158059,1,0,0:0:0:0:
64,192,158125,128,0,158517:0:0:0:0:
448,192,158125,1,0,0:0:0:0:
192,192,158517,128,0,158909:0:0:0:0:
448,192,158909,128,0,159497:0:0:0:0:
64,192,159497,1,0,0:0:0:0:
320,192,159562,1,0,0:0:0:0:
448,192,159628,1,0,0:0:0:0:
192,192,159693,128,0,160085:0:0:0:0:
64,192,159693,1,0,0:0:0:0:
64,192,160085,1,0,0:0:0:0:
320,192,160151,1,0,0:0:0:0:
448,192,160216,1,0,0:0:0:0:
64,192,160281,1,0,0:0:0:0:
192,192,160347,1,0,0:0:0:0:
320,192,160412,1,0,0:0:0:0:
448,192,160477,128,0,161066:0:0:0:0:
64,192,160477,1,0,0:0:0:0:
64,192,161066,1,0,0:0:0:0:
192,192,161131,1,0,0:0:0:0:
320,192,161196,1,0,0:0:0:0:
448,192,161262,128,0,161850:0:0:0:0:
64,192,161262,1,0,0:0:0:0:
64,192,161850,1,0,0:0:0:0:
192,192,161915,1,0,0:0:0:0:
320,192,161981,1,0,0:0:0:0:
448,192,162046,128,0,162634:0:0:0:0:
64,192,162046,1,0,0:0:0:0:
64,192,162634,1,0,0:0:0:0:
192,192,162700,1,0,0:0:0:0:
448,192,162765,1,0,0:0:0:0:
320,192,162830,128,0,163419:0:0:0:0:
64,192,162830,1,0,0:0:0:0:
64,192,163419,1,0,0:0:0:0:
192,192,163484,1,0,0:0:0:0:
320,192,163549,1,0,0:0:0:0:
448,192,163615,128,0,164203:0:0:0:0:
64,192,163615,1,0,0:0:0:0:
320,192,164203,1,0,0:0:0:0:
192,192,164268,1,0,0:0:0:0:
64,192,164334,1,0,0:0:0:0:
448,192,164399,1,0,0:0:0:0:
320,192,164399,128,0,164791:0:0:0:0:
192,192,164791,128,0,165183:0:0:0:0:
64,192,165183,128,0,165772:0:0:0:0:
448,192,165183,1,2,0:0:0:0:
320,192,165379,1,0,0:0:0:0:
448,192,165576,1,0,0:0:0:0:
192,192,165576,1,2,0:0:0:0:
320,192,165772,1,0,0:0:0:0:
448,192,165837,1,0,0:0:0:0:
192,192,165902,1,0,0:0:0:0:
320,192,165968,128,0,166360:0:0:0:0:
64,192,165968,1,2,0:0:0:0:
192,192,166164,1,0,0:0:0:0:
448,192,166360,1,0,0:0:0:0:
64,192,166360,1,2,0:0:0:0:
192,192,166425,1,0,0:0:0:0:
320,192,166491,1,0,0:0:0:0:
64,192,166556,1,0,0:0:0:0:
448,192,166621,1,0,0:0:0:0:
192,192,166687,1,0,0:0:0:0:
64,192,166752,128,2,167340:0:0:0:0:
320,192,166752,1,0,0:0:0:0:
448,192,166948,1,0,0:0:0:0:
320,192,167144,1,2,0:0:0:0:
192,192,167144,1,0,0:0:0:0:
448,192,167340,1,0,0:0:0:0:
320,192,167406,1,0,0:0:0:0:
192,192,167471,1,0,0:0:0:0:
64,192,167536,128,0,168125:0:0:0:0:
448,192,167536,1,2,0:0:0:0:
448,192,167732,1,0,0:0:0:0:
192,192,167928,1,0,0:0:0:0:
320,192,167928,1,2,0:0:0:0:
448,192,168125,1,0,0:0:0:0:
320,192,168190,1,0,0:0:0:0:
64,192,168255,1,0,0:0:0:0:
192,192,168321,128,0,168909:0:0:0:0:
448,192,168321,1,2,0:0:0:0:
64,192,168517,1,0,0:0:0:0:
448,192,168713,1,0,0:0:0:0:
320,192,168713,1,2,0:0:0:0:
64,192,168909,1,0,0:0:0:0:
320,192,168974,1,0,0:0:0:0:
192,192,169040,1,0,0:0:0:0:
448,192,169105,128,0,169693:0:0:0:0:
64,192,169105,1,2,0:0:0:0:
320,192,169301,1,0,0:0:0:0:
192,192,169497,1,2,0:0:0:0:
64,192,169497,1,0,0:0:0:0:
64,192,169693,1,0,0:0:0:0:
192,192,169759,1,0,0:0:0:0:
320,192,169824,1,0,0:0:0:0:
448,192,169889,128,0,170477:0:0:0:0:
64,192,169889,1,2,0:0:0:0:
192,192,170085,1,0,0:0:0:0:
64,192,170281,1,2,0:0:0:0:
320,192,170281,1,0,0:0:0:0:
320,192,170477,1,0,0:0:0:0:
192,192,170543,1,0,0:0:0:0:
64,192,170608,1,0,0:0:0:0:
448,192,170674,128,0,171066:0:0:0:0:
320,192,170674,1,2,0:0:0:0:
192,192,170870,1,0,0:0:0:0:
64,192,171066,128,0,171458:0:0:0:0:
320,192,171066,1,2,0:0:0:0:
448,192,171262,1,0,0:0:0:0:
192,192,171458,128,0,172046:0:0:0:0:
320,192,171458,1,2,0:0:0:0:
448,192,171654,1,2,0:0:0:0:
64,192,171654,1,0,0:0:0:0:
320,192,171850,1,0,0:0:0:0:
64,192,171850,1,2,0:0:0:0:
448,192,172046,1,0,0:0:0:0:
320,192,172046,1,2,0:0:0:0:
64,192,172111,1,0,0:0:0:0:
192,192,172177,1,0,0:0:0:0:
448,192,172242,128,2,172634:0:0:0:0:
320,192,172242,1,0,0:0:0:0:
192,192,172438,1,2,0:0:0:0:
64,192,172438,1,0,0:0:0:0:
64,192,172634,1,0,0:0:0:0:
320,192,172634,1,2,0:0:0:0:
192,192,172683,1,2,0:0:0:0:
320,192,172732,1,2,0:0:0:0:
448,192,172781,1,2,0:0:0:0:
192,192,172830,1,2,0:0:0:0:
64,192,172830,1,0,0:0:0:0:
192,192,172928,1,2,0:0:0:0:
64,192,172928,1,0,0:0:0:0:
320,192,173027,1,2,0:0:0:0:
448,192,173027,128,0,173615:0:0:0:0:
64,192,173223,1,2,0:0:0:0:
320,192,173223,1,0,0:0:0:0:
320,192,173419,1,0,0:0:0:0:
192,192,173419,1,2,0:0:0:0:
64,192,173615,1,2,0:0:0:0:
192,192,173615,1,0,0:0:0:0:
320,192,173680,1,0,0:0:0:0:
448,192,173745,1,0,0:0:0:0:
64,192,173811,128,2,174399:0:0:0:0:
192,192,173811,1,0,0:0:0:0:
320,192,174007,1,0,0:0:0:0:
448,192,174007,1,2,0:0:0:0:
192,192,174203,1,0,0:0:0:0:
448,192,174203,1,2,0:0:0:0:
192,192,174301,1,2,0:0:0:0:
448,192,174399,1,2,0:0:0:0:
320,192,174448,1,2,0:0:0:0:
192,192,174497,1,2,0:0:0:0:
64,192,174546,1,2,0:0:0:0:
320,192,174595,1,2,0:0:0:0:
448,192,174595,1,0,0:0:0:0:
448,192,174693,1,0,0:0:0:0:
320,192,174693,1,2,0:0:0:0:
64,192,174791,1,0,0:0:0:0:
192,192,174791,1,2,0:0:0:0:
320,192,174889,1,2,0:0:0:0:
448,192,174889,1,0,0:0:0:0:
64,192,174987,1,2,0:0:0:0:
192,192,175036,1,2,0:0:0:0:
320,192,175085,1,2,0:0:0:0:
448,192,175134,1,2,0:0:0:0:
64,192,175183,1,0,0:0:0:0:
192,192,175183,1,2,0:0:0:0:
64,192,175281,1,0,0:0:0:0:
192,192,175281,1,2,0:0:0:0:
320,192,175379,1,2,0:0:0:0:
448,192,175379,1,0,0:0:0:0:
64,192,175477,1,0,0:0:0:0:
192,192,175477,1,2,0:0:0:0:
320,192,175576,1,2,0:0:0:0:
448,192,175576,1,0,0:0:0:0:
64,192,175674,1,0,0:0:0:0:
192,192,175674,1,2,0:0:0:0:
320,192,175772,1,2,0:0:0:0:
448,192,175821,1,2,0:0:0:0:
64,192,175870,1,2,0:0:0:0:
192,192,175919,1,2,0:0:0:0:
448,192,175968,1,0,0:0:0:0:
320,192,175968,1,2,0:0:0:0:
320,192,176066,1,2,0:0:0:0:
448,192,176066,1,0,0:0:0:0:
64,192,176164,128,0,176752:0:0:0:0:
192,192,176164,1,2,0:0:0:0:
192,192,176752,1,0,0:0:0:0:
320,192,176817,1,0,0:0:0:0:
448,192,176883,1,0,0:0:0:0:
192,192,176948,128,0,177340:0:0:0:0:
64,192,176948,1,0,0:0:0:0:
448,192,177340,128,0,177536:0:0:0:0:
320,192,177340,128,0,177536:0:0:0:0:
64,192,177536,1,0,0:0:0:0:
64,192,177634,1,0,0:0:0:0:
448,192,177732,1,4,0:0:0:0:
320,192,177732,1,2,0:0:0:0:
192,192,177732,1,0,0:0:0:0:
448,192,177830,1,2,0:0:0:0:
320,192,177830,1,0,0:0:0:0:
192,192,177928,1,0,0:0:0:0:
64,192,177928,1,2,0:0:0:0:
192,192,178027,1,0,0:0:0:0:
320,192,178027,1,2,0:0:0:0:
448,192,178125,1,0,0:0:0:0:
320,192,178125,1,2,0:0:0:0:
192,192,178223,1,0,0:0:0:0:
64,192,178223,1,2,0:0:0:0:
448,192,178321,1,0,0:0:0:0:
320,192,178321,1,2,0:0:0:0:
64,192,178419,1,2,0:0:0:0:
448,192,178419,1,0,0:0:0:0:
320,192,178517,1,2,0:0:0:0:
64,192,178517,1,4,0:0:0:0:
320,192,178615,1,2,0:0:0:0:
448,192,178615,1,0,0:0:0:0:
192,192,178713,1,2,0:0:0:0:
64,192,178713,1,0,0:0:0:0:
320,192,178811,1,0,0:0:0:0:
64,192,178811,1,2,0:0:0:0:
320,192,178909,1,2,0:0:0:0:
448,192,178909,1,0,0:0:0:0:
192,192,179007,1,2,0:0:0:0:
64,192,179007,1,0,0:0:0:0:
64,192,179105,1,2,0:0:0:0:
448,192,179105,1,0,0:0:0:0:
320,192,179203,1,2,0:0:0:0:
192,192,179203,1,0,0:0:0:0:
448,192,179301,128,6,179595:0:0:0:0:
64,192,179301,1,0,0:0:0:0:
320,192,179399,128,0,179595:0:0:0:0:
192,192,179497,128,0,179693:0:0:0:0:
64,192,179595,128,0,179693:0:0:0:0:
448,192,179693,128,0,180085:0:0:0:0:
320,192,179693,128,0,179987:0:0:0:0:
64,192,179889,128,0,180183:0:0:0:0:
192,192,179987,128,0,180281:0:0:0:0:
320,192,180085,128,0,180379:0:0:0:0:
448,192,180183,128,0,180477:0:0:0:0:
64,192,180281,128,0,180576:0:0:0:0:
192,192,180379,128,0,180576:0:0:0:0:
320,192,180477,128,0,180674:0:0:0:0:
448,192,180576,128,0,180674:0:0:0:0:
192,192,180674,128,0,180870:0:0:0:0:
64,192,180674,128,0,180870:0:0:0:0:
320,192,180870,1,2,0:0:0:0:
448,192,180870,1,4,0:0:0:0:
448,192,180968,1,2,0:0:0:0:
320,192,180968,1,0,0:0:0:0:
192,192,181066,1,2,0:0:0:0:
64,192,181066,1,0,0:0:0:0:
64,192,181164,1,0,0:0:0:0:
320,192,181164,1,2,0:0:0:0:
448,192,181262,1,0,0:0:0:0:
320,192,181262,1,2,0:0:0:0:
64,192,181360,1,0,0:0:0:0:
192,192,181360,1,2,0:0:0:0:
192,192,181458,1,0,0:0:0:0:
320,192,181458,1,2,0:0:0:0:
448,192,181556,1,2,0:0:0:0:
64,192,181556,1,0,0:0:0:0:
320,192,181654,1,2,0:0:0:0:
448,192,181654,1,4,0:0:0:0:
192,192,181752,1,0,0:0:0:0:
64,192,181752,1,2,0:0:0:0:
448,192,181850,1,0,0:0:0:0:
192,192,181850,1,2,0:0:0:0:
64,192,181948,1,0,0:0:0:0:
448,192,181948,1,2,0:0:0:0:
192,192,182046,1,0,0:0:0:0:
320,192,182046,1,2,0:0:0:0:
192,192,182144,1,2,0:0:0:0:
64,192,182144,1,0,0:0:0:0:
320,192,182242,1,2,0:0:0:0:
448,192,182242,1,0,0:0:0:0:
320,192,182340,1,2,0:0:0:0:
64,192,182340,1,0,0:0:0:0:
448,192,182438,128,4,182634:0:0:0:0:
64,192,182438,1,8,0:0:0:0:
320,192,182536,128,0,182732:0:0:0:0:
64,192,182634,128,0,182830:0:0:0:0:
192,192,182732,128,0,182928:0:0:0:0:
320,192,182830,128,0,183027:0:0:0:0:
448,192,182928,128,0,183027:0:0:0:0:
64,192,183027,1,0,0:0:0:0:
192,192,183076,1,0,0:0:0:0:
448,192,183125,1,0,0:0:0:0:
320,192,183174,1,0,0:0:0:0:
192,192,183223,1,0,0:0:0:0:
64,192,183272,1,0,0:0:0:0:
320,192,183321,1,0,0:0:0:0:
448,192,183370,1,0,0:0:0:0:
64,192,183419,1,0,0:0:0:0:
192,192,183468,1,0,0:0:0:0:
320,192,183517,1,0,0:0:0:0:
448,192,183566,1,0,0:0:0:0:
64,192,183615,128,0,183811:0:0:0:0:
192,192,183615,128,0,183811:0:0:0:0:
64,192,184007,1,0,0:0:0:0:
448,192,184007,1,2,0:0:0:0:
192,192,184056,1,0,0:0:0:0:
320,192,184105,1,0,0:0:0:0:
64,192,184154,1,0,0:0:0:0:
448,192,184203,1,0,0:0:0:0:
192,192,184252,1,0,0:0:0:0:
320,192,184301,1,0,0:0:0:0:
448,192,184350,1,0,0:0:0:0:
64,192,184399,1,0,0:0:0:0:
192,192,184448,1,0,0:0:0:0:
448,192,184497,1,0,0:0:0:0:
320,192,184546,1,0,0:0:0:0:
64,192,184595,1,0,0:0:0:0:
448,192,184644,1,0,0:0:0:0:
320,192,184693,1,0,0:0:0:0:
192,192,184742,1,0,0:0:0:0:
448,192,184791,1,0,0:0:0:0:
64,192,184840,1,0,0:0:0:0:
192,192,184889,1,0,0:0:0:0:
320,192,184938,1,0,0:0:0:0:
64,192,184987,1,0,0:0:0:0:
448,192,185036,1,0,0:0:0:0:
192,192,185085,1,0,0:0:0:0:
320,192,185134,1,0,0:0:0:0:
448,192,185183,1,0,0:0:0:0:
64,192,185232,1,0,0:0:0:0:
192,192,185281,1,0,0:0:0:0:
448,192,185330,1,0,0:0:0:0:
320,192,185379,1,0,0:0:0:0:
192,192,185428,1,0,0:0:0:0:
448,192,185477,1,0,0:0:0:0:
320,192,185527,1,0,0:0:0:0:
64,192,185576,1,2,0:0:0:0:
448,192,185625,1,0,0:0:0:0:
192,192,185674,1,0,0:0:0:0:
64,192,185723,1,0,0:0:0:0:
320,192,185772,1,0,0:0:0:0:
192,192,185821,1,0,0:0:0:0:
448,192,185870,1,0,0:0:0:0:
64,192,185919,1,0,0:0:0:0:
192,192,185968,1,0,0:0:0:0:
320,192,186017,1,0,0:0:0:0:
64,192,186066,1,0,0:0:0:0:
192,192,186115,1,0,0:0:0:0:
448,192,186164,1,0,0:0:0:0:
320,192,186213,1,0,0:0:0:0:
64,192,186262,1,0,0:0:0:0:
448,192,186311,1,0,0:0:0:0:
320,192,186360,1,0,0:0:0:0:
192,192,186409,1,0,0:0:0:0:
64,192,186458,1,0,0:0:0:0:
448,192,186507,1,0,0:0:0:0:
320,192,186556,1,0,0:0:0:0:
64,192,186605,1,0,0:0:0:0:
448,192,186654,1,0,0:0:0:0:
192,192,186703,1,0,0:0:0:0:
64,192,186752,1,0,0:0:0:0:
448,192,186801,1,0,0:0:0:0:
320,192,186850,1,0,0:0:0:0:
64,192,186899,1,0,0:0:0:0:
192,192,186948,1,0,0:0:0:0:
448,192,186997,1,0,0:0:0:0:
64,192,187046,1,0,0:0:0:0:
192,192,187095,1,0,0:0:0:0:
320,192,187144,1,8,0:0:0:0:
448,192,187144,1,2,0:0:0:0:
64,192,187193,1,0,0:0:0:0:
192,192,187242,1,0,0:0:0:0:
320,192,187291,1,0,0:0:0:0:
448,192,187340,1,0,0:0:0:0:
64,192,187389,1,0,0:0:0:0:
192,192,187438,1,8,0:0:0:0:
320,192,187438,1,2,0:0:0:0:
448,192,187487,1,0,0:0:0:0:
64,192,187536,1,0,0:0:0:0:
192,192,187585,1,0,0:0:0:0:
320,192,187634,1,0,0:0:0:0:
448,192,187683,1,0,0:0:0:0:
192,192,187732,1,8,0:0:0:0:
64,192,187732,1,2,0:0:0:0:
320,192,187781,1,0,0:0:0:0:
448,192,187830,1,0,0:0:0:0:
64,192,187879,1,0,0:0:0:0:
320,192,187928,1,2,0:0:0:0:
192,192,187928,1,8,0:0:0:0:
448,192,187977,1,0,0:0:0:0:
64,192,188027,1,0,0:0:0:0:
192,192,188076,1,0,0:0:0:0:
320,192,188125,1,0,0:0:0:0:
448,192,188174,1,0,0:0:0:0:
64,192,188223,1,0,0:0:0:0:
192,192,188272,1,0,0:0:0:0:
448,192,188321,1,0,0:0:0:0:
320,192,188370,1,0,0:0:0:0:
192,192,188419,1,0,0:0:0:0:
64,192,188468,1,0,0:0:0:0:
448,192,188517,1,0,0:0:0:0:
320,192,188566,1,0,0:0:0:0:
192,192,188615,1,0,0:0:0:0:
64,192,188664,1,0,0:0:0:0:
448,192,188713,128,8,189693:0:0:0:0:
320,192,188713,128,2,189693:0:0:0:0:
64,192,189693,1,2,0:0:0:0:
192,192,189693,1,0,0:0:0:0:
64,192,190281,1,2,0:0:0:0:
448,192,190281,128,0,190379:0:0:0:0:
192,192,190281,1,0,0:0:0:0:
320,192,190379,128,0,190477:0:0:0:0:
192,192,190477,128,0,190576:0:0:0:0:
64,192,190477,1,0,0:0:0:0:
448,192,190576,128,0,190674:0:0:0:0:
192,192,190674,1,8,0:0:0:0:
64,192,190674,128,0,190772:0:0:0:0:
320,192,190674,1,0,0:0:0:0:
448,192,190772,128,0,190968:0:0:0:0:
192,192,190870,128,0,190968:0:0:0:0:
320,192,190870,1,0,0:0:0:0:
64,192,190968,128,0,191066:0:0:0:0:
192,192,191066,1,0,0:0:0:0:
448,192,191066,1,0,0:0:0:0:
320,192,191066,1,2,0:0:0:0:
64,192,191164,128,0,191360:0:0:0:0:
192,192,191262,1,0,0:0:0:0:
448,192,191262,128,0,191360:0:0:0:0:
320,192,191360,128,0,191458:0:0:0:0:
448,192,191458,1,8,0:0:0:0:
192,192,191458,1,0,0:0:0:0:
64,192,191458,1,0,0:0:0:0:
320,192,191556,128,0,191752:0:0:0:0:
448,192,191654,1,0,0:0:0:0:
64,192,191654,128,0,191752:0:0:0:0:
192,192,191752,128,0,191850:0:0:0:0:
448,192,191850,1,0,0:0:0:0:
64,192,191850,1,2,0:0:0:0:
320,192,191850,128,0,191948:0:0:0:0:
192,192,191948,128,0,192046:0:0:0:0:
448,192,192046,128,0,192144:0:0:0:0:
64,192,192046,1,0,0:0:0:0:
320,192,192144,128,0,192242:0:0:0:0:
64,192,192242,1,0,0:0:0:0:
192,192,192242,128,0,192340:0:0:0:0:
448,192,192242,1,8,0:0:0:0:
320,192,192340,128,0,192536:0:0:0:0:
64,192,192438,128,0,192536:0:0:0:0:
448,192,192438,1,0,0:0:0:0:
192,192,192536,128,0,192634:0:0:0:0:
320,192,192634,1,2,0:0:0:0:
64,192,192634,1,0,0:0:0:0:
448,192,192634,1,0,0:0:0:0:
192,192,192732,128,0,192928:0:0:0:0:
320,192,192830,128,0,192928:0:0:0:0:
64,192,192830,1,0,0:0:0:0:
448,192,192928,128,0,193027:0:0:0:0:
192,192,193027,1,8,0:0:0:0:
320,192,193027,1,0,0:0:0:0:
64,192,193027,1,0,0:0:0:0:
448,192,193125,128,0,193321:0:0:0:0:
192,192,193223,128,0,193321:0:0:0:0:
64,192,193223,1,0,0:0:0:0:
320,192,193321,128,0,193419:0:0:0:0:
64,192,193419,128,0,193517:0:0:0:0:
448,192,193419,1,2,0:0:0:0:
192,192,193419,128,0,193517:0:0:0:0:
320,192,193517,128,0,193615:0:0:0:0:
448,192,193615,128,0,193713:0:0:0:0:
192,192,193615,128,0,193713:0:0:0:0:
64,192,193713,128,0,193811:0:0:0:0:
192,192,193811,128,0,193909:0:0:0:0:
448,192,193811,1,8,0:0:0:0:
320,192,193811,128,0,193909:0:0:0:0:
64,192,193909,128,0,194007:0:0:0:0:
448,192,194007,128,0,194105:0:0:0:0:
320,192,194007,128,0,194105:0:0:0:0:
192,192,194105,128,0,194203:0:0:0:0:
448,192,194203,1,2,0:0:0:0:
320,192,194203,128,0,194301:0:0:0:0:
64,192,194203,128,0,194301:0:0:0:0:
192,192,194301,128,0,194399:0:0:0:0:
448,192,194399,128,0,194497:0:0:0:0:
64,192,194399,128,0,194497:0:0:0:0:
320,192,194497,128,0,194595:0:0:0:0:
448,192,194595,1,8,0:0:0:0:
64,192,194595,128,0,194693:0:0:0:0:
192,192,194595,128,0,194693:0:0:0:0:
320,192,194693,128,0,194791:0:0:0:0:
192,192,194791,128,0,194889:0:0:0:0:
448,192,194791,128,0,194889:0:0:0:0:
64,192,194889,128,0,194987:0:0:0:0:
320,192,194987,128,0,195183:0:0:0:0:
448,192,194987,1,2,0:0:0:0:
192,192,194987,128,0,195085:0:0:0:0:
64,192,195085,128,0,195183:0:0:0:0:
448,192,195183,128,0,195281:0:0:0:0:
192,192,195183,128,0,195281:0:0:0:0:
320,192,195281,128,0,195379:0:0:0:0:
448,192,195379,1,8,0:0:0:0:
192,192,195379,128,0,195576:0:0:0:0:
64,192,195379,128,0,195477:0:0:0:0:
320,192,195477,128,0,195576:0:0:0:0:
448,192,195576,128,0,195674:0:0:0:0:
64,192,195576,128,0,195674:0:0:0:0:
192,192,195674,128,0,195772:0:0:0:0:
64,192,195772,1,0,0:0:0:0:
320,192,195772,128,0,195870:0:0:0:0:
448,192,195772,128,2,195968:0:0:0:0:
192,192,195870,128,0,195968:0:0:0:0:
320,192,195968,128,0,196066:0:0:0:0:
64,192,195968,128,0,196066:0:0:0:0:
448,192,196066,128,0,196164:0:0:0:0:
64,192,196164,1,8,0:0:0:0:
320,192,196164,128,0,196360:0:0:0:0:
192,192,196164,128,0,196262:0:0:0:0:
448,192,196262,128,0,196360:0:0:0:0:
64,192,196360,128,0,196458:0:0:0:0:
192,192,196360,128,0,196458:0:0:0:0:
320,192,196458,128,0,196556:0:0:0:0:
448,192,196556,1,2,0:0:0:0:
64,192,196556,1,0,0:0:0:0:
192,192,196556,128,0,196654:0:0:0:0:
320,192,196654,128,0,196752:0:0:0:0:
448,192,196752,1,0,0:0:0:0:
64,192,196752,128,0,196850:0:0:0:0:
192,192,196850,128,0,196948:0:0:0:0:
320,192,196948,1,8,0:0:0:0:
64,192,196948,1,0,0:0:0:0:
448,192,196948,128,0,197046:0:0:0:0:
192,192,197046,128,0,197242:0:0:0:0:
320,192,197144,1,0,0:0:0:0:
64,192,197144,128,0,197242:0:0:0:0:
448,192,197242,128,0,197340:0:0:0:0:
192,192,197340,1,0,0:0:0:0:
320,192,197340,1,2,0:0:0:0:
64,192,197340,1,0,0:0:0:0:
448,192,197438,128,0,197634:0:0:0:0:
320,192,197536,1,0,0:0:0:0:
192,192,197536,128,0,197634:0:0:0:0:
64,192,197634,128,0,197732:0:0:0:0:
448,192,197732,1,0,0:0:0:0:
192,192,197732,1,0,0:0:0:0:
320,192,197732,1,8,0:0:0:0:
64,192,197830,128,0,198027:0:0:0:0:
448,192,197928,1,0,0:0:0:0:
192,192,197928,128,0,198027:0:0:0:0:
320,192,198027,128,0,198125:0:0:0:0:
192,192,198125,1,2,0:0:0:0:
64,192,198125,1,0,0:0:0:0:
448,192,198125,128,0,198223:0:0:0:0:
320,192,198223,128,0,198321:0:0:0:0:
448,192,198321,1,0,0:0:0:0:
64,192,198321,128,0,198419:0:0:0:0:
192,192,198419,128,0,198517:0:0:0:0:
320,192,198517,1,8,0:0:0:0:
64,192,198517,1,0,0:0:0:0:
448,192,198517,128,0,198615:0:0:0:0:
192,192,198615,128,0,198811:0:0:0:0:
64,192,198713,1,0,0:0:0:0:
320,192,198713,128,0,198811:0:0:0:0:
448,192,198811,128,0,198909:0:0:0:0:
320,192,198909,1,0,0:0:0:0:
192,192,198909,1,2,0:0:0:0:
64,192,198909,1,0,0:0:0:0:
448,192,199007,128,0,199203:0:0:0:0:
192,192,199105,1,0,0:0:0:0:
320,192,199105,128,0,199203:0:0:0:0:
64,192,199203,128,0,199301:0:0:0:0:
448,192,199301,1,0,0:0:0:0:
192,192,199301,1,8,0:0:0:0:
320,192,199301,128,0,199399:0:0:0:0:
64,192,199399,128,0,199595:0:0:0:0:
192,192,199497,128,0,199595:0:0:0:0:
448,192,199497,1,0,0:0:0:0:
320,192,199595,128,0,199693:0:0:0:0:
64,192,199693,1,2,0:0:0:0:
448,192,199693,128,0,199791:0:0:0:0:
192,192,199693,128,0,199791:0:0:0:0:
320,192,199791,128,0,199889:0:0:0:0:
64,192,199889,128,0,199987:0:0:0:0:
448,192,199889,128,0,199987:0:0:0:0:
192,192,199987,128,0,200085:0:0:0:0:
64,192,200085,5,8,0:0:0:0:
320,192,200085,128,0,200183:0:0:0:0:
448,192,200085,128,0,200183:0:0:0:0:
192,192,200183,128,0,200281:0:0:0:0:
64,192,200281,128,0,200379:0:0:0:0:
320,192,200281,128,0,200379:0:0:0:0:
448,192,200379,128,0,200477:0:0:0:0:
320,192,200477,1,2,0:0:0:0:
192,192,200477,128,0,200576:0:0:0:0:
64,192,200477,128,0,200576:0:0:0:0:
448,192,200576,128,0,200674:0:0:0:0:
320,192,200674,128,0,200772:0:0:0:0:
192,192,200674,128,0,200772:0:0:0:0:
64,192,200772,128,0,200870:0:0:0:0:
448,192,200870,128,0,200968:0:0:0:0:
320,192,200870,128,0,200968:0:0:0:0:
192,192,200870,1,8,0:0:0:0:
64,192,200968,128,0,201066:0:0:0:0:
192,192,201066,128,0,201164:0:0:0:0:
448,192,201066,128,0,201164:0:0:0:0:
320,192,201164,128,0,201262:0:0:0:0:
448,192,201262,128,0,201556:0:0:0:0:
192,192,201262,1,2,0:0:0:0:
64,192,201262,128,0,201360:0:0:0:0:
320,192,201360,128,0,201458:0:0:0:0:
192,192,201458,128,0,201556:0:0:0:0:
64,192,201458,128,0,201556:0:0:0:0:
320,192,201556,128,0,201654:0:0:0:0:
448,192,201654,128,8,201752:0:0:0:0:
64,192,201654,128,0,201850:0:0:0:0:
192,192,201654,128,0,201752:0:0:0:0:
320,192,201752,128,0,201850:0:0:0:0:
448,192,201850,128,8,201948:0:0:0:0:
192,192,201850,128,0,201948:0:0:0:0:
64,192,201948,128,0,202046:0:0:0:0:
448,192,202144,128,0,202340:0:0:0:0:
192,192,202144,128,2,202340:0:0:0:0:
64,192,202242,128,2,202340:0:0:0:0:
320,192,202340,128,2,202438:0:0:0:0:
448,192,202438,128,8,202634:0:0:0:0:
64,192,202438,128,0,202536:0:0:0:0:
192,192,202438,1,0,0:0:0:0:
320,192,202536,128,0,202634:0:0:0:0:
192,192,202634,128,8,202732:0:0:0:0:
64,192,202634,128,0,202830:0:0:0:0:
320,192,202732,128,0,202830:0:0:0:0:
192,192,202830,1,0,0:0:0:0:
448,192,202830,128,2,202928:0:0:0:0:
320,192,202928,128,0,203027:0:0:0:0:
64,192,203027,1,0,0:0:0:0:
192,192,203027,128,0,203125:0:0:0:0:
448,192,203125,128,0,203223:0:0:0:0:
192,192,203223,1,0,0:0:0:0:
320,192,203223,128,0,203321:0:0:0:0:
64,192,203223,1,8,0:0:0:0:
448,192,203321,128,0,203517:0:0:0:0:
320,192,203419,1,0,0:0:0:0:
192,192,203419,128,0,203517:0:0:0:0:
64,192,203517,128,0,203615:0:0:0:0:
448,192,203615,1,2,0:0:0:0:
192,192,203615,1,0,0:0:0:0:
320,192,203615,1,0,0:0:0:0:
64,192,203713,128,0,203909:0:0:0:0:
448,192,203811,1,0,0:0:0:0:
192,192,203811,128,0,203909:0:0:0:0:
320,192,203909,128,0,204007:0:0:0:0:
64,192,204007,1,8,0:0:0:0:
448,192,204007,1,0,0:0:0:0:
192,192,204007,1,0,0:0:0:0:
320,192,204105,128,0,204301:0:0:0:0:
64,192,204203,1,0,0:0:0:0:
448,192,204203,128,0,204301:0:0:0:0:
192,192,204301,128,0,204399:0:0:0:0:
448,192,204399,1,0,0:0:0:0:
320,192,204399,1,2,0:0:0:0:
64,192,204399,1,0,0:0:0:0:
192,192,204497,128,0,204595:0:0:0:0:
64,192,204595,128,0,204693:0:0:0:0:
320,192,204595,1,0,0:0:0:0:
448,192,204693,128,0,204791:0:0:0:0:
320,192,204791,1,8,0:0:0:0:
64,192,204791,1,0,0:0:0:0:
192,192,204791,128,0,204889:0:0:0:0:
448,192,204889,128,0,205085:0:0:0:0:
192,192,204987,1,0,0:0:0:0:
320,192,204987,128,0,205085:0:0:0:0:
64,192,205085,128,0,205183:0:0:0:0:
448,192,205183,1,0,0:0:0:0:
192,192,205183,1,2,0:0:0:0:
320,192,205183,1,0,0:0:0:0:
64,192,205281,128,0,205477:0:0:0:0:
448,192,205379,128,0,205477:0:0:0:0:
320,192,205379,1,0,0:0:0:0:
192,192,205477,128,0,205576:0:0:0:0:
64,192,205576,1,0,0:0:0:0:
448,192,205576,1,0,0:0:0:0:
320,192,205576,128,8,205674:0:0:0:0:
192,192,205674,128,0,205870:0:0:0:0:
448,192,205772,1,0,0:0:0:0:
64,192,205772,128,0,205870:0:0:0:0:
320,192,205870,128,0,205968:0:0:0:0:
192,192,205968,1,2,0:0:0:0:
64,192,205968,1,0,0:0:0:0:
448,192,205968,128,0,206066:0:0:0:0:
320,192,206066,128,0,206164:0:0:0:0:
448,192,206164,128,0,206262:0:0:0:0:
64,192,206164,128,0,206262:0:0:0:0:
192,192,206262,128,0,206360:0:0:0:0:
448,192,206360,1,8,0:0:0:0:
320,192,206360,128,0,206458:0:0:0:0:
64,192,206360,128,0,206458:0:0:0:0:
192,192,206458,128,0,206556:0:0:0:0:
448,192,206556,128,0,206654:0:0:0:0:
320,192,206556,128,0,206654:0:0:0:0:
64,192,206654,128,0,206752:0:0:0:0:
320,192,206752,1,2,0:0:0:0:
448,192,206752,128,0,206850:0:0:0:0:
192,192,206752,128,0,206850:0:0:0:0:
64,192,206850,128,0,206948:0:0:0:0:
320,192,206948,128,0,207046:0:0:0:0:
192,192,206948,128,0,207046:0:0:0:0:
448,192,207046,128,0,207144:0:0:0:0:
64,192,207144,128,0,207242:0:0:0:0:
192,192,207144,1,8,0:0:0:0:
320,192,207144,128,0,207242:0:0:0:0:
448,192,207242,128,0,207340:0:0:0:0:
192,192,207340,128,0,207438:0:0:0:0:
320,192,207340,128,0,207438:0:0:0:0:
64,192,207438,128,0,207536:0:0:0:0:
192,192,207536,1,2,0:0:0:0:
320,192,207536,128,0,207732:0:0:0:0:
448,192,207536,128,0,207634:0:0:0:0:
64,192,207634,128,0,207732:0:0:0:0:
192,192,207732,128,0,207830:0:0:0:0:
448,192,207732,128,0,207830:0:0:0:0:
320,192,207830,128,0,207928:0:0:0:0:
192,192,207928,128,0,208125:0:0:0:0:
448,192,207928,1,8,0:0:0:0:
64,192,207928,128,0,208027:0:0:0:0:
320,192,208027,128,0,208125:0:0:0:0:
448,192,208125,128,0,208223:0:0:0:0:
64,192,208125,128,0,208223:0:0:0:0:
192,192,208223,128,0,208321:0:0:0:0:
64,192,208321,1,2,0:0:0:0:
448,192,208321,128,0,208517:0:0:0:0:
320,192,208321,128,0,208419:0:0:0:0:
192,192,208419,128,0,208517:0:0:0:0:
320,192,208517,128,0,208615:0:0:0:0:
64,192,208517,128,0,208615:0:0:0:0:
448,192,208615,128,0,208713:0:0:0:0:
320,192,208713,1,8,0:0:0:0:
64,192,208713,128,0,208909:0:0:0:0:
192,192,208713,128,0,208811:0:0:0:0:
448,192,208811,128,0,208909:0:0:0:0:
320,192,208909,128,0,209007:0:0:0:0:
192,192,208909,128,0,209007:0:0:0:0:
64,192,209007,128,0,209105:0:0:0:0:
192,192,209105,1,2,0:0:0:0:
448,192,209105,1,0,0:0:0:0:
320,192,209105,128,0,209203:0:0:0:0:
64,192,209203,128,0,209301:0:0:0:0:
192,192,209301,1,0,0:0:0:0:
448,192,209301,128,0,209399:0:0:0:0:
320,192,209399,128,2,209497:0:0:0:0:
448,192,209497,1,0,0:0:0:0:
64,192,209497,1,8,0:0:0:0:
192,192,209497,128,0,209595:0:0:0:0:
320,192,209595,128,0,209791:0:0:0:0:
448,192,209693,1,8,0:0:0:0:
64,192,209693,128,0,209791:0:0:0:0:
192,192,209791,128,0,209889:0:0:0:0:
320,192,209889,1,0,0:0:0:0:
448,192,209889,1,2,0:0:0:0:
64,192,209889,1,0,0:0:0:0:
448,192,209987,128,2,210183:0:0:0:0:
320,192,209987,128,0,210085:0:0:0:0:
64,192,210085,1,0,0:0:0:0:
192,192,210085,128,0,210183:0:0:0:0:
320,192,210183,128,2,210281:0:0:0:0:
64,192,210281,1,2,0:0:0:0:
448,192,210281,1,0,0:0:0:0:
192,192,210330,1,2,0:0:0:0:
320,192,210379,1,2,0:0:0:0:
448,192,210428,1,2,0:0:0:0:
64,192,210477,1,2,0:0:0:0:
192,192,210477,128,0,210576:0:0:0:0:
320,192,210576,128,0,210674:0:0:0:0:
448,192,210674,1,0,0:0:0:0:
192,192,210674,1,2,0:0:0:0:
64,192,210674,128,0,210772:0:0:0:0:
320,192,210772,128,0,210870:0:0:0:0:
192,192,210870,1,0,0:0:0:0:
448,192,210870,128,0,210968:0:0:0:0:
64,192,210968,128,2,211066:0:0:0:0:
192,192,211066,1,8,0:0:0:0:
448,192,211066,1,0,0:0:0:0:
320,192,211066,128,0,211164:0:0:0:0:
64,192,211164,128,0,211360:0:0:0:0:
448,192,211262,128,0,211360:0:0:0:0:
192,192,211262,128,8,211360:0:0:0:0:
320,192,211360,128,0,211458:0:0:0:0:
192,192,211458,1,2,0:0:0:0:
64,192,211458,1,0,0:0:0:0:
448,192,211458,1,0,0:0:0:0:
64,192,211556,128,0,211654:0:0:0:0:
192,192,211556,128,2,211654:0:0:0:0:
448,192,211654,1,0,0:0:0:0:
320,192,211654,128,0,211752:0:0:0:0:
192,192,211752,128,2,211850:0:0:0:0:
448,192,211850,1,2,0:0:0:0:
320,192,211899,1,2,0:0:0:0:
192,192,211948,1,2,0:0:0:0:
64,192,211997,1,2,0:0:0:0:
448,192,212046,1,2,0:0:0:0:
320,192,212046,128,0,212144:0:0:0:0:
192,192,212144,128,0,212242:0:0:0:0:
448,192,212242,128,8,212438:0:0:0:0:
64,192,212242,128,0,212340:0:0:0:0:
320,192,212242,128,2,212340:0:0:0:0:
192,192,212340,128,0,212438:0:0:0:0:
320,192,212438,128,0,212536:0:0:0:0:
448,192,212536,128,2,212634:0:0:0:0:
192,192,212536,128,0,212634:0:0:0:0:
64,192,212536,128,8,212732:0:0:0:0:
320,192,212634,128,0,212732:0:0:0:0:
448,192,212732,128,0,212830:0:0:0:0:
320,192,212830,1,8,0:0:0:0:
64,192,212830,128,0,213125:0:0:0:0:
192,192,212830,128,2,212928:0:0:0:0:
448,192,212928,128,0,213027:0:0:0:0:
320,192,213125,1,0,0:0:0:0:
448,192,213125,1,2,0:0:0:0:
192,192,213125,128,0,213223:0:0:0:0:
320,192,213223,128,0,213321:0:0:0:0:
448,192,213223,128,2,213321:0:0:0:0:
192,192,213321,128,2,213419:0:0:0:0:
64,192,213321,128,0,213419:0:0:0:0:
448,192,213419,128,8,213517:0:0:0:0:
320,192,213419,128,0,213517:0:0:0:0:
192,192,213517,128,0,213615:0:0:0:0:
448,192,213615,1,0,0:0:0:0:
320,192,213615,128,0,213713:0:0:0:0:
64,192,213615,128,8,213713:0:0:0:0:
192,192,213713,128,0,213811:0:0:0:0:
320,192,213811,1,0,0:0:0:0:
448,192,213811,128,0,213909:0:0:0:0:
64,192,213811,128,2,214007:0:0:0:0:
192,192,213909,128,0,214007:0:0:0:0:
320,192,214007,128,0,214105:0:0:0:0:
192,192,214105,1,0,0:0:0:0:
64,192,214105,128,0,214203:0:0:0:0:
448,192,214105,128,8,214301:0:0:0:0:
320,192,214203,128,0,214301:0:0:0:0:
64,192,214301,128,0,214399:0:0:0:0:
320,192,214399,1,0,0:0:0:0:
192,192,214399,128,2,214497:0:0:0:0:
448,192,214399,128,0,214497:0:0:0:0:
64,192,214497,128,0,214595:0:0:0:0:
192,192,214595,1,0,0:0:0:0:
320,192,214595,128,2,214791:0:0:0:0:
448,192,214693,128,0,214889:0:0:0:0:
192,192,214791,128,0,214987:0:0:0:0:
64,192,214889,128,0,215085:0:0:0:0:
320,192,214987,128,0,215183:0:0:0:0:
448,192,215085,128,0,215281:0:0:0:0:
192,192,215183,128,0,215379:0:0:0:0:
64,192,215281,128,0,215379:0:0:0:0:
448,192,215379,128,2,215576:0:0:0:0:
320,192,215379,128,0,215576:0:0:0:50:BassL.wav
192,192,215576,128,2,215772:0:0:0:0:
64,192,215576,128,0,215772:0:0:0:0:
448,192,215772,1,8,0:0:0:0:
320,192,215772,1,0,0:0:0:0:
192,192,215870,1,0,0:0:0:0:
64,192,215870,1,0,0:0:0:0:
448,192,215968,1,0,0:0:0:35:LR4_KickSWHBD.wav
320,192,216017,1,0,0:0:0:35:LR4_KickSWHBD.wav
192,192,216066,1,0,0:0:0:35:LR4_KickSWHBD.wav
64,192,216115,1,0,0:0:0:35:LR4_KickSWHBD.wav
320,192,216164,1,2,0:0:0:0:
448,192,216164,1,0,0:0:0:35:LR4_KickSWHBD.wav
192,192,216262,1,0,0:0:0:0:
64,192,216262,128,0,216360:0:0:0:0:
320,192,216360,128,0,216458:0:0:0:0:
448,192,216360,1,0,0:0:0:0:
64,192,216458,1,2,0:0:0:0:
192,192,216458,128,0,216556:0:0:0:0:
448,192,216556,1,0,0:0:0:0:
320,192,216654,1,0,0:0:0:0:
192,192,216654,128,0,216752:0:0:0:0:
64,192,216752,128,2,216850:0:0:0:0:
448,192,216752,1,0,0:0:0:0:
320,192,216850,128,0,216948:0:0:0:0:
192,192,216850,1,0,0:0:0:0:
64,192,216948,1,0,0:0:0:0:
448,192,216948,1,2,0:0:0:0:
320,192,217046,1,0,0:0:0:0:
448,192,217144,1,0,0:0:0:35:LR4_KickSWHBD.wav
64,192,217144,1,0,0:0:0:0:
320,192,217193,1,0,0:0:0:35:LR4_KickSWHBD.wav
192,192,217242,1,0,0:0:0:35:LR4_KickSWHBD.wav
64,192,217291,1,0,0:0:0:35:LR4_KickSWHBD.wav
320,192,217340,1,2,0:0:0:0:
448,192,217340,1,0,0:0:0:35:LR4_KickSWHBD.wav
192,192,217438,1,0,0:0:0:0:
64,192,217536,1,0,0:0:0:35:LR4_KickSWHBD.wav
448,192,217536,1,0,0:0:0:0:
192,192,217585,1,0,0:0:0:35:LR4_KickSWHBD.wav
320,192,217634,1,0,0:0:0:35:LR4_KickSWHBD.wav
448,192,217683,1,0,0:0:0:35:LR4_KickSWHBD.wav
64,192,217732,1,2,0:0:0:0:
192,192,217732,1,0,0:0:0:35:LR4_KickSWHBD.wav
64,192,217830,1,2,0:0:0:0:
192,192,217830,128,0,217928:0:0:0:0:
320,192,217928,1,0,0:0:0:0:
448,192,217928,128,0,218027:0:0:0:0:
64,192,218027,128,0,218125:0:0:0:0:
192,192,218027,1,2,0:0:0:0:
448,192,218125,1,0,0:0:0:35:soft-hitnormal3.wav
320,192,218174,1,0,0:0:0:35:soft-hitnormal3.wav
192,192,218223,1,0,0:0:0:35:soft-hitnormal3.wav
64,192,218272,1,0,0:0:0:35:soft-hitnormal3.wav
448,192,218321,1,0,0:0:0:35:soft-hitnormal3.wav
320,192,218370,1,0,0:0:0:35:soft-hitnormal3.wav
192,192,218419,1,0,0:0:0:35:soft-hitnormal3.wav
64,192,218468,1,0,0:0:0:35:soft-hitnormal3.wav
448,192,218517,1,2,0:0:0:0:
320,192,218517,128,0,218615:0:0:0:0:
64,192,218615,128,0,218713:0:0:0:0:
192,192,218713,128,0,218811:0:0:0:0:
448,192,218713,128,0,218811:0:0:0:0:
320,192,218811,128,0,218909:0:0:0:0:
448,192,218909,128,0,219007:0:0:0:0:
192,192,218909,1,8,0:0:0:0:
64,192,218909,128,0,219007:0:0:0:0:
320,192,219007,128,0,219105:0:0:0:0:
64,192,219105,128,0,219203:0:0:0:0:
192,192,219105,128,0,219203:0:0:0:0:
320,192,219203,128,0,219301:0:0:0:0:
64,192,219301,1,0,0:0:0:0:
192,192,219301,128,2,219399:0:0:0:0:
448,192,219301,128,0,219399:0:0:0:0:
320,192,219399,128,0,219497:0:0:0:0:
64,192,219497,128,0,219595:0:0:0:0:
448,192,219497,128,0,219595:0:0:0:0:
192,192,219595,128,0,219693:0:0:0:0:
64,192,219693,1,0,0:0:0:0:
448,192,219693,128,8,219791:0:0:0:0:
320,192,219693,128,0,219791:0:0:0:0:
192,192,219791,128,0,219889:0:0:0:0:
320,192,219889,128,0,219987:0:0:0:0:
64,192,219889,128,0,219987:0:0:0:0:
448,192,219987,128,0,220085:0:0:0:0:
64,192,220085,1,0,0:0:0:0:
320,192,220085,128,2,220281:0:0:0:0:
192,192,220085,128,0,220183:0:0:0:0:
448,192,220183,128,0,220281:0:0:0:0:
64,192,220281,128,0,220379:0:0:0:0:
192,192,220281,128,0,220379:0:0:0:0:
320,192,220379,128,0,220477:0:0:0:0:
448,192,220477,128,0,220576:0:0:0:0:
64,192,220477,128,8,220674:0:0:0:0:
192,192,220477,1,0,0:0:0:0:
320,192,220576,128,0,220674:0:0:0:0:
448,192,220674,128,0,220772:0:0:0:0:
192,192,220674,128,0,220772:0:0:0:0:
64,192,220772,128,0,220870:0:0:0:0:
320,192,220870,128,0,220968:0:0:0:0:
448,192,220870,128,2,221066:0:0:0:0:
192,192,220870,1,0,0:0:0:0:
64,192,220968,128,0,221066:0:0:0:0:
192,192,221066,128,0,221164:0:0:0:0:
320,192,221164,128,0,221360:0:0:0:0:
64,192,221164,128,0,221262:0:0:0:0:
448,192,221164,1,2,0:0:0:0:
192,192,221262,128,0,221360:0:0:0:0:
448,192,221360,128,0,221458:0:0:0:0:
320,192,221458,128,0,221556:0:0:0:0:
64,192,221458,128,2,221556:0:0:0:0:
192,192,221556,128,0,221654:0:0:0:0:
64,192,221654,1,0,0:0:0:0:
320,192,221654,1,0,0:0:0:0:
448,192,221654,1,2,0:0:0:0:
192,192,221850,1,0,0:0:0:0:
64,192,222046,1,8,0:0:0:0:
192,192,222046,1,0,0:0:0:0:
448,192,222046,128,0,222144:0:0:0:0:
320,192,222144,128,0,222242:0:0:0:0:
192,192,222242,1,2,0:0:0:0:
64,192,222242,1,0,0:0:0:0:
192,192,222340,128,2,222438:0:0:0:0:
64,192,222340,128,0,222438:0:0:0:0:
320,192,222438,1,0,0:0:0:0:
448,192,222438,1,2,0:0:0:0:
320,192,222536,1,2,0:0:0:0:
448,192,222536,128,0,222634:0:0:0:0:
64,192,222634,1,0,0:0:0:35:LR4_KickSWHBD.wav
192,192,222683,1,0,0:0:0:35:LR4_KickSWHBD.wav
320,192,222732,1,0,0:0:0:35:LR4_KickSWHBD.wav
448,192,222781,1,0,0:0:0:35:LR4_KickSWHBD.wav
192,192,222830,1,0,0:0:0:35:LR4_KickSWHBD.wav
64,192,222830,1,2,0:0:0:0:
320,192,222928,128,0,223027:0:0:0:0:
448,192,223027,128,0,223125:0:0:0:0:
192,192,223027,1,2,0:0:0:0:
64,192,223125,128,0,223223:0:0:0:0:
320,192,223125,1,2,0:0:0:0:
192,192,223223,128,0,223321:0:0:0:0:
320,192,223321,1,2,0:0:0:0:
448,192,223321,1,0,0:0:0:0:
320,192,223419,1,2,0:0:0:0:
448,192,223419,1,0,0:0:0:0:
192,192,223517,128,0,223615:0:0:0:0:
64,192,223615,1,8,0:0:0:0:
448,192,223615,128,0,223713:0:0:0:0:
320,192,223615,1,0,0:0:0:0:
192,192,223713,128,0,223811:0:0:0:0:
320,192,223811,128,2,223909:0:0:0:0:
64,192,223811,128,0,223909:0:0:0:0:
448,192,223909,128,0,224007:0:0:0:0:
192,192,224007,1,0,0:0:0:0:
320,192,224007,1,2,0:0:0:0:
64,192,224007,1,0,0:0:0:0:
64,192,224138,1,0,0:0:0:0:
448,192,224138,1,2,0:0:0:0:
320,192,224268,1,2,0:0:0:0:
192,192,224268,1,0,0:0:0:0:
448,192,224399,1,2,0:0:0:0:
192,192,224399,1,0,0:0:0:0:
320,192,224530,1,2,0:0:0:0:
64,192,224530,1,0,0:0:0:0:
448,192,224661,1,2,0:0:0:0:
320,192,224661,1,0,0:0:0:0:
64,192,224791,128,0,224889:0:0:0:0:
192,192,224791,128,0,224889:0:0:0:0:
448,192,224791,1,2,0:0:0:0:
320,192,224889,128,0,224987:0:0:0:0:
448,192,224987,128,2,225085:0:0:0:0:
192,192,224987,128,0,225085:0:0:0:0:
64,192,225085,128,0,225183:0:0:0:0:
448,192,225183,1,0,0:0:0:0:
192,192,225183,1,8,0:0:0:0:
320,192,225183,128,0,225281:0:0:0:0:
64,192,225281,128,0,225379:0:0:0:0:
192,192,225379,128,0,225477:0:0:0:0:
448,192,225379,128,0,225477:0:0:0:0:
320,192,225477,128,0,225576:0:0:0:0:
448,192,225576,1,0,0:0:0:0:
64,192,225576,1,2,0:0:0:0:
192,192,225576,128,0,225674:0:0:0:0:
320,192,225674,128,0,225772:0:0:0:0:
64,192,225772,128,0,225870:0:0:0:0:
448,192,225772,128,0,225870:0:0:0:0:
192,192,225870,128,0,225968:0:0:0:0:
320,192,225968,1,8,0:0:0:0:
64,192,225968,1,0,0:0:0:0:
448,192,225968,128,0,226066:0:0:0:0:
192,192,226066,128,0,226164:0:0:0:0:
320,192,226164,128,0,226262:0:0:0:0:
64,192,226164,128,0,226262:0:0:0:0:
448,192,226262,128,0,226360:0:0:0:0:
64,192,226360,1,2,0:0:0:0:
320,192,226360,1,0,0:0:0:0:
192,192,226360,128,0,226458:0:0:0:0:
448,192,226458,128,0,226556:0:0:0:0:
64,192,226556,1,0,0:0:0:35:LR4_KickSWHBD.wav
192,192,226605,1,0,0:0:0:35:LR4_KickSWHBD.wav
320,192,226654,1,0,0:0:0:35:LR4_KickSWHBD.wav
448,192,226703,1,0,0:0:0:35:LR4_KickSWHBD.wav
64,192,226752,1,2,0:0:0:0:
192,192,226752,1,0,0:0:0:35:LR4_KickSWHBD.wav
192,192,226948,1,0,0:0:0:0:
64,192,226948,1,2,0:0:0:0:
448,192,227242,128,0,227438:0:0:0:0:
192,192,227242,128,0,227340:0:0:0:0:
64,192,227242,128,2,227438:0:0:0:0:
320,192,227340,128,0,227438:0:0:0:0:
192,192,227438,128,0,227536:0:0:0:0:
448,192,227536,1,2,0:0:0:0:
320,192,227536,1,0,0:0:0:0:
64,192,227536,1,0,0:0:0:0:
320,192,227928,1,0,0:0:0:0:
448,192,227928,1,2,0:0:0:0:
320,192,228027,1,0,0:0:0:0:
448,192,228027,1,2,0:0:0:0:
192,192,228125,1,2,0:0:0:0:
64,192,228125,1,0,0:0:0:0:
64,192,228223,1,0,0:0:0:0:
320,192,228223,1,2,0:0:0:0:
448,192,228321,1,2,0:0:0:0:
320,192,228321,1,0,0:0:0:0:
64,192,228419,1,2,0:0:0:0:
192,192,228419,1,0,0:0:0:0:
320,192,228517,1,0,0:0:0:0:
192,192,228517,1,2,0:0:0:0:
320,192,228615,1,2,0:0:0:0:
448,192,228615,1,0,0:0:0:0:
448,192,228713,1,0,0:0:0:0:
64,192,228713,1,2,0:0:0:0:
192,192,228811,1,2,0:0:0:0:
320,192,228811,1,0,0:0:0:0:
192,192,228909,1,2,0:0:0:0:
64,192,228909,1,0,0:0:0:0:
64,192,229007,1,2,0:0:0:0:
448,192,229007,1,0,0:0:0:0:
192,192,229105,1,2,0:0:0:0:
320,192,229105,1,0,0:0:0:0:
320,192,229203,1,0,0:0:0:0:
448,192,229203,1,2,0:0:0:0:
448,192,229301,1,2,0:0:0:0:
64,192,229301,1,0,0:0:0:0:
192,192,229399,1,2,0:0:0:0:
64,192,229399,1,0,0:0:0:0:
320,192,229497,1,2,0:0:0:0:
448,192,229497,1,0,0:0:0:0:
320,192,229595,1,2,0:0:0:0:
192,192,229595,1,0,0:0:0:0:
64,192,229693,1,0,0:0:0:0:
192,192,229693,1,2,0:0:0:0:
448,192,229791,1,2,0:0:0:0:
320,192,229791,1,0,0:0:0:0:
320,192,229889,1,2,0:0:0:0:
64,192,229889,1,0,0:0:0:0:
64,192,229987,1,0,0:0:0:0:
192,192,229987,1,2,0:0:0:0:
192,192,230085,1,2,0:0:0:0:
320,192,230085,1,0,0:0:0:0:
448,192,230183,1,0,0:0:0:0:
320,192,230183,1,2,0:0:0:0:
64,192,230281,1,0,0:0:0:0:
448,192,230281,1,2,0:0:0:0:
192,192,230379,1,2,0:0:0:0:
320,192,230379,1,0,0:0:0:0:
192,192,230477,1,0,0:0:0:0:
64,192,230477,1,2,0:0:0:0:
448,192,230576,1,0,0:0:0:0:
320,192,230576,1,2,0:0:0:0:
320,192,230674,128,2,230870:0:0:0:0:
448,192,230674,128,0,230870:0:0:0:0:
192,192,230870,1,0,0:0:0:0:
64,192,230870,1,2,0:0:0:0:
448,192,231066,1,0,0:0:0:0:
64,192,231066,1,2,0:0:0:0:
320,192,231164,1,0,0:0:0:0:
448,192,231164,1,2,0:0:0:0:
192,192,231262,1,2,0:0:0:0:
320,192,231262,1,0,0:0:0:0:
192,192,231360,1,2,0:0:0:0:
64,192,231360,1,0,0:0:0:0:
448,192,231458,1,0,0:0:0:0:
64,192,231458,1,2,0:0:0:0:
192,192,231556,1,0,0:0:0:0:
320,192,231556,1,2,0:0:0:0:
320,192,231654,1,2,0:0:0:0:
448,192,231654,1,0,0:0:0:0:
64,192,231752,1,0,0:0:0:0:
192,192,231752,1,2,0:0:0:0:
192,192,231850,1,0,0:0:0:0:
320,192,231850,1,2,0:0:0:0:
448,192,231948,1,0,0:0:0:0:
320,192,231948,1,2,0:0:0:0:
64,192,232046,1,0,0:0:0:0:
448,192,232046,1,2,0:0:0:0:
64,192,232144,1,0,0:0:0:0:
192,192,232144,1,2,0:0:0:0:
448,192,232242,1,2,0:0:0:0:
192,192,232242,1,0,0:0:0:0:
320,192,232340,1,2,0:0:0:0:
448,192,232340,1,0,0:0:0:0:
192,192,232438,1,0,0:0:0:0:
64,192,232438,1,2,0:0:0:0:
64,192,232536,1,0,0:0:0:0:
192,192,232536,1,2,0:0:0:0:
448,192,232634,1,0,0:0:0:35:LR4_KickSWHBD.wav
320,192,232683,1,0,0:0:0:35:LR4_KickSWHBD.wav
64,192,232732,1,0,0:0:0:35:LR4_KickSWHBD.wav
192,192,232781,1,0,0:0:0:35:LR4_KickSWHBD.wav
448,192,232830,1,0,0:0:0:35:LR4_KickSWHBD.wav
320,192,232830,1,2,0:0:0:0:
448,192,232928,1,0,0:0:0:35:LR4_KickSWHBD.wav
320,192,232928,1,2,0:0:0:0:
64,192,233027,1,0,0:0:0:35:LR4_KickSWHBD.wav
192,192,233076,1,0,0:0:0:35:LR4_KickSWHBD.wav
448,192,233125,1,0,0:0:0:35:LR4_KickSWHBD.wav
320,192,233174,1,0,0:0:0:35:LR4_KickSWHBD.wav
64,192,233223,1,2,0:0:0:0:
192,192,233223,1,0,0:0:0:35:LR4_KickSWHBD.wav
64,192,233321,1,2,0:0:0:0:
192,192,233321,1,0,0:0:0:35:LR4_KickSWHBD.wav
448,192,233419,128,2,233615:0:0:0:0:
320,192,233517,128,0,233713:0:0:0:0:
192,192,233615,128,0,233811:0:0:0:0:
64,192,233713,128,0,233909:0:0:0:0:
320,192,233811,128,0,234007:0:0:0:0:
448,192,233909,128,0,234105:0:0:0:0:
192,192,234007,128,0,234203:0:0:0:0:
64,192,234105,128,0,234203:0:0:0:0:
448,192,234203,1,0,0:0:0:0:
320,192,234203,1,0,0:0:0:0:
192,192,234252,1,0,0:0:0:0:
64,192,234301,1,0,0:0:0:0:
448,192,234350,1,0,0:0:0:0:
192,192,234399,1,0,0:0:0:0:
320,192,234399,1,0,0:0:0:0:
64,192,234448,1,0,0:0:0:0:
448,192,234497,1,0,0:0:0:0:
320,192,234546,1,0,0:0:0:0:
192,192,234595,1,0,0:0:0:0:
64,192,234595,1,0,0:0:0:0:
320,192,234644,1,0,0:0:0:0:
448,192,234693,1,0,0:0:0:0:
64,192,234742,1,0,0:0:0:0:
192,192,234791,1,0,0:0:0:0:
320,192,234791,1,0,0:0:0:0:
448,192,234840,1,0,0:0:0:0:
64,192,234889,1,0,0:0:0:0:
192,192,234938,1,0,0:0:0:0:
320,192,234987,1,0,0:0:0:0:
448,192,234987,1,0,0:0:0:0:
192,192,235036,1,0,0:0:0:0:
64,192,235085,1,0,0:0:0:0:
448,192,235134,1,0,0:0:0:0:
320,192,235183,1,0,0:0:0:0:
192,192,235183,1,0,0:0:0:0:
64,192,235232,1,0,0:0:0:0:
448,192,235281,1,0,0:0:0:0:
320,192,235330,1,0,0:0:0:0:
192,192,235379,1,0,0:0:0:0:
64,192,235379,1,0,0:0:0:0:
192,192,235772,1,0,0:0:0:0:
64,192,235772,1,0,0:0:0:0:
320,192,235821,1,0,0:0:0:0:
448,192,235870,1,0,0:0:0:0:
64,192,235919,1,0,0:0:0:0:
320,192,235968,1,0,0:0:0:0:
192,192,235968,1,0,0:0:0:0:
448,192,236017,1,0,0:0:0:0:
64,192,236066,1,0,0:0:0:0:
192,192,236115,1,0,0:0:0:0:
448,192,236164,1,0,0:0:0:0:
320,192,236164,1,0,0:0:0:0:
192,192,236213,1,0,0:0:0:0:
64,192,236262,1,0,0:0:0:0:
448,192,236311,1,0,0:0:0:0:
320,192,236360,1,0,0:0:0:0:
192,192,236360,1,0,0:0:0:0:
64,192,236409,1,0,0:0:0:0:
448,192,236458,1,0,0:0:0:0:
320,192,236507,1,0,0:0:0:0:
64,192,236556,1,0,0:0:0:0:
192,192,236556,1,0,0:0:0:0:
320,192,236605,1,0,0:0:0:0:
448,192,236654,1,0,0:0:0:0:
64,192,236703,1,0,0:0:0:0:
192,192,236752,1,0,0:0:0:0:
320,192,236752,1,0,0:0:0:0:
448,192,236801,1,0,0:0:0:0:
64,192,236850,1,0,0:0:0:0:
192,192,236899,1,0,0:0:0:0:
320,192,236948,1,0,0:0:0:0:
448,192,236948,1,2,0:0:0:0:
64,192,237340,1,0,0:0:0:0:
448,192,237340,1,8,0:0:0:0:
192,192,237340,128,0,237438:0:0:0:0:
320,192,237438,128,0,237536:0:0:0:0:
448,192,237536,128,0,237634:0:0:0:0:
64,192,237536,1,0,0:0:0:0:
64,192,237634,128,2,237732:0:0:0:0:
192,192,237634,1,0,0:0:0:0:
320,192,237732,128,0,237830:0:0:0:0:
448,192,237830,1,0,0:0:0:0:
192,192,237830,128,0,237928:0:0:0:0:
64,192,237928,1,0,0:0:0:0:
320,192,237928,128,2,238027:0:0:0:0:
448,192,237928,1,0,0:0:0:0:
192,192,238027,128,0,238125:0:0:0:0:
448,192,238125,128,0,238223:0:0:0:0:
64,192,238125,1,0,0:0:0:0:
320,192,238223,1,0,0:0:0:0:
192,192,238223,1,2,0:0:0:0:
64,192,238223,128,0,238321:0:0:0:0:
448,192,238321,128,2,238419:0:0:0:0:
192,192,238419,128,2,238517:0:0:0:0:
448,192,238517,1,8,0:0:0:0:
64,192,238517,1,0,0:0:0:0:
320,192,238517,128,0,238615:0:0:0:0:
64,192,238615,128,0,238713:0:0:0:0:
320,192,238713,1,8,0:0:0:0:
448,192,238713,128,0,238811:0:0:0:0:
192,192,238811,128,0,238909:0:0:0:0:
64,192,238909,1,0,0:0:0:0:
320,192,238909,1,2,0:0:0:0:
448,192,239007,1,0,0:0:0:0:
320,192,239056,1,0,0:0:0:0:
64,192,239105,1,0,0:0:0:0:
192,192,239154,1,0,0:0:0:0:
448,192,239203,1,0,0:0:0:0:
320,192,239252,1,0,0:0:0:0:
64,192,239301,1,0,0:0:0:0:
448,192,239350,1,0,0:0:0:0:
320,192,239399,1,0,0:0:0:0:
192,192,239448,1,0,0:0:0:0:
448,192,239497,1,0,0:0:0:0:
64,192,239595,1,0,0:0:0:0:
448,192,239693,1,0,0:0:0:0:
320,192,239889,1,0,0:0:0:0:
192,192,240085,1,0,0:0:0:0:
64,192,240281,1,0,0:0:0:0:
320,192,240477,1,0,0:0:0:0:
192,192,240477,1,0,0:0:0:0:
320,192,240870,1,0,0:0:0:0:
64,192,240870,1,0,0:0:0:0:
448,192,240870,1,2,0:0:0:0:
192,192,240968,1,0,0:0:0:0:
448,192,240968,1,0,0:0:0:0:
320,192,241066,1,0,0:0:0:0:
448,192,241164,1,0,0:0:0:0:
64,192,241164,1,2,0:0:0:0:
192,192,241262,1,0,0:0:0:0:
64,192,241262,1,0,0:0:0:0:
320,192,241262,1,8,0:0:0:0:
448,192,241360,1,2,0:0:0:0:
192,192,241458,1,0,0:0:0:0:
64,192,241458,1,0,0:0:0:0:
320,192,241556,1,2,0:0:0:0:
448,192,241556,1,0,0:0:0:0:
64,192,241654,128,0,241752:0:0:0:0:
448,192,241654,1,2,0:0:0:0:
192,192,241654,1,0,0:0:0:0:
320,192,241752,128,0,241850:0:0:0:0:
448,192,241850,128,0,241948:0:0:0:0:
192,192,241850,1,0,0:0:0:0:
64,192,241948,128,0,242046:0:0:0:0:
192,192,242046,1,0,0:0:0:0:
320,192,242046,1,8,0:0:0:0:
448,192,242340,1,8,0:0:0:0:
320,192,242340,1,0,0:0:0:0:
192,192,242340,1,0,0:0:0:0:
64,192,242634,1,0,0:0:0:0:
192,192,242634,1,8,0:0:0:0:
320,192,242634,1,0,0:0:0:0:
64,192,242928,1,0,0:0:0:0:
192,192,242928,1,8,0:0:0:0:
320,192,242928,1,0,0:0:0:0:
64,192,243223,1,0,0:0:0:0:
448,192,243223,1,0,0:0:0:0:
320,192,243223,1,8,0:0:0:0:
192,192,243321,1,0,0:0:0:0:
448,192,243419,1,0,0:0:0:0:
320,192,243419,1,2,0:0:0:0:
192,192,243517,1,2,0:0:0:0:
64,192,243517,1,0,0:0:0:0:
64,192,243615,1,0,0:0:0:0:
448,192,243615,128,0,243713:0:0:0:0:
192,192,243615,1,2,0:0:0:0:
320,192,243713,128,0,243811:0:0:0:0:
448,192,243811,1,0,0:0:0:0:
192,192,243811,128,0,243909:0:0:0:0:
64,192,243909,128,0,244007:0:0:0:0:
448,192,244007,128,0,244105:0:0:0:0:
192,192,244007,1,8,0:0:0:0:
320,192,244007,1,0,0:0:0:0:
64,192,244105,128,0,244203:0:0:0:0:
192,192,244203,1,2,0:0:0:0:
320,192,244203,128,0,244301:0:0:0:0:
448,192,244301,128,0,244399:0:0:0:0:
192,192,244399,128,0,244497:0:0:0:0:
64,192,244497,128,2,244595:0:0:0:0:
448,192,244497,128,0,244595:0:0:0:0:
320,192,244595,128,0,244693:0:0:0:0:
64,192,244693,128,0,244791:0:0:0:0:
192,192,244693,128,2,244791:0:0:0:0:
448,192,244791,128,0,244889:0:0:0:0:
320,192,244791,128,8,244889:0:0:0:0:
192,192,244889,128,0,244987:0:0:0:0:
64,192,244987,128,2,245085:0:0:0:0:
320,192,244987,128,0,245085:0:0:0:0:
448,192,245085,128,0,245183:0:0:0:0:
64,192,245183,128,8,245379:0:0:0:0:
192,192,245183,128,2,245379:0:0:0:0:
320,192,245379,128,0,245477:0:0:0:0:
448,192,245379,128,0,245477:0:0:0:0:
448,192,245576,1,0,0:0:0:0:
320,192,245576,1,0,0:0:0:0:
192,192,245576,128,2,245772:0:0:0:0:
64,192,245576,128,8,245772:0:0:0:0:
448,192,245772,128,0,245968:0:0:0:0:
320,192,245968,1,8,0:0:0:0:
192,192,245968,1,2,0:0:0:0:
64,192,245968,1,0,0:0:0:0:
64,192,246164,128,0,246654:0:0:0:0:
192,192,246164,128,2,246654:0:0:0:0:
320,192,246360,128,0,246654:0:0:0:0:
448,192,246556,128,0,246654:0:0:0:0:
64,192,246752,1,0,0:0:0:0:
320,192,246752,1,0,0:0:0:0:
192,192,246752,1,0,0:0:0:0:
448,192,246752,1,2,0:0:0:0:
448,192,247144,1,8,0:0:0:0:
64,192,247144,1,0,0:0:0:0:
192,192,247144,1,0,0:0:0:0:
320,192,247242,1,0,0:0:0:0:
192,192,247242,1,0,0:0:0:0:
64,192,247340,1,0,0:0:0:35:LR4_KickSWHBD.wav
448,192,247340,1,0,0:0:0:0:
192,192,247389,1,0,0:0:0:35:LR4_KickSWHBD.wav
320,192,247438,1,0,0:0:0:35:LR4_KickSWHBD.wav
448,192,247487,1,0,0:0:0:35:LR4_KickSWHBD.wav
192,192,247536,1,0,0:0:0:35:LR4_KickSWHBD.wav
64,192,247536,1,2,0:0:0:0:
448,192,247634,1,0,0:0:0:0:
320,192,247732,1,0,0:0:0:0:
64,192,247732,1,0,0:0:0:0:
192,192,247830,1,2,0:0:0:0:
64,192,247928,128,0,248027:0:0:0:0:
320,192,247928,128,0,248027:0:0:0:0:
448,192,247928,1,0,0:0:0:0:
192,192,248027,128,0,248125:0:0:0:0:
448,192,248125,128,0,248223:0:0:0:0:
64,192,248125,128,2,248223:0:0:0:0:
320,192,248223,128,0,248321:0:0:0:0:
192,192,248321,1,2,0:0:0:0:
64,192,248321,1,0,0:0:0:0:
448,192,248321,128,0,248517:0:0:0:0:
64,192,248517,1,0,0:0:0:35:LR4_KickSWHBD.wav
192,192,248566,1,0,0:0:0:35:LR4_KickSWHBD.wav
320,192,248615,1,0,0:0:0:35:LR4_KickSWHBD.wav
448,192,248664,1,0,0:0:0:35:LR4_KickSWHBD.wav
64,192,248713,128,2,248811:0:0:0:0:
192,192,248713,1,0,0:0:0:35:LR4_KickSWHBD.wav
320,192,248811,1,2,0:0:0:0:
448,192,248811,1,0,0:0:0:0:
192,192,248909,1,0,0:0:0:0:
448,192,249007,1,2,0:0:0:0:
64,192,249007,1,0,0:0:0:0:
320,192,249105,1,0,0:0:0:0:
64,192,249203,1,2,0:0:0:0:
192,192,249203,1,0,0:0:0:0:
64,192,249301,1,0,0:0:0:0:
320,192,249399,1,2,0:0:0:0:
448,192,249399,1,0,0:0:0:0:
448,192,249497,1,2,0:0:0:0:
192,192,249497,128,0,249791:0:0:0:0:
64,192,249497,128,0,249791:0:0:0:0:
64,192,249889,1,0,0:0:0:35:LR4_KickSWHBD.wav
192,192,249938,1,0,0:0:0:35:LR4_KickSWHBD.wav
320,192,249987,1,0,0:0:0:35:LR4_KickSWHBD.wav
448,192,250036,1,0,0:0:0:35:LR4_KickSWHBD.wav
192,192,250085,1,0,0:0:0:35:LR4_KickSWHBD.wav
64,192,250085,1,0,0:0:0:0:
320,192,250183,1,2,0:0:0:0:
448,192,250183,1,0,0:0:0:35:LR4_KickSWHBD.wav
64,192,250281,1,0,0:0:0:35:LR4_KickSWHBD.wav
192,192,250330,1,0,0:0:0:35:LR4_KickSWHBD.wav
320,192,250379,1,0,0:0:0:35:LR4_KickSWHBD.wav
448,192,250428,1,0,0:0:0:35:LR4_KickSWHBD.wav
192,192,250477,1,0,0:0:0:35:LR4_KickSWHBD.wav
64,192,250477,1,0,0:0:0:0:
320,192,250576,1,2,0:0:0:0:
448,192,250576,1,0,0:0:0:35:LR4_KickSWHBD.wav
64,192,250674,1,0,0:0:0:0:
448,192,250674,1,8,0:0:0:0:
192,192,250674,1,0,0:0:0:0:
320,192,250804,1,0,0:0:0:0:
448,192,250804,1,8,0:0:0:0:
448,192,250935,1,8,0:0:0:0:
320,192,250935,1,0,0:0:0:0:
64,192,251066,1,0,0:0:0:0:
192,192,251066,1,8,0:0:0:0:
192,192,251196,1,8,0:0:0:0:
64,192,251196,1,0,0:0:0:0:
192,192,251327,1,8,0:0:0:0:
64,192,251327,1,0,0:0:0:0:
320,192,251458,1,0,0:0:0:0:
64,192,251458,1,8,0:0:0:0:
448,192,251458,128,0,251556:0:0:0:0:
192,192,251556,128,0,251654:0:0:0:0:
320,192,251654,128,0,251752:0:0:0:0:
64,192,251752,128,0,251850:0:0:0:0:
192,192,251850,128,0,251948:0:0:0:0:
448,192,251948,128,0,252046:0:0:0:0:
320,192,252046,128,0,252144:0:0:0:0:
64,192,252144,128,0,252242:0:0:0:0:
192,192,252242,128,0,252340:0:0:0:0:
448,192,252242,128,0,252438:0:0:0:0:
320,192,252340,128,0,252536:0:0:0:0:
64,192,252438,128,0,252634:0:0:0:0:
192,192,252536,128,0,252732:0:0:0:0:
448,192,252634,128,0,252830:0:0:0:0:
320,192,252732,128,0,252928:0:0:0:0:
64,192,252830,128,0,253027:0:0:0:0:
192,192,252928,128,0,253027:0:0:0:0:
320,192,253027,128,0,253272:0:0:0:0:
448,192,253027,128,2,253321:0:0:0:0:
192,192,253321,1,0,0:0:0:0:
64,192,253419,1,0,0:0:0:0:
64,192,253517,1,0,0:0:0:0:
320,192,253615,1,2,0:0:0:0:
448,192,253615,1,0,0:0:0:0:
320,192,253713,1,2,0:0:0:0:
448,192,253713,1,0,0:0:0:0:
192,192,253811,1,8,0:0:0:0:
64,192,253811,1,0,0:0:0:0:
448,192,253811,1,0,0:0:0:0:
192,192,253909,1,0,0:0:0:0:
320,192,254007,1,0,0:0:0:0:
320,192,254105,1,0,0:0:0:0:
448,192,254105,1,2,0:0:0:0:
64,192,254203,1,0,0:0:0:0:
64,192,254301,1,0,0:0:0:0:
192,192,254301,1,2,0:0:0:0:
448,192,254399,1,0,0:0:0:0:
320,192,254399,1,2,0:0:0:0:
448,192,254497,1,0,0:0:0:0:
192,192,254595,1,0,0:0:0:0:
64,192,254595,1,2,0:0:0:0:
192,192,254693,1,0,0:0:0:0:
320,192,254791,1,0,0:0:0:0:
320,192,254889,1,0,0:0:0:0:
448,192,254889,1,2,0:0:0:0:
64,192,254987,1,0,0:0:0:0:
64,192,255085,1,0,0:0:0:0:
192,192,255085,1,2,0:0:0:0:
448,192,255183,1,0,0:0:0:0:
448,192,255281,1,0,0:0:0:0:
192,192,255379,1,0,0:0:0:0:
320,192,255379,1,8,0:0:0:0:
64,192,255379,1,0,0:0:0:0:
192,192,255477,1,2,0:0:0:0:
64,192,255477,1,0,0:0:0:0:
320,192,255576,1,0,0:0:0:0:
320,192,255674,1,0,0:0:0:0:
448,192,255674,1,2,0:0:0:0:
64,192,255772,1,0,0:0:0:0:
192,192,255870,1,2,0:0:0:0:
64,192,255870,1,0,0:0:0:0:
448,192,255968,1,2,0:0:0:0:
448,192,256066,1,2,0:0:0:0:
192,192,256164,128,2,256409:0:0:0:0:
64,192,256164,128,0,256458:0:0:0:0:
320,192,256458,1,2,0:0:0:0:
448,192,256458,1,0,0:0:0:0:
448,192,256556,1,0,0:0:0:0:
192,192,256654,1,0,0:0:0:0:
64,192,256752,1,0,0:0:0:0:
192,192,256752,1,2,0:0:0:0:
448,192,256850,1,0,0:0:0:0:
320,192,256850,1,2,0:0:0:0:
448,192,256948,1,0,0:0:0:0:
192,192,256948,1,8,0:0:0:0:
320,192,256948,1,0,0:0:0:0:
64,192,257046,1,0,0:0:0:0:
64,192,257144,1,0,0:0:0:0:
320,192,257242,1,2,0:0:0:0:
448,192,257242,1,0,0:0:0:0:
448,192,257340,1,0,0:0:0:0:
192,192,257438,1,2,0:0:0:0:
64,192,257438,1,0,0:0:0:0:
64,192,257536,1,0,0:0:0:0:
192,192,257536,1,2,0:0:0:0:
320,192,257634,1,0,0:0:0:0:
448,192,257732,1,2,0:0:0:0:
320,192,257732,1,0,0:0:0:0:
192,192,257830,1,0,0:0:0:0:
192,192,257928,1,0,0:0:0:0:
320,192,258027,1,2,0:0:0:0:
448,192,258027,1,0,0:0:0:0:
448,192,258125,1,0,0:0:0:0:
64,192,258223,1,0,0:0:0:0:
192,192,258223,1,2,0:0:0:0:
64,192,258321,1,2,0:0:0:0:
448,192,258419,1,0,0:0:0:0:
320,192,258468,1,0,0:0:0:0:
192,192,258517,1,0,0:0:0:0:
64,192,258517,1,8,0:0:0:0:
448,192,258615,1,0,0:0:0:0:
320,192,258615,1,2,0:0:0:0:
448,192,258713,1,0,0:0:0:0:
320,192,258713,1,2,0:0:0:0:
192,192,258811,1,2,0:0:0:0:
64,192,258811,1,0,0:0:0:0:
64,192,258909,1,0,0:0:0:0:
192,192,258909,1,2,0:0:0:0:
320,192,259007,1,2,0:0:0:0:
448,192,259007,1,0,0:0:0:0:
448,192,259105,1,0,0:0:0:0:
320,192,259105,1,2,0:0:0:0:
192,192,259203,1,2,0:0:0:0:
64,192,259203,1,0,0:0:0:0:
192,192,259301,128,0,259546:0:0:0:0:
64,192,259301,128,2,259595:0:0:0:0:
448,192,259595,1,2,0:0:0:0:
320,192,259644,1,2,0:0:0:0:
192,192,259693,1,2,0:0:0:0:
64,192,259693,1,0,0:0:0:0:
320,192,259791,1,2,0:0:0:0:
448,192,259791,1,0,0:0:0:0:
320,192,259889,1,2,0:0:0:0:
448,192,259889,1,0,0:0:0:0:
192,192,260085,1,0,0:0:0:0:
64,192,260085,1,8,0:0:0:0:
192,192,260183,1,0,0:0:0:0:
64,192,260183,1,2,0:0:0:0:
320,192,260281,1,2,0:0:0:0:
448,192,260281,1,0,0:0:0:0:
320,192,260379,1,2,0:0:0:0:
448,192,260379,1,0,0:0:0:0:
192,192,260477,1,2,0:0:0:0:
64,192,260477,1,0,0:0:0:0:
64,192,260625,1,0,0:0:0:0:
192,192,260625,1,2,0:0:0:0:
320,192,260674,1,2,0:0:0:0:
448,192,260674,1,0,0:0:0:0:
448,192,260772,1,0,0:0:0:0:
320,192,260772,1,2,0:0:0:0:
192,192,260870,1,2,0:0:0:0:
64,192,260870,1,0,0:0:0:0:
64,192,260968,1,0,0:0:0:0:
192,192,260968,1,2,0:0:0:0:
320,192,261066,1,2,0:0:0:0:
448,192,261066,1,0,0:0:0:0:
64,192,261164,1,2,0:0:0:0:
192,192,261213,1,2,0:0:0:0:
320,192,261262,1,2,0:0:0:0:
448,192,261262,1,0,0:0:0:0:
192,192,261360,1,2,0:0:0:0:
64,192,261360,1,0,0:0:0:0:
64,192,261556,1,2,0:0:0:0:
192,192,261605,1,2,0:0:0:0:
448,192,261654,1,8,0:0:0:0:
320,192,261654,1,0,0:0:0:0:
64,192,261850,1,2,0:0:0:0:
192,192,261850,1,0,0:0:0:0:
448,192,261948,1,2,0:0:0:0:
320,192,261997,1,2,0:0:0:0:
192,192,262046,1,2,0:0:0:0:
64,192,262046,1,0,0:0:0:0:
448,192,262144,1,2,0:0:0:0:
320,192,262193,1,2,0:0:0:0:
192,192,262242,1,2,0:0:0:0:
64,192,262242,1,0,0:0:0:0:
448,192,262340,1,2,0:0:0:0:
320,192,262389,1,2,0:0:0:0:
192,192,262438,128,2,262683:0:0:0:0:
64,192,262438,128,0,262732:0:0:0:0:
448,192,262732,1,2,0:0:0:0:
320,192,262781,1,2,0:0:0:0:
192,192,262830,1,2,0:0:0:0:
64,192,262830,1,0,0:0:0:0:
192,192,262928,1,2,0:0:0:0:
64,192,262928,1,0,0:0:0:0:
320,192,263027,1,2,0:0:0:0:
448,192,263027,1,0,0:0:0:0:
320,192,263223,1,0,0:0:0:0:
448,192,263223,1,8,0:0:0:0:
320,192,263321,1,0,0:0:0:0:
448,192,263321,1,2,0:0:0:0:
64,192,263419,1,0,0:0:0:0:
192,192,263419,1,2,0:0:0:0:
192,192,263517,1,2,0:0:0:0:
64,192,263517,1,0,0:0:0:0:
320,192,263615,1,2,0:0:0:0:
448,192,263615,1,0,0:0:0:0:
320,192,263762,1,2,0:0:0:0:
448,192,263762,1,0,0:0:0:0:
192,192,263811,1,2,0:0:0:0:
64,192,263811,1,0,0:0:0:0:
192,192,263909,1,2,0:0:0:0:
64,192,263909,1,0,0:0:0:0:
448,192,264007,1,0,0:0:0:0:
320,192,264007,1,2,0:0:0:0:
320,192,264105,1,2,0:0:0:0:
448,192,264105,1,0,0:0:0:0:
192,192,264203,1,2,0:0:0:0:
64,192,264203,1,0,0:0:0:0:
448,192,264301,1,2,0:0:0:0:
320,192,264350,1,2,0:0:0:0:
64,192,264399,1,0,0:0:0:0:
192,192,264399,1,2,0:0:0:0:
320,192,264497,1,2,0:0:0:0:
448,192,264497,1,0,0:0:0:0:
64,192,264693,1,2,0:0:0:0:
192,192,264742,1,2,0:0:0:0:
320,192,264791,128,8,264987:0:0:0:0:
448,192,264791,128,0,264987:0:0:0:0:
64,192,264987,1,0,0:0:0:0:
64,192,265085,1,0,0:0:0:0:
448,192,265183,1,0,0:0:0:0:
448,192,265281,1,0,0:0:0:0:
192,192,265379,1,0,0:0:0:0:
192,192,265478,1,0,0:0:0:0:
448,192,265576,1,0,0:0:0:0:
320,192,265576,1,2,0:0:0:0:
64,192,265576,128,0,271066:0:0:0:50:bassK.wav
