osu file format v14

[General]
AudioFilename: audio.mp3
AudioLeadIn: 0
PreviewTime: 190292
Countdown: 1
SampleSet: Soft
StackLeniency: 0.3
Mode: 0
LetterboxInBreaks: 0
WidescreenStoryboard: 1

[Editor]
Bookmarks: 52351,58626,64900,71175,77449,82939,89998,102547,115096,127645,152743,190390,215292,240586
DistanceSpacing: 0.5
BeatDivisor: 16
GridSize: 8
TimelineZoom: 2.3

[Metadata]
Title:Solvicious
TitleUnicode:Solvicious
Artist:Camellia vs. lapix
ArtistUnicode:かめりあ vs. lapix
Creator:Regou
Version:Rage Quit's Insane
Source:
Tags:Electronic Instrumental hitech cametek kamelcamellia かめるかめりあ exit tunes galaxy burst l first print bonus track QWCE-90016 Rage Quit
BeatmapID:2193184
BeatmapSetID:1028115

[Difficulty]
HPDrainRate:5
CircleSize:4.5
OverallDifficulty:8
ApproachRate:9
SliderMultiplier:1.7
SliderTickRate:1

[Events]
//Background and Video events
0,0,"BG.jpg",0,0
//Break Periods
2,27408,32491
2,33683,37589
2,77604,82294
2,127800,138961
//Storyboard Layer 0 (Background)
//Storyboard Layer 1 (Fail)
//Storyboard Layer 2 (Pass)
//Storyboard Layer 3 (Foreground)
//Storyboard Layer 4 (Overlay)
//Storyboard Sound Samples

[TimingPoints]
542,392.156862745098,4,2,1,20,1,0
1130,-100,4,2,1,20,0,0
1718,-100,4,2,1,60,0,0
2110,-250,4,2,1,60,0,0
8385,-142.857142857143,4,2,1,60,0,0
9953,-100,4,2,1,60,0,0
13091,-100,4,2,1,60,0,0
25640,-66.6666666666667,4,2,1,60,0,0
26816,-57.1428571428571,4,2,1,60,0,0
33091,-44.4444444444445,4,2,1,60,0,0
38189,-57.1428571428571,4,2,1,60,0,0
38973,-66.6666666666667,4,2,1,60,0,0
39757,-142.857142857143,4,2,1,60,0,0
44463,-71.4285714285714,4,2,1,60,0,0
45247,-52.6315789473684,4,2,1,60,0,0
45542,-52.6315789473684,4,2,1,60,0,0
46032,-52.6315789473684,4,2,1,60,0,0
50738,-166.666666666667,4,2,1,60,0,0
52306,-41.6666666666667,4,2,1,60,0,0
52698,-71.4285714285714,4,2,1,60,0,0
53091,-71.4285714285714,4,2,1,60,0,0
53875,-250,4,2,1,60,0,0
54267,-83.3333333333333,4,2,1,60,0,0
55443,-58.8235294117647,4,2,1,60,0,0
55836,-71.4285714285714,4,2,1,60,0,0
56130,-71.4285714285714,4,2,1,60,0,0
57012,-71.4285714285714,4,2,1,60,0,0
57796,-52.6315789473684,4,2,1,60,0,0
58189,-46.5116279069767,4,2,1,60,0,0
58581,-41.6666666666667,4,2,1,60,0,0
58973,-71.4285714285714,4,2,1,60,0,0
60149,-100,4,2,1,60,0,0
60541,-71.4285714285714,4,2,1,60,0,0
61718,-58.8235294117647,4,2,1,60,0,0
62110,-71.4285714285714,4,2,1,60,0,0
63287,-125,4,2,1,60,0,0
64071,-83.3333333333333,4,2,1,60,0,0
64855,-41.6666666666667,4,2,1,60,0,0
65247,-71.4285714285714,4,2,1,60,0,0
66424,-100,4,2,1,60,0,0
66816,-71.4285714285714,4,2,1,60,0,0
67992,-58.8235294117647,4,2,1,60,0,0
68777,-71.4285714285714,4,2,1,60,0,0
69169,-52.6315789473684,4,2,1,60,0,0
70345,-58.8235294117647,4,2,1,60,0,0
70738,-117.647058823529,4,2,1,60,0,0
71130,-58.8235294117647,4,2,1,60,0,0
71522,-71.4285714285714,4,2,1,60,0,0
75443,-58.8235294117647,4,2,1,60,0,0
75836,-71.4285714285714,4,2,1,60,0,0
76620,-100,4,2,1,60,0,0
77012,-50,4,2,1,60,0,0
77404,-100,4,2,1,60,0,0
82894,-133.333333333333,4,2,1,60,0,0
83287,-66.6666666666667,4,2,1,60,0,0
83679,-52.6315789473684,4,2,1,60,0,0
88385,-166.666666666667,4,2,1,60,0,0
89953,-71.4285714285714,4,2,1,60,0,0
90345,-62.5,4,2,1,60,0,0
91816,-62.5,4,2,1,60,0,0
93091,-62.5,4,2,1,60,0,0
93679,-62.5,4,2,1,60,0,0
93875,-62.5,4,2,1,60,0,0
94659,-71.4285714285714,4,2,1,60,0,0
95051,-52.6315789473684,4,2,1,60,0,0
95443,-71.4285714285714,4,2,1,60,0,0
96228,-62.5,4,2,1,60,0,0
98091,-62.5,4,2,1,60,0,0
98973,-62.5,4,2,1,60,0,0
100542,-62.5,4,2,1,60,0,0
100934,-71.4285714285714,4,2,1,60,0,0
101326,-52.6315789473684,4,2,1,60,0,0
101718,-71.4285714285714,4,2,1,60,0,0
102502,-71.4285714285714,4,2,1,60,0,0
107698,-71.4285714285714,4,2,1,60,0,0
108777,-71.4285714285714,4,2,1,60,0,0
114267,-142.857142857143,4,2,1,60,0,0
115051,-333.333333333333,4,2,1,60,0,0
117404,-200,4,2,1,60,0,0
118189,-333.333333333333,4,2,1,60,0,0
120541,-200,4,2,1,60,0,0
120934,-66.6666666666667,4,2,1,60,0,0
121326,-100,4,2,1,60,0,0
122894,-80,4,2,1,60,0,0
125247,-80,4,2,1,60,0,0
127600,-100,4,2,1,60,0,0
139561,-200,4,2,1,45,0,0
141130,-200,4,2,1,45,0,0
141522,-200,4,2,1,45,0,0
152698,-100,4,2,1,60,0,0
153483,-100,4,2,1,60,0,0
154267,-100,4,2,1,60,0,0
154855,-100,4,2,1,60,0,0
155051,-100,4,2,1,60,0,0
155836,-100,4,2,1,60,0,0
156424,-100,4,2,1,60,0,0
157208,-100,4,2,1,60,0,0
157992,-100,4,2,1,60,0,0
158581,-200,4,2,1,60,0,0
158973,-100,4,2,1,60,0,0
159757,-100,4,2,1,60,0,0
160541,-100,4,2,1,60,0,0
161130,-100,4,2,1,60,0,0
161326,-100,4,2,1,60,0,0
162110,-100,4,2,1,60,0,0
162894,-100,4,2,1,60,0,0
163679,-100,4,2,1,60,0,0
164463,-100,4,2,1,60,0,0
165247,-76.9230769230769,4,2,1,60,0,0
172698,-76.9230769230769,4,2,1,60,0,0
173679,-76.9230769230769,4,2,1,60,0,0
174267,-76.9230769230769,4,2,1,60,0,0
176228,-100,4,2,1,60,0,0
177012,-66.6666666666667,4,2,1,60,0,0
177404,-100,4,2,1,60,0,0
177796,-100,4,2,1,60,0,0
179365,-100,4,2,1,60,0,0
180541,-100,4,2,1,60,0,0
180934,-100,4,2,1,60,0,0
182502,-76.9230769230769,4,2,1,60,0,0
182698,-76.9230769230769,4,2,1,60,0,0
183091,-76.9230769230769,4,2,1,60,0,0
183287,-76.9230769230769,4,2,1,60,0,0
184071,-52.6315789473684,4,2,1,60,0,0
188777,-166.666666666667,4,2,1,60,0,0
189757,-100,4,2,1,60,0,0
190345,-66.6666666666667,4,2,1,60,0,1
192110,-66.6666666666667,4,2,1,60,0,1
201326,-66.6666666666667,4,2,1,60,0,1
202012,-66.6666666666667,4,2,1,60,0,1
202502,-66.6666666666667,4,2,1,60,0,1
202894,-66.6666666666667,4,2,1,60,0,1
214659,-133.333333333333,4,2,1,60,0,0
215640,-100,4,2,1,60,0,0
215836,-66.6666666666667,4,2,1,60,0,1
221718,-100,4,2,1,60,0,1
222110,-66.6666666666667,4,2,1,60,0,1
227600,-133.333333333333,4,2,1,60,0,1
230934,-66.6666666666667,4,2,1,60,0,1
233483,-133.333333333333,4,2,1,60,0,1
234267,-66.6666666666667,4,2,1,60,0,1
238973,-66.6666666666667,4,2,1,60,0,1
239757,-52.6315789473684,4,2,1,60,0,1
240149,-100,4,2,1,60,0,1
240541,-100,4,2,1,60,0,0
240934,-71.4285714285714,4,2,1,70,0,0
241326,-71.4285714285714,4,2,1,70,0,0
245247,-41.6666666666667,4,2,1,60,0,0
246228,-100,4,2,1,70,0,0
246816,-41.6666666666667,4,2,1,70,0,0
247208,-71.4285714285714,4,2,1,60,0,0
251522,-125,4,2,1,70,0,0
253091,-41.6666666666667,4,2,1,70,0,0
253483,-71.4285714285714,4,2,1,60,0,0
258287,-71.4285714285714,4,2,1,70,0,0
258581,-71.4285714285714,4,2,1,70,0,0
264659,-71.4285714285714,4,2,1,70,0,0
264855,-142.857142857143,4,2,1,60,0,0
265247,-100,4,2,1,70,0,0
265640,-100,4,2,1,60,0,0
265738,-100,4,2,1,10,0,0
271914,-142.857142857143,4,2,1,20,0,0

[Colours]
Combo1 : 82,254,198
Combo2 : 205,255,159
Combo3 : 177,151,255
Combo4 : 162,185,255

[HitObjects]
125,28,1718,6,0,L|114:-12,3,28.3333333333333,0|0|0|0,1:0|1:0|1:0|1:0,0:0:0:0:
82,140,2110,6,0,B|283:76|283:76|145:343,1,510,0|0,0:0|0:0,0:0:0:0:
145,341,5247,5,2,0:0:0:0:
46,235,5836,6,0,L|28:229,2,11.3333333333333,0|0|0,0:0|0:0|0:0,0:0:0:0:
51,247,6032,1,2,0:0:0:0:
7,355,6620,6,0,L|25:349,2,11.3333333333333,0|0|0,0:0|0:0|0:0,0:0:0:0:
2,367,6816,2,0,L|38:375,1,34,2|0,0:0|0:0,0:0:0:0:
112,334,7208,1,0,0:0:0:0:
250,266,7404,6,0,L|232:260,2,11.3333333333333,2|0|0,0:0|0:0|0:0,0:0:0:0:
255,278,7600,2,0,L|219:286,1,34,0|2,0:0|0:0,0:0:0:0:
145,245,7992,1,0,0:0:0:0:
222,367,8189,1,2,0:0:0:0:
348,213,8385,6,0,B|386:261|386:261|370:333,2,118.999996368408,0|0|0,1:0|1:0|1:0,0:0:0:0:
373,317,9561,1,0,1:0:0:0:
79,212,9953,6,0,B|42:293|42:293|99:370,1,170,0|0,1:0|1:0,1:1:0:0:
197,334,10542,1,0,0:0:0:0:
197,334,10640,1,0,0:0:0:0:
197,334,10738,2,0,L|180:209,1,85,0|0,1:0|0:0,0:0:0:0:
2,186,11130,2,0,L|64:56,1,127.5,0|0,1:0|0:0,0:0:0:0:
56,70,11522,6,0,B|97:122|97:122|214:97,1,170,4|0,1:0|1:0,0:0:0:0:
317,40,12110,6,0,L|353:50,2,28.3333333333333,2|2|2,0:0|0:0|0:0,0:0:0:0:
312,52,12306,1,0,1:0:0:0:
202,193,12698,1,0,1:0:0:0:
403,110,12894,6,0,L|439:120,2,28.3333333333333,2|2|2,0:0|0:0|0:0,0:0:0:0:
398,122,13091,2,0,L|375:225,1,85,6|0,1:0|0:0,1:1:0:0:
207,277,13483,2,0,L|230:380,1,85,0|2,1:0|0:0,0:0:0:0:
233,366,13777,1,0,0:0:0:0:
233,366,13875,2,0,P|282:337|332:340,1,85,0|0,1:0|0:0,0:0:0:0:
503,233,14267,2,0,L|365:201,1,127.5,0|0,1:0|0:0,0:0:0:0:
378,204,14659,6,0,L|358:296,1,85,4|0,1:0|0:0,0:0:0:0:
359,287,14953,1,0,0:0:0:0:
359,287,15051,1,8,1:0:0:0:
503,233,15247,1,0,0:0:0:0:
409,53,15443,2,0,L|429:145,1,85,2|2,0:0|0:0,0:0:0:0:
446,129,15738,1,0,0:0:0:0:
466,122,15836,1,8,1:0:0:0:
486,116,15934,1,0,0:0:0:0:
506,110,16032,1,2,0:0:0:0:
304,199,16228,6,0,L|213:178,1,85,0|0,1:0|0:0,0:0:0:0:
82,37,16620,2,0,B|171:14|171:14|211:39,1,127.5,8|0,1:0|0:0,0:0:0:0:
202,33,17012,2,0,L|228:114,1,85,0|0,1:0|0:0,0:0:0:0:
116,141,17306,1,0,0:0:0:0:
116,141,17404,2,0,L|90:222,1,85,8|0,1:0|1:0,0:0:0:0:
277,276,17796,6,0,B|171:253|171:253|157:291|112:309,1,170,4|8,1:0|1:0,0:0:0:0:
2,353,18385,6,0,L|13:392,2,28.3333333333333,2|2|2,0:0|0:0|0:0,0:0:0:0:
4,327,18581,2,0,B|48:331|48:331|88:367,1,85,0|0,1:0|0:0,0:0:0:0:
243,199,18973,1,8,1:0:0:0:
32,173,19169,6,0,L|17:211,2,28.3333333333333,2|2|2,0:0|0:0|0:0,0:0:0:0:
48,152,19365,2,0,B|81:181|81:181|92:233,1,85,0|0,1:0|0:0,0:0:0:0:
268,288,19757,1,8,0:1:0:0:
162,45,19953,6,0,L|128:67,2,28.3333333333333,2|2|2,0:0|0:0|0:0,0:0:0:0:
187,37,20149,2,0,B|196:80|196:80|174:129,1,85,0|2,1:0|0:0,0:0:0:0:
293,377,20542,1,8,1:0:0:0:
243,199,20738,1,0,1:0:0:0:
343,316,20934,6,0,B|387:341|387:341|503:315,2,170,4|8|0,1:0|1:0|1:0,1:1:0:0:
385,115,21914,1,2,0:0:0:0:
395,117,22012,1,0,0:0:0:0:
405,119,22110,1,8,1:0:0:0:
416,121,22208,1,0,0:0:0:0:
426,123,22306,1,2,0:0:0:0:
210,28,22502,6,0,B|166:54|166:54|50:28,2,170,4|8|0,1:0|1:0|1:0,0:0:0:0:
167,233,23679,1,8,1:0:0:0:
30,115,23875,1,0,1:0:0:0:
30,115,23973,1,0,1:0:0:0:
30,115,24071,5,0,1:0:0:0:
185,149,24267,1,4,0:0:0:0:
11,203,24463,1,0,1:0:0:0:
49,27,24659,1,4,0:0:0:0:
199,61,24855,5,4,1:2:0:0:
192,40,24953,1,0,1:0:0:0:
178,25,25051,1,4,1:2:0:0:
157,19,25149,1,0,1:0:0:0:
137,23,25247,5,4,1:0:0:0:
144,75,25345,1,0,1:0:0:0:
152,128,25443,1,4,1:2:0:0:
159,180,25541,1,0,1:0:0:0:
167,233,25640,6,0,L|162:194,22,31.8750012159348,0|0|0|0|0|0|0|0|0|0|0|0|0|0|0|0|0|0|0|0|0|0|0,0:0|0:0|0:0|0:0|0:0|0:0|0:0|0:0|0:0|0:0|0:0|0:0|0:0|0:0|0:0|0:0|0:0|0:0|0:0|0:0|0:0|0:0|0:0,0:0:0:0:
79,284,26816,6,0,B|120:334|160:262|187:367|187:367|184:259|246:313|273:234,1,297.500002837181,0|4,1:0|0:0,0:0:0:0:
501,318,33091,6,0,B|521:293|521:293|470:301|470:301|462:294|462:294|424:298|424:298|412:314|412:314|334:324|334:324|390:346,1,286.875010943413,0|0,1:0|0:0,0:0:0:0:
400,348,33483,1,4,0:0:0:0:
469,189,38189,6,0,B|520:248|520:248|500:317,1,148.750001418591,4|0,1:2|0:0,0:0:0:0:
379,346,38483,2,0,B|329:288|329:288|349:219,1,148.750001418591,4|0,1:2|0:0,0:0:0:0:
427,269,38777,1,0,1:0:0:0:
427,269,38875,1,0,1:0:0:0:
427,269,38973,6,0,B|392:314|331:319|291:288|291:288|248:306|242:350|242:350|213:269|134:271|88:314|86:372,1,446.250017023087,4|0,1:0|0:0,0:0:0:0:
165,369,39757,6,0,L|152:307,1,59.4999981842042,4|2,1:0|0:0,1:1:0:0:
84,230,40051,1,0,0:0:0:0:
87,245,40149,2,0,L|39:238,1,29.7499990921021,8|0,1:0|0:0,0:0:0:0:
181,216,40345,2,0,L|133:209,1,29.7499990921021,0|2,0:0|0:0,0:0:0:0:
275,187,40542,5,2,1:0:0:0:
181,216,40738,1,0,0:0:0:0:
87,245,40934,1,8,1:0:0:0:
84,230,41032,1,0,0:0:0:0:
82,215,41130,1,2,0:0:0:0:
80,200,41228,1,0,0:0:0:0:
78,186,41326,6,0,L|91:124,1,59.4999981842042,2|0,1:0|0:0,0:0:0:0:
195,72,41620,1,2,0:0:0:0:
192,87,41718,2,0,L|240:80,1,29.7499990921021,8|0,1:0|0:0,0:0:0:0:
98,58,41914,2,0,L|146:51,1,29.7499990921021,0|2,0:0|0:0,0:0:0:0:
4,29,42111,5,2,1:0:0:0:
98,58,42307,1,2,0:0:0:0:
192,87,42503,1,8,1:0:0:0:
195,72,42600,1,0,0:0:0:0:
259,20,42698,5,0,1:0:0:0:
266,59,42795,1,0,1:0:0:0:
273,98,42894,6,0,L|284:167,1,59.4999981842042,2|0,1:0|1:0,0:0:0:0:
264,232,43189,1,0,1:0:0:0:
279,229,43287,2,0,L|272:277,1,29.7499990921021,10|0,1:0|1:0,0:0:0:0:
379,201,43483,2,0,L|372:249,1,29.7499990921021,0|0,1:0|1:0,0:0:0:0:
479,173,43679,5,0,1:1:0:0:
379,201,43875,1,0,1:3:0:0:
279,229,44071,1,8,1:0:0:0:
264,232,44169,1,0,1:3:0:0:
249,235,44267,1,0,1:3:0:0:
234,238,44365,1,0,1:3:0:0:
219,241,44463,6,0,L|242:335,1,59.4999981842042,2|0,1:0|0:0,0:0:0:0:
246,356,44659,2,0,L|232:296,1,59.4999981842042,2|0,1:0|0:0,0:0:0:0:
133,233,44855,2,0,L|157:333,1,59.4999981842042,10|0,1:0|0:0,0:0:0:0:
168,382,45051,2,0,L|154:324,1,59.4999981842042,2|0,1:0|0:0,0:0:0:0:
158,161,45247,6,0,B|191:129|191:129|39:155|39:155|85:177,1,242.249993531227,0|2,1:0|1:0,0:0:0:0:
75,187,45640,2,0,B|-5:146|-5:146|182:112,1,242.249993531227,0|0,0:0|1:0,0:0:0:0:
189,60,46032,6,0,L|234:51,30,40.3749989218712,4|0|0|0|0|0|0|0|0|0|0|0|0|0|0|0|0|0|0|0|0|0|0|0|0|0|0|0|0|0|0,0:0|0:0|0:0|0:0|0:0|0:0|0:0|0:0|0:0|0:0|0:0|0:0|0:0|0:0|0:0|0:0|0:0|0:0|0:0|0:0|0:0|0:0|0:0|0:0|0:0|0:0|0:0|0:0|0:0|0:0|0:0,0:0:0:0:
110,53,47600,6,0,L|65:62,30,40.3749989218712,4|0|0|0|0|0|0|0|0|0|0|0|0|0|0|0|0|0|0|0|0|0|0|0|0|0|0|0|0|0|0,0:0|0:0|0:0|0:0|0:0|0:0|0:0|0:0|0:0|0:0|0:0|0:0|0:0|0:0|0:0|0:0|0:0|0:0|0:0|0:0|0:0|0:0|0:0|0:0|0:0|0:0|0:0|0:0|0:0|0:0|0:0,0:0:0:0:
144,118,49169,6,0,L|131:175,4,40.3749989218712,4|0|0|0|0,0:0|0:0|0:0|0:0|0:0,0:0:0:0:
189,60,49463,2,0,L|176:117,4,40.3749989218712,4|0|0|0|0,0:0|0:0|0:0|0:0|0:0,0:0:0:0:
234,2,49757,1,4,0:0:0:0:
289,137,49953,6,0,L|334:146,14,40.3749989218712,4|0|0|0|0|0|0|0|0|0|0|0|0|0|0,0:0|0:0|0:0|0:0|0:0|0:0|0:0|0:0|0:0|0:0|0:0|0:0|0:0|0:0|0:0,0:0:0:0:
400,110,50738,6,0,B|383:85|383:85|277:62|277:62|243:77|243:77|191:64|191:64|216:96,1,254.999992218018,4|0,1:0|1:0,0:0:0:0:
206,84,52306,6,0,B|191:64|191:64|252:78|252:78|230:159|230:159|200:170|200:170|224:252|224:252|250:243,1,305.999990661621,6|0,1:0|0:0,0:0:0:0:
311,214,52698,5,0,1:0:0:0:
331,214,52796,2,0,B|301:295,1,59.4999981842042,2|0,0:1|0:0,0:0:0:0:
210,353,52993,1,0,0:0:0:0:
192,339,53091,2,0,B|244:320|244:320|303:365,1,118.999996368408,0|2,1:0|0:0,0:0:0:0:
448,353,53483,2,0,B|473:336|473:336|367:358|367:358|390:293,1,178.499994552612,0|0,1:0|0:0,0:0:0:0:
417,253,53875,6,0,L|474:267,1,51,4|0,1:0|0:0,0:0:0:0:
466,265,54267,6,0,L|417:253,1,51,2|0,1:0|0:0,0:0:0:0:
311,214,54463,2,0,L|360:201,1,51,2|0,1:0|0:0,0:0:0:0:
493,178,54659,1,0,1:0:0:0:
493,178,54757,1,0,1:0:0:0:
493,178,54855,2,0,L|443:165,1,51,0|0,0:0|1:0,0:0:0:0:
284,128,55051,2,0,B|333:115|333:115|309:225,1,152.999995330811,2|0,1:0|0:0,0:0:0:0:
231,281,55443,6,0,P|300:312|273:401,1,144.500002756119,4|2,1:0|0:0,0:0:0:0:
226,376,55738,1,0,0:0:0:0:
201,366,55836,1,0,1:0:0:0:
95,257,56032,1,0,0:0:0:0:
120,247,56130,6,0,B|135:281|135:281|128:316,1,59.4999981842042,2|0,0:1|1:0,0:0:0:0:
98,171,56326,1,2,0:1:0:0:
101,144,56424,2,0,B|137:148|137:148|164:171,1,59.4999981842042,2|0,0:0|0:0,0:0:0:0:
3,109,56620,2,0,B|24:79|24:79|58:67,1,59.4999981842042,0|2,1:0|0:0,0:0:0:0:
46,71,56816,2,0,B|24:100|24:100|2:108,1,59.4999981842042,0|2,1:0|0:0,0:0:0:0:
115,20,57012,6,0,B|141:62|141:62|248:71,1,118.999996368408,4|2,1:0|0:1,0:0:0:0:
299,46,57306,1,0,0:0:0:0:
388,18,57404,2,0,L|401:107,1,59.4999981842042,4|0,1:0|0:0,0:0:0:0:
404,26,57600,2,0,L|417:115,1,59.4999981842042,2|0,0:1|0:0,0:0:0:0:
291,125,57796,5,2,0:0:0:0:
246,135,57894,1,0,0:0:0:0:
201,145,57992,2,0,B|207:176|207:176|198:203|198:203|207:240,1,80.7499978437424,2|0,0:0|0:0,0:0:0:0:
368,191,58189,5,8,1:0:0:0:
323,201,58287,1,0,0:0:0:0:
278,211,58385,2,0,B|286:249|286:249|275:278|275:278|284:319,1,91.3750013942719,2|0,0:1|0:0,0:0:0:0:
406,361,58581,6,0,B|421:365|437:384|437:384|440:338|385:324|385:324|342:354|342:354|333:355|333:355|293:381|293:381|213:359,1,305.999990661621,6|0,1:0|0:0,0:0:0:0:
143,295,58973,5,8,1:0:0:0:
120,331,59071,2,0,B|108:259,1,59.4999981842042,0|0,0:0|0:0,0:0:0:0:
51,154,59267,1,2,0:1:0:0:
28,186,59365,2,0,B|-7:240|-7:240|35:291,1,118.999996368408,0|2,1:0|0:0,0:0:0:0:
182,229,59757,2,0,L|168:147,1,59.4999981842042,8|0,1:0|0:0,0:0:0:0:
117,38,59953,2,0,L|131:120,1,59.4999981842042,2|0,0:0|0:0,0:0:0:0:
210,87,60149,6,0,B|245:72|293:61|293:61|304:87|341:123,1,127.5,6|2,1:0|0:0,0:0:0:0:
420,58,60541,6,0,L|365:36,1,59.4999981842042,8|0,1:0|0:0,0:0:0:0:
412,148,60738,2,0,L|347:164,1,59.4999981842042,2|0,0:1|0:0,0:0:0:0:
505,53,60934,1,0,1:0:0:0:
505,53,61032,1,0,0:0:0:0:
505,53,61130,2,2,L|478:-1,1,59.4999981842042,0|0,0:0|0:0,0:0:0:0:
480,177,61326,2,0,B|458:210|458:210|366:234,1,118.999996368408,8|0,1:0|1:0,0:0:0:0:
447,376,61718,6,0,B|457:392|457:392|487:359|467:302|415:294,1,144.500002756119,4|2,1:0|0:0,0:0:0:0:
332,313,62012,1,0,0:0:0:0:
299,305,62110,1,8,1:0:0:0:
192,190,62306,1,0,0:0:0:0:
225,182,62404,6,0,L|204:281,1,59.4999981842042,2|0,0:1|1:0,0:0:0:0:
94,317,62600,1,0,0:0:0:0:
70,292,62698,2,0,L|166:260,1,59.4999981842042,2|0,0:0|0:0,0:0:0:0:
243,371,62894,2,0,L|146:339,1,59.4999981842042,8|0,1:0|0:0,0:0:0:0:
179,337,63091,2,0,L|236:356,1,59.4999981842042,8|0,1:0|0:0,0:0:0:0:
299,305,63287,6,2,P|367:306|391:383,1,136,4|0,1:0|0:0,0:0:0:0:
495,273,63875,1,2,0:1:0:0:
487,288,63973,1,0,0:0:0:0:
472,297,64071,6,0,P|446:244|516:196,1,152.999995330811,0|0,0:0|0:0,0:0:0:0:
510,194,64463,2,0,L|490:115,3,50.9999984436036,8|0|0|0,1:0|0:0|0:0|0:0,0:0:0:0:
462,10,64855,6,0,B|364:75|364:75|435:190|435:190|421:136,1,305.999990661621,4|0,1:0|0:0,0:0:0:0:
357,210,65247,5,8,1:0:0:0:
323,237,65345,2,0,B|261:222,1,59.4999981842042,2|0,0:1|0:0,0:0:0:0:
214,343,65542,1,0,0:0:0:0:
188,308,65640,2,0,B|163:283|163:283|66:312,1,118.999996368408,0|2,1:0|0:0,0:0:0:0:
36,174,66032,2,0,P|20:150|13:115,1,59.4999981842042,8|2,1:0|0:0,0:0:0:0:
76,5,66228,2,0,P|63:30|36:53,1,59.4999981842042,0|2,0:0|0:0,0:0:0:0:
140,58,66424,6,0,B|165:79|165:79|268:55,1,127.5,6|2,1:0|0:0,0:0:0:0:
385,32,66816,6,0,L|399:89,1,59.4999981842042,8|0,1:0|0:0,0:0:0:0:
267,132,67012,2,0,L|343:113,1,59.4999981842042,2|0,0:1|0:0,0:0:0:0:
482,89,67208,1,0,1:0:0:0:
482,89,67306,1,2,0:0:0:0:
482,89,67404,2,0,L|468:146,1,59.4999981842042,2|0,0:0|0:0,0:0:0:0:
334,192,67600,2,0,B|405:174|405:174|438:221,1,118.999996368408,8|0,1:0|1:0,0:0:0:0:
500,358,67992,6,0,B|471:328|421:325|421:325|409:363|369:378,1,144.500002756119,0|2,1:0|0:0,0:0:0:0:
305,313,68287,1,0,0:0:0:0:
345,304,68385,1,8,1:0:0:0:
194,329,68581,1,0,0:0:0:0:
154,320,68679,1,2,0:1:0:0:
114,311,68777,6,0,B|119:338|119:338|125:348|125:348|133:393,1,59.4999981842042,0|0,1:0|0:0,0:0:0:0:
99,322,68973,2,0,B|104:349|104:349|110:359|110:359|118:404,1,59.4999981842042,2|0,1:0|0:0,0:0:0:0:
180,143,69169,6,0,B|170:178|170:178|174:193|174:193|161:235,1,80.7499978437424,8|2,1:0|0:1,0:0:0:0:
212,168,69365,2,0,B|202:203|202:203|206:218|206:218|193:260,1,80.7499978437424,2|8,0:1|1:0,0:0:0:0:
19,250,69561,6,0,B|2:215|2:215|57:159|57:159|35:109,1,161.499995687485,4|0,1:0|0:0,0:0:0:0:
46,24,69855,1,2,0:0:0:0:
134,50,69953,2,0,B|173:62|173:62|256:25|256:25|237:48|237:48|249:106|249:106|289:126,1,242.249993531227,8|0,1:0|0:0,0:0:0:0:
378,18,70345,6,0,P|342:34|343:99,1,72.2500013780594,2|0,1:0|0:0,0:0:0:0:
348,151,70542,2,0,P|380:173|436:140,1,72.2500013780594,0|2,1:0|0:0,0:0:0:0:
478,110,70738,6,0,P|481:71|424:39,1,72.2500013780594,8|0,1:0|0:0,0:0:0:0:
461,46,71130,6,0,B|427:89|427:89|456:201|456:201|502:216,1,216.750004134178,2|0,1:0|0:0,0:0:0:0:
435,326,71522,5,12,1:0:0:0:
472,335,71620,1,0,0:0:0:0:
509,344,71718,2,0,B|495:277,1,59.4999981842042,0|2,0:0|0:0,0:0:0:0:
355,272,71914,1,0,1:0:0:0:
318,281,72012,2,0,B|331:214,1,59.4999981842042,0|2,0:0|0:0,0:0:0:0:
499,215,72208,2,0,B|485:148,1,59.4999981842042,0|8,1:0|1:0,0:0:0:0:
358,128,72404,1,0,0:0:0:0:
283,146,72502,2,0,B|296:79,1,59.4999981842042,0|2,1:0|0:0,0:0:0:0:
463,27,72698,6,0,B|420:56|420:56|343:29,1,118.999996368408,4|0,1:0|2:0,0:0:0:0:
229,31,72992,1,0,0:0:0:0:
229,31,73091,2,0,L|194:202,1,118.999996368408,8|0,1:0|0:0,0:0:0:0:
121,174,73385,6,0,L|132:214,1,29.7499990921021,0|0,1:0|1:0,0:0:0:0:
104,185,73483,2,0,L|124:257,1,59.4999981842042,2|0,1:0|0:0,0:0:0:0:
292,231,73679,1,0,0:0:0:0:
329,222,73777,2,0,B|315:288,1,59.4999981842042,0|0,1:0|1:0,0:0:0:0:
189,348,73973,1,0,1:0:0:0:
266,360,74071,2,0,L|246:288,1,59.4999981842042,0|0,1:0|0:0,0:0:0:0:
114,334,74267,5,0,1:0:0:0:
114,334,74365,2,0,B|63:367|63:367|7:343,1,118.999996368408,0|0,1:0|1:0,1:1:0:0:
18,221,74659,2,0,P|33:250|21:295,1,59.4999981842042,8|0,1:0|0:0,0:0:0:0:
68,152,74855,2,0,P|100:156|129:193,1,59.4999981842042,2|0,1:0|0:0,0:0:0:0:
40,70,75051,1,0,1:0:0:0:
40,70,75149,1,0,1:0:0:0:
40,70,75247,2,0,P|62:46|109:44,1,59.4999981842042,0|0,0:0|1:0,0:0:0:0:
283,123,75443,6,0,B|321:111|321:111|255:95|255:95|196:117|196:117|151:88,1,216.750004134178,8|0,1:0|0:0,0:0:0:0:
204,31,75836,6,0,L|194:108,1,59.4999981842042,0|0,1:0|0:0,0:0:0:0:
233,181,76032,2,0,L|223:258,1,59.4999981842042,0|0,1:0|0:0,0:0:0:0:
152,263,76228,2,0,L|162:305,3,39.6666654561361,0|2|2|2,1:0|0:0|0:0|0:0,0:0:0:0:
231,368,76620,6,0,L|273:361,1,42.5,0|0,0:0|0:0,0:0:0:0:
244,353,76816,2,0,L|285:345,1,42.5,2|0,0:0|0:0,0:0:0:0:
360,262,77012,6,0,L|467:290,1,85,2|0,0:0|0:0,0:0:0:0:
406,321,77208,2,0,L|513:349,1,85,2|0,0:0|0:0,0:0:0:0:
248,278,77404,5,4,1:0:0:0:
434,72,82894,6,0,P|479:74|492:28,1,95.6250036478044,2|0,0:0|0:0,0:0:0:0:
494,33,83287,6,0,B|506:86|506:86|496:113|496:113|513:182,1,127.500004863739,2|0,1:0|0:0,0:0:0:0:
460,333,83679,6,0,L|467:289,30,40.3749989218712,4|0|0|0|0|0|0|0|0|0|0|0|0|0|0|0|0|0|0|0|0|0|0|0|0|0|0|0|0|0|0,0:0|0:0|0:0|0:0|0:0|0:0|0:0|0:0|0:0|0:0|0:0|0:0|0:0|0:0|0:0|0:0|0:0|0:0|0:0|0:0|0:0|0:0|0:0|0:0|0:0|0:0|0:0|0:0|0:0|0:0|0:0,0:0:0:0:
367,250,85247,6,0,L|374:206,30,40.3749989218712,4|0|0|0|0|0|0|0|0|0|0|0|0|0|0|0|0|0|0|0|0|0|0|0|0|0|0|0|0|0|0,0:0|0:0|0:0|0:0|0:0|0:0|0:0|0:0|0:0|0:0|0:0|0:0|0:0|0:0|0:0|0:0|0:0|0:0|0:0|0:0|0:0|0:0|0:0|0:0|0:0|0:0|0:0|0:0|0:0|0:0|0:0,0:0:0:0:
341,372,86816,6,0,L|282:380,4,40.3749989218712,4|0|0|0|0,0:0|0:0|0:0|0:0|0:0,0:0:0:0:
262,288,87110,2,0,L|203:296,4,40.3749989218712,4|0|0|0|0,0:0|0:0|0:0|0:0|0:0,0:0:0:0:
183,204,87404,1,4,0:0:0:0:
431,128,87600,6,0,L|437:167,2,40.3749989218712,4|0|0,0:0|0:0|0:0,0:0:0:0:
426,246,87796,2,0,L|432:285,2,40.3749989218712,4|0|0,0:0|0:0|0:0,0:0:0:0:
421,364,87992,1,2,0:0:0:0:
441,359,88090,1,2,0:0:0:0:
461,354,88188,1,2,0:0:0:0:
480,349,88286,1,2,0:0:0:0:
500,344,88385,6,0,B|421:201|421:201|263:224|263:224|251:297,1,382.499988327027,0|0,0:0|0:0,0:0:0:0:
333,291,89953,5,2,1:0:0:0:
333,291,90051,2,0,P|375:321|357:398,1,118.999996368408,0|2,0:0|0:1,0:0:0:0:
217,355,90345,5,8,1:0:0:0:
217,355,90443,2,0,B|183:356|183:356|156:385,2,68,0|2|0,0:0|0:1|0:0,0:0:0:0:
138,264,90738,1,0,1:0:0:0:
138,264,90836,2,0,B|200:238|200:238|252:282,1,136,0|2,0:0|0:1,0:0:0:0:
301,212,91130,5,8,1:0:0:0:
291,167,91228,1,2,0:0:0:0:
216,126,91326,1,2,0:0:0:0:
226,81,91424,1,2,0:0:0:0:
301,40,91522,5,0,1:0:0:0:
301,40,91620,2,0,B|270:58|270:58|221:49,1,68,0|0,0:0|0:0,0:0:0:0:
123,25,91816,1,2,0:0:0:0:
82,42,91914,2,0,B|91:85|91:85|110:100|110:100|126:178,1,136,8|0,1:0|0:0,0:0:0:0:
0,244,92306,5,2,1:1:0:0:
0,244,92404,2,0,P|36:219|85:295,1,136,0|0,0:0|0:0,0:0:0:0:
40,342,92698,2,0,B|13:372|13:372|119:352,1,136,8|2,1:0|0:0,0:0:0:0:
308,305,93091,5,4,1:0:0:0:
308,305,93189,2,0,P|343:316|366:360,1,68
361,339,93385,2,0,P|349:307|322:287,1,68,2|8,0:1|1:0,0:0:0:0:
216,283,93581,1,0,0:0:0:0:
216,283,93679,2,0,P|190:304|181:336,1,68,2|0,0:0|0:0,0:0:0:0:
180,336,93875,6,0,P|177:302|194:274,1,68,0|2,1:0|0:1,0:0:0:0:
291,223,94071,1,0,0:0:0:0:
291,223,94169,2,0,P|323:214|355:226,1,68,0|8,0:0|1:0,0:0:0:0:
444,261,94365,1,0,0:0:0:0:
444,261,94463,2,0,P|467:285|473:318,1,68,2|2,0:0|0:0,0:0:0:0:
379,384,94659,6,0,B|374:357|374:357|368:347|368:347|360:302,1,59.4999981842042,4|0,1:0|0:0,0:0:0:0:
394,373,94855,2,0,B|389:346|389:346|383:336|383:336|375:291,1,59.4999981842042,2|0,0:1|0:0,0:0:0:0:
291,223,95051,6,0,B|301:188|301:188|297:173|297:173|310:131,1,80.7499978437424,8|0,1:0|0:0,0:0:0:0:
259,198,95247,2,0,B|269:163|269:163|265:148|265:148|278:106,1,80.7499978437424,2|0,0:1|0:0,0:0:0:0:
432,0,95443,6,0,B|470:52|470:52|450:105,1,118.999996368408,4|2,1:0|0:0,0:0:0:0:
366,57,95738,1,0,0:0:0:0:
366,57,95836,2,0,B|333:68|333:68|253:29|253:29|199:82,1,178.499994552612,8|0,1:0|0:0,0:0:0:0:
30,52,96228,6,0,B|-7:37|-7:37|92:21,1,136,4|0,1:0|0:0,0:0:0:0:
169,127,96522,2,0,B|141:148|141:148|104:139,1,68,2|8,0:0|1:0,0:0:0:0:
28,207,96718,1,0,0:0:0:0:
28,207,96816,2,0,B|59:221|59:221|70:258,1,68,0|2,0:0|0:1,0:0:0:0:
14,365,97012,5,0,1:0:0:0:
14,365,97110,2,0,B|54:331|54:331|149:360,1,136,0|0,0:0|0:0,0:0:0:0:
219,362,97404,5,8,1:0:0:0:
227,316,97502,1,2,0:0:0:0:
153,272,97600,1,2,0:0:0:0:
145,226,97698,1,2,0:0:0:0:
219,182,97796,5,0,1:0:0:0:
219,182,97894,2,0,B|249:198|249:198|296:183,1,68,0|0,0:0|0:0,0:0:0:0:
359,98,98091,1,2,0:1:0:0:
400,115,98189,2,0,B|391:158|391:158|372:173|372:173|356:251,1,136,8|0,1:0|3:0,0:0:0:0:
480,345,98581,5,2,1:1:0:0:
480,345,98679,2,0,P|497:294|433:248,1,136,0|0,0:0|0:0,0:0:0:0:
390,312,98973,2,0,B|334:353|334:353|256:317,1,136,8|0,1:0|0:0,1:1:0:0:
106,333,99365,5,4,1:0:0:0:
106,333,99463,2,0,P|74:352|62:387,1,68,0|0,0:0|0:0,0:0:0:0:
63,255,99659,2,0,P|26:246|-6:262,1,68,0|0,1:0|0:0,0:0:0:0:
88,170,99855,1,0,0:0:0:0:
88,170,99953,2,0,P|68:138|33:126,1,68,4|0,1:0|0:0,0:0:0:0:
62,380,100345,5,0,0:0:0:0:
62,380,100443,2,0,P|77:349|106:333,1,68,0|2,0:0|0:0,0:0:0:0:
0,258,100640,1,0,0:0:0:0:
0,258,100738,2,0,P|30:246|63:255,1,68,0|0,0:0|0:0,0:0:0:0:
41,126,100934,6,0,B|96:135|96:135|106:142|106:142|156:152,1,118.999996368408,4|2,1:0|0:1,0:0:0:0:
262,256,101228,1,0,0:0:0:0:
203,307,101326,6,0,B|176:272|176:272|192:222,1,80.7499978437424,2|0,0:0|0:0,0:0:0:0:
335,281,101522,2,0,B|318:321|318:321|267:332,1,80.7499978437424,2|0,1:1|0:0,0:0:0:0:
247,180,101718,1,4,1:0:0:0:
247,180,101914,5,2,0:0:0:0:
263,176,102012,2,0,L|342:159,1,59.4999981842042,2|2,0:0|0:0,0:0:0:0:
333,73,102208,1,2,0:0:0:0:
349,77,102306,2,0,L|428:94,1,59.4999981842042,2|2,0:0|0:0,0:0:0:0:
451,175,102502,6,0,B|509:162|509:162|472:280,1,178.499994552612,4|0,1:2|1:0,1:1:0:0:
335,281,102894,1,0,1:0:0:0:
364,267,102992,1,0,1:0:0:0:
393,253,103091,2,0,L|410:342,1,59.4999981842042,0|0,1:0|1:0,1:1:0:0:
311,369,103287,5,0,1:0:0:0:
282,355,103385,1,2,1:0:0:0:
253,341,103483,1,0,1:0:0:0:
224,327,103581,1,0,1:0:0:0:
195,313,103679,2,0,L|212:224,1,59.4999981842042,0|0,1:0|1:0,0:0:0:0:
224,151,103875,1,0,1:0:0:0:
218,137,103973,1,0,1:0:0:0:
212,123,104071,5,0,1:0:0:0:
183,137,104169,1,0,1:0:0:0:
154,151,104267,1,0,1:0:0:0:
125,165,104365,1,0,1:0:0:0:
96,179,104463,1,0,1:0:0:0:
102,207,104561,2,0,L|35:189,2,59.4999981842042,0|0|0,1:0|1:0|1:0,1:1:0:0:
113,282,104855,5,0,1:0:0:0:
119,310,104953,2,0,L|-2:278,2,118.999996368408,2|0|0,1:0|1:0|1:0,0:0:0:0:
207,376,105443,1,0,1:0:0:0:
221,370,105541,1,0,1:0:0:0:
235,364,105640,6,0,B|265:284|265:284|188:212,1,178.499994552612,4|0,1:2|1:0,1:1:0:0:
72,133,106032,1,0,1:0:0:0:
58,162,106130,1,0,1:0:0:0:
44,191,106229,2,0,L|133:208,1,59.4999981842042,0|0,1:0|1:0,1:1:0:0:
208,147,106424,5,0,1:0:0:0:
194,118,106522,1,0,1:0:0:0:
180,89,106620,1,0,1:0:0:0:
166,60,106718,1,0,1:0:0:0:
152,31,106816,2,0,L|241:14,1,59.4999981842042,0|0,1:0|1:0,0:0:0:0:
306,68,107012,1,0,1:0:0:0:
320,70,107110,1,0,1:0:0:0:
335,73,107208,5,0,1:0:0:0:
363,65,107306,1,0,1:0:0:0:
392,58,107404,1,0,1:0:0:0:
421,51,107502,1,0,1:0:0:0:
450,44,107600,1,0,1:0:0:0:
467,55,107698,2,0,B|513:103|513:103|476:186,1,118.999996368408,0|0,1:0|1:0,1:1:0:0:
411,207,107992,6,0,L|324:195,1,59.4999981842042,0|0,1:0|1:0,1:1:0:0:
246,152,108189,1,8,1:0:0:0:
196,182,108287,1,8,1:0:0:0:
182,239,108385,1,8,1:0:0:0:
211,289,108483,1,8,1:0:0:0:
267,305,108581,1,8,1:0:0:0:
318,279,108679,1,8,1:0:0:0:
259,228,108777,6,0,B|221:273|221:273|248:348,1,118.999996368408,4|0,1:0|0:0,0:0:0:0:
368,384,109071,2,0,L|397:378,1,29.7499990921021,2|0,1:0|1:0,0:0:0:0:
348,350,109169,2,0,L|420:338,2,59.4999981842042,0|0|4,1:0|1:0|0:0,0:0:0:0:
499,227,109561,5,0,1:0:0:0:
455,217,109659,1,4,1:2:0:0:
411,207,109757,1,0,1:0:0:0:
368,197,109855,1,0,1:0:0:0:
324,188,109953,2,0,B|346:92,1,89.2499972763062,0|0,1:0|0:0,0:0:0:0:
343,101,110149,1,0,1:0:0:0:
343,101,110247,1,0,1:0:0:0:
301,118,110345,5,0,1:0:0:0:
257,128,110443,1,0,1:0:0:0:
214,138,110541,1,0,1:0:0:0:
149,95,110640,2,0,L|142:54,1,29.7499990921021,0|0,1:0|1:0,1:1:0:0:
113,120,110738,2,0,L|100:49,2,59.4999981842042,0|0|0,1:0|1:0|0:0,0:0:0:0:
177,228,111032,2,0,L|170:269,1,29.7499990921021,0|0,1:0|1:0,0:0:0:0:
165,203,111130,6,0,L|140:333,1,118.999996368408,2|0,1:0|1:0,1:1:0:0:
28,372,111424,2,0,L|-17:360,2,29.7499990921021,0|0|0,1:0|1:0|1:0,1:1:0:0:
37,280,111620,2,0,L|8:272,2,29.7499990921021,0|0|0,1:0|0:0|1:0,1:1:0:0:
46,188,111816,2,0,L|17:180,1,29.7499990921021,0|0,1:0|0:0,0:0:0:0:
0,196,111914,6,0,B|65:212|65:212|111:153,1,118.999996368408,4|0,1:2|0:0,1:1:0:0:
127,52,112208,2,0,L|168:45,1,29.7499990921021,0|0,1:0|1:0,0:0:0:0:
105,15,112306,2,0,L|176:2,2,59.4999981842042,0|0|4,1:0|1:0|0:0,1:1:0:0:
236,158,112698,5,0,1:0:0:0:
280,165,112796,1,0,1:0:0:0:
324,172,112894,1,0,1:0:0:0:
368,180,112992,1,0,1:0:0:0:
412,187,113091,2,0,B|384:218|384:218|407:285,1,89.2499972763062,4|0,0:0|0:0,0:0:0:0:
399,262,113287,1,0,1:0:0:0:
399,262,113385,1,0,1:0:0:0:
361,275,113483,5,0,1:0:0:0:
317,283,113581,1,0,1:0:0:0:
274,291,113679,1,0,1:0:0:0:
212,343,113777,2,0,L|205:384,1,29.7499990921021,0|0,1:0|1:0,1:1:0:0:
173,322,113875,2,0,L|160:393,2,59.4999981842042,0|0|0,1:0|1:0|0:0,0:0:0:0:
236,158,114169,2,0,L|241:187,1,29.7499990921021,0|0,1:0|1:0,0:0:0:0:
231,207,114267,6,0,B|137:258|137:258|50:181,1,208.249993644715,0|0,0:0|0:0,0:0:0:0:
23,119,115051,6,0,P|69:114|86:74,1,89.2499972763062,4|0,1:0|0:0,0:0:0:0:
160,155,115836,6,0,P|179:112|152:77,1,89.2499972763062,4|0,1:0|0:0,0:0:0:0:
245,38,116620,6,0,P|217:0|174:5,1,89.2499972763062,4|0,1:0|0:0,3:3:0:0:
86,79,117404,6,0,P|46:86|80:24,1,148.75,4|0,1:0|0:0,3:3:0:0:
157,80,118189,6,0,P|179:117|160:155,1,89.2499972763062,4|0,1:0|0:0,0:0:0:0:
27,227,118973,6,0,P|47:189|90:187,1,89.2499972763062,4|0,1:0|0:0,0:0:0:0:
219,267,119757,6,0,P|176:267|153:231,1,89.2499972763062,4|0,1:0|0:0,0:0:0:0:
157,80,120541,6,0,P|174:109|158:151,1,63.75,4|0,1:0|0:0,0:0:0:0:
160,154,120934,6,0,B|250:148|250:148|272:159|272:159|376:154,1,191.250007295609,0|0,1:0|0:0,0:0:0:0:
480,132,121326,6,0,B|469:88|469:88|393:59|393:59|339:96,3,170,4|0|0|0,1:0|1:0|1:0|1:0,1:1:0:0:
42,126,122894,6,0,B|55:62|55:62|130:32|130:32|209:79,3,212.5,4|0|0|0,1:0|1:0|1:0|1:0,1:1:0:0:
256,192,124463,5,0,1:0:0:0:
352,96,124659,1,0,1:0:0:0:
160,96,124855,1,0,1:0:0:0:
160,288,125051,1,0,1:0:0:0:
352,288,125247,5,0,1:0:0:0:
336,252,125345,1,0,1:0:0:0:
302,233,125443,1,0,1:0:0:0:
263,239,125541,1,0,1:0:0:0:
236,267,125640,1,0,1:0:0:0:
208,294,125738,1,0,1:0:0:0:
170,300,125836,1,0,1:0:0:0:
136,281,125934,1,0,0:0:0:0:
120,245,126032,6,2,L|129:208,22,26.5625,0|0|0|0|0|0|0|0|0|0|0|0|0|0|0|0|0|0|0|0|0|0|0,0:0|0:0|0:0|0:0|0:0|0:0|0:0|0:0|0:0|0:0|0:0|0:0|0:0|0:0|0:0|0:0|0:0|0:0|0:0|0:0|0:0|0:0|0:0,0:0:0:0:
48,291,127208,1,0,0:0:0:0:
48,291,127306,1,0,0:0:0:0:
48,291,127404,2,0,L|66:365,1,53.125,0|0,0:0|0:0,0:0:0:0:
16,177,127600,5,4,1:0:0:0:
76,185,139561,6,0,B|126:204|126:204|164:154,1,106.25,0|0,0:0|0:0,0:0:0:0:
149,281,140149,5,4,1:0:0:0:
149,281,141130,6,0,L|156:308,4,21.25,2|2|2|2|2,0:0|0:0|0:0|0:0|0:0,0:0:0:0:
363,281,143287,5,2,0:0:0:0:
293,201,143875,2,0,L|275:181,3,14.1666666666667,2|2|2|2,0:0|0:0|0:0|0:0,0:0:0:0:
396,180,144659,2,0,L|404:154,3,14.1666666666667,2|2|2|2,0:0|0:0|0:0|0:0,0:0:0:0:
465,259,145443,2,0,L|491:253,3,14.1666666666667,2|2|2|2,0:0|0:0|0:0|0:0,0:0:0:0:
363,281,146424,5,2,0:0:0:0:
363,281,147404,6,0,L|356:308,4,21.25,2|2|2|2|2,0:0|0:0|0:0|0:0|0:0,0:0:0:0:
149,281,149561,5,2,0:0:0:0:
219,201,150149,2,0,L|237:181,3,14.1666666666667,2|2|2|2,0:0|0:0|0:0|0:0,0:0:0:0:
116,180,150933,2,0,L|108:154,3,14.1666666666667,2|2|2|2,0:0|0:0|0:0|0:0,0:0:0:0:
47,259,151522,5,0,1:0:0:0:
17,278,151620,1,0,1:0:0:0:
39,281,151718,5,0,1:0:0:0:
26,268,151816,1,0,1:0:0:0:
13,247,151914,1,0,1:0:0:0:
7,217,152012,1,0,1:0:0:0:
12,181,152110,1,0,1:0:0:0:
36,146,152208,1,0,1:0:0:0:
80,125,152306,2,0,L|100:199,1,63.75,0|0,1:0|0:0,0:0:0:0:
0,76,152698,6,0,B|57:16|57:16|192:61,1,212.5,4|0,1:0|0:0,0:0:0:0:
212,70,153287,2,0,L|256:62,3,28.3333333333333,2|2|2|2,0:0|0:0|0:0|0:0,0:0:0:0:
154,271,153875,6,0,L|126:265,5,28.3333333333333,2|2|2|2|2|2,0:0|0:0|0:0|0:0|0:0|0:0,0:0:0:0:
120,251,154267,2,2,B|181:228|198:270|214:312|286:279,1,170,0|0,0:0|0:0,0:0:0:0:
388,239,154855,5,0,0:0:0:0:
388,239,154921,1,2,0:0:0:0:
388,239,154986,1,2,0:0:0:0:
388,239,155051,2,2,P|449:267|431:365,1,170,0|0,0:0|0:0,0:0:0:0:
331,369,155640,5,2,0:0:0:0:
321,365,155705,1,2,0:0:0:0:
311,361,155770,1,2,0:0:0:0:
301,357,155836,1,2,0:0:0:0:
289,268,156424,5,2,0:0:0:0:
278,270,156489,1,2,0:0:0:0:
268,273,156554,1,2,0:0:0:0:
257,275,156620,1,2,0:0:0:0:
195,210,157208,5,2,0:0:0:0:
187,219,157273,1,2,0:0:0:0:
181,227,157338,1,2,0:0:0:0:
173,235,157404,1,2,0:0:0:0:
84,218,157993,5,2,0:0:0:0:
83,230,158058,1,2,0:0:0:0:
83,240,158123,1,2,0:0:0:0:
81,251,158189,1,2,0:0:0:0:
124,343,158581,6,0,L|49:353,1,63.75,0|0,0:0|0:0,0:0:0:0:
206,384,158973,6,0,B|243:247|243:247|160:202,1,212.5,4|0,1:0|0:0,0:0:0:0:
146,202,159562,2,0,L|97:211,3,28.3333333333333,2|2|2|2,0:0|0:0|0:0|0:0,0:0:0:0:
299,27,160149,6,0,L|348:36,5,28.3333333333333,2|2|2|2|2|2,0:0|0:0|0:0|0:0|0:0|0:0,0:0:0:0:
290,45,160541,2,2,P|366:80|417:10,1,170,0|0,0:0|0:0,0:0:0:0:
508,71,161130,5,0,0:0:0:0:
508,71,161195,1,2,0:0:0:0:
508,71,161260,1,2,0:0:0:0:
508,71,161326,2,2,B|500:140|500:140|491:159|491:159|479:260,1,170,0|0,0:0|0:0,0:0:0:0:
418,317,161914,5,2,0:0:0:0:
414,307,161979,1,2,0:0:0:0:
410,297,162044,1,2,0:0:0:0:
406,287,162110,2,0,B|360:266|360:266|321:313|321:313|250:319,1,170,2|0,0:0|0:0,0:0:0:0:
121,234,162698,5,2,0:0:0:0:
125,224,162763,1,2,0:0:0:0:
129,214,162828,1,2,0:0:0:0:
133,204,162894,2,0,B|179:183|179:183|218:230|218:230|289:236,1,170,2|4,0:0|0:0,0:0:0:0:
418,151,163483,5,2,0:0:0:0:
414,141,163548,1,2,0:0:0:0:
410,131,163613,1,2,0:0:0:0:
406,121,163679,2,0,B|421:80,5,42.5,0|0|0|0|0|0,1:0|1:0|1:0|1:0|1:0|1:0,1:1:0:0:
296,128,164267,5,2,1:2:0:0:
300,118,164332,1,2,1:2:0:0:
304,108,164397,1,2,1:2:0:0:
308,98,164463,2,0,B|301:68,6,21.25,2|0|0|0|0|0|0,1:0|0:0|0:0|0:0|0:0|0:0|0:0,0:0:0:0:
325,205,164855,2,0,B|272:240|272:240|186:208,1,127.5,8|0,1:0|0:0,0:0:0:0:
116,133,165247,6,2,B|158:218|105:247|61:272|104:348,1,220.999989883423,4|8,1:0|1:0,0:0:0:0:
226,357,165836,5,2,0:0:0:0:
226,357,165901,1,2,0:0:0:0:
226,357,165966,1,2,0:0:0:0:
226,357,166032,2,2,B|333:309|333:309|443:368,1,220.999989883423,4|8,1:0|1:0,0:0:0:0:
447,217,166489,6,0,L|463:264,4,36.8333316472372,2|2|2|2|2,0:0|0:0|0:0|0:0|0:0,0:0:0:0:
483,255,166816,2,2,P|528:187|421:120,1,220.999989883423,6|8,1:0|1:0,0:0:0:0:
373,27,167404,5,2,0:0:0:0:
373,27,167470,1,2,0:0:0:0:
373,27,167535,1,2,0:0:0:0:
373,27,167600,2,2,B|290:-1|277:65|267:117|171:79,1,220.999989883423,6|8,1:0|1:0,0:0:0:0:
32,55,168189,5,2,0:0:0:0:
32,55,168254,1,2,0:0:0:0:
32,55,168319,1,2,0:0:0:0:
32,55,168385,2,2,P|143:75|130:168,1,220.999989883423,4|8,1:0|1:0,0:0:0:0:
24,262,168973,5,2,0:0:0:0:
24,262,169038,1,2,0:0:0:0:
24,262,169103,1,2,0:0:0:0:
24,262,169169,2,2,B|107:234|120:300|130:352|226:314,1,220.999989883423,4|8,1:0|1:0,0:0:0:0:
374,304,169757,5,2,0:0:0:0:
374,304,169823,1,2,0:0:0:0:
374,304,169888,1,2,0:0:0:0:
374,304,169953,2,2,B|348:373|348:373|311:225,1,220.999989883423,4|8,1:0|1:0,0:0:0:0:
464,150,170541,5,2,0:0:0:0:
464,150,170607,1,2,0:0:0:0:
464,150,170672,1,2,0:0:0:0:
464,150,170738,2,0,B|397:191|397:191|302:142,1,165.749992412568,2|0,1:0|0:0,0:0:0:0:
271,47,171130,2,0,B|196:54|196:54|186:66|186:66|88:75,1,165.749992412568,8|0,1:0|0:0,0:0:0:0:
57,145,171522,5,4,1:0:0:0:
191,180,171718,1,0,1:0:0:0:
156,314,171914,1,8,1:0:0:0:
22,279,172110,1,0,1:0:0:0:
237,267,172306,5,0,1:0:0:0:
75,361,172502,1,0,1:0:0:0:
74,173,172698,2,0,L|68:139,4,27.6249987354279,0|0|0|0|0,1:0|1:0|1:0|1:0|1:0,1:1:0:0:
103,125,172992,1,0,1:0:0:0:
104,125,173091,6,0,L|79:244,1,110.499994941712,4|0,1:0|1:0,0:0:0:0:
207,370,173483,1,8,1:0:0:0:
22,279,173679,1,0,1:0:0:0:
191,180,173875,1,0,1:0:0:0:
75,361,174071,1,0,1:0:0:0:
243,270,174267,1,8,1:0:0:0:
243,270,174365,1,0,1:0:0:0:
243,270,174463,2,0,L|278:278,3,27.6249987354279,0|0|0|0,1:0|1:0|1:0|0:0,1:1:0:0:
191,180,174659,5,0,1:0:0:0:
230,174,174757,1,0,1:0:0:0:
268,167,174855,1,0,1:0:0:0:
306,161,174953,1,0,1:0:0:0:
344,155,175051,2,0,L|349:202,3,27.6249987354279,0|0|0|0,1:0|1:0|1:0|0:0,0:0:0:0:
377,73,175247,5,0,0:0:0:0:
377,73,175345,1,0,0:0:0:0:
377,73,175443,1,0,1:0:0:0:
338,67,175541,1,0,1:0:0:0:
300,60,175639,1,0,1:0:0:0:
262,54,175737,1,0,1:0:0:0:
224,48,175835,2,0,L|219:95,3,27.6249987354279,0|0|0|0,1:0|1:0|1:0|0:0,0:0:0:0:
140,113,176032,1,0,1:0:0:0:
140,113,176130,1,0,1:0:0:0:
140,113,176228,6,0,B|52:182|52:182|121:329,1,255,4|0,1:0|0:0,0:0:0:0:
213,331,176914,2,0,L|200:365,1,21.25,2|2,0:0|0:0,0:0:0:0:
191,368,177012,6,2,P|191:304|312:357,1,255.000009727478,4|4,1:0|1:2,0:0:0:0:
477,309,177796,6,0,L|465:239,1,42.5,0|0,1:0|1:0,1:1:0:0:
400,353,177992,1,0,1:0:0:0:
400,353,178091,1,0,1:0:0:0:
400,353,178189,2,0,L|388:283,1,42.5,2|0,1:0|1:0,1:1:0:0:
387,225,178385,2,0,L|375:155,1,42.5,0|0,1:0|1:0,1:1:0:0:
374,97,178581,5,0,1:0:0:0:
353,100,178679,1,0,1:0:0:0:
332,104,178777,1,0,1:0:0:0:
311,108,178875,1,0,1:0:0:0:
258,168,178973,5,0,1:0:0:0:
237,165,179071,1,0,1:0:0:0:
216,161,179169,1,0,1:0:0:0:
195,157,179267,1,0,1:0:0:0:
142,97,179365,6,0,B|100:147|100:147|128:206,2,127.5,4|0|0,1:0|0:0|0:0,0:0:0:0:
199,18,180149,1,0,0:0:0:0:
199,18,180247,2,0,L|261:10,1,42.5,2|0,0:0|0:0,0:0:0:0:
104,36,180443,1,2,0:0:0:0:
104,36,180541,2,0,L|12:27,1,85,0|0,0:0|0:0,0:0:0:0:
133,161,180934,6,0,L|121:231,1,42.5,2|0,1:0|1:0,1:1:0:0:
56,117,181130,1,0,1:0:0:0:
56,117,181229,1,0,1:0:0:0:
56,117,181327,2,0,L|44:187,1,42.5,0|0,1:0|1:0,1:1:0:0:
43,245,181523,2,0,L|31:315,1,42.5,0|0,1:0|1:0,1:1:0:0:
30,373,181718,5,0,1:0:0:0:
51,370,181816,1,0,1:0:0:0:
72,366,181914,1,0,1:0:0:0:
93,362,182012,1,0,1:0:0:0:
146,302,182110,5,0,1:0:0:0:
167,305,182208,1,0,1:0:0:0:
188,309,182306,1,0,1:0:0:0:
209,313,182404,1,0,1:0:0:0:
262,373,182502,6,0,B|310:353|310:353|381:368,1,110.499994941712,4|2,1:0|0:0,0:0:0:0:
512,251,182894,2,0,B|464:271|464:271|393:256,1,110.499994941712,2|0,0:0|0:0,0:0:0:0:
384,275,183140,2,0,L|393:321,10,27.6249987354279,0|0|0|0|0|0|0|0|0|0|0,0:0|0:0|0:0|0:0|0:0|0:0|0:0|0:0|0:0|0:0|0:0,0:0:0:0:
360,301,183679,2,0,B|317:224|317:224|376:157,1,165.749992412568,0|0,0:0|0:0,0:0:0:0:
454,84,184071,6,0,L|503:93,30,40.3749989218712,4|0|0|0|0|0|0|0|0|0|0|0|0|0|0|0|0|0|0|0|0|0|0|0|0|0|0|0|0|0|0,0:0|0:0|0:0|0:0|0:0|0:0|0:0|0:0|0:0|0:0|0:0|0:0|0:0|0:0|0:0|0:0|0:0|0:0|0:0|0:0|0:0|0:0|0:0|0:0|0:0|0:0|0:0|0:0|0:0|0:0|0:0,0:0:0:0:
338,43,185640,6,0,L|387:52,30,40.3749989218712,4|0|0|0|0|0|0|0|0|0|0|0|0|0|0|0|0|0|0|0|0|0|0|0|0|0|0|0|0|0|0,0:0|0:0|0:0|0:0|0:0|0:0|0:0|0:0|0:0|0:0|0:0|0:0|0:0|0:0|0:0|0:0|0:0|0:0|0:0|0:0|0:0|0:0|0:0|0:0|0:0|0:0|0:0|0:0|0:0|0:0|0:0,0:0:0:0:
222,2,187208,6,0,L|231:65,4,40.3749989218712,4|0|0|0|0,0:0|0:0|0:0|0:0|0:0,0:0:0:0:
268,124,187502,2,0,L|277:187,4,40.3749989218712,4|0|0|0|0,0:0|0:0|0:0|0:0|0:0,0:0:0:0:
314,246,187796,2,0,L|323:309,2,40.3749989218712,4|0|0,0:0|0:0|0:0,0:0:0:0:
172,224,187992,6,0,L|109:233,14,40.3749989218712,4|0|0|0|0|0|0|0|0|0|0|0|0|0|0,0:0|0:0|0:0|0:0|0:0|0:0|0:0|0:0|0:0|0:0|0:0|0:0|0:0|0:0|0:0,0:0:0:0:
42,290,188777,6,0,B|216:317|216:317|155:369,1,254.999992218018,4|4,1:0|1:0,0:0:0:0:
155,368,190345,6,0,B|148:312|148:312|133:298|133:298|127:245,1,127.500004863739,4|0,1:0|0:0,0:0:0:0:
221,201,190640,1,0,0:0:0:0:
221,201,190738,2,0,P|222:238|182:272,1,63.7500024318696,8|0,1:0|0:0,0:0:0:0:
54,252,190934,2,0,P|38:224|40:193,1,63.7500024318696,2|0,0:0|0:0,0:0:0:0:
116,111,191130,5,0,1:0:0:0:
116,111,191228,2,0,L|190:121,2,63.7500024318696,0|2|0,0:0|0:0|0:0,0:0:0:0:
63,34,191522,1,8,1:0:0:0:
63,34,191620,2,0,L|-11:44,2,63.7500024318696,0|2|0,0:0|0:0|0:0,0:0:0:0:
202,2,191914,5,0,1:0:0:0:
198,17,192012,1,0,0:0:0:0:
195,33,192110,1,2,0:1:0:0:
191,48,192208,1,0,0:0:0:0:
224,41,192306,6,0,L|296:30,1,63.7500024318696,8|0,1:0|0:0,0:0:0:0:
286,132,192502,1,2,0:1:0:0:
286,132,192600,2,0,B|359:145,1,63.7500024318696,0|0,0:0|1:1,0:0:0:0:
489,74,192796,2,0,B|433:41|433:41|375:65,1,127.500004863739,0|2,0:0|0:1,0:0:0:0:
440,247,193091,5,8,1:0:0:0:
465,251,193189,1,0,0:0:0:0:
482,233,193287,1,2,0:0:0:0:
477,209,193385,1,0,0:0:0:0:
395,163,193483,5,4,1:0:0:0:
402,214,193581,1,0,0:0:0:0:
408,265,193679,1,2,0:0:0:0:
415,315,193777,1,2,0:1:0:0:
338,305,193875,5,8,1:0:0:0:
338,305,193973,2,0,B|307:296|307:296|261:311,2,63.7500024318696,0|2|2,0:0|0:0|0:1,0:0:0:0:
275,223,194267,5,4,1:0:0:0:
275,223,194365,1,0,0:0:0:0:
275,223,194463,2,0,L|290:152,1,63.7500024318696,2|2,0:0|0:1,0:0:0:0:
395,163,194659,1,8,1:0:0:0:
435,138,194757,1,0,0:0:0:0:
449,93,194855,1,2,0:0:0:0:
429,51,194953,1,2,0:1:0:0:
386,33,195051,5,4,1:0:0:0:
386,33,195149,1,0,0:0:0:0:
386,33,195247,2,0,L|401:104,1,63.7500024318696,0|2,0:0|0:1,0:0:0:0:
215,142,195443,1,8,1:0:0:0:
186,102,195541,1,2,0:0:0:0:
192,51,195639,1,2,0:0:0:0:
229,19,195737,1,2,0:0:0:0:
279,21,195835,5,0,1:0:0:0:
279,21,195934,2,0,L|266:83,2,63.7500024318696,0|0|0,0:0|0:0|0:0,0:0:0:0:
297,170,196228,5,8,1:0:0:0:
351,240,196424,1,4,0:0:0:0:
325,320,196620,6,0,B|263:300|263:300|202:336,1,127.500004863739,4|0,1:0|0:0,0:0:0:0:
131,381,196914,1,0,0:0:0:0:
131,381,197012,2,0,L|113:309,1,63.7500024318696,8|0,1:0|0:0,0:0:0:0:
193,198,197208,2,0,L|177:259,1,63.7500024318696,2|0,0:0|0:0,0:0:0:0:
58,268,197404,5,0,1:0:0:0:
58,268,197502,2,0,B|24:261|24:261|-8:282,2,63.7500024318696,0|2|0,0:0|0:0|0:0,0:0:0:0:
67,170,197796,1,8,1:0:0:0:
67,170,197894,2,0,B|101:163|101:163|133:184,2,63.7500024318696,0|2|0,0:0|0:0|0:0,0:0:0:0:
79,70,198188,5,0,1:0:0:0:
94,66,198286,1,0,0:0:0:0:
110,63,198384,1,2,0:0:0:0:
125,59,198482,1,0,0:0:0:0:
167,50,198580,6,0,L|156:122,1,63.7500024318696,8|0,1:0|0:0,0:0:0:0:
197,202,198776,1,2,0:1:0:0:
197,202,198874,2,0,B|184:275,1,63.7500024318696,0|0,0:0|1:1,0:0:0:0:
47,359,199070,2,0,B|93:329|93:329|182:364,1,127.500004863739,2|0,0:0|0:0,0:0:0:0:
335,340,199365,5,8,1:0:0:0:
339,365,199463,1,0,0:0:0:0:
321,382,199561,1,2,0:0:0:0:
297,377,199659,1,0,0:0:0:0:
251,295,199757,5,0,1:0:0:0:
302,302,199855,1,0,0:0:0:0:
353,308,199953,1,2,0:0:0:0:
403,315,200051,1,2,0:1:0:0:
475,353,200149,5,8,1:0:0:0:
475,353,200247,2,0,B|488:320|488:320|469:276,2,63.7500024318696,0|2|2,0:0|0:0|0:1,0:0:0:0:
408,238,200541,5,0,1:0:0:0:
408,238,200639,1,0,0:0:0:0:
408,238,200737,2,0,L|333:228,1,63.7500024318696,2|2,0:0|0:1,0:0:0:0:
191,220,200933,1,8,1:0:0:0:
151,245,201031,1,0,0:0:0:0:
137,290,201129,1,2,0:0:0:0:
157,332,201227,1,2,0:1:0:0:
200,350,201325,5,4,1:0:0:0:
200,350,201423,1,0,0:0:0:0:
200,350,201521,2,0,L|185:279,1,63.7500024318696,0|2,0:0|0:1,0:0:0:0:
141,136,201717,5,8,1:0:0:0:
141,136,201815,1,2,0:0:0:0:
227,146,201914,1,2,0:0:0:0:
227,146,202012,1,4,0:0:0:0:
313,156,202208,5,8,1:0:0:0:
344,155,202306,1,0,0:0:0:0:
369,136,202404,1,2,0:0:0:0:
377,106,202502,1,10,1:1:0:0:
410,27,202698,5,2,0:0:0:0:
494,35,202894,6,0,B|507:137|507:137|478:115,1,127.500004863739,4|2,1:0|0:0,0:0:0:0:
420,193,203189,1,2,0:0:0:0:
445,184,203287,1,8,1:0:0:0:
512,299,203483,1,0,0:0:0:0:
487,290,203581,2,0,L|475:367,1,63.7500024318696,0|0,0:0|1:0,0:0:0:0:
353,376,203777,6,0,B|384:370|384:370|425:390,2,63.7500024318696
321,274,204071,1,8,1:0:0:0:
321,274,204169,2,0,B|290:268|290:268|249:288,2,63.7500024318696,0|2|2,0:0|0:0|0:0,0:0:0:0:
247,363,204463,5,4,1:0:0:0:
231,359,204561,1,0,0:0:0:0:
217,352,204659,1,2,0:0:0:0:
205,341,204757,1,2,0:0:0:0:
178,306,204855,6,2,L|166:384,1,63.7500024318696,8|0,1:0|0:0,0:0:0:0:
49,384,205051,1,0,0:0:0:0:
49,384,205149,2,0,L|37:299,1,63.7500024318696,0|0,0:0|1:0,0:0:0:0:
155,215,205345,2,0,B|102:255|102:255|22:229,1,127.500004863739,0|0,0:0|0:0,0:0:0:0:
80,87,205640,5,8,1:0:0:0:
84,112,205738,1,2,0:0:0:0:
88,137,205836,1,2,0:0:0:0:
92,162,205934,1,2,0:0:0:0:
168,105,206032,5,4,1:0:0:0:
215,88,206130,1,0,0:0:0:0:
261,107,206228,1,2,0:0:0:0:
282,152,206326,1,2,0:1:0:0:
281,234,206424,5,8,1:0:0:0:
281,234,206522,2,0,B|314:239|314:239|355:208,2,63.7500024318696,0|2|2,0:0|0:0|0:1,0:0:0:0:
212,286,206816,5,4,1:0:0:0:
212,286,206914,1,0,0:0:0:0:
212,286,207012,2,0,L|226:360,1,63.7500024318696,2|2,0:0|0:1,0:0:0:0:
321,368,207208,1,8,1:0:0:0:
346,327,207306,1,0,0:0:0:0:
389,309,207404,1,2,0:0:0:0:
435,319,207502,1,2,0:1:0:0:
468,353,207600,5,4,1:0:0:0:
468,353,207698,1,0,0:0:0:0:
468,353,207796,2,0,L|482:279,1,63.7500024318696,0|2,0:0|0:1,0:0:0:0:
454,165,207992,1,8,1:0:0:0:
407,184,208090,1,2,0:0:0:0:
357,175,208188,1,2,0:0:0:0:
320,142,208286,1,2,0:0:0:0:
307,93,208384,5,0,1:0:0:0:
307,93,208483,2,0,L|288:170,2,63.7500024318696,0|0|0,0:0|0:0|0:0,0:0:0:0:
293,230,208777,5,8,1:0:0:0:
210,210,208973,1,4,0:0:0:0:
154,273,209169,6,0,B|135:308|135:308|105:205,1,127.500004863739,4|0,1:0|0:0,0:0:0:0:
123,133,209463,1,0,0:0:0:0:
148,142,209561,1,8,1:0:0:0:
44,28,209757,1,2,0:0:0:0:
19,37,209855,1,0,0:0:0:0:
53,106,209953,5,0,1:0:0:0:
53,106,210051,2,0,L|38:186,2,63.7500024318696,0|0|0,1:0|0:0|1:0,0:0:0:0:
134,51,210345,2,0,L|128:6,4,31.8750012159348,0|0|0|0|0,1:0|0:0|1:0|0:0|1:0,0:0:0:0:
210,210,210738,5,4,1:0:0:0:
226,209,210836,1,0,0:0:0:0:
240,203,210934,1,0,0:0:0:0:
252,193,211032,1,2,0:0:0:0:
269,151,211130,6,0,L|206:138,1,63.7500024318696,8|0,1:0|0:0,0:0:0:0:
109,223,211326,1,2,0:0:0:0:
109,223,211424,1,2,0:1:0:0:
109,223,211522,5,0,1:0:0:0:
147,250,211620,1,0,0:0:0:0:
162,294,211718,1,0,0:0:0:0:
150,340,211816,1,0,0:0:0:0:
90,384,211914,2,0,L|51:380,4,31.8750012159348,0|0|0|0|0,1:0|0:0|1:0|0:0|1:0,0:0:0:0:
263,371,212306,5,4,1:0:0:0:
294,365,212404,1,0,0:0:0:0:
325,358,212502,1,0,0:0:0:0:
318,327,212600,1,0,1:0:0:0:
270,267,212698,5,8,1:0:0:0:
276,236,212796,1,0,0:0:0:0:
307,242,212894,1,0,1:0:0:0:
338,248,212992,1,0,1:0:0:0:
399,315,213189,5,0,1:0:0:0:
399,315,213287,2,0,L|470:300,1,63.7500024318696,0|0,1:0|1:0,0:0:0:0:
500,216,213483,1,8,1:0:0:0:
497,169,213581,1,0,1:0:0:0:
464,135,213679,1,0,1:0:0:0:
418,129,213777,1,0,1:0:0:0:
379,155,213875,5,4,1:0:0:0:
379,155,213973,1,0,0:0:0:0:
379,155,214071,1,0,0:0:0:0:
399,190,214169,2,0,L|328:177,1,63.7500024318696,0|8,0:0|1:0,0:0:0:0:
306,81,214365,1,0,0:0:0:0:
326,46,214463,2,0,L|255:59,1,63.7500024318696,0|0,1:0|1:0,0:0:0:0:
207,113,214659,5,2,0:0:0:0:
207,113,214757,2,0,L|158:101,1,31.8750012159348,2|2,0:0|0:0,0:0:0:0:
98,59,214953,2,0,L|112:148,1,63.7500024318696,2|0,0:1|0:0,0:0:0:0:
182,192,215247,2,0,L|168:281,1,63.7500024318696,2|0,0:1|0:0,0:0:0:0:
98,325,215640,5,0,1:1:0:0:
98,325,215836,6,0,B|131:359|131:359|221:340,1,127.500004863739,12|0,1:0|1:0,0:0:0:0:
244,321,216081,2,0,L|281:328,3,31.8750012159348,0|0|0|0,1:0|1:0|1:0|1:0,1:1:0:0:
34,271,216424,1,0,0:0:0:0:
34,271,216522,2,0,L|18:338,1,63.7500024318696,0|0,1:0|1:0,0:0:0:0:
29,98,216816,1,0,1:0:0:0:
29,98,216914,2,0,L|45:165,1,63.7500024318696,0|0,1:0|1:0,0:0:0:0:
116,231,217110,5,0,0:0:0:0:
116,231,217208,2,0,L|153:224,4,31.8750012159348,0|0|0|0|0,1:0|1:0|1:0|1:0|1:0,1:1:0:0:
226,182,217502,1,0,0:0:0:0:
226,182,217600,2,0,L|263:189,4,31.8750012159348,0|0|0|0|0,1:0|1:0|1:0|1:0|1:0,1:1:0:0:
336,231,217894,1,0,1:0:0:0:
336,231,218189,6,2,L|378:220,6,31.8750012159348,0|0|0|0|0|0|0,0:0|0:0|0:0|0:0|0:0|0:0|0:0,0:0:0:0:
311,122,218581,5,4,1:0:0:0:
344,82,218679,1,0,0:0:0:0:
393,74,218777,1,2,0:0:0:0:
437,97,218875,1,2,0:1:0:0:
464,173,218973,5,8,1:0:0:0:
464,173,219071,2,0,L|453:249,2,63.7500024318696,0|2|2,0:0|0:0|0:1,0:0:0:0:
397,302,219365,5,4,1:0:0:0:
397,302,219463,1,0,0:0:0:0:
397,302,219561,2,0,L|418:389,1,63.7500024318696,2|2,0:0|0:1,0:0:0:0:
286,341,219757,1,8,1:0:0:0:
253,307,219855,1,0,0:0:0:0:
247,260,219953,1,2,0:0:0:0:
269,219,220051,1,2,0:1:0:0:
312,200,220149,5,4,1:0:0:0:
312,200,220247,1,0,0:0:0:0:
312,200,220345,2,0,L|294:284,1,63.7500024318696,0|2,0:0|0:1,0:0:0:0:
179,337,220541,1,8,1:0:0:0:
133,358,220639,1,2,0:0:0:0:
84,351,220737,1,2,0:0:0:0:
47,317,220835,1,2,0:1:0:0:
36,267,220933,5,0,1:0:0:0:
36,267,221032,1,0,0:0:0:0:
159,196,221228,1,2,0:1:0:0:
159,196,221326,5,8,1:0:0:0:
88,135,221522,1,0,0:0:0:0:
151,65,221718,6,2,B|194:74|194:74|249:44,1,85,4|0,1:0|0:0,0:0:0:0:
230,54,222110,6,0,B|234:93|234:93|222:110|222:110|232:195,1,127.500004863739,12|0,1:0|0:0,0:0:0:0:
311,135,222404,1,0,0:0:0:0:
349,140,222502,1,0,1:0:0:0:
387,144,222600,1,0,1:0:0:0:
425,148,222698,2,0,L|476:154,4,31.8750012159348,0|0|0|0|8,1:0|1:0|1:0|0:0|1:0,0:0:0:0:
346,244,223091,1,0,1:0:0:0:
511,310,223287,5,0,0:0:0:0:
510,294,223385,1,0,1:0:0:0:
504,280,223483,1,0,1:0:0:0:
494,268,223581,1,0,1:0:0:0:
459,244,223679,6,0,L|443:316,1,63.7500024318696,8|0,1:0|1:0,0:0:0:0:
365,357,223875,1,0,1:0:0:0:
365,357,223973,1,0,1:0:0:0:
365,357,224071,5,0,1:0:0:0:
330,262,224202,5,0,1:0:0:0:
229,244,224333,5,0,1:0:0:0:
164,322,224463,6,0,L|176:367,8,31.8750012159348,8|0|0|0|0|0|0|0|0,1:0|0:0|0:0|0:0|0:0|0:0|0:0|0:0|1:0,0:0:0:0:
164,322,225051,1,2,0:0:0:0:
40,288,225247,5,8,1:0:0:0:
40,288,225345,2,0,L|16:373,2,63.7500024318696,0|2|2,0:0|0:0|0:1,0:0:0:0:
126,215,225640,5,0,1:0:0:0:
126,215,225738,1,0,0:0:0:0:
126,215,225836,2,0,L|107:129,1,63.7500024318696,2|2,0:0|0:1,0:0:0:0:
27,68,226032,1,8,1:0:0:0:
71,85,226130,1,0,0:0:0:0:
117,78,226228,1,2,0:0:0:0:
155,50,226326,1,2,0:1:0:0:
174,7,226424,5,4,1:0:0:0:
174,7,226522,1,0,0:0:0:0:
174,7,226620,2,0,L|186:46,3,31.8750012159348,0|0|0|0,0:0|0:0|0:0|0:0,0:0:0:0:
217,114,226816,5,8,1:0:0:0:
217,114,226914,1,0,0:0:0:0:
296,85,227012,1,0,1:0:0:0:
296,85,227110,1,0,1:0:0:0:
358,150,227306,5,0,1:0:0:0:
364,180,227404,1,0,1:0:0:0:
351,209,227502,1,0,1:0:0:0:
325,225,227600,2,0,B|299:206|299:206|282:294,1,95.6250036478044,12|0,1:0|0:0,0:0:0:0:
305,348,227992,5,4,1:0:0:0:
311,347,228090,1,0,1:0:0:0:
318,346,228188,1,0,1:0:0:0:
325,345,228286,1,0,1:0:0:0:
332,344,228384,1,8,1:0:0:0:
338,343,228482,1,0,1:0:0:0:
345,342,228580,1,0,1:0:0:0:
352,341,228678,1,0,1:0:0:0:
359,341,228776,1,0,1:0:0:0:
365,340,228874,1,0,1:0:0:0:
372,339,228972,1,0,1:0:0:0:
379,338,229070,1,0,1:0:0:0:
386,337,229168,1,8,1:0:0:0:
393,336,229266,1,0,1:0:0:0:
399,335,229364,1,0,1:0:0:0:
406,334,229462,1,0,1:0:0:0:
447,357,229560,5,4,1:0:0:0:
444,350,229658,1,0,1:0:0:0:
442,344,229756,1,0,1:0:0:0:
439,338,229854,1,0,1:0:0:0:
437,331,229952,1,8,1:0:0:0:
434,324,230050,1,0,1:0:0:0:
431,318,230148,1,0,1:0:0:0:
430,312,230246,1,0,1:0:0:0:
428,305,230344,1,0,1:0:0:0:
425,299,230442,1,0,1:0:0:0:
422,292,230541,1,0,1:0:0:0:
420,287,230639,1,0,1:0:0:0:
418,280,230737,1,12,1:0:0:0:
512,186,230934,6,0,L|492:259,1,63.7500024318696,2|0,0:0|0:0,0:0:0:0:
418,280,231130,5,4,1:0:0:0:
388,290,231228,1,0,1:0:0:0:
356,288,231326,1,0,1:0:0:0:
329,272,231424,1,0,1:0:0:0:
311,246,231522,1,8,1:0:0:0:
313,230,231620,1,0,1:0:0:0:
316,214,231718,1,0,1:0:0:0:
318,199,231816,1,0,1:0:0:0:
321,183,231914,5,0,1:0:0:0:
303,209,232012,1,0,1:0:0:0:
276,225,232110,1,0,1:0:0:0:
244,227,232208,1,0,1:0:0:0:
215,217,232306,1,8,1:0:0:0:
177,175,232404,1,0,1:0:0:0:
121,169,232502,1,0,1:0:0:0:
74,200,232600,1,0,1:0:0:0:
60,254,232698,6,0,L|73:298,4,31.8750012159348,0|0|0|0|0,1:0|1:0|1:0|0:0|1:0,1:1:0:0:
185,324,232992,1,0,1:0:0:0:
185,324,233091,2,0,L|198:280,4,31.8750012159348,8|0|0|0|0,1:0|1:0|1:0|0:0|1:0,1:1:0:0:
92,384,233385,1,0,1:0:0:0:
92,384,233483,6,0,L|82:350,2,31.8750012159348,4|0|0,1:0|0:0|0:0,1:1:0:0:
0,320,233777,2,2,L|17:259,1,63.7500024318696,0|0,0:0|0:0,0:0:0:0:
86,161,234071,1,2,0:0:0:0:
86,161,234267,6,0,L|32:151,6,31.8750012159348,4|0|0|0|0|0|0,0:0|0:0|0:0|0:0|0:0|0:0|0:0,0:0:0:0:
189,256,234659,2,0,L|199:286,6,31.8750012159348,4|0|0|0|2|0|0,0:0|0:0|0:0|0:0|0:0|0:0|0:0,0:0:0:0:
221,119,235051,2,0,L|241:94,6,31.8750012159348,4|0|0|0|2|0|0,0:0|0:0|0:0|0:0|0:0|0:0|0:0,0:0:0:0:
166,181,235443,1,4,1:0:0:0:
166,181,235640,1,0,0:0:0:0:
426,161,235836,6,0,L|480:151,6,31.8750012159348,4|0|0|0|0|0|0,0:0|0:0|0:0|0:0|0:0|0:0|0:0,0:0:0:0:
323,256,236228,2,0,L|312:286,6,31.8750012159348,4|0|0|0|2|0|0,0:0|0:0|0:0|0:0|0:0|0:0|0:0,0:0:0:0:
291,119,236620,2,0,L|270:94,6,31.8750012159348,4|0|0|0|2|0|0,0:0|0:0|0:0|0:0|0:0|0:0|0:0,0:0:0:0:
346,181,237012,1,4,1:0:0:0:
346,181,237208,1,0,0:0:0:0:
256,344,237404,5,4,1:0:0:0:
209,333,237502,1,2,0:0:0:0:
162,323,237600,1,2,0:0:0:0:
172,276,237698,1,4,1:0:0:0:
223,209,237796,5,0,0:0:0:0:
213,161,237894,1,0,0:0:0:0:
165,171,237992,1,4,1:0:0:0:
117,181,238091,1,2,0:0:0:0:
93,256,238189,1,2,0:0:0:0:
93,256,238287,2,0,L|29:239,2,63.7500024318696,4|0|0,1:0|0:0|0:0,0:0:0:0:
43,151,238581,5,4,1:0:0:0:
13,103,238679,1,0,0:0:0:0:
24,48,238777,1,0,1:0:0:0:
69,16,238875,1,0,0:0:0:0:
125,24,238973,6,0,L|117:61,6,31.8750012159348,2|2|2|2|2|2|2,0:0|0:0|0:0|0:0|0:0|0:0|0:0,0:0:0:0:
190,113,239365,2,0,L|198:150,6,31.8750012159348,2|2|2|2|2|2|2,0:0|0:0|0:0|0:0|0:0|0:0|0:0,0:0:0:0:
58,252,239757,6,0,B|112:192|112:192|204:236,1,161.499995687485,2|2,0:0|0:0,0:0:0:0:
207,240,240051,1,2,0:0:0:0:
206,239,240149,5,2,0:0:0:0:
153,320,240345,1,2,0:0:0:0:
441,351,240934,5,14,1:0:0:0:
479,360,241032,2,0,B|471:278,1,59.4999981842042,0|0,0:0|0:0,0:0:0:0:
343,214,241229,1,2,0:1:0:0:
312,243,241327,2,0,B|369:273|369:273|435:243,1,118.999996368408,2|2,0:0|0:1,0:0:0:0:
412,88,241718,2,0,P|409:58|392:34,1,59.4999981842042,8|0,1:0|1:0,0:0:0:0:
268,11,241914,2,0,P|243:27|231:54,1,59.4999981842042,8|0,1:0|1:0,0:0:0:0:
273,174,242110,6,0,B|321:165|321:165|341:174|341:174|398:160,1,118.999996368408,4|0,1:0|0:0,0:0:0:0:
479,155,242404,5,8,1:0:0:0:
503,171,242698,1,4,1:0:0:0:
512,197,242992,1,8,1:0:0:0:
512,226,243287,1,4,1:0:0:0:
496,252,243483,5,8,1:0:0:0:
474,248,243581,1,0,1:0:0:0:
451,243,243679,6,0,B|416:250|416:250|389:292|389:292|345:297,1,118.999996368408,4|0,1:0|0:0,0:0:0:0:
282,280,243973,1,2,0:0:0:0:
297,384,244071,2,0,B|302:348|302:348|274:326|274:326|286:247,1,118.999996368408,8|0,1:0|1:0,0:0:0:0:
292,172,244365,1,0,1:0:0:0:
192,258,244561,5,0,1:0:0:0:
68,215,244757,1,0,1:0:0:0:
68,215,244855,2,0,L|81:294,2,59.4999981842042,8|0|8,1:0|1:0|1:0,0:0:0:0:
2,329,245247,6,0,B|43:363|43:363|144:341|144:341|174:273,1,203.999993774414,4|0,1:0|0:0,0:0:0:0:
192,258,245640,6,0,B|231:277|231:277|218:188,1,101.999996887207,4|0,1:0|0:0,0:0:0:0:
212,171,246032,6,0,B|203:229|203:229|242:210,1,101.999996887207,4|0,1:0|0:0,0:0:0:0:
242,210,246228,6,0,B|295:227|295:227|312:328|312:328|369:348,1,212.5,0|0,0:0|0:0,0:0:0:0:
446,347,246816,6,0,B|495:313|495:313|484:246|484:246|470:229|470:229|455:129|455:129|505:85,1,305.999990661621,4|0,1:0|0:0,0:0:0:0:
404,9,247208,5,8,1:0:0:0:
411,39,247306,1,0,0:0:0:0:
418,69,247404,2,0,L|386:58,3,29.7499990921021,0|0|0|0,0:0|0:0|1:0|1:0,0:0:0:0:
375,137,247600,2,0,B|331:169|331:169|266:145,1,118.999996368408,0|0,1:0|0:0,0:0:0:0:
123,36,247992,2,0,L|138:119,1,59.4999981842042,0|0,1:0|1:0,0:0:0:0:
69,222,248189,2,0,L|84:139,1,59.4999981842042,0|0,1:0|1:0,0:0:0:0:
199,57,248385,6,0,B|209:108|209:108|189:140|189:140|198:183,1,118.999996368408,4|0,1:0|0:0,0:0:0:0:
194,194,248630,2,0,L|148:204,3,29.7499990921021,0|0|0|8,0:0|1:0|1:0|1:0,1:1:0:0:
270,146,248875,5,0,1:0:0:0:
243,263,249071,1,0,1:0:0:0:
216,380,249267,1,8,1:0:0:0:
292,332,249463,1,0,0:0:0:0:
292,332,249561,2,0,B|224:345|224:345|176:317|176:317|106:330,1,178.499994552612,2|0,0:1|0:0,0:0:0:0:
45,362,249953,6,0,L|0:356,4,29.7499990921021,4|0|0|0|0,0:0|0:0|0:0|0:0|0:0,0:0:0:0:
54,273,250247,1,0,0:0:0:0:
54,273,250345,2,0,L|9:267,4,29.7499990921021,4|0|0|0|0,0:0|0:0|0:0|0:0|0:0,0:0:0:0:
63,184,250640,1,0,0:0:0:0:
63,184,250738,5,0,1:0:0:0:
146,207,250868,1,0,1:0:0:0:
203,141,250999,1,0,1:0:0:0:
15,85,251130,5,0,1:0:0:0:
120,118,251260,1,0,1:0:0:0:
190,31,251391,1,0,1:0:0:0:
85,0,251522,6,0,L|114:142,1,136,4|0,1:0|0:0,0:0:0:0:
146,207,252012,1,0,0:0:0:0:
162,210,252110,1,0,0:0:0:0:
179,213,252208,1,0,0:0:0:0:
196,216,252306,6,0,L|186:259,3,34
112,133,252698,1,2,0:0:0:0:
86,137,252796,1,2,0:0:0:0:
61,142,252894,1,2,0:0:0:0:
37,146,252992,1,2,0:0:0:0:
13,150,253091,6,0,B|41:293|41:293|91:234,1,203.999993774414,6|0,1:0|0:0,0:0:0:0:
196,216,253483,5,0,1:0:0:0:
233,223,253581,1,0,1:0:0:0:
270,230,253679,2,0,L|256:298,1,59.4999981842042,0|0,1:0|1:0,0:0:0:0:
194,376,253875,5,0,1:0:0:0:
225,370,253973,1,0,1:0:0:0:
257,365,254071,1,0,1:0:0:0:
289,360,254169,1,0,1:0:0:0:
320,354,254267,2,0,L|333:283,1,59.4999981842042,0|0,1:0|1:0,0:0:0:0:
346,197,254464,1,0,1:0:0:0:
340,183,254562,1,0,1:0:0:0:
334,169,254659,5,0,1:0:0:0:
365,175,254757,1,0,0:0:0:0:
396,181,254855,1,0,1:0:0:0:
428,188,254953,1,0,1:0:0:0:
459,194,255051,1,0,1:0:0:0:
445,224,255149,2,0,L|512:206,2,59.4999981842042,0|0|0,1:0|1:0|1:0,1:1:0:0:
407,289,255443,5,0,1:0:0:0:
393,319,255542,2,0,L|514:287,2,118.999996368408,0|0|0,1:0|1:0|1:0,0:0:0:0:
320,354,256032,1,0,1:0:0:0:
306,348,256130,1,0,1:0:0:0:
292,342,256228,6,0,B|254:200|254:200|316:220,1,178.499994552612,4|0,1:0|1:0,0:0:0:0:
304,61,256620,5,0,1:0:0:0:
311,98,256718,1,0,1:0:0:0:
318,135,256816,2,0,L|386:121,1,59.4999981842042,0|0,1:0|1:0,1:1:0:0:
464,59,257012,5,0,1:0:0:0:
458,90,257110,1,0,1:0:0:0:
453,122,257208,1,0,1:0:0:0:
448,154,257306,1,0,1:0:0:0:
442,185,257404,2,0,L|371:198,1,59.4999981842042,0|0,1:0|1:0,0:0:0:0:
285,211,257601,1,0,1:0:0:0:
271,205,257699,1,0,1:0:0:0:
257,199,257796,5,0,1:0:0:0:
263,230,257894,1,0,1:0:0:0:
269,261,257992,1,0,1:0:0:0:
276,293,258090,1,0,1:0:0:0:
282,324,258188,1,0,1:0:0:0:
272,341,258287,6,0,B|240:371|240:371|137:346,1,118.999996368408,0|0,1:0|1:0,1:1:0:0:
111,295,258581,2,0,L|29:308,1,59.4999981842042,0|0,1:0|1:0,1:1:0:0:
3,230,258777,1,8,1:0:0:0:
19,174,258875,1,8,1:0:0:0:
67,141,258973,1,8,1:0:0:0:
126,145,259071,1,8,1:0:0:0:
168,185,259169,1,8,1:0:0:0:
176,243,259267,1,8,1:0:0:0:
111,295,259366,6,0,B|158:330|158:330|220:313,1,118.999996368408,4|0,1:0|0:0,0:0:0:0:
337,307,259660,2,0,L|330:348,1,29.7499990921021,2|0,1:0|1:0,0:0:0:0:
299,287,259758,2,0,L|286:358,2,59.4999981842042,0|0|4,1:0|1:0|0:0,0:0:0:0:
454,345,260150,5,0,1:0:0:0:
444,301,260248,1,4,1:2:0:0:
434,257,260346,1,0,1:0:0:0:
424,214,260444,1,0,1:0:0:0:
415,170,260542,2,0,B|374:193|374:193|324:173,1,89.2499972763062,0|0,1:0|0:0,0:0:0:0:
334,177,260738,1,0,1:0:0:0:
334,177,260836,1,0,1:0:0:0:
351,144,260934,5,0,1:0:0:0:
361,100,261032,1,0,1:0:0:0:
371,57,261130,1,0,1:0:0:0:
444,66,261229,2,0,L|451:107,1,29.7499990921021,0|0,1:0|1:0,1:1:0:0:
483,39,261327,2,0,L|496:110,2,59.4999981842042,0|0|0,1:0|1:0|0:0,0:0:0:0:
512,195,261621,2,0,L|505:236,1,29.7499990921021,0|0,1:0|1:0,0:0:0:0:
505,165,261719,6,0,B|494:211|494:211|501:235|501:235|486:296,1,118.999996368408,2|0,1:0|1:0,1:1:0:0:
424,331,262012,2,0,L|379:343,2,29.7499990921021,0|0|0,1:0|1:0|1:0,1:1:0:0:
325,259,262208,2,0,L|280:247,2,29.7499990921021,0|0|0,1:0|0:0|1:0,1:1:0:0:
226,331,262404,2,0,L|197:339,1,29.7499990921021,0|0,1:0|0:0,0:0:0:0:
235,349,262503,6,0,B|172:364|172:364|120:328,1,118.999996368408,4|0,1:2|0:0,1:1:0:0:
47,316,262796,2,0,L|40:357,1,29.7499990921021,0|0,1:0|1:0,0:0:0:0:
11,294,262894,2,0,L|-2:365,2,59.4999981842042,0|0|4,1:0|1:0|0:0,1:1:0:0:
24,201,263287,5,0,1:0:0:0:
68,194,263385,1,0,1:0:0:0:
112,187,263483,1,0,1:0:0:0:
156,179,263581,1,0,1:0:0:0:
200,172,263680,2,0,B|181:78,1,89.2499972763062,4|0,0:0|0:0,0:0:0:0:
182,84,263876,1,0,1:0:0:0:
182,84,263974,1,0,1:0:0:0:
146,83,264072,5,0,1:0:0:0:
102,75,264170,1,0,1:0:0:0:
59,67,264268,1,0,1:0:0:0:
40,141,264366,2,0,L|50:181,1,29.7499990921021,0|0,1:0|1:0,1:1:0:0:
0,136,264464,2,0,L|17:206,2,59.4999981842042,0|0|0,1:0|1:0|0:0,0:0:0:0:
47,274,264758,2,0,L|36:309,1,29.7499990921021,2|2,0:0|0:0,0:0:0:0:
38,325,264855,6,4,B|104:334|104:334|138:373|138:373|167:330|167:330|236:309,1,237.999992736817,0|4,0:0|1:0,2:2:0:0:
256,192,265738,12,0,271914,2:0:0:0:
