osu file format v14

[General]
AudioFilename: audio.mp3
AudioLeadIn: 0
PreviewTime: 216480
Countdown: 1
SampleSet: Normal
StackLeniency: 0.7
Mode: 1
LetterboxInBreaks: 0
WidescreenStoryboard: 0

[Editor]
Bookmarks: 279480
DistanceSpacing: 1.2
BeatDivisor: 4
GridSize: 32
TimelineZoom: 3.760002

[Metadata]
Title:Hypnotize
TitleUnicode:Hypnotize
Artist:Camellia vs. lapix
ArtistUnicode:かめりあ vs. lapix
Creator:Tsuki_yura
Version:Dream Traveler
Source:
Tags:cametek galaxy burst l dubstep hardstyle かめるかめりあ masaya oya kamelcamellia psystyle trap hitech sv
BeatmapID:2097628
BeatmapSetID:1002127

[Difficulty]
HPDrainRate:5
CircleSize:4
OverallDifficulty:7
ApproachRate:5
SliderMultiplier:1.4
SliderTickRate:1

[Events]
//Background and Video events
0,0,"BG.jpg",0,0
//Break Periods
//Storyboard Layer 0 (Background)
//Storyboard Layer 1 (Fail)
//Storyboard Layer 2 (Pass)
//Storyboard Layer 3 (Foreground)
//Storyboard Layer 4 (Overlay)
//Storyboard Sound Samples

[TimingPoints]
1981,374.999700681122,4,1,0,60,1,0
1981,-117.647058823529,4,1,0,60,0,0
13230,-111.111111111111,4,1,0,60,0,0
13324,-108.695652173913,4,1,0,60,0,0
13418,-106.382978723404,4,1,0,60,0,0
13605,-104.166666666667,4,1,0,60,0,0
13793,-102.040816326531,4,1,0,60,0,0
13980,-93.4579439252336,4,1,0,80,0,0
24480,-99.009900990099,4,1,0,67,0,0
24574,-98.0392156862745,4,1,0,68,0,0
24668,-97.0873786407767,4,1,0,69,0,0
24762,-96.1538461538461,4,1,0,70,0,0
24855,-95.2380952380952,4,1,0,71,0,0
24949,-94.3396226415094,4,1,0,72,0,0
25043,-93.4579439252336,4,1,0,73,0,0
25137,-92.5925925925926,4,1,0,74,0,0
25230,-91.743119266055,4,1,0,75,0,0
25324,-90.9090909090909,4,1,0,76,0,0
25418,-90.0900900900901,4,1,0,77,0,0
25512,-89.2857142857143,4,1,0,78,0,0
25605,-88.4955752212389,4,1,0,79,0,0
25980,-90.9090909090909,4,1,0,80,0,0
26168,-93.4579439252336,4,1,0,80,0,0
26355,-96.1538461538461,4,1,0,80,0,0
26449,-99.009900990099,4,1,0,80,0,0
26543,-102.040816326531,4,1,0,80,0,0
26637,-105.263157894737,4,1,0,80,0,0
26730,-108.695652173913,4,1,0,80,0,0
26918,-112.359550561798,4,1,0,80,0,0
27012,-116.279069767442,4,1,0,80,0,0
36480,-113.636363636364,4,1,0,80,0,0
36574,-111.111111111111,4,1,0,80,0,0
36668,-108.695652173913,4,1,0,80,0,0
36855,-106.382978723404,4,1,0,80,0,0
36949,-104.166666666667,4,1,0,80,0,0
37043,-102.040816326531,4,1,0,80,0,0
37137,-100,4,1,0,80,0,0
37230,-98.0392156862745,4,1,0,80,0,0
37418,-96.1538461538461,4,1,0,80,0,0
37512,-94.3396226415094,4,1,0,82,0,0
37699,-92.5925925925926,4,1,0,82,0,0
37793,-90.9090909090909,4,1,0,84,0,0
49980,-105.263157894737,4,1,0,65,0,0
55979,-76.9230769230769,4,1,0,70,0,0
56043,-80,4,1,0,71,0,0
56105,-83.3333333333333,4,1,0,72,0,0
56168,-86.9565217391304,4,1,0,73,0,0
57199,-86.9565217391304,4,1,0,73,0,0
57480,-76.9230769230769,4,1,0,70,0,0
57542,-80,4,1,0,71,0,0
57605,-83.3333333333333,4,1,0,72,0,0
57668,-86.9565217391304,4,1,0,73,0,0
58699,-86.9565217391304,4,1,0,73,0,0
58980,-76.9230769230769,4,1,0,73,0,0
59043,-80,4,1,0,73,0,0
59105,-83.3333333333333,4,1,0,73,0,0
59168,-86.9565217391304,4,1,0,73,0,0
59262,-84.0336134453781,4,1,0,73,0,0
59355,-81.9672131147541,4,1,0,73,0,0
59449,-80,4,1,0,73,0,0
59543,-78.7401574803149,4,1,0,73,0,0
59637,-77.5193798449612,4,1,0,73,0,0
59730,-76.9230769230769,4,1,0,73,0,0
59793,-80,4,1,0,73,0,0
59855,-83.3333333333333,4,1,0,73,0,0
59918,-86.9565217391304,4,1,0,73,0,0
60012,-84.0336134453781,4,1,0,73,0,0
60105,-81.9672131147541,4,1,0,73,0,0
60199,-80,4,1,0,73,0,0
60293,-78.7401574803149,4,1,0,73,0,0
60387,-77.5193798449612,4,1,0,73,0,0
60480,-76.9230769230769,4,1,0,73,0,0
60855,-87.719298245614,4,1,0,75,0,0
61043,-89.2857142857143,4,1,0,75,0,0
61230,-90.9090909090909,4,1,0,75,0,0
61418,-92.5925925925926,4,1,0,77,0,0
61512,-94.3396226415094,4,1,0,77,0,0
61605,-96.1538461538461,4,1,0,77,0,0
61793,-90.9090909090909,4,1,0,78,0,0
61980,-62.5,4,1,0,90,0,1
62167,-83.3333333333333,4,1,0,90,0,1
65918,-83.3333333333333,4,1,0,90,0,1
66012,-82.6446280991736,4,1,0,90,0,1
66105,-81.9672131147541,4,1,0,90,0,1
66199,-81.3008130081301,4,1,0,90,0,1
66293,-80.6451612903226,4,1,0,90,0,1
66387,-80,4,1,0,90,0,1
66480,-79.3650793650794,4,1,0,90,0,1
66574,-78.7401574803149,4,1,0,90,0,1
66668,-78.125,4,1,0,90,0,1
66762,-77.5193798449612,4,1,0,90,0,1
66855,-76.9230769230769,4,1,0,90,0,1
66918,-78.7401574803149,4,1,0,90,0,1
66980,-80.6451612903226,4,1,0,90,0,1
67043,-82.6446280991736,4,1,0,90,0,1
67137,-80,4,1,0,90,0,1
67230,-76.9230769230769,4,1,0,90,0,1
67293,-78.7401574803149,4,1,0,90,0,1
67355,-80.6451612903226,4,1,0,90,0,1
67418,-82.6446280991736,4,1,0,90,0,1
67512,-80,4,1,0,90,0,1
67605,-76.9230769230769,4,1,0,90,0,1
67668,-80,4,1,0,90,0,1
67730,-83.3333333333333,4,1,0,90,0,1
67793,-86.9565217391304,4,1,0,90,0,1
67887,-80.6451612903226,4,1,0,90,0,1
67980,-75.187969924812,4,1,0,90,0,1
70418,-80,4,1,0,90,0,1
70512,-83.3333333333333,4,1,0,90,0,1
70605,-86.9565217391304,4,1,0,90,0,1
70699,-90.9090909090909,4,1,0,90,0,1
70793,-95.2380952380952,4,1,0,90,0,1
70980,-74.0740740740741,4,1,0,90,0,1
71168,-75.187969924812,4,1,0,90,0,1
71215,-76.3358778625954,4,1,0,90,0,1
71262,-77.5193798449612,4,1,0,90,0,1
71309,-78.7401574803149,4,1,0,90,0,1
71355,-80,4,1,0,90,0,1
71543,-81.3008130081301,4,1,0,90,0,1
71637,-82.6446280991736,4,1,0,90,0,1
71730,-84.0336134453781,4,1,0,90,0,1
71918,-85.4700854700855,4,1,0,90,0,1
72012,-86.9565217391304,4,1,0,90,0,1
72199,-88.4955752212389,4,1,0,90,0,1
72293,-90.0900900900901,4,1,0,90,0,1
72480,-91.743119266055,4,1,0,80,0,0
72854,-100,4,1,0,80,0,0
73980,-58.8235294117647,4,1,0,85,0,0
74168,-80,4,1,0,85,0,0
74355,-83.3333333333333,4,1,0,90,0,1
78480,-82.6446280991736,4,1,0,90,0,1
78574,-81.9672131147541,4,1,0,90,0,1
78668,-81.3008130081301,4,1,0,90,0,1
78762,-80.6451612903226,4,1,0,90,0,1
78855,-76.9230769230769,4,1,0,90,0,1
78918,-78.7401574803149,4,1,0,90,0,1
78980,-80.6451612903226,4,1,0,90,0,1
79043,-82.6446280991736,4,1,0,90,0,1
79137,-80,4,1,0,90,0,1
79230,-76.9230769230769,4,1,0,90,0,1
79293,-78.7401574803149,4,1,0,90,0,1
79355,-80.6451612903226,4,1,0,90,0,1
79418,-82.6446280991736,4,1,0,90,0,1
79512,-80,4,1,0,90,0,1
79605,-76.9230769230769,4,1,0,90,0,1
79668,-78.7401574803149,4,1,0,90,0,1
79730,-80.6451612903226,4,1,0,90,0,1
79793,-82.6446280991736,4,1,0,90,0,1
79980,-81.3008130081301,4,1,0,90,0,1
80074,-80,4,1,0,90,0,1
80168,-78.7401574803149,4,1,0,90,0,1
80355,-77.5193798449612,4,1,0,90,0,1
82979,-80,4,1,0,90,0,1
83074,-79.3650793650794,4,1,0,90,0,1
83168,-78.7401574803149,4,1,0,90,0,1
83262,-78.125,4,1,0,90,0,1
83355,-77.5193798449612,4,1,0,90,0,1
83449,-76.9230769230769,4,1,0,90,0,1
83543,-76.3358778625954,4,1,0,90,0,1
83637,-75.7575757575758,4,1,0,90,0,1
83730,-75.187969924812,4,1,0,90,0,1
83824,-74.6268656716418,4,1,0,90,0,1
83918,-74.0740740740741,4,1,0,90,0,1
84012,-73.5294117647059,4,1,0,90,0,1
84105,-72.992700729927,4,1,0,90,0,1
84199,-72.463768115942,4,1,0,90,0,1
84293,-71.4285714285714,4,1,0,90,0,1
84387,-70.4225352112676,4,1,0,90,0,1
84480,-68.9655172413793,4,1,0,80,0,0
84855,-80,4,1,0,75,0,0
85230,-86.9565217391304,4,1,0,70,0,0
85418,-88.4955752212389,4,1,0,75,0,0
85605,-86.9565217391304,4,1,0,75,0,0
85699,-86.2068965517241,4,1,0,80,0,0
85793,-85.4700854700855,4,1,0,85,0,0
85980,-84.7457627118644,4,1,0,80,0,0
86168,-84.0336134453781,4,1,0,80,0,0
86262,-83.3333333333333,4,1,0,80,0,0
86355,-82.6446280991736,4,1,0,80,0,0
86449,-81.9672131147541,4,1,0,80,0,0
86543,-81.3008130081301,4,1,0,80,0,0
86637,-80.6451612903226,4,1,0,80,0,0
86730,-80,4,1,0,80,0,0
91605,-71.4285714285714,4,1,0,85,0,0
91980,-58.8235294117647,4,1,0,80,0,0
92167,-76.9230769230769,4,1,0,80,0,0
94979,-66.6666666666667,4,1,0,80,0,0
96480,-55.5555555555556,4,1,0,80,0,0
96762,-58.8235294117647,4,1,0,80,0,0
97043,-62.5,4,1,0,80,0,0
97324,-66.6666666666667,4,1,0,80,0,0
97605,-71.4285714285714,4,1,0,80,0,0
97979,-76.9230769230769,4,1,0,80,0,0
100604,-58.8235294117647,4,1,0,85,0,0
100979,-76.9230769230769,4,1,0,80,0,0
103043,-80,4,1,0,80,0,0
103137,-83.3333333333333,4,1,0,80,0,0
103230,-86.9565217391304,4,1,0,80,0,0
103418,-90.9090909090909,4,1,0,80,0,0
103605,-99.9999999999999,4,1,0,80,0,0
103793,-111.111111111111,4,1,0,80,0,0
103980,-100,4,1,0,75,0,0
104043,-95.2380952380952,4,1,0,76,0,0
104105,-90.9090909090909,4,1,0,77,0,0
104168,-86.9565217391304,4,1,0,78,0,0
105199,-86.9565217391304,4,1,0,78,0,0
105480,-86.9565217391304,4,1,0,75,0,0
105543,-83.3333333333333,4,1,0,76,0,0
105605,-80,4,1,0,77,0,0
105668,-76.9230769230769,4,1,0,78,0,0
106699,-86.9565217391304,4,1,0,78,0,0
106980,-76.9230769230769,4,1,0,78,0,0
107043,-80,4,1,0,78,0,0
107105,-83.3333333333333,4,1,0,78,0,0
107168,-86.9565217391304,4,1,0,78,0,0
107262,-83.3333333333333,4,1,0,78,0,0
107355,-81.9672131147541,4,1,0,78,0,0
107449,-80.6451612903226,4,1,0,78,0,0
107543,-79.3650793650794,4,1,0,78,0,0
107637,-78.125,4,1,0,78,0,0
107730,-76.9230769230769,4,1,0,78,0,0
107793,-80,4,1,0,78,0,0
107855,-83.3333333333333,4,1,0,78,0,0
107918,-86.9565217391304,4,1,0,78,0,0
108012,-83.3333333333333,4,1,0,78,0,0
108105,-84.0336134453781,4,1,0,78,0,0
108199,-84.7457627118644,4,1,0,78,0,0
108293,-85.4700854700855,4,1,0,78,0,0
108387,-86.2068965517241,4,1,0,78,0,0
108480,-87.719298245614,4,1,0,77,0,0
108574,-89.2857142857143,4,1,0,76,0,0
108668,-90.9090909090909,4,1,0,75,0,0
108762,-92.5925925925926,4,1,0,74,0,0
108855,-94.3396226415094,4,1,0,73,0,0
108949,-96.1538461538461,4,1,0,72,0,0
109043,-98.0392156862745,4,1,0,71,0,0
109230,-100,4,1,0,70,0,0
109605,-104.166666666667,4,1,0,70,0,0
109668,-106.382978723404,4,1,0,70,0,0
109730,-108.695652173913,4,1,0,70,0,0
109793,-111.111111111111,4,1,0,70,0,0
109980,-105.263157894737,4,1,0,65,0,0
114855,-76.9230769230769,4,1,0,65,0,0
114918,-78.7401574803149,4,1,0,65,0,0
114980,-80.6451612903226,4,1,0,65,0,0
115043,-82.6446280991736,4,1,0,65,0,0
115105,-84.7457627118644,4,1,0,65,0,0
115168,-86.9565217391304,4,1,0,65,0,0
115230,-89.2857142857143,4,1,0,65,0,0
115418,-97.0873786407767,4,1,0,75,0,0
115480,-100,4,1,0,75,0,0
115543,-103.092783505155,4,1,0,75,0,0
115605,-106.382978723404,4,1,0,70,0,0
115793,-117.647058823529,4,1,0,65,0,0
115980,-87.719298245614,4,1,0,70,0,0
116043,-89.2857142857143,4,1,0,71,0,0
116105,-90.9090909090909,4,1,0,72,0,0
116168,-92.5925925925926,4,1,0,73,0,0
117199,-86.9565217391304,4,1,0,73,0,0
117480,-81.9672131147541,4,1,0,70,0,0
117543,-83.3333333333333,4,1,0,71,0,0
117605,-84.7457627118644,4,1,0,72,0,0
117668,-86.2068965517241,4,1,0,73,0,0
118699,-86.9565217391304,4,1,0,73,0,0
118980,-76.9230769230769,4,1,0,73,0,0
119043,-80,4,1,0,73,0,0
119105,-83.3333333333333,4,1,0,73,0,0
119168,-86.9565217391304,4,1,0,73,0,0
119262,-84.0336134453781,4,1,0,73,0,0
119355,-81.9672131147541,4,1,0,73,0,0
119449,-80,4,1,0,73,0,0
119543,-78.7401574803149,4,1,0,73,0,0
119637,-77.5193798449612,4,1,0,73,0,0
119730,-76.9230769230769,4,1,0,73,0,0
119793,-80,4,1,0,73,0,0
119855,-83.3333333333333,4,1,0,73,0,0
119918,-86.9565217391304,4,1,0,73,0,0
120012,-84.0336134453781,4,1,0,73,0,0
120105,-81.9672131147541,4,1,0,73,0,0
120199,-80,4,1,0,73,0,0
120293,-78.7401574803149,4,1,0,73,0,0
120387,-77.5193798449612,4,1,0,73,0,0
120480,-76.9230769230769,4,1,0,73,0,0
120855,-87.719298245614,4,1,0,75,0,0
121043,-89.2857142857143,4,1,0,77,0,0
121230,-90.9090909090909,4,1,0,79,0,0
121418,-92.5925925925926,4,1,0,81,0,0
121512,-94.3396226415094,4,1,0,83,0,0
121605,-96.1538461538461,4,1,0,85,0,0
121793,-98.0392156862745,4,1,0,83,0,0
121980,-62.5,4,1,0,80,0,0
122355,-85.4700854700855,4,1,0,80,0,0
122402,-84.7457627118644,4,1,0,80,0,0
122543,-83.3333333333333,4,1,0,80,0,0
122590,-81.9672131147541,4,1,0,80,0,0
122730,-80.6451612903226,4,1,0,80,0,0
122777,-80,4,1,0,80,0,0
124605,-76.9230769230769,4,1,0,80,0,0
124668,-80,4,1,0,80,0,0
124730,-83.3333333333333,4,1,0,80,0,0
124793,-86.9565217391304,4,1,0,80,0,0
124980,-80,4,1,0,80,0,0
125027,-82.6446280991736,4,1,0,80,0,0
125074,-84.7457627118644,4,1,0,80,0,0
125168,-86.9565217391304,4,1,0,80,0,0
126480,-80,4,1,0,80,0,0
126527,-82.6446280991736,4,1,0,80,0,0
126574,-84.7457627118644,4,1,0,80,0,0
126668,-86.9565217391304,4,1,0,80,0,0
126855,-80,4,1,0,80,0,0
126902,-82.6446280991736,4,1,0,80,0,0
126949,-84.7457627118644,4,1,0,80,0,0
127043,-86.9565217391304,4,1,0,80,0,0
127418,-76.9230769230769,4,1,0,80,0,0
127605,-71.4285714285714,4,1,0,80,0,0
127793,-66.6666666666667,4,1,0,80,0,0
127980,-62.5,4,1,0,80,0,0
128355,-85.4700854700855,4,1,0,80,0,0
128402,-84.7457627118644,4,1,0,80,0,0
128543,-83.3333333333333,4,1,0,80,0,0
128590,-81.9672131147541,4,1,0,80,0,0
128730,-80.6451612903226,4,1,0,80,0,0
128777,-80,4,1,0,80,0,0
130605,-76.9230769230769,4,1,0,80,0,0
130668,-80,4,1,0,80,0,0
130730,-83.3333333333333,4,1,0,80,0,0
130793,-86.9565217391304,4,1,0,80,0,0
130980,-90.9090909090909,4,1,0,77,0,0
133980,-62.5,4,1,0,80,0,0
134355,-85.4700854700855,4,1,0,80,0,0
134402,-84.7457627118644,4,1,0,80,0,0
134543,-83.3333333333333,4,1,0,80,0,0
134590,-81.9672131147541,4,1,0,80,0,0
134730,-80.6451612903226,4,1,0,80,0,0
134777,-80,4,1,0,80,0,0
136605,-76.9230769230769,4,1,0,80,0,0
136668,-80,4,1,0,80,0,0
136730,-83.3333333333333,4,1,0,80,0,0
136793,-86.9565217391304,4,1,0,80,0,0
136976,-80,4,1,0,80,0,0
137027,-82.6446280991736,4,1,0,80,0,0
137074,-84.7457627118644,4,1,0,80,0,0
137168,-86.9565217391304,4,1,0,80,0,0
138480,-80,4,1,0,80,0,0
138527,-82.6446280991736,4,1,0,80,0,0
138574,-84.7457627118644,4,1,0,80,0,0
138668,-86.9565217391304,4,1,0,80,0,0
138855,-80,4,1,0,80,0,0
138902,-82.6446280991736,4,1,0,80,0,0
138949,-84.7457627118644,4,1,0,80,0,0
139043,-86.9565217391304,4,1,0,80,0,0
139418,-83.3333333333333,4,1,0,80,0,0
139605,-76.9230769230769,4,1,0,80,0,0
139793,-71.4285714285714,4,1,0,80,0,0
139980,-71.4285714285714,4,1,0,80,0,0
140074,-67.5675675675676,4,1,0,80,0,0
140168,-66.6666666666667,4,1,0,80,0,0
140230,-68.9655172413793,4,1,0,80,0,0
140293,-71.4285714285714,4,1,0,80,0,0
140355,-74.0740740740741,4,1,0,80,0,0
140418,-76.9230769230769,4,1,0,80,0,0
140480,-80,4,1,0,80,0,0
140543,-83.3333333333333,4,1,0,80,0,0
140637,-86.9565217391304,4,1,0,80,0,0
140730,-90.9090909090909,4,1,0,80,0,0
140918,-100,4,1,0,80,0,0
141105,-86.9565217391304,4,1,0,80,0,0
142980,-84.7457627118644,4,1,0,80,0,0
143168,-81.9672131147541,4,1,0,80,0,0
143262,-80.6451612903226,4,1,0,80,0,0
143355,-79.3650793650794,4,1,0,80,0,0
143543,-78.125,4,1,0,80,0,0
143730,-76.9230769230769,4,1,0,80,0,0
143918,-75.7575757575758,4,1,0,80,0,0
144012,-74.6268656716418,4,1,0,80,0,0
144105,-73.5294117647059,4,1,0,80,0,0
144293,-72.463768115942,4,1,0,80,0,0
144480,-71.4285714285714,4,1,0,80,0,0
144668,-70.4225352112676,4,1,0,80,0,0
144855,-69.4444444444444,4,1,0,80,0,0
144902,-68.4931506849315,4,1,0,80,0,0
145043,-67.5675675675676,4,1,0,80,0,0
145137,-66.6666666666667,4,1,0,80,0,0
145230,-65.7894736842105,4,1,0,80,0,0
145465,-64.9350649350649,4,1,0,80,0,0
145699,-64.1025641025641,4,1,0,80,0,0
145980,-63.2911392405063,4,1,0,60,0,0
157980,-90.9090909090909,4,1,0,65,0,0
168668,-99.009900990099,4,1,0,65,0,0
168855,-98.0392156862745,4,1,0,65,0,0
169043,-97.0873786407767,4,1,0,65,0,0
169230,-95.2380952380952,4,1,0,65,0,0
169418,-93.4579439252336,4,1,0,65,0,0
169512,-91.743119266055,4,1,0,65,0,0
169605,-90.0900900900901,4,1,0,65,0,0
169793,-88.4955752212389,4,1,0,65,0,0
169980,-86.9565217391304,4,1,0,70,0,0
180293,-94.3396226415094,4,1,0,75,0,0
180387,-93.4579439252336,4,1,0,75,0,0
180480,-92.5925925925926,4,1,0,75,0,0
180574,-91.743119266055,4,1,0,76,0,0
180668,-90.9090909090909,4,1,0,76,0,0
180762,-90.0900900900901,4,1,0,76,0,0
180855,-89.2857142857143,4,1,0,77,0,0
180949,-88.4955752212389,4,1,0,77,0,0
181043,-87.719298245614,4,1,0,77,0,0
181137,-86.9565217391304,4,1,0,78,0,0
181230,-86.2068965517241,4,1,0,78,0,0
181324,-85.4700854700855,4,1,0,78,0,0
181418,-84.7457627118644,4,1,0,79,0,0
181512,-84.0336134453781,4,1,0,79,0,0
181605,-83.3333333333333,4,1,0,79,0,0
181980,-66.6666666666667,4,1,0,80,0,0
182074,-68.9655172413793,4,1,0,80,0,0
182168,-71.4285714285714,4,1,0,80,0,0
182262,-74.0740740740741,4,1,0,80,0,0
182355,-76.9230769230769,4,1,0,80,0,0
182449,-80,4,1,0,80,0,0
182543,-83.3333333333333,4,1,0,80,0,0
182637,-86.9565217391304,4,1,0,80,0,0
182730,-90.9090909090909,4,1,0,80,0,0
183668,-71.4285714285714,4,1,0,80,0,0
183762,-74.0740740740741,4,1,0,80,0,0
183855,-76.9230769230769,4,1,0,80,0,0
183949,-80,4,1,0,80,0,0
184043,-83.3333333333333,4,1,0,80,0,0
184137,-86.9565217391304,4,1,0,80,0,0
184230,-90.9090909090909,4,1,0,80,0,0
188168,-71.4285714285714,4,1,0,80,0,0
188262,-74.0740740740741,4,1,0,80,0,0
188355,-76.9230769230769,4,1,0,80,0,0
188449,-80,4,1,0,80,0,0
188543,-83.3333333333333,4,1,0,80,0,0
188637,-86.9565217391304,4,1,0,80,0,0
188730,-90.9090909090909,4,1,0,80,0,0
189668,-71.4285714285714,4,1,0,80,0,0
189762,-74.0740740740741,4,1,0,80,0,0
189855,-76.9230769230769,4,1,0,80,0,0
189949,-80,4,1,0,80,0,0
190043,-83.3333333333333,4,1,0,80,0,0
190137,-86.9565217391304,4,1,0,80,0,0
190230,-90.9090909090909,4,1,0,80,0,0
193043,-93.4579439252336,4,1,0,80,0,0
193137,-92.5925925925926,4,1,0,80,0,0
193230,-91.743119266055,4,1,0,80,0,0
193324,-90.9090909090909,4,1,0,80,0,0
193418,-90.0900900900901,4,1,0,80,0,0
193512,-89.2857142857143,4,1,0,80,0,0
193605,-87.719298245614,4,1,0,80,0,0
193699,-86.2068965517241,4,1,0,80,0,0
193793,-84.7457627118644,4,1,0,80,0,0
193980,-83.3333333333333,4,1,0,83,0,0
194168,-71.4285714285714,4,1,0,83,0,0
194262,-74.0740740740741,4,1,0,83,0,0
194355,-76.9230769230769,4,1,0,83,0,0
194449,-80,4,1,0,83,0,0
194543,-83.3333333333333,4,1,0,83,0,0
194637,-86.9565217391304,4,1,0,83,0,0
194730,-90.9090909090909,4,1,0,83,0,0
195668,-71.4285714285714,4,1,0,83,0,0
195762,-74.0740740740741,4,1,0,83,0,0
195855,-76.9230769230769,4,1,0,83,0,0
195949,-80,4,1,0,83,0,0
196043,-83.3333333333333,4,1,0,83,0,0
196137,-86.9565217391304,4,1,0,83,0,0
196230,-90.9090909090909,4,1,0,83,0,0
202980,-90.0900900900901,4,1,0,83,0,0
203168,-88.4955752212389,4,1,0,83,0,0
203262,-86.9565217391304,4,1,0,83,0,0
203355,-85.4700854700855,4,1,0,83,0,0
203543,-83.3333333333333,4,1,0,83,0,0
203730,-81.9672131147541,4,1,0,83,0,0
203824,-80.6451612903226,4,1,0,83,0,0
203918,-79.3650793650794,4,1,0,83,0,0
204012,-78.125,4,1,0,83,0,0
204105,-76.9230769230769,4,1,0,83,0,0
204199,-75.7575757575758,4,1,0,83,0,0
204293,-74.0740740740741,4,1,0,83,0,0
204480,-76.9230769230769,4,1,0,74,0,0
205980,-99.009900990099,4,1,0,70,0,0
206168,-98.0392156862745,4,1,0,71,0,0
206355,-97.0873786407767,4,1,0,72,0,0
206543,-96.1538461538461,4,1,0,73,0,0
206730,-95.2380952380952,4,1,0,74,0,0
206918,-94.3396226415094,4,1,0,75,0,0
207105,-93.4579439252336,4,1,0,74,0,0
207293,-92.5925925925926,4,1,0,73,0,0
207480,-91.743119266055,4,1,0,72,0,0
207668,-90.9090909090909,4,1,0,71,0,0
207855,-90.0900900900901,4,1,0,70,0,0
208043,-89.2857142857143,4,1,0,71,0,0
208230,-88.4955752212389,4,1,0,72,0,0
208418,-87.719298245614,4,1,0,73,0,0
208605,-86.9565217391304,4,1,0,74,0,0
208699,-86.2068965517241,4,1,0,75,0,0
208793,-85.4700854700855,4,1,0,74,0,0
208887,-84.7457627118644,4,1,0,73,0,0
208980,-83.3333333333333,4,1,0,72,0,0
209168,-82.6446280991736,4,1,0,71,0,0
209355,-81.9672131147541,4,1,0,70,0,0
209543,-81.3008130081301,4,1,0,71,0,0
209730,-80.6451612903226,4,1,0,72,0,0
209918,-80,4,1,0,73,0,0
210105,-79.3650793650794,4,1,0,74,0,0
210293,-78.7401574803149,4,1,0,75,0,0
210480,-78.125,4,1,0,80,0,0
211980,-66.6666666666667,4,1,0,80,0,0
213105,-76.9230769230769,4,1,0,75,0,0
213480,-66.6666666666667,4,1,0,80,0,0
214605,-100,4,1,0,80,0,0
214980,-66.6666666666667,4,1,0,80,0,0
215043,-68.9655172413793,4,1,0,79,0,0
215105,-71.4285714285714,4,1,0,78,0,0
215168,-74.0740740740741,4,1,0,77,0,0
215262,-75.7575757575758,4,1,0,76,0,0
215355,-77.5193798449612,4,1,0,75,0,0
215449,-79.3650793650794,4,1,0,74,0,0
215543,-81.3008130081301,4,1,0,73,0,0
215637,-83.3333333333333,4,1,0,72,0,0
215730,-85.4700854700855,4,1,0,71,0,0
215824,-87.719298245614,4,1,0,70,0,0
215918,-90.0900900900901,4,1,0,70,0,0
216012,-92.5925925925926,4,1,0,70,0,0
216105,-95.2380952380952,4,1,0,70,0,0
216199,-98.0392156862745,4,1,0,70,0,0
216293,-101.010101010101,4,1,0,70,0,0
216480,-76.9230769230769,4,1,0,70,0,0
216855,-83.3333333333333,4,1,0,75,0,0
217230,-90.9090909090909,4,1,0,80,0,0
217418,-97.0873786407767,4,1,0,81,0,0
217512,-96.1538461538461,4,1,0,82,0,0
217605,-95.2380952380952,4,1,0,83,0,0
217699,-94.3396226415094,4,1,0,83,0,0
217793,-93.4579439252336,4,1,0,84,0,0
217887,-92.5925925925926,4,1,0,84,0,0
217980,-90.9090909090909,4,1,0,90,0,1
218168,-76.9230769230769,4,1,0,85,0,1
227918,-80,4,1,0,85,0,1
228012,-79.3650793650794,4,1,0,85,0,1
228199,-78.7401574803149,4,1,0,85,0,1
228293,-78.125,4,1,0,85,0,1
228387,-77.5193798449612,4,1,0,85,0,1
228480,-76.9230769230769,4,1,0,80,0,1
228543,-78.7401574803149,4,1,0,80,0,1
228605,-80.6451612903226,4,1,0,80,0,1
228668,-82.6446280991736,4,1,0,80,0,1
228762,-80,4,1,0,80,0,1
228855,-76.9230769230769,4,1,0,80,0,1
228918,-78.7401574803149,4,1,0,80,0,1
228980,-80.6451612903226,4,1,0,80,0,1
229043,-82.6446280991736,4,1,0,80,0,1
229137,-80,4,1,0,80,0,1
229230,-76.9230769230769,4,1,0,80,0,1
229293,-78.7401574803149,4,1,0,80,0,1
229355,-80.6451612903226,4,1,0,80,0,1
229418,-82.6446280991736,4,1,0,80,0,1
229512,-83.3333333333333,4,1,0,80,0,1
229605,-81.9672131147541,4,1,0,80,0,1
229699,-80.6451612903226,4,1,0,80,0,1
229793,-79.3650793650794,4,1,0,80,0,1
229887,-78.125,4,1,0,80,0,1
229980,-76.9230769230769,4,1,0,85,0,1
230168,-71.4285714285714,4,1,0,85,0,1
230355,-66.6666666666667,4,1,0,85,0,1
230543,-81.9672131147541,4,1,0,85,0,1
234668,-83.3333333333333,4,1,0,85,0,1
234715,-81.9672131147541,4,1,0,85,0,1
234762,-80,4,1,0,85,0,1
234808,-77.5193798449612,4,1,0,85,0,1
234855,-74.6268656716418,4,1,0,85,0,1
235043,-83.3333333333333,4,1,0,85,0,1
235090,-81.9672131147541,4,1,0,85,0,1
235137,-80,4,1,0,85,0,1
235183,-77.5193798449612,4,1,0,85,0,1
235230,-74.6268656716418,4,1,0,85,0,1
235418,-90.9090909090909,4,1,0,85,0,1
235980,-90.0900900900901,4,1,0,85,0,1
236043,-88.4955752212389,4,1,0,85,0,1
236105,-86.2068965517241,4,1,0,85,0,1
236168,-83.3333333333333,4,1,0,85,0,1
236355,-90.9090909090909,4,1,0,85,0,1
237480,-90.0900900900901,4,1,0,85,0,1
237543,-88.4955752212389,4,1,0,85,0,1
237605,-86.2068965517241,4,1,0,85,0,1
237668,-83.3333333333333,4,1,0,85,0,1
237855,-90.9090909090909,4,1,0,85,0,1
238980,-90.0900900900901,4,1,0,85,0,1
239043,-88.4955752212389,4,1,0,85,0,1
239105,-86.2068965517241,4,1,0,85,0,1
239168,-83.3333333333333,4,1,0,85,0,1
239355,-90.9090909090909,4,1,0,85,0,1
239543,-90.0900900900901,4,1,0,85,0,1
239605,-88.4955752212389,4,1,0,85,0,1
239668,-86.2068965517241,4,1,0,85,0,1
239730,-83.3333333333333,4,1,0,85,0,1
239918,-90.9090909090909,4,1,0,84,0,1
240012,-92.5925925925926,4,1,0,83,0,1
240105,-94.3396226415094,4,1,0,82,0,1
240199,-96.1538461538461,4,1,0,81,0,1
240293,-100,4,1,0,80,0,0
240668,-90.9090909090909,4,1,0,75,0,0
240762,-92.5925925925926,4,1,0,75,0,0
240949,-94.3396226415094,4,1,0,75,0,0
241043,-96.1538461538461,4,1,0,75,0,0
241230,-98.0392156862745,4,1,0,75,0,0
241324,-100,4,1,0,75,0,0
241512,-95.2380952380952,4,1,0,75,0,0
241605,-90.9090909090909,4,1,0,80,0,0
241668,-89.2857142857143,4,1,0,81,0,0
241730,-86.9565217391304,4,1,0,82,0,0
241793,-84.7457627118644,4,1,0,83,0,0
241887,-83.3333333333333,4,1,0,84,0,0
241980,-80,4,1,0,90,0,1
244793,-80,4,1,0,90,0,1
244887,-78.7401574803149,4,1,0,90,0,1
244980,-77.5193798449612,4,1,0,90,0,1
245074,-75.7575757575758,4,1,0,90,0,1
245168,-74.0740740740741,4,1,0,90,0,1
245262,-71.9424460431655,4,1,0,90,0,1
245355,-66.6666666666667,4,1,0,90,0,1
245637,-83.3333333333333,4,1,0,90,0,1
250230,-83.3333333333333,4,1,0,90,0,1
250324,-81.3008130081301,4,1,0,90,0,1
250418,-78.7401574803149,4,1,0,90,0,1
250512,-75.7575757575758,4,1,0,90,0,1
250605,-66.6666666666667,4,1,0,90,0,1
251355,-83.3333333333333,4,1,0,90,0,1
252480,-84.0336134453781,4,1,0,90,0,1
252574,-84.7457627118644,4,1,0,90,0,1
252668,-85.4700854700855,4,1,0,90,0,1
252762,-86.2068965517241,4,1,0,90,0,1
252855,-86.9565217391304,4,1,0,90,0,1
253043,-89.2857142857143,4,1,0,90,0,1
253230,-90.9090909090909,4,1,0,90,0,1
253418,-92.5925925925926,4,1,0,90,0,1
253512,-94.3396226415094,4,1,0,90,0,1
253699,-96.1538461538461,4,1,0,90,0,1
253793,-98.0392156862745,4,1,0,90,0,1
253980,-76.9230769230769,4,1,0,70,0,0
258480,-117.647058823529,4,1,0,70,0,0
258574,-116.279069767442,4,1,0,70,0,0
258668,-114.942528735632,4,1,0,70,0,0
258762,-113.636363636364,4,1,0,70,0,0
258855,-111.111111111111,4,1,0,70,0,0
258949,-108.695652173913,4,1,0,70,0,0
259043,-106.382978723404,4,1,0,70,0,0
259137,-104.166666666667,4,1,0,70,0,0
259230,-101.010101010101,4,1,0,70,0,0
259324,-98.0392156862745,4,1,0,70,0,0
259418,-95.2380952380952,4,1,0,70,0,0
259512,-91.743119266055,4,1,0,70,0,0
259605,-88.4955752212389,4,1,0,70,0,0
259793,-90.9090909090909,4,1,0,70,0,0
259980,-99.009900990099,4,1,0,76,0,0
260074,-98.0392156862745,4,1,0,77,0,0
260168,-97.0873786407767,4,1,0,77,0,0
260262,-96.1538461538461,4,1,0,77,0,0
260355,-95.2380952380952,4,1,0,78,0,0
260449,-94.3396226415094,4,1,0,78,0,0
260543,-93.4579439252336,4,1,0,78,0,0
260637,-92.5925925925926,4,1,0,79,0,0
260730,-91.743119266055,4,1,0,79,0,0
260824,-90.9090909090909,4,1,0,79,0,0
260918,-90.0900900900901,4,1,0,80,0,0
261012,-89.2857142857143,4,1,0,80,0,0
261105,-88.4955752212389,4,1,0,80,0,0
261293,-87.719298245614,4,1,0,81,0,0
261480,-86.9565217391304,4,1,0,81,0,0
261574,-86.2068965517241,4,1,0,81,0,0
261668,-85.4700854700855,4,1,0,82,0,0
261762,-84.7457627118644,4,1,0,82,0,0
261855,-84.0336134453781,4,1,0,82,0,0
261949,-83.3333333333333,4,1,0,83,0,0
262043,-82.6446280991736,4,1,0,83,0,0
262137,-81.9672131147541,4,1,0,83,0,0
262230,-81.3008130081301,4,1,0,84,0,0
262324,-80.6451612903226,4,1,0,84,0,0
262418,-80,4,1,0,84,0,0
262512,-79.3650793650794,4,1,0,85,0,0
262605,-78.7401574803149,4,1,0,85,0,0
262793,-78.125,4,1,0,85,0,0
262980,-66.6666666666667,4,1,0,85,0,0
264480,-66.6666666666667,4,1,0,85,0,0
264855,-76.9230769230769,4,1,0,85,0,0
265230,-90.9090909090909,4,1,0,85,0,0
265418,-86.9565217391304,4,1,0,85,0,0
265512,-83.3333333333333,4,1,0,85,0,0
265605,-80,4,1,0,85,0,0
265980,-76.9230769230769,4,1,0,80,0,0
268980,-66.6666666666667,4,1,0,75,0,0
269355,-71.4285714285714,4,1,0,75,0,0
269730,-76.9230769230769,4,1,0,75,0,0
270111,-83.3333333333333,4,1,0,75,0,0
270480,-76.9230769230769,4,1,0,77,0,0
270543,-78.7401574803149,4,1,0,77,0,0
270605,-80.6451612903226,4,1,0,77,0,0
270668,-82.6446280991736,4,1,0,77,0,0
270762,-80,4,1,0,77,0,0
270855,-76.9230769230769,4,1,0,77,0,0
270918,-78.7401574803149,4,1,0,77,0,0
270980,-80.6451612903226,4,1,0,77,0,0
271043,-82.6446280991736,4,1,0,77,0,0
271137,-80,4,1,0,77,0,0
271230,-76.9230769230769,4,1,0,77,0,0
271293,-78.7401574803149,4,1,0,77,0,0
271355,-80.6451612903226,4,1,0,77,0,0
271418,-82.6446280991736,4,1,0,77,0,0
271512,-80,4,1,0,77,0,0
271605,-76.9230769230769,4,1,0,77,0,0
271668,-78.7401574803149,4,1,0,77,0,0
271730,-80.6451612903226,4,1,0,77,0,0
271793,-82.6446280991736,4,1,0,77,0,0
271887,-84.7457627118644,4,1,0,77,0,0
271980,-86.9565217391304,4,1,0,77,0,0
272105,-89.2857142857143,4,1,0,77,0,0
272230,-91.743119266055,4,1,0,77,0,0
272355,-94.3396226415094,4,1,0,77,0,0
272480,-97.0873786407767,4,1,0,77,0,0
272605,-100,4,1,0,77,0,0
273480,-98.0392156862745,4,1,0,77,0,0
273605,-95.2380952380952,4,1,0,77,0,0
273730,-92.5925925925926,4,1,0,77,0,0
273855,-90.0900900900901,4,1,0,77,0,0
273980,-87.719298245614,4,1,0,77,0,0
274105,-85.4700854700855,4,1,0,77,0,0
274230,-83.3333333333333,4,1,0,77,0,0
278355,-83.3333333333333,4,1,0,77,0,0
278512,-80,4,1,0,77,0,0
278637,-76.9230769230769,4,1,0,77,0,0
278762,-74.0740740740741,4,1,0,77,0,0
278855,-71.4285714285714,4,1,0,77,0,0
278941,-68.9655172413793,4,1,0,77,0,0
279012,-66.6666666666667,4,1,0,77,0,0
279105,-64.5161290322581,4,1,0,77,0,0
280230,-83.3333333333333,4,1,0,77,0,0
282480,-76.9230769230769,4,1,0,77,0,0
282543,-80,4,1,0,77,0,0
282605,-83.3333333333333,4,1,0,77,0,0
282668,-86.9565217391304,4,1,0,77,0,0
282762,-83.3333333333333,4,1,0,77,0,0
282855,-76.9230769230769,4,1,0,77,0,0
282918,-80,4,1,0,77,0,0
282980,-83.3333333333333,4,1,0,77,0,0
283043,-86.9565217391304,4,1,0,77,0,0
283137,-83.3333333333333,4,1,0,77,0,0
283230,-76.9230769230769,4,1,0,77,0,0
283293,-80,4,1,0,77,0,0
283355,-83.3333333333333,4,1,0,77,0,0
283418,-86.9565217391304,4,1,0,77,0,0
283512,-83.3333333333333,4,1,0,77,0,0
283605,-76.9230769230769,4,1,0,77,0,0
283668,-78.7401574803149,4,1,0,77,0,0
283730,-80.6451612903226,4,1,0,77,0,0
283793,-82.6446280991736,4,1,0,77,0,0
283855,-84.7457627118644,4,1,0,77,0,0
283980,-83.3333333333333,4,1,0,77,0,0
284105,-80,4,1,0,77,0,0
284230,-76.9230769230769,4,1,0,77,0,0
284480,-78.125,4,1,0,77,0,0
284730,-79.3650793650794,4,1,0,77,0,0
284855,-80.6451612903226,4,1,0,77,0,0
284980,-81.9672131147541,4,1,0,77,0,0
285105,-83.3333333333333,4,1,0,77,0,0
285230,-86.2068965517241,4,1,0,77,0,0
285355,-87.719298245614,4,1,0,77,0,0
285480,-89.2857142857143,4,1,0,77,0,0
285730,-90.9090909090909,4,1,0,77,0,0
285980,-89.2857142857143,4,1,0,77,0,0
286230,-87.719298245614,4,1,0,77,0,0
286355,-86.2068965517241,4,1,0,77,0,0
286480,-84.7457627118644,4,1,0,77,0,0
286605,-83.3333333333333,4,1,0,77,0,0
286793,-81.9672131147541,4,1,0,77,0,0
286980,-80.6451612903226,4,1,0,77,0,0
287074,-79.3650793650794,4,1,0,77,0,0
287168,-76.9230769230769,4,1,0,77,0,0
287230,-80,4,1,0,77,0,0
287293,-83.3333333333333,4,1,0,77,0,0
287355,-86.9565217391304,4,1,0,77,0,0
287449,-83.3333333333333,4,1,0,77,0,0
287543,-76.9230769230769,4,1,0,77,0,0
287605,-80,4,1,0,77,0,0
287668,-83.3333333333333,4,1,0,77,0,0
287730,-86.9565217391304,4,1,0,77,0,0
287918,-80,4,1,0,77,0,0
288012,-86.9565217391304,4,1,0,77,0,0
288199,-80,4,1,0,77,0,0
288293,-86.9565217391304,4,1,0,77,0,0
288480,-95.2380952380952,4,1,0,77,0,0
289980,-90.9090909090908,4,1,0,80,0,0
290355,-99.9999999999999,4,1,0,75,0,0
290730,-111.111111111111,4,1,0,65,0,0
294855,-111.111111111111,4,1,0,55,0,0
299355,-111.111111111111,4,1,0,55,0,0
301980,-111.111111111111,4,1,0,50,0,0
303855,-111.111111111111,4,1,0,50,0,0
305355,-111.111111111111,4,1,0,45,0,0
306855,-111.111111111111,4,1,0,40,0,0
308355,-111.111111111111,4,1,0,35,0,0
309855,-111.111111111111,4,1,0,30,0,0
311355,-111.111111111111,4,1,0,25,0,0

[HitObjects]
256,192,1981,5,4,0:0:0:0:
256,192,2355,1,8,0:0:0:0:
256,192,2730,1,0,0:0:0:0:
256,192,2918,1,8,0:0:0:0:
256,192,3105,1,0,0:0:0:0:
256,192,3293,1,0,0:0:0:0:
256,192,3855,1,8,0:0:0:0:
256,192,4230,1,8,0:0:0:0:
256,192,4418,1,0,0:0:0:0:
256,192,4605,1,8,0:0:0:0:
256,192,5355,1,8,0:0:0:0:
256,192,5730,1,0,0:0:0:0:
256,192,5918,1,8,0:0:0:0:
256,192,6105,1,0,0:0:0:0:
256,192,6293,1,0,0:0:0:0:
256,192,6855,1,8,0:0:0:0:
256,192,7230,1,8,0:0:0:0:
256,192,7418,1,0,0:0:0:0:
256,192,7605,1,0,0:0:0:0:
256,192,7793,1,8,0:0:0:0:
256,192,8355,1,8,0:0:0:0:
256,192,8730,1,0,0:0:0:0:
256,192,8918,1,8,0:0:0:0:
256,192,9105,1,0,0:0:0:0:
256,192,9293,1,8,0:0:0:0:
256,192,9855,1,8,0:0:0:0:
256,192,10230,1,8,0:0:0:0:
256,192,10418,1,0,0:0:0:0:
256,192,10605,1,8,0:0:0:0:
256,192,11355,1,8,0:0:0:0:
256,192,11730,1,8,0:0:0:0:
256,192,11918,1,0,0:0:0:0:
256,192,12105,1,0,0:0:0:0:
256,192,12293,1,8,0:0:0:0:
256,192,12480,1,8,0:0:0:0:
256,192,12668,1,8,0:0:0:0:
256,192,12762,1,0,0:0:0:0:
256,192,12855,1,8,0:0:0:0:
256,192,13043,1,0,0:0:0:0:
256,192,13230,1,8,0:0:0:0:
256,192,13324,1,8,0:0:0:0:
256,192,13418,1,0,0:0:0:0:
256,192,13605,1,8,0:0:0:0:
256,192,13793,1,8,0:0:0:0:
256,192,13980,1,4,0:0:0:0:
256,192,14168,1,0,0:0:0:0:
256,192,14355,1,8,0:0:0:0:
256,192,14543,1,0,0:0:0:0:
256,192,14637,1,0,0:0:0:0:
256,192,14730,1,8,0:0:0:0:
256,192,14918,1,0,0:0:0:0:
256,192,15012,1,0,0:0:0:0:
256,192,15105,1,8,0:0:0:0:
256,192,15199,1,8,0:0:0:0:
256,192,15293,1,0,0:0:0:0:
256,192,15480,1,8,0:0:0:0:
256,192,15668,1,0,0:0:0:0:
256,192,15855,1,0,0:0:0:0:
256,192,15949,1,8,0:0:0:0:
256,192,16043,1,0,0:0:0:0:
256,192,16137,1,0,0:0:0:0:
256,192,16230,1,8,0:0:0:0:
256,192,16418,1,0,0:0:0:0:
256,192,16512,1,0,0:0:0:0:
256,192,16605,1,8,0:0:0:0:
256,192,16793,1,0,0:0:0:0:
256,192,16980,1,8,0:0:0:0:
256,192,17168,1,0,0:0:0:0:
256,192,17355,1,0,0:0:0:0:
256,192,17449,1,0,0:0:0:0:
256,192,17543,1,8,0:0:0:0:
256,192,17637,1,8,0:0:0:0:
256,192,17730,1,8,0:0:0:0:
256,192,17824,1,0,0:0:0:0:
256,192,17918,1,0,0:0:0:0:
256,192,18012,1,0,0:0:0:0:
256,192,18105,1,8,0:0:0:0:
256,192,18293,1,0,0:0:0:0:
256,192,18480,1,8,0:0:0:0:
256,192,18668,1,0,0:0:0:0:
256,192,18855,1,0,0:0:0:0:
256,192,18949,1,8,0:0:0:0:
256,192,19043,1,0,0:0:0:0:
256,192,19137,1,0,0:0:0:0:
256,192,19230,1,8,0:0:0:0:
256,192,19324,1,0,0:0:0:0:
256,192,19418,1,8,0:0:0:0:
256,192,19512,1,8,0:0:0:0:
256,192,19605,1,0,0:0:0:0:
256,192,19699,1,0,0:0:0:0:
256,192,19793,1,8,0:0:0:0:
256,192,19980,1,0,0:0:0:0:
256,192,20168,1,8,0:0:0:0:
256,192,20355,1,0,0:0:0:0:
256,192,20449,1,8,0:0:0:0:
256,192,20543,1,0,0:0:0:0:
256,192,20637,1,8,0:0:0:0:
256,192,20730,1,8,0:0:0:0:
256,192,20824,1,8,0:0:0:0:
256,192,20918,1,0,0:0:0:0:
256,192,21012,1,8,0:0:0:0:
256,192,21105,1,0,0:0:0:0:
256,192,21293,1,8,0:0:0:0:
256,192,21480,1,0,0:0:0:0:
256,192,21668,1,8,0:0:0:0:
256,192,21855,1,0,0:0:0:0:
256,192,21949,1,0,0:0:0:0:
256,192,22043,1,8,0:0:0:0:
256,192,22137,1,8,0:0:0:0:
256,192,22230,1,8,0:0:0:0:
256,192,22324,1,0,0:0:0:0:
256,192,22418,1,0,0:0:0:0:
256,192,22512,1,8,0:0:0:0:
256,192,22605,1,0,0:0:0:0:
256,192,22793,1,8,0:0:0:0:
256,192,22980,1,0,0:0:0:0:
256,192,23168,1,0,0:0:0:0:
256,192,23355,1,0,0:0:0:0:
256,192,23449,1,8,0:0:0:0:
256,192,23543,1,0,0:0:0:0:
256,192,23637,1,8,0:0:0:0:
256,192,23730,1,8,0:0:0:0:
256,192,23918,1,0,0:0:0:0:
256,192,24012,1,0,0:0:0:0:
256,192,24105,1,8,0:0:0:0:
256,192,24293,1,0,0:0:0:0:
256,192,24480,1,0,0:0:0:0:
256,192,24574,1,8,0:0:0:0:
256,192,24668,1,0,0:0:0:0:
256,192,24762,1,0,0:0:0:0:
256,192,24855,1,8,0:0:0:0:
256,192,24949,1,8,0:0:0:0:
256,192,25043,1,8,0:0:0:0:
256,192,25137,1,0,0:0:0:0:
256,192,25230,1,0,0:0:0:0:
256,192,25324,1,8,0:0:0:0:
256,192,25418,1,8,0:0:0:0:
256,192,25512,1,0,0:0:0:0:
256,192,25605,1,8,0:0:0:0:
256,192,25980,5,4,0:0:0:0:
256,192,26168,1,8,0:0:0:0:
256,192,26355,1,0,0:0:0:0:
256,192,26449,1,8,0:0:0:0:
256,192,26543,1,8,0:0:0:0:
256,192,26637,1,8,0:0:0:0:
256,192,26730,1,0,0:0:0:0:
256,192,26918,1,0,0:0:0:0:
256,192,27012,1,8,0:0:0:0:
256,192,27199,1,8,0:0:0:0:
256,192,27293,1,0,0:0:0:0:
256,192,27480,1,0,0:0:0:0:
256,192,27574,1,0,0:0:0:0:
256,192,27668,1,8,0:0:0:0:
256,192,27855,1,0,0:0:0:0:
256,192,27949,1,8,0:0:0:0:
256,192,28043,1,8,0:0:0:0:
256,192,28137,1,0,0:0:0:0:
256,192,28230,1,8,0:0:0:0:
256,192,28418,1,0,0:0:0:0:
256,192,28512,1,8,0:0:0:0:
256,192,28699,1,8,0:0:0:0:
256,192,28793,1,0,0:0:0:0:
256,192,28980,1,0,0:0:0:0:
256,192,29168,1,8,0:0:0:0:
256,192,29355,1,0,0:0:0:0:
256,192,29449,1,8,0:0:0:0:
256,192,29543,1,8,0:0:0:0:
256,192,29637,1,8,0:0:0:0:
256,192,29730,1,0,0:0:0:0:
256,192,29918,1,8,0:0:0:0:
256,192,30012,1,0,0:0:0:0:
256,192,30199,1,0,0:0:0:0:
256,192,30293,1,8,0:0:0:0:
256,192,30480,1,0,0:0:0:0:
256,192,30574,1,8,0:0:0:0:
256,192,30668,1,8,0:0:0:0:
256,192,30855,1,0,0:0:0:0:
256,192,31043,1,8,0:0:0:0:
256,192,31137,1,8,0:0:0:0:
256,192,31230,1,0,0:0:0:0:
256,192,31418,1,0,0:0:0:0:
256,192,31512,1,8,0:0:0:0:
256,192,31699,1,8,0:0:0:0:
256,192,31793,1,0,0:0:0:0:
256,192,31980,1,0,0:0:0:0:
256,192,32074,1,8,0:0:0:0:
256,192,32168,1,0,0:0:0:0:
256,192,32355,1,0,0:0:0:0:
256,192,32543,1,8,0:0:0:0:
256,192,32637,1,8,0:0:0:0:
256,192,32730,1,0,0:0:0:0:
256,192,32918,1,0,0:0:0:0:
256,192,33012,1,8,0:0:0:0:
256,192,33199,1,8,0:0:0:0:
256,192,33293,1,0,0:0:0:0:
256,192,33480,1,0,0:0:0:0:
256,192,33574,1,8,0:0:0:0:
256,192,33668,1,8,0:0:0:0:
256,192,33855,1,0,0:0:0:0:
256,192,33949,1,8,0:0:0:0:
256,192,34043,1,8,0:0:0:0:
256,192,34137,1,0,0:0:0:0:
256,192,34230,1,8,0:0:0:0:
256,192,34418,1,0,0:0:0:0:
256,192,34512,1,8,0:0:0:0:
256,192,34699,1,8,0:0:0:0:
256,192,34793,1,0,0:0:0:0:
256,192,34980,1,0,0:0:0:0:
256,192,35168,1,8,0:0:0:0:
256,192,35355,1,8,0:0:0:0:
256,192,35449,1,0,0:0:0:0:
256,192,35543,1,8,0:0:0:0:
256,192,35637,1,8,0:0:0:0:
256,192,35730,1,0,0:0:0:0:
256,192,35918,1,8,0:0:0:0:
256,192,36012,1,0,0:0:0:0:
256,192,36199,1,0,0:0:0:0:
256,192,36293,1,8,0:0:0:0:
256,192,36480,1,0,0:0:0:0:
256,192,36574,1,8,0:0:0:0:
256,192,36668,1,8,0:0:0:0:
256,192,36855,1,0,0:0:0:0:
256,192,36949,1,8,0:0:0:0:
256,192,37043,1,0,0:0:0:0:
256,192,37137,1,0,0:0:0:0:
256,192,37230,1,8,0:0:0:0:
256,192,37418,1,0,0:0:0:0:
256,192,37512,1,8,0:0:0:0:
256,192,37699,1,8,0:0:0:0:
256,192,37793,1,0,0:0:0:0:
256,192,37980,1,12,0:0:0:0:
256,192,38168,1,0,0:0:0:0:
256,192,38355,1,8,0:0:0:0:
256,192,38543,1,0,0:0:0:0:
256,192,38637,1,8,0:0:0:0:
256,192,38730,1,0,0:0:0:0:
256,192,38918,1,0,0:0:0:0:
256,192,39012,1,8,0:0:0:0:
256,192,39105,1,8,0:0:0:0:
256,192,39199,1,0,0:0:0:0:
256,192,39293,1,8,0:0:0:0:
256,192,39480,1,0,0:0:0:0:
256,192,39668,1,8,0:0:0:0:
256,192,39855,1,0,0:0:0:0:
256,192,39949,1,8,0:0:0:0:
256,192,40043,1,0,0:0:0:0:
256,192,40137,1,0,0:0:0:0:
256,192,40230,1,8,0:0:0:0:
256,192,40418,1,0,0:0:0:0:
256,192,40512,1,8,0:0:0:0:
256,192,40605,1,0,0:0:0:0:
256,192,40699,1,8,0:0:0:0:
256,192,40793,1,0,0:0:0:0:
256,192,40980,1,0,0:0:0:0:
256,192,41168,1,8,0:0:0:0:
256,192,41355,1,0,0:0:0:0:
256,192,41449,1,8,0:0:0:0:
256,192,41543,1,0,0:0:0:0:
256,192,41730,1,0,0:0:0:0:
256,192,41824,1,8,0:0:0:0:
256,192,41918,1,8,0:0:0:0:
256,192,42012,1,8,0:0:0:0:
256,192,42105,1,0,0:0:0:0:
256,192,42293,1,8,0:0:0:0:
256,192,42480,1,0,0:0:0:0:
256,192,42574,1,8,0:0:0:0:
256,192,42668,1,8,0:0:0:0:
256,192,42855,1,0,0:0:0:0:
256,192,42949,1,8,0:0:0:0:
256,192,43043,1,0,0:0:0:0:
256,192,43137,1,8,0:0:0:0:
256,192,43230,1,8,0:0:0:0:
256,192,43418,1,0,0:0:0:0:
256,192,43512,1,0,0:0:0:0:
256,192,43699,1,8,0:0:0:0:
256,192,43793,1,0,0:0:0:0:
256,192,43980,1,0,0:0:0:0:
256,192,44074,1,8,0:0:0:0:
256,192,44262,1,8,0:0:0:0:
256,192,44355,1,0,0:0:0:0:
256,192,44543,1,8,0:0:0:0:
256,192,44730,1,0,0:0:0:0:
256,192,44918,1,0,0:0:0:0:
256,192,45012,1,8,0:0:0:0:
256,192,45105,1,0,0:0:0:0:
256,192,45199,1,8,0:0:0:0:
256,192,45293,1,0,0:0:0:0:
256,192,45480,1,0,0:0:0:0:
256,192,45668,1,0,0:0:0:0:
256,192,45762,1,8,0:0:0:0:
256,192,45855,1,8,0:0:0:0:
256,192,46043,1,0,0:0:0:0:
256,192,46230,1,8,0:0:0:0:
256,192,46324,1,8,0:0:0:0:
256,192,46418,1,0,0:0:0:0:
256,192,46605,1,8,0:0:0:0:
256,192,46793,1,0,0:0:0:0:
256,192,46980,1,8,0:0:0:0:
256,192,47168,1,0,0:0:0:0:
256,192,47262,1,8,0:0:0:0:
256,192,47355,1,0,0:0:0:0:
256,192,47449,1,8,0:0:0:0:
256,192,47543,1,0,0:0:0:0:
256,192,47730,1,8,0:0:0:0:
256,192,47824,1,8,0:0:0:0:
256,192,48012,1,8,0:0:0:0:
256,192,48105,1,0,0:0:0:0:
256,192,48293,1,8,0:0:0:0:
256,192,48480,12,0,49793,0:0:0:0:
256,192,49980,5,4,0:0:0:0:
256,192,50168,1,0,0:0:0:0:
256,192,50355,1,8,0:0:0:0:
256,192,50449,1,0,0:0:0:0:
256,192,50543,1,8,0:0:0:0:
256,192,50637,1,8,0:0:0:0:
256,192,50730,1,0,0:0:0:0:
256,192,50918,1,8,0:0:0:0:
256,192,51105,1,0,0:0:0:0:
256,192,51199,1,8,0:0:0:0:
256,192,51293,1,0,0:0:0:0:
256,192,51480,1,0,0:0:0:0:
256,192,51668,1,8,0:0:0:0:
256,192,51855,1,0,0:0:0:0:
256,192,52043,1,8,0:0:0:0:
256,192,52137,1,0,0:0:0:0:
256,192,52230,1,8,0:0:0:0:
256,192,52418,1,0,0:0:0:0:
256,192,52605,1,8,0:0:0:0:
256,192,52793,1,0,0:0:0:0:
256,192,52980,1,0,0:0:0:0:
256,192,53074,1,0,0:0:0:0:
256,192,53168,1,8,0:0:0:0:
256,192,53355,1,0,0:0:0:0:
256,192,53543,1,8,0:0:0:0:
256,192,53637,1,8,0:0:0:0:
256,192,53730,1,0,0:0:0:0:
256,192,53918,1,8,0:0:0:0:
256,192,54105,1,8,0:0:0:0:
256,192,54293,1,0,0:0:0:0:
256,192,54480,1,0,0:0:0:0:
256,192,54668,1,0,0:0:0:0:
256,192,54762,1,8,0:0:0:0:
256,192,54855,1,0,0:0:0:0:
256,192,55043,1,8,0:0:0:0:
256,192,55137,1,8,0:0:0:0:
256,192,55230,1,0,0:0:0:0:
256,192,55418,1,8,0:0:0:0:
256,192,55605,1,0,0:0:0:0:
256,192,55793,1,0,0:0:0:0:
256,192,55980,1,8,0:0:0:0:
256,192,56043,1,8,0:0:0:0:
256,192,56105,1,8,0:0:0:0:
256,192,56168,1,0,0:0:0:0:
256,192,56355,1,0,0:0:0:0:
256,192,56449,1,0,0:0:0:0:
256,192,56637,1,0,0:0:0:0:
256,192,56730,1,0,0:0:0:0:
256,192,56918,1,0,0:0:0:0:
256,192,57012,1,0,0:0:0:0:
256,192,57199,1,0,0:0:0:0:
256,192,57293,1,0,0:0:0:0:
256,192,57387,1,0,0:0:0:0:
256,192,57480,1,8,0:0:0:0:
256,192,57543,1,8,0:0:0:0:
256,192,57605,1,8,0:0:0:0:
256,192,57668,1,0,0:0:0:0:
256,192,57855,1,0,0:0:0:0:
256,192,57949,1,0,0:0:0:0:
256,192,58137,1,0,0:0:0:0:
256,192,58230,1,0,0:0:0:0:
256,192,58418,1,0,0:0:0:0:
256,192,58512,1,0,0:0:0:0:
256,192,58699,1,0,0:0:0:0:
256,192,58793,1,0,0:0:0:0:
256,192,58887,1,0,0:0:0:0:
256,192,58980,1,8,0:0:0:0:
256,192,59043,1,8,0:0:0:0:
256,192,59105,1,8,0:0:0:0:
256,192,59168,1,0,0:0:0:0:
256,192,59262,1,0,0:0:0:0:
256,192,59355,1,0,0:0:0:0:
256,192,59449,1,8,0:0:0:0:
256,192,59543,1,8,0:0:0:0:
256,192,59637,1,0,0:0:0:0:
256,192,59730,1,8,0:0:0:0:
256,192,59793,1,8,0:0:0:0:
256,192,59855,1,8,0:0:0:0:
256,192,59918,1,0,0:0:0:0:
256,192,60012,1,0,0:0:0:0:
256,192,60105,1,0,0:0:0:0:
256,192,60199,1,8,0:0:0:0:
256,192,60293,1,0,0:0:0:0:
256,192,60387,1,0,0:0:0:0:
256,192,60480,1,8,0:0:0:0:
256,192,60855,1,0,0:0:0:0:
256,192,61043,1,8,0:0:0:0:
256,192,61230,1,0,0:0:0:0:
256,192,61418,1,0,0:0:0:0:
256,192,61512,1,0,0:0:0:0:
256,192,61605,1,8,0:0:0:0:
256,192,61793,1,8,0:0:0:0:
256,192,61980,1,4,0:0:0:0:
256,192,62168,1,8,0:0:0:0:
256,192,62262,1,8,0:0:0:0:
256,192,62355,1,0,0:0:0:0:
256,192,62449,1,8,0:0:0:0:
256,192,62543,1,8,0:0:0:0:
256,192,62637,1,8,0:0:0:0:
256,192,62730,1,0,0:0:0:0:
256,192,62824,1,8,0:0:0:0:
256,192,62918,1,8,0:0:0:0:
256,192,63012,1,8,0:0:0:0:
256,192,63105,1,0,0:0:0:0:
256,192,63199,1,8,0:0:0:0:
256,192,63293,1,8,0:0:0:0:
256,192,63387,1,8,0:0:0:0:
256,192,63480,1,0,0:0:0:0:
256,192,63574,1,8,0:0:0:0:
256,192,63668,1,8,0:0:0:0:
256,192,63762,1,8,0:0:0:0:
256,192,63855,1,0,0:0:0:0:
256,192,63949,1,8,0:0:0:0:
256,192,64043,1,8,0:0:0:0:
256,192,64137,1,8,0:0:0:0:
256,192,64230,1,0,0:0:0:0:
256,192,64324,1,8,0:0:0:0:
256,192,64418,1,8,0:0:0:0:
256,192,64512,1,8,0:0:0:0:
256,192,64605,1,0,0:0:0:0:
256,192,64699,1,8,0:0:0:0:
256,192,64793,1,8,0:0:0:0:
256,192,64887,1,8,0:0:0:0:
256,192,64980,1,0,0:0:0:0:
256,192,65074,1,0,0:0:0:0:
256,192,65168,1,8,0:0:0:0:
256,192,65262,1,8,0:0:0:0:
256,192,65355,1,0,0:0:0:0:
256,192,65449,1,0,0:0:0:0:
256,192,65543,1,0,0:0:0:0:
256,192,65637,1,8,0:0:0:0:
256,192,65730,1,0,0:0:0:0:
256,192,65824,1,0,0:0:0:0:
256,192,65918,1,0,0:0:0:0:
256,192,66012,1,8,0:0:0:0:
256,192,66105,1,0,0:0:0:0:
256,192,66199,1,0,0:0:0:0:
256,192,66293,1,8,0:0:0:0:
256,192,66387,1,8,0:0:0:0:
256,192,66480,1,0,0:0:0:0:
256,192,66574,1,0,0:0:0:0:
256,192,66668,1,8,0:0:0:0:
256,192,66762,1,0,0:0:0:0:
256,192,66855,1,8,0:0:0:0:
256,192,66918,1,0,0:0:0:0:
256,192,66980,1,0,0:0:0:0:
256,192,67043,1,8,0:0:0:0:
256,192,67137,1,0,0:0:0:0:
256,192,67230,1,0,0:0:0:0:
256,192,67293,1,8,0:0:0:0:
256,192,67355,1,8,0:0:0:0:
256,192,67418,1,8,0:0:0:0:
256,192,67512,1,0,0:0:0:0:
256,192,67605,1,8,0:0:0:0:
256,192,67668,1,8,0:0:0:0:
256,192,67730,1,8,0:0:0:0:
256,192,67793,1,0,0:0:0:0:
256,192,67887,1,0,0:0:0:0:
256,192,67980,1,8,0:0:0:0:
256,192,68168,1,8,0:0:0:0:
256,192,68262,1,8,0:0:0:0:
256,192,68355,1,0,0:0:0:0:
256,192,68449,1,8,0:0:0:0:
256,192,68543,1,8,0:0:0:0:
256,192,68637,1,8,0:0:0:0:
256,192,68730,1,0,0:0:0:0:
256,192,68824,1,8,0:0:0:0:
256,192,68918,1,8,0:0:0:0:
256,192,69012,1,8,0:0:0:0:
256,192,69105,1,0,0:0:0:0:
256,192,69199,1,8,0:0:0:0:
256,192,69293,1,0,0:0:0:0:
256,192,69387,1,8,0:0:0:0:
256,192,69480,1,0,0:0:0:0:
256,192,69574,1,8,0:0:0:0:
256,192,69668,1,8,0:0:0:0:
256,192,69762,1,0,0:0:0:0:
256,192,69855,1,8,0:0:0:0:
256,192,69949,1,8,0:0:0:0:
256,192,70043,1,0,0:0:0:0:
256,192,70137,1,8,0:0:0:0:
256,192,70230,1,0,0:0:0:0:
256,192,70418,1,0,0:0:0:0:
256,192,70512,1,8,0:0:0:0:
256,192,70605,1,0,0:0:0:0:
256,192,70699,1,0,0:0:0:0:
256,192,70793,1,8,0:0:0:0:
256,192,70980,1,0,0:0:0:0:
256,192,71168,1,0,0:0:0:0:
256,192,71215,1,0,0:0:0:0:
256,192,71262,1,0,0:0:0:0:
256,192,71309,1,0,0:0:0:0:
256,192,71355,1,8,0:0:0:0:
256,192,71543,1,0,0:0:0:0:
256,192,71637,1,8,0:0:0:0:
256,192,71730,1,0,0:0:0:0:
256,192,71918,1,8,0:0:0:0:
256,192,72012,1,0,0:0:0:0:
256,192,72199,1,0,0:0:0:0:
256,192,72293,1,0,0:0:0:0:
256,192,72480,1,8,0:0:0:0:
256,192,72855,1,0,0:0:0:0:
256,192,73043,1,8,0:0:0:0:
256,192,73230,1,0,0:0:0:0:
256,192,73324,1,8,0:0:0:0:
256,192,73512,1,0,0:0:0:0:
256,192,73605,1,8,0:0:0:0:
256,192,73793,1,8,0:0:0:0:
256,192,73980,1,4,0:0:0:0:
256,192,74168,1,0,0:0:0:0:
256,192,74355,1,0,0:0:0:0:
256,192,74449,1,0,0:0:0:0:
256,192,74543,1,8,0:0:0:0:
256,192,74637,1,8,0:0:0:0:
256,192,74730,1,0,0:0:0:0:
256,192,74824,1,0,0:0:0:0:
256,192,74918,1,8,0:0:0:0:
256,192,75012,1,8,0:0:0:0:
256,192,75105,1,0,0:0:0:0:
256,192,75199,1,8,0:0:0:0:
256,192,75293,1,8,0:0:0:0:
256,192,75387,1,8,0:0:0:0:
256,192,75480,1,0,0:0:0:0:
256,192,75574,1,0,0:0:0:0:
256,192,75668,1,8,0:0:0:0:
256,192,75762,1,0,0:0:0:0:
256,192,75855,1,8,0:0:0:0:
256,192,75949,1,8,0:0:0:0:
256,192,76043,1,0,0:0:0:0:
256,192,76137,1,0,0:0:0:0:
256,192,76230,1,8,0:0:0:0:
256,192,76324,1,0,0:0:0:0:
256,192,76418,1,8,0:0:0:0:
256,192,76512,1,8,0:0:0:0:
256,192,76605,1,0,0:0:0:0:
256,192,76793,1,8,0:0:0:0:
256,192,76980,1,0,0:0:0:0:
256,192,77074,1,0,0:0:0:0:
256,192,77262,1,0,0:0:0:0:
256,192,77355,1,0,0:0:0:0:
256,192,77449,1,8,0:0:0:0:
256,192,77543,1,8,0:0:0:0:
256,192,77637,1,8,0:0:0:0:
256,192,77730,1,0,0:0:0:0:
256,192,77824,1,8,0:0:0:0:
256,192,77918,1,8,0:0:0:0:
256,192,78012,1,8,0:0:0:0:
256,192,78105,1,0,0:0:0:0:
256,192,78199,1,0,0:0:0:0:
256,192,78293,1,8,0:0:0:0:
256,192,78387,1,0,0:0:0:0:
256,192,78480,1,8,0:0:0:0:
256,192,78574,1,0,0:0:0:0:
256,192,78668,1,0,0:0:0:0:
256,192,78762,1,8,0:0:0:0:
256,192,78855,1,0,0:0:0:0:
256,192,78918,1,0,0:0:0:0:
256,192,78980,1,8,0:0:0:0:
256,192,79043,1,0,0:0:0:0:
256,192,79137,1,0,0:0:0:0:
256,192,79230,1,8,0:0:0:0:
256,192,79293,1,0,0:0:0:0:
256,192,79355,1,0,0:0:0:0:
256,192,79418,1,8,0:0:0:0:
256,192,79512,1,8,0:0:0:0:
256,192,79605,1,0,0:0:0:0:
256,192,79668,1,8,0:0:0:0:
256,192,79730,1,8,0:0:0:0:
256,192,79793,1,8,0:0:0:0:
256,192,79980,1,8,0:0:0:0:
256,192,80074,1,8,0:0:0:0:
256,192,80168,1,0,0:0:0:0:
256,192,80355,1,8,0:0:0:0:
256,192,80543,1,0,0:0:0:0:
256,192,80637,1,0,0:0:0:0:
256,192,80730,1,0,0:0:0:0:
256,192,80918,1,0,0:0:0:0:
256,192,81105,1,8,0:0:0:0:
256,192,81152,1,8,0:0:0:0:
256,192,81293,1,8,0:0:0:0:
256,192,81340,1,8,0:0:0:0:
256,192,81480,1,0,0:0:0:0:
256,192,81543,1,0,0:0:0:0:
256,192,81605,1,0,0:0:0:0:
256,192,81668,1,8,0:0:0:0:
256,192,81762,1,0,0:0:0:0:
256,192,81855,1,8,0:0:0:0:
256,192,81949,1,0,0:0:0:0:
256,192,82043,1,0,0:0:0:0:
256,192,82137,1,0,0:0:0:0:
256,192,82230,1,8,0:0:0:0:
256,192,82324,1,8,0:0:0:0:
256,192,82418,1,8,0:0:0:0:
256,192,82512,1,0,0:0:0:0:
256,192,82605,1,8,0:0:0:0:
256,192,82980,1,8,0:0:0:0:
256,192,83074,1,0,0:0:0:0:
256,192,83168,1,8,0:0:0:0:
256,192,83262,1,0,0:0:0:0:
256,192,83355,1,0,0:0:0:0:
256,192,83449,1,8,0:0:0:0:
256,192,83543,1,8,0:0:0:0:
256,192,83637,1,0,0:0:0:0:
256,192,83730,1,8,0:0:0:0:
256,192,83824,1,0,0:0:0:0:
256,192,83918,1,0,0:0:0:0:
256,192,84012,1,8,0:0:0:0:
256,192,84105,1,8,0:0:0:0:
256,192,84199,1,0,0:0:0:0:
256,192,84293,1,8,0:0:0:0:
256,192,84387,1,0,0:0:0:0:
256,192,84480,1,8,0:0:0:0:
256,192,84855,1,8,0:0:0:0:
256,192,85230,1,0,0:0:0:0:
256,192,85418,1,8,0:0:0:0:
256,192,85605,1,0,0:0:0:0:
256,192,85699,1,0,0:0:0:0:
256,192,85793,1,8,0:0:0:0:
256,192,85980,1,0,0:0:0:0:
256,192,86168,1,8,0:0:0:0:
256,192,86262,1,8,0:0:0:0:
256,192,86355,1,0,0:0:0:0:
256,192,86449,1,8,0:0:0:0:
256,192,86543,1,8,0:0:0:0:
256,192,86637,1,8,0:0:0:0:
256,192,86730,1,0,0:0:0:0:
256,192,86918,1,8,0:0:0:0:
256,192,87105,1,0,0:0:0:0:
256,192,87199,1,0,0:0:0:0:
256,192,87293,1,8,0:0:0:0:
256,192,87387,1,0,0:0:0:0:
256,192,87480,1,0,0:0:0:0:
256,192,87668,1,8,0:0:0:0:
256,192,87855,1,0,0:0:0:0:
256,192,87949,1,8,0:0:0:0:
256,192,88043,1,8,0:0:0:0:
256,192,88137,1,8,0:0:0:0:
256,192,88230,1,0,0:0:0:0:
256,192,88324,1,0,0:0:0:0:
256,192,88418,1,8,0:0:0:0:
256,192,88605,1,0,0:0:0:0:
256,192,88699,1,8,0:0:0:0:
256,192,88887,1,8,0:0:0:0:
256,192,88980,1,0,0:0:0:0:
256,192,89168,1,8,0:0:0:0:
256,192,89262,1,0,0:0:0:0:
256,192,89355,1,0,0:0:0:0:
256,192,89449,1,8,0:0:0:0:
256,192,89543,1,8,0:0:0:0:
256,192,89637,1,8,0:0:0:0:
256,192,89730,1,0,0:0:0:0:
256,192,89918,1,8,0:0:0:0:
256,192,90012,1,8,0:0:0:0:
256,192,90105,1,0,0:0:0:0:
256,192,90199,1,8,0:0:0:0:
256,192,90293,1,8,0:0:0:0:
256,192,90480,1,0,0:0:0:0:
256,192,90668,1,0,0:0:0:0:
256,192,90762,1,8,0:0:0:0:
256,192,90855,1,8,0:0:0:0:
256,192,91043,1,0,0:0:0:0:
256,192,91137,1,8,0:0:0:0:
256,192,91230,1,0,0:0:0:0:
256,192,91324,1,8,0:0:0:0:
256,192,91418,1,8,0:0:0:0:
256,192,91605,1,0,0:0:0:0:
256,192,91793,1,0,0:0:0:0:
256,192,91980,1,4,0:0:0:0:
256,192,92168,1,8,0:0:0:0:
256,192,92262,1,8,0:0:0:0:
256,192,92355,1,0,0:0:0:0:
256,192,92449,1,0,0:0:0:0:
256,192,92543,1,0,0:0:0:0:
256,192,92637,1,8,0:0:0:0:
256,192,92730,1,0,0:0:0:0:
256,192,92918,1,8,0:0:0:0:
256,192,93105,1,0,0:0:0:0:
256,192,93199,1,8,0:0:0:0:
256,192,93293,1,8,0:0:0:0:
256,192,93387,1,8,0:0:0:0:
256,192,93480,1,0,0:0:0:0:
256,192,93668,1,8,0:0:0:0:
256,192,93762,1,0,0:0:0:0:
256,192,93855,1,0,0:0:0:0:
256,192,94043,1,8,0:0:0:0:
256,192,94137,1,8,0:0:0:0:
256,192,94230,1,0,0:0:0:0:
256,192,94324,1,8,0:0:0:0:
256,192,94418,1,8,0:0:0:0:
256,192,94512,1,0,0:0:0:0:
256,192,94605,1,0,0:0:0:0:
256,192,94699,1,8,0:0:0:0:
256,192,94793,1,0,0:0:0:0:
256,192,94980,1,4,0:0:0:0:
256,192,96480,1,12,0:0:0:0:
256,192,96762,1,12,0:0:0:0:
256,192,97043,1,4,0:0:0:0:
256,192,97324,1,12,0:0:0:0:
256,192,97605,1,4,0:0:0:0:
256,192,97980,5,0,0:0:0:0:
256,192,98168,1,8,0:0:0:0:
256,192,98262,1,8,0:0:0:0:
256,192,98355,1,0,0:0:0:0:
256,192,98449,1,8,0:0:0:0:
256,192,98543,1,8,0:0:0:0:
256,192,98730,1,0,0:0:0:0:
256,192,98918,1,8,0:0:0:0:
256,192,99105,1,0,0:0:0:0:
256,192,99199,1,8,0:0:0:0:
256,192,99293,1,8,0:0:0:0:
256,192,99480,1,0,0:0:0:0:
256,192,99668,1,0,0:0:0:0:
256,192,99762,1,0,0:0:0:0:
256,192,99855,1,8,0:0:0:0:
256,192,99949,1,0,0:0:0:0:
256,192,100043,1,0,0:0:0:0:
256,192,100230,1,0,0:0:0:0:
256,192,100324,1,8,0:0:0:0:
256,192,100418,1,8,0:0:0:0:
256,192,100605,1,12,0:0:0:0:
256,192,100980,1,0,0:0:0:0:
256,192,101074,1,0,0:0:0:0:
256,192,101262,1,0,0:0:0:0:
256,192,101355,1,0,0:0:0:0:
256,192,101449,1,8,0:0:0:0:
256,192,101543,1,0,0:0:0:0:
256,192,101637,1,8,0:0:0:0:
256,192,101730,1,0,0:0:0:0:
256,192,101918,1,8,0:0:0:0:
256,192,102105,5,0,0:0:0:0:
256,192,102199,1,8,0:0:0:0:
256,192,102293,1,0,0:0:0:0:
256,192,102387,1,0,0:0:0:0:
256,192,102480,1,0,0:0:0:0:
256,192,102574,1,8,0:0:0:0:
256,192,102668,1,8,0:0:0:0:
256,192,102762,1,8,0:0:0:0:
256,192,102855,1,0,0:0:0:0:
256,192,103043,1,8,0:0:0:0:
256,192,103137,1,8,0:0:0:0:
256,192,103230,1,0,0:0:0:0:
256,192,103418,1,8,0:0:0:0:
256,192,103605,1,0,0:0:0:0:
256,192,103793,1,8,0:0:0:0:
256,192,103980,1,0,0:0:0:0:
256,192,104043,1,0,0:0:0:0:
256,192,104105,1,0,0:0:0:0:
256,192,104168,1,8,0:0:0:0:
256,192,104355,1,0,0:0:0:0:
256,192,104449,1,0,0:0:0:0:
256,192,104637,1,0,0:0:0:0:
256,192,104730,1,0,0:0:0:0:
256,192,104918,1,0,0:0:0:0:
256,192,105012,1,8,0:0:0:0:
256,192,105199,1,8,0:0:0:0:
256,192,105293,1,8,0:0:0:0:
256,192,105387,1,8,0:0:0:0:
256,192,105480,1,0,0:0:0:0:
256,192,105543,1,0,0:0:0:0:
256,192,105605,1,0,0:0:0:0:
256,192,105668,1,8,0:0:0:0:
256,192,105855,1,0,0:0:0:0:
256,192,105949,1,0,0:0:0:0:
256,192,106137,1,0,0:0:0:0:
256,192,106230,1,0,0:0:0:0:
256,192,106418,1,8,0:0:0:0:
256,192,106512,1,0,0:0:0:0:
256,192,106699,1,8,0:0:0:0:
256,192,106793,1,8,0:0:0:0:
256,192,106887,1,8,0:0:0:0:
256,192,106980,1,0,0:0:0:0:
256,192,107043,1,0,0:0:0:0:
256,192,107105,1,0,0:0:0:0:
256,192,107168,1,8,0:0:0:0:
256,192,107262,1,0,0:0:0:0:
256,192,107355,1,8,0:0:0:0:
256,192,107449,1,0,0:0:0:0:
256,192,107543,1,0,0:0:0:0:
256,192,107637,1,8,0:0:0:0:
256,192,107730,1,0,0:0:0:0:
256,192,107793,1,0,0:0:0:0:
256,192,107855,1,0,0:0:0:0:
256,192,107918,1,8,0:0:0:0:
256,192,108012,1,0,0:0:0:0:
256,192,108105,1,0,0:0:0:0:
256,192,108199,1,8,0:0:0:0:
256,192,108293,1,8,0:0:0:0:
256,192,108387,1,8,0:0:0:0:
256,192,108480,1,0,0:0:0:0:
256,192,108574,1,8,0:0:0:0:
256,192,108668,1,8,0:0:0:0:
256,192,108762,1,0,0:0:0:0:
256,192,108855,1,8,0:0:0:0:
256,192,108949,1,8,0:0:0:0:
256,192,109043,1,0,0:0:0:0:
256,192,109230,1,0,0:0:0:0:
256,192,109605,1,8,0:0:0:0:
256,192,109668,1,8,0:0:0:0:
256,192,109730,1,8,0:0:0:0:
256,192,109793,1,8,0:0:0:0:
256,192,109980,1,4,0:0:0:0:
256,192,110168,1,8,0:0:0:0:
256,192,110355,1,0,0:0:0:0:
256,192,110543,1,8,0:0:0:0:
256,192,110918,1,8,0:0:0:0:
256,192,111105,1,0,0:0:0:0:
256,192,111480,1,8,0:0:0:0:
256,192,111668,1,0,0:0:0:0:
256,192,111855,1,8,0:0:0:0:
256,192,112043,1,8,0:0:0:0:
256,192,112418,1,8,0:0:0:0:
256,192,112605,1,0,0:0:0:0:
256,192,112980,1,0,0:0:0:0:
256,192,113168,1,8,0:0:0:0:
256,192,113355,1,0,0:0:0:0:
256,192,113543,1,8,0:0:0:0:
256,192,113918,1,8,0:0:0:0:
256,192,114105,1,0,0:0:0:0:
256,192,114480,1,8,0:0:0:0:
256,192,114668,1,0,0:0:0:0:
256,192,114855,1,8,0:0:0:0:
256,192,114918,1,8,0:0:0:0:
256,192,114980,1,8,0:0:0:0:
256,192,115043,1,8,0:0:0:0:
256,192,115105,1,8,0:0:0:0:
256,192,115168,1,8,0:0:0:0:
256,192,115230,1,0,0:0:0:0:
256,192,115418,1,0,0:0:0:0:
256,192,115480,1,0,0:0:0:0:
256,192,115543,1,0,0:0:0:0:
256,192,115605,1,0,0:0:0:0:
256,192,115793,1,8,0:0:0:0:
256,192,115980,1,8,0:0:0:0:
256,192,116043,1,8,0:0:0:0:
256,192,116105,1,8,0:0:0:0:
256,192,116168,1,0,0:0:0:0:
256,192,116355,1,0,0:0:0:0:
256,192,116449,1,0,0:0:0:0:
256,192,116637,1,0,0:0:0:0:
256,192,116730,1,0,0:0:0:0:
256,192,116918,1,0,0:0:0:0:
256,192,117012,1,0,0:0:0:0:
256,192,117199,1,0,0:0:0:0:
256,192,117293,1,0,0:0:0:0:
256,192,117387,1,0,0:0:0:0:
256,192,117480,1,8,0:0:0:0:
256,192,117543,1,8,0:0:0:0:
256,192,117605,1,8,0:0:0:0:
256,192,117668,1,0,0:0:0:0:
256,192,117855,1,0,0:0:0:0:
256,192,117949,1,0,0:0:0:0:
256,192,118137,1,0,0:0:0:0:
256,192,118230,1,0,0:0:0:0:
256,192,118418,1,0,0:0:0:0:
256,192,118512,1,0,0:0:0:0:
256,192,118699,1,0,0:0:0:0:
256,192,118793,1,0,0:0:0:0:
256,192,118887,1,0,0:0:0:0:
256,192,118980,1,8,0:0:0:0:
256,192,119043,1,8,0:0:0:0:
256,192,119105,1,8,0:0:0:0:
256,192,119168,1,0,0:0:0:0:
256,192,119262,1,0,0:0:0:0:
256,192,119355,1,0,0:0:0:0:
256,192,119449,1,8,0:0:0:0:
256,192,119543,1,8,0:0:0:0:
256,192,119637,1,0,0:0:0:0:
256,192,119730,1,8,0:0:0:0:
256,192,119793,1,8,0:0:0:0:
256,192,119855,1,8,0:0:0:0:
256,192,119918,1,0,0:0:0:0:
256,192,120012,1,0,0:0:0:0:
256,192,120105,1,0,0:0:0:0:
256,192,120199,1,8,0:0:0:0:
256,192,120293,1,0,0:0:0:0:
256,192,120387,1,0,0:0:0:0:
256,192,120480,1,8,0:0:0:0:
256,192,120855,1,0,0:0:0:0:
256,192,121043,1,8,0:0:0:0:
256,192,121230,1,0,0:0:0:0:
256,192,121418,1,0,0:0:0:0:
256,192,121512,1,0,0:0:0:0:
256,192,121605,1,8,0:0:0:0:
256,192,121793,1,8,0:0:0:0:
256,192,121980,5,4,0:0:0:0:
256,192,122355,1,8,0:0:0:0:
256,192,122402,1,8,0:0:0:0:
256,192,122543,1,8,0:0:0:0:
256,192,122590,1,8,0:0:0:0:
256,192,122730,1,8,0:0:0:0:
256,192,122777,1,8,0:0:0:0:
256,192,123105,1,0,0:0:0:0:
256,192,123199,1,8,0:0:0:0:
256,192,123293,1,8,0:0:0:0:
256,192,123387,1,8,0:0:0:0:
256,192,123480,1,8,0:0:0:0:
256,192,123574,1,8,0:0:0:0:
256,192,123668,1,8,0:0:0:0:
256,192,123762,1,8,0:0:0:0:
256,192,123855,1,0,0:0:0:0:
256,192,123949,1,8,0:0:0:0:
256,192,124043,1,8,0:0:0:0:
256,192,124137,1,8,0:0:0:0:
256,192,124230,1,0,0:0:0:0:
256,192,124324,1,8,0:0:0:0:
256,192,124418,1,8,0:0:0:0:
256,192,124512,1,0,0:0:0:0:
256,192,124605,1,8,0:0:0:0:
256,192,124668,1,8,0:0:0:0:
256,192,124730,1,8,0:0:0:0:
256,192,124793,1,8,0:0:0:0:
256,192,124980,1,0,0:0:0:0:
256,192,125027,1,0,0:0:0:0:
256,192,125074,1,0,0:0:0:0:
256,192,125168,1,8,0:0:0:0:
256,192,125262,1,8,0:0:0:0:
256,192,125355,1,0,0:0:0:0:
256,192,125449,1,8,0:0:0:0:
256,192,125543,1,0,0:0:0:0:
256,192,125637,1,8,0:0:0:0:
256,192,125730,1,8,0:0:0:0:
256,192,125918,1,0,0:0:0:0:
256,192,126105,1,8,0:0:0:0:
256,192,126199,1,8,0:0:0:0:
256,192,126293,1,8,0:0:0:0:
256,192,126387,1,8,0:0:0:0:
256,192,126480,1,0,0:0:0:0:
256,192,126527,1,8,0:0:0:0:
256,192,126574,1,8,0:0:0:0:
256,192,126668,1,0,0:0:0:0:
256,192,126762,1,8,0:0:0:0:
256,192,126855,1,8,0:0:0:0:
256,192,126902,1,0,0:0:0:0:
256,192,126949,1,0,0:0:0:0:
256,192,127043,1,8,0:0:0:0:
256,192,127137,1,8,0:0:0:0:
256,192,127230,1,0,0:0:0:0:
256,192,127418,1,12,0:0:0:0:
256,192,127605,1,4,0:0:0:0:
256,192,127793,1,4,0:0:0:0:
256,192,127980,1,12,0:0:0:0:
256,192,128355,1,8,0:0:0:0:
256,192,128402,1,8,0:0:0:0:
256,192,128543,1,8,0:0:0:0:
256,192,128590,1,8,0:0:0:0:
256,192,128730,1,8,0:0:0:0:
256,192,128777,1,8,0:0:0:0:
256,192,129105,1,8,0:0:0:0:
256,192,129199,1,8,0:0:0:0:
256,192,129293,1,0,0:0:0:0:
256,192,129387,1,0,0:0:0:0:
256,192,129480,1,0,0:0:0:0:
256,192,129574,1,8,0:0:0:0:
256,192,129668,1,0,0:0:0:0:
256,192,129762,1,8,0:0:0:0:
256,192,129855,1,0,0:0:0:0:
256,192,129949,1,8,0:0:0:0:
256,192,130043,1,0,0:0:0:0:
256,192,130137,1,0,0:0:0:0:
256,192,130230,1,0,0:0:0:0:
256,192,130324,1,8,0:0:0:0:
256,192,130418,1,0,0:0:0:0:
256,192,130512,1,0,0:0:0:0:
256,192,130605,1,8,0:0:0:0:
256,192,130668,1,8,0:0:0:0:
256,192,130730,1,8,0:0:0:0:
256,192,130793,1,8,0:0:0:0:
256,192,130980,1,0,0:0:0:0:
256,192,131168,1,0,0:0:0:0:
256,192,131262,1,8,0:0:0:0:
256,192,131449,1,0,0:0:0:0:
256,192,131637,1,8,0:0:0:0:
256,192,131730,1,0,0:0:0:0:
256,192,131918,1,0,0:0:0:0:
256,192,132012,1,8,0:0:0:0:
256,192,132105,1,8,0:0:0:0:
256,192,132199,1,0,0:0:0:0:
256,192,132293,1,0,0:0:0:0:
256,192,132387,1,8,0:0:0:0:
256,192,132480,1,0,0:0:0:0:
256,192,132668,1,8,0:0:0:0:
256,192,132762,1,8,0:0:0:0:
256,192,132949,1,8,0:0:0:0:
256,192,133043,1,0,0:0:0:0:
256,192,133230,1,8,0:0:0:0:
256,192,133324,1,8,0:0:0:0:
256,192,133512,1,8,0:0:0:0:
256,192,133605,1,0,0:0:0:0:
256,192,133699,1,8,0:0:0:0:
256,192,133793,1,8,0:0:0:0:
256,192,133980,1,4,0:0:0:0:
256,192,134355,1,8,0:0:0:0:
256,192,134402,1,8,0:0:0:0:
256,192,134543,1,8,0:0:0:0:
256,192,134590,1,8,0:0:0:0:
256,192,134730,1,8,0:0:0:0:
256,192,134777,1,8,0:0:0:0:
256,192,135105,1,8,0:0:0:0:
256,192,135199,1,0,0:0:0:0:
256,192,135293,1,8,0:0:0:0:
256,192,135387,1,8,0:0:0:0:
256,192,135480,1,0,0:0:0:0:
256,192,135574,1,8,0:0:0:0:
256,192,135668,1,8,0:0:0:0:
256,192,135762,1,8,0:0:0:0:
256,192,135855,1,0,0:0:0:0:
256,192,135949,1,0,0:0:0:0:
256,192,136043,1,8,0:0:0:0:
256,192,136137,1,0,0:0:0:0:
256,192,136230,1,8,0:0:0:0:
256,192,136324,1,0,0:0:0:0:
256,192,136418,1,0,0:0:0:0:
256,192,136512,1,0,0:0:0:0:
256,192,136605,1,8,0:0:0:0:
256,192,136668,1,8,0:0:0:0:
256,192,136730,1,8,0:0:0:0:
256,192,136793,1,8,0:0:0:0:
256,192,136980,1,0,0:0:0:0:
256,192,137027,1,0,0:0:0:0:
256,192,137074,1,8,0:0:0:0:
256,192,137168,1,0,0:0:0:0:
256,192,137262,1,8,0:0:0:0:
256,192,137355,1,0,0:0:0:0:
256,192,137449,1,8,0:0:0:0:
256,192,137543,1,0,0:0:0:0:
256,192,137637,1,8,0:0:0:0:
256,192,137730,1,8,0:0:0:0:
256,192,137918,1,8,0:0:0:0:
256,192,138105,1,8,0:0:0:0:
256,192,138199,1,0,0:0:0:0:
256,192,138293,1,8,0:0:0:0:
256,192,138387,1,8,0:0:0:0:
256,192,138480,1,0,0:0:0:0:
256,192,138527,1,0,0:0:0:0:
256,192,138574,1,8,0:0:0:0:
256,192,138668,1,8,0:0:0:0:
256,192,138762,1,0,0:0:0:0:
256,192,138855,1,8,0:0:0:0:
256,192,138902,1,8,0:0:0:0:
256,192,138949,1,0,0:0:0:0:
256,192,139043,1,0,0:0:0:0:
256,192,139137,1,0,0:0:0:0:
256,192,139230,1,8,0:0:0:0:
256,192,139418,1,4,0:0:0:0:
256,192,139605,1,12,0:0:0:0:
256,192,139793,1,12,0:0:0:0:
256,192,139980,1,0,0:0:0:0:
256,192,140074,1,0,0:0:0:0:
256,192,140168,1,8,0:0:0:0:
256,192,140230,1,8,0:0:0:0:
256,192,140293,1,8,0:0:0:0:
256,192,140355,1,0,0:0:0:0:
256,192,140418,1,0,0:0:0:0:
256,192,140480,1,0,0:0:0:0:
256,192,140543,1,0,0:0:0:0:
256,192,140637,1,8,0:0:0:0:
256,192,140730,1,0,0:0:0:0:
256,192,140918,1,0,0:0:0:0:
256,192,141105,1,8,0:0:0:0:
256,192,141199,1,8,0:0:0:0:
256,192,141293,1,0,0:0:0:0:
256,192,141387,1,8,0:0:0:0:
256,192,141480,1,8,0:0:0:0:
256,192,141574,1,8,0:0:0:0:
256,192,141668,1,0,0:0:0:0:
256,192,141762,1,8,0:0:0:0:
256,192,141855,1,0,0:0:0:0:
256,192,141949,1,0,0:0:0:0:
256,192,142043,1,8,0:0:0:0:
256,192,142137,1,8,0:0:0:0:
256,192,142230,1,0,0:0:0:0:
256,192,142324,1,8,0:0:0:0:
256,192,142418,1,0,0:0:0:0:
256,192,142512,1,0,0:0:0:0:
256,192,142605,1,8,0:0:0:0:
256,192,142793,1,0,0:0:0:0:
256,192,142980,1,8,0:0:0:0:
256,192,143168,1,0,0:0:0:0:
256,192,143262,1,8,0:0:0:0:
256,192,143355,1,0,0:0:0:0:
256,192,143543,1,0,0:0:0:0:
256,192,143730,1,8,0:0:0:0:
256,192,143918,1,0,0:0:0:0:
256,192,144012,1,0,0:0:0:0:
256,192,144105,1,8,0:0:0:0:
256,192,144293,1,0,0:0:0:0:
256,192,144480,1,8,0:0:0:0:
256,192,144668,1,0,0:0:0:0:
256,192,144855,1,8,0:0:0:0:
256,192,144902,1,8,0:0:0:0:
256,192,145043,1,0,0:0:0:0:
256,192,145137,1,0,0:0:0:0:
256,192,145230,1,8,0:0:0:0:
256,192,145465,1,8,0:0:0:0:
256,192,145699,1,8,0:0:0:0:
256,192,145980,8,0,157605,0:0:0:0:
256,192,157980,5,4,0:0:0:0:
256,192,158355,1,8,0:0:0:0:
256,192,158730,1,0,0:0:0:0:
256,192,158918,1,0,0:0:0:0:
256,192,159105,1,0,0:0:0:0:
256,192,159293,1,8,0:0:0:0:
256,192,159855,1,8,0:0:0:0:
256,192,160230,1,8,0:0:0:0:
256,192,160418,1,0,0:0:0:0:
256,192,160605,1,8,0:0:0:0:
256,192,161355,1,8,0:0:0:0:
256,192,161730,1,0,0:0:0:0:
256,192,161918,1,0,0:0:0:0:
256,192,162105,1,0,0:0:0:0:
256,192,162293,1,8,0:0:0:0:
256,192,162855,1,8,0:0:0:0:
256,192,163230,1,8,0:0:0:0:
256,192,163418,1,0,0:0:0:0:
256,192,163605,1,0,0:0:0:0:
256,192,163793,1,8,0:0:0:0:
256,192,164355,1,8,0:0:0:0:
256,192,164730,1,8,0:0:0:0:
256,192,164918,1,8,0:0:0:0:
256,192,165105,1,0,0:0:0:0:
256,192,165293,1,8,0:0:0:0:
256,192,165855,1,8,0:0:0:0:
256,192,166230,1,8,0:0:0:0:
256,192,166418,1,8,0:0:0:0:
256,192,166605,1,0,0:0:0:0:
256,192,167355,1,8,0:0:0:0:
256,192,167730,1,8,0:0:0:0:
256,192,167918,1,0,0:0:0:0:
256,192,168105,1,0,0:0:0:0:
256,192,168293,1,8,0:0:0:0:
256,192,168668,1,8,0:0:0:0:
256,192,168855,1,8,0:0:0:0:
256,192,169043,1,0,0:0:0:0:
256,192,169230,1,8,0:0:0:0:
256,192,169418,1,0,0:0:0:0:
256,192,169512,1,0,0:0:0:0:
256,192,169605,1,8,0:0:0:0:
256,192,169793,1,8,0:0:0:0:
256,192,169980,1,4,0:0:0:0:
256,192,170355,1,8,0:0:0:0:
256,192,170543,1,0,0:0:0:0:
256,192,170637,1,0,0:0:0:0:
256,192,170730,1,8,0:0:0:0:
256,192,170918,1,0,0:0:0:0:
256,192,171105,1,0,0:0:0:0:
256,192,171293,1,8,0:0:0:0:
256,192,171480,1,0,0:0:0:0:
256,192,171855,1,0,0:0:0:0:
256,192,172043,1,8,0:0:0:0:
256,192,172137,1,8,0:0:0:0:
256,192,172230,1,0,0:0:0:0:
256,192,172418,1,8,0:0:0:0:
256,192,172605,1,0,0:0:0:0:
256,192,172980,1,0,0:0:0:0:
256,192,173355,1,8,0:0:0:0:
256,192,173543,1,0,0:0:0:0:
256,192,173637,1,0,0:0:0:0:
256,192,173730,1,8,0:0:0:0:
256,192,173918,1,0,0:0:0:0:
256,192,174105,1,0,0:0:0:0:
256,192,174293,1,8,0:0:0:0:
256,192,174480,1,0,0:0:0:0:
256,192,174855,1,0,0:0:0:0:
256,192,175043,1,8,0:0:0:0:
256,192,175137,1,0,0:0:0:0:
256,192,175230,1,0,0:0:0:0:
256,192,175418,1,8,0:0:0:0:
256,192,175605,1,0,0:0:0:0:
256,192,175793,1,8,0:0:0:0:
256,192,175980,1,0,0:0:0:0:
256,192,176355,1,0,0:0:0:0:
256,192,176543,1,0,0:0:0:0:
256,192,176637,1,0,0:0:0:0:
256,192,176730,1,8,0:0:0:0:
256,192,176918,1,0,0:0:0:0:
256,192,177105,1,0,0:0:0:0:
256,192,177293,1,8,0:0:0:0:
256,192,177480,1,0,0:0:0:0:
256,192,177855,1,0,0:0:0:0:
256,192,178043,1,8,0:0:0:0:
256,192,178137,1,8,0:0:0:0:
256,192,178230,1,0,0:0:0:0:
256,192,178418,1,8,0:0:0:0:
256,192,178605,1,0,0:0:0:0:
256,192,178793,1,8,0:0:0:0:
256,192,178980,1,0,0:0:0:0:
256,192,179168,1,0,0:0:0:0:
256,192,179355,1,0,0:0:0:0:
256,192,179543,1,8,0:0:0:0:
256,192,179637,1,8,0:0:0:0:
256,192,179730,1,0,0:0:0:0:
256,192,179918,1,0,0:0:0:0:
256,192,180012,1,0,0:0:0:0:
256,192,180105,1,8,0:0:0:0:
256,192,180293,1,0,0:0:0:0:
256,192,180387,1,8,0:0:0:0:
256,192,180480,1,0,0:0:0:0:
256,192,180574,1,0,0:0:0:0:
256,192,180668,1,8,0:0:0:0:
256,192,180762,1,0,0:0:0:0:
256,192,180855,1,8,0:0:0:0:
256,192,180949,1,0,0:0:0:0:
256,192,181043,1,8,0:0:0:0:
256,192,181137,1,0,0:0:0:0:
256,192,181230,1,8,0:0:0:0:
256,192,181324,1,8,0:0:0:0:
256,192,181418,1,8,0:0:0:0:
256,192,181512,1,8,0:0:0:0:
256,192,181605,1,0,0:0:0:0:
256,192,181980,5,0,0:0:0:0:
256,192,182074,1,8,0:0:0:0:
256,192,182168,1,0,0:0:0:0:
256,192,182262,1,0,0:0:0:0:
256,192,182355,1,8,0:0:0:0:
256,192,182449,1,0,0:0:0:0:
256,192,182543,1,8,0:0:0:0:
256,192,182637,1,8,0:0:0:0:
256,192,182730,1,0,0:0:0:0:
256,192,182918,1,8,0:0:0:0:
256,192,183012,1,0,0:0:0:0:
256,192,183199,1,8,0:0:0:0:
256,192,183293,1,8,0:0:0:0:
256,192,183387,1,8,0:0:0:0:
256,192,183480,1,0,0:0:0:0:
256,192,183668,1,8,0:0:0:0:
256,192,183762,1,8,0:0:0:0:
256,192,183855,1,0,0:0:0:0:
256,192,183949,1,0,0:0:0:0:
256,192,184043,1,8,0:0:0:0:
256,192,184137,1,0,0:0:0:0:
256,192,184230,1,0,0:0:0:0:
256,192,184418,1,8,0:0:0:0:
256,192,184512,1,0,0:0:0:0:
256,192,184699,1,8,0:0:0:0:
256,192,184793,1,0,0:0:0:0:
256,192,184887,1,8,0:0:0:0:
256,192,184980,1,8,0:0:0:0:
256,192,185168,1,0,0:0:0:0:
256,192,185262,1,8,0:0:0:0:
256,192,185449,1,0,0:0:0:0:
256,192,185543,1,8,0:0:0:0:
256,192,185637,1,8,0:0:0:0:
256,192,185730,1,0,0:0:0:0:
256,192,185918,1,0,0:0:0:0:
256,192,186012,1,8,0:0:0:0:
256,192,186199,1,8,0:0:0:0:
256,192,186293,1,0,0:0:0:0:
256,192,186387,1,8,0:0:0:0:
256,192,186480,1,0,0:0:0:0:
256,192,186574,1,8,0:0:0:0:
256,192,186668,1,8,0:0:0:0:
256,192,186762,1,8,0:0:0:0:
256,192,186855,1,0,0:0:0:0:
256,192,186949,1,0,0:0:0:0:
256,192,187043,1,8,0:0:0:0:
256,192,187137,1,0,0:0:0:0:
256,192,187230,1,8,0:0:0:0:
256,192,187418,1,8,0:0:0:0:
256,192,187512,1,8,0:0:0:0:
256,192,187699,1,0,0:0:0:0:
256,192,187793,1,8,0:0:0:0:
256,192,187980,1,0,0:0:0:0:
256,192,188168,1,8,0:0:0:0:
256,192,188262,1,8,0:0:0:0:
256,192,188355,1,0,0:0:0:0:
256,192,188449,1,0,0:0:0:0:
256,192,188543,1,0,0:0:0:0:
256,192,188637,1,8,0:0:0:0:
256,192,188730,1,0,0:0:0:0:
256,192,188918,1,8,0:0:0:0:
256,192,189012,1,0,0:0:0:0:
256,192,189199,1,8,0:0:0:0:
256,192,189293,1,0,0:0:0:0:
256,192,189387,1,0,0:0:0:0:
256,192,189480,1,8,0:0:0:0:
256,192,189668,1,8,0:0:0:0:
256,192,189762,1,8,0:0:0:0:
256,192,189855,1,0,0:0:0:0:
256,192,189949,1,8,0:0:0:0:
256,192,190043,1,8,0:0:0:0:
256,192,190137,1,8,0:0:0:0:
256,192,190230,1,0,0:0:0:0:
256,192,190418,1,0,0:0:0:0:
256,192,190512,1,8,0:0:0:0:
256,192,190699,1,0,0:0:0:0:
256,192,190793,1,8,0:0:0:0:
256,192,190887,1,0,0:0:0:0:
256,192,190980,1,8,0:0:0:0:
256,192,191168,1,0,0:0:0:0:
256,192,191262,1,0,0:0:0:0:
256,192,191355,1,0,0:0:0:0:
256,192,191449,1,8,0:0:0:0:
256,192,191543,1,8,0:0:0:0:
256,192,191637,1,0,0:0:0:0:
256,192,191730,1,0,0:0:0:0:
256,192,191918,1,0,0:0:0:0:
256,192,192012,1,8,0:0:0:0:
256,192,192199,1,0,0:0:0:0:
256,192,192293,1,8,0:0:0:0:
256,192,192387,1,0,0:0:0:0:
256,192,192480,1,8,0:0:0:0:
256,192,192574,1,8,0:0:0:0:
256,192,192668,1,0,0:0:0:0:
256,192,192762,1,8,0:0:0:0:
256,192,192855,1,8,0:0:0:0:
256,192,193043,1,0,0:0:0:0:
256,192,193137,1,8,0:0:0:0:
256,192,193230,1,8,0:0:0:0:
256,192,193324,1,8,0:0:0:0:
256,192,193418,1,0,0:0:0:0:
256,192,193512,1,8,0:0:0:0:
256,192,193605,1,0,0:0:0:0:
256,192,193699,1,8,0:0:0:0:
256,192,193793,1,8,0:0:0:0:
256,192,193980,1,4,0:0:0:0:
256,192,194168,1,8,0:0:0:0:
256,192,194262,1,8,0:0:0:0:
256,192,194355,1,0,0:0:0:0:
256,192,194449,1,0,0:0:0:0:
256,192,194543,1,8,0:0:0:0:
256,192,194637,1,0,0:0:0:0:
256,192,194730,1,8,0:0:0:0:
256,192,194918,1,8,0:0:0:0:
256,192,195012,1,0,0:0:0:0:
256,192,195199,1,0,0:0:0:0:
256,192,195293,1,8,0:0:0:0:
256,192,195387,1,8,0:0:0:0:
256,192,195480,1,0,0:0:0:0:
256,192,195668,1,0,0:0:0:0:
256,192,195762,1,8,0:0:0:0:
256,192,195855,1,8,0:0:0:0:
256,192,195949,1,8,0:0:0:0:
256,192,196043,1,0,0:0:0:0:
256,192,196137,1,8,0:0:0:0:
256,192,196230,1,8,0:0:0:0:
256,192,196418,1,0,0:0:0:0:
256,192,196512,1,0,0:0:0:0:
256,192,196699,1,0,0:0:0:0:
256,192,196793,1,0,0:0:0:0:
256,192,196887,1,8,0:0:0:0:
256,192,196980,1,0,0:0:0:0:
256,192,197074,1,0,0:0:0:0:
256,192,197168,1,0,0:0:0:0:
256,192,197262,1,8,0:0:0:0:
256,192,197449,1,8,0:0:0:0:
256,192,197543,1,0,0:0:0:0:
256,192,197637,1,8,0:0:0:0:
256,192,197730,1,8,0:0:0:0:
256,192,197918,1,0,0:0:0:0:
256,192,198012,1,8,0:0:0:0:
256,192,198199,1,0,0:0:0:0:
256,192,198293,1,8,0:0:0:0:
256,192,198387,1,8,0:0:0:0:
256,192,198480,1,0,0:0:0:0:
256,192,198574,1,0,0:0:0:0:
256,192,198668,1,8,0:0:0:0:
256,192,198762,1,8,0:0:0:0:
256,192,198855,1,0,0:0:0:0:
256,192,198949,1,8,0:0:0:0:
256,192,199043,1,0,0:0:0:0:
256,192,199137,1,0,0:0:0:0:
256,192,199230,1,8,0:0:0:0:
256,192,199324,1,0,0:0:0:0:
256,192,199418,1,8,0:0:0:0:
256,192,199512,1,8,0:0:0:0:
256,192,199605,1,0,0:0:0:0:
256,192,199699,1,8,0:0:0:0:
256,192,199793,1,8,0:0:0:0:
256,192,199887,1,0,0:0:0:0:
256,192,199980,1,0,0:0:0:0:
256,192,200168,1,0,0:0:0:0:
256,192,200262,1,0,0:0:0:0:
256,192,200355,1,8,0:0:0:0:
256,192,200449,1,0,0:0:0:0:
256,192,200543,1,8,0:0:0:0:
256,192,200637,1,8,0:0:0:0:
256,192,200730,1,0,0:0:0:0:
256,192,200918,1,8,0:0:0:0:
256,192,201012,1,0,0:0:0:0:
256,192,201105,1,8,0:0:0:0:
256,192,201199,1,8,0:0:0:0:
256,192,201293,1,0,0:0:0:0:
256,192,201387,1,8,0:0:0:0:
256,192,201480,1,0,0:0:0:0:
256,192,201668,1,0,0:0:0:0:
256,192,201762,1,0,0:0:0:0:
256,192,201949,1,8,0:0:0:0:
256,192,202043,1,0,0:0:0:0:
256,192,202137,1,0,0:0:0:0:
256,192,202230,1,8,0:0:0:0:
256,192,202324,1,8,0:0:0:0:
256,192,202418,1,0,0:0:0:0:
256,192,202512,1,8,0:0:0:0:
256,192,202699,1,0,0:0:0:0:
256,192,202793,1,8,0:0:0:0:
256,192,202887,1,8,0:0:0:0:
256,192,202980,1,0,0:0:0:0:
256,192,203168,1,8,0:0:0:0:
256,192,203262,1,8,0:0:0:0:
256,192,203355,1,0,0:0:0:0:
256,192,203543,1,8,0:0:0:0:
256,192,203730,5,0,0:0:0:0:
256,192,203824,1,8,0:0:0:0:
256,192,203918,1,8,0:0:0:0:
256,192,204012,1,0,0:0:0:0:
256,192,204105,1,0,0:0:0:0:
256,192,204199,1,8,0:0:0:0:
256,192,204293,1,0,0:0:0:0:
256,192,204480,12,0,205793,0:0:0:0:
256,192,205980,5,8,0:0:0:0:
256,192,206168,1,0,0:0:0:0:
256,192,206355,1,0,0:0:0:0:
256,192,206543,1,8,0:0:0:0:
256,192,206730,1,0,0:0:0:0:
256,192,206918,1,0,0:0:0:0:
256,192,207105,1,0,0:0:0:0:
256,192,207293,1,8,0:0:0:0:
256,192,207480,1,8,0:0:0:0:
256,192,207668,1,0,0:0:0:0:
256,192,207855,1,0,0:0:0:0:
256,192,208043,1,8,0:0:0:0:
256,192,208230,1,0,0:0:0:0:
256,192,208418,1,0,0:0:0:0:
256,192,208605,1,8,0:0:0:0:
256,192,208699,1,8,0:0:0:0:
256,192,208793,1,0,0:0:0:0:
256,192,208887,1,0,0:0:0:0:
256,192,208980,1,8,0:0:0:0:
256,192,209168,1,8,0:0:0:0:
256,192,209355,1,0,0:0:0:0:
256,192,209543,1,8,0:0:0:0:
256,192,209730,1,0,0:0:0:0:
256,192,209918,1,0,0:0:0:0:
256,192,210105,1,8,0:0:0:0:
256,192,210293,1,8,0:0:0:0:
256,192,210480,1,0,0:0:0:0:
256,192,210668,1,0,0:0:0:0:
256,192,210762,1,8,0:0:0:0:
256,192,210855,1,8,0:0:0:0:
256,192,211043,1,0,0:0:0:0:
256,192,211230,1,8,0:0:0:0:
256,192,211324,1,8,0:0:0:0:
256,192,211418,1,0,0:0:0:0:
256,192,211605,1,0,0:0:0:0:
256,192,211793,1,8,0:0:0:0:
192,128,211980,2,0,L|128:128,10,52.5000020027161
256,192,213105,1,0,0:0:0:0:
256,192,213293,1,0,0:0:0:0:
320,128,213480,2,0,L|384:128,10,52.5000020027161
256,192,214605,1,4,0:0:0:0:
256,192,214980,1,8,0:0:0:0:
256,192,215043,1,8,0:0:0:0:
256,192,215105,1,8,0:0:0:0:
256,192,215168,1,8,0:0:0:0:
256,192,215262,1,0,0:0:0:0:
256,192,215355,1,0,0:0:0:0:
256,192,215449,1,0,0:0:0:0:
256,192,215543,1,8,0:0:0:0:
256,192,215637,1,0,0:0:0:0:
256,192,215730,1,0,0:0:0:0:
256,192,215824,1,8,0:0:0:0:
256,192,215918,1,8,0:0:0:0:
256,192,216012,1,0,0:0:0:0:
256,192,216105,1,8,0:0:0:0:
256,192,216199,1,0,0:0:0:0:
256,192,216293,1,0,0:0:0:0:
256,192,216480,5,4,0:0:0:0:
256,192,216855,5,12,0:0:0:0:
256,192,217230,5,4,0:0:0:0:
256,192,217418,1,0,0:0:0:0:
256,192,217512,1,8,0:0:0:0:
256,192,217605,1,8,0:0:0:0:
256,192,217699,1,8,0:0:0:0:
256,192,217793,1,0,0:0:0:0:
256,192,217887,1,8,0:0:0:0:
256,192,217980,1,0,0:0:0:0:
256,192,218168,5,8,0:0:0:0:
256,192,218262,1,0,0:0:0:0:
256,192,218355,1,8,0:0:0:0:
256,192,218449,1,8,0:0:0:0:
256,192,218543,1,0,0:0:0:0:
256,192,218637,1,8,0:0:0:0:
256,192,218730,1,0,0:0:0:0:
256,192,218918,1,0,0:0:0:0:
256,192,219012,1,8,0:0:0:0:
256,192,219199,1,0,0:0:0:0:
256,192,219293,1,8,0:0:0:0:
256,192,219387,1,8,0:0:0:0:
256,192,219480,1,0,0:0:0:0:
256,192,219668,1,8,0:0:0:0:
256,192,219762,1,0,0:0:0:0:
256,192,219855,1,8,0:0:0:0:
256,192,219949,1,8,0:0:0:0:
256,192,220043,1,8,0:0:0:0:
256,192,220137,1,0,0:0:0:0:
256,192,220230,1,8,0:0:0:0:
256,192,220418,1,0,0:0:0:0:
256,192,220512,1,8,0:0:0:0:
256,192,220699,1,0,0:0:0:0:
256,192,220793,1,8,0:0:0:0:
256,192,220887,1,8,0:0:0:0:
256,192,220980,1,8,0:0:0:0:
256,192,221168,1,0,0:0:0:0:
256,192,221262,1,8,0:0:0:0:
256,192,221449,1,0,0:0:0:0:
256,192,221543,1,8,0:0:0:0:
256,192,221637,1,8,0:0:0:0:
256,192,221730,1,0,0:0:0:0:
256,192,221918,1,0,0:0:0:0:
256,192,222012,1,8,0:0:0:0:
256,192,222199,1,8,0:0:0:0:
256,192,222293,1,0,0:0:0:0:
256,192,222387,1,8,0:0:0:0:
256,192,222480,1,0,0:0:0:0:
256,192,222574,1,0,0:0:0:0:
256,192,222668,1,8,0:0:0:0:
256,192,222762,1,8,0:0:0:0:
256,192,222855,1,0,0:0:0:0:
256,192,222949,1,8,0:0:0:0:
256,192,223043,1,0,0:0:0:0:
256,192,223137,1,0,0:0:0:0:
256,192,223230,1,8,0:0:0:0:
256,192,223324,1,0,0:0:0:0:
256,192,223418,1,8,0:0:0:0:
256,192,223512,1,8,0:0:0:0:
256,192,223605,1,0,0:0:0:0:
256,192,223699,1,8,0:0:0:0:
256,192,223793,1,8,0:0:0:0:
256,192,223887,1,8,0:0:0:0:
256,192,223980,1,0,0:0:0:0:
256,192,224168,1,8,0:0:0:0:
256,192,224262,1,8,0:0:0:0:
256,192,224355,1,0,0:0:0:0:
256,192,224449,1,8,0:0:0:0:
256,192,224543,1,0,0:0:0:0:
256,192,224637,1,0,0:0:0:0:
256,192,224730,1,0,0:0:0:0:
256,192,224918,1,0,0:0:0:0:
256,192,225012,1,0,0:0:0:0:
256,192,225199,1,0,0:0:0:0:
256,192,225293,1,8,0:0:0:0:
256,192,225387,1,8,0:0:0:0:
256,192,225480,1,0,0:0:0:0:
256,192,225668,1,8,0:0:0:0:
256,192,225762,1,8,0:0:0:0:
256,192,225855,1,0,0:0:0:0:
256,192,225949,1,8,0:0:0:0:
256,192,226043,1,8,0:0:0:0:
256,192,226137,1,0,0:0:0:0:
256,192,226230,1,0,0:0:0:0:
256,192,226418,1,0,0:0:0:0:
256,192,226512,1,8,0:0:0:0:
256,192,226699,1,8,0:0:0:0:
256,192,226793,1,8,0:0:0:0:
256,192,226887,1,0,0:0:0:0:
256,192,226980,1,8,0:0:0:0:
256,192,227168,1,0,0:0:0:0:
256,192,227262,1,8,0:0:0:0:
256,192,227355,1,0,0:0:0:0:
256,192,227449,1,0,0:0:0:0:
256,192,227543,1,8,0:0:0:0:
256,192,227637,1,0,0:0:0:0:
256,192,227730,1,0,0:0:0:0:
256,192,227918,1,8,0:0:0:0:
256,192,228012,1,0,0:0:0:0:
256,192,228199,1,0,0:0:0:0:
256,192,228293,1,8,0:0:0:0:
256,192,228387,1,0,0:0:0:0:
256,192,228480,1,8,0:0:0:0:
256,192,228543,1,0,0:0:0:0:
256,192,228605,1,0,0:0:0:0:
256,192,228668,1,8,0:0:0:0:
256,192,228762,1,0,0:0:0:0:
256,192,228855,1,0,0:0:0:0:
256,192,228918,1,8,0:0:0:0:
256,192,228980,1,8,0:0:0:0:
256,192,229043,1,0,0:0:0:0:
256,192,229137,1,8,0:0:0:0:
256,192,229230,1,8,0:0:0:0:
256,192,229293,1,8,0:0:0:0:
256,192,229355,1,0,0:0:0:0:
256,192,229418,1,8,0:0:0:0:
256,192,229512,1,0,0:0:0:0:
256,192,229605,1,8,0:0:0:0:
256,192,229699,1,8,0:0:0:0:
256,192,229793,1,8,0:0:0:0:
256,192,229887,1,0,0:0:0:0:
256,192,229980,1,0,0:0:0:0:
256,192,230168,1,12,0:0:0:0:
256,192,230355,1,4,0:0:0:0:
256,192,230543,1,8,0:0:0:0:
256,192,230637,1,8,0:0:0:0:
256,192,230730,1,0,0:0:0:0:
256,192,230824,1,0,0:0:0:0:
256,192,230918,1,8,0:0:0:0:
256,192,231105,1,0,0:0:0:0:
256,192,231293,1,0,0:0:0:0:
256,192,231387,1,0,0:0:0:0:
256,192,231480,1,8,0:0:0:0:
256,192,231668,1,8,0:0:0:0:
256,192,231762,1,8,0:0:0:0:
256,192,231855,1,0,0:0:0:0:
256,192,231949,1,0,0:0:0:0:
256,192,232043,1,8,0:0:0:0:
256,192,232137,1,8,0:0:0:0:
256,192,232230,1,8,0:0:0:0:
256,192,232418,1,0,0:0:0:0:
256,192,232512,1,8,0:0:0:0:
256,192,232699,1,0,0:0:0:0:
256,192,232793,1,8,0:0:0:0:
256,192,232887,1,8,0:0:0:0:
256,192,232980,1,0,0:0:0:0:
256,192,233168,1,0,0:0:0:0:
256,192,233262,1,8,0:0:0:0:
256,192,233449,1,8,0:0:0:0:
256,192,233543,1,0,0:0:0:0:
256,192,233637,1,8,0:0:0:0:
256,192,233730,1,0,0:0:0:0:
256,192,233918,1,0,0:0:0:0:
256,192,234012,1,8,0:0:0:0:
256,192,234199,1,0,0:0:0:0:
256,192,234293,1,0,0:0:0:0:
256,192,234387,1,0,0:0:0:0:
256,192,234480,1,8,0:0:0:0:
256,192,234668,1,0,0:0:0:0:
256,192,234715,1,0,0:0:0:0:
256,192,234762,1,0,0:0:0:0:
256,192,234808,1,0,0:0:0:0:
256,192,234855,1,8,0:0:0:0:
256,192,235043,1,0,0:0:0:0:
256,192,235090,1,0,0:0:0:0:
256,192,235137,1,0,0:0:0:0:
256,192,235183,1,0,0:0:0:0:
256,192,235230,1,8,0:0:0:0:
256,192,235418,1,0,0:0:0:0:
256,192,235512,1,0,0:0:0:0:
256,192,235605,1,8,0:0:0:0:
256,192,235699,1,0,0:0:0:0:
256,192,235793,1,8,0:0:0:0:
256,192,235887,1,8,0:0:0:0:
256,192,235980,1,0,0:0:0:0:
256,192,236043,1,0,0:0:0:0:
256,192,236105,1,0,0:0:0:0:
256,192,236168,1,0,0:0:0:0:
256,192,236355,1,0,0:0:0:0:
256,192,236543,1,8,0:0:0:0:
256,192,236637,1,0,0:0:0:0:
256,192,236824,1,0,0:0:0:0:
256,192,236918,1,0,0:0:0:0:
256,192,237012,1,0,0:0:0:0:
256,192,237105,1,8,0:0:0:0:
256,192,237199,1,8,0:0:0:0:
256,192,237293,1,0,0:0:0:0:
256,192,237387,1,8,0:0:0:0:
256,192,237480,1,8,0:0:0:0:
256,192,237543,1,0,0:0:0:0:
256,192,237605,1,0,0:0:0:0:
256,192,237668,1,8,0:0:0:0:
256,192,237855,1,0,0:0:0:0:
256,192,237949,1,0,0:0:0:0:
256,192,238137,1,0,0:0:0:0:
256,192,238230,1,8,0:0:0:0:
256,192,238418,1,0,0:0:0:0:
256,192,238512,1,8,0:0:0:0:
256,192,238605,1,8,0:0:0:0:
256,192,238699,1,0,0:0:0:0:
256,192,238793,1,8,0:0:0:0:
256,192,238887,1,8,0:0:0:0:
256,192,238980,1,0,0:0:0:0:
256,192,239043,1,0,0:0:0:0:
256,192,239105,1,0,0:0:0:0:
256,192,239168,1,8,0:0:0:0:
256,192,239355,1,0,0:0:0:0:
256,192,239543,1,8,0:0:0:0:
256,192,239605,1,8,0:0:0:0:
256,192,239668,1,8,0:0:0:0:
256,192,239730,1,0,0:0:0:0:
256,192,239918,1,8,0:0:0:0:
256,192,240012,1,8,0:0:0:0:
256,192,240105,1,0,0:0:0:0:
256,192,240199,1,0,0:0:0:0:
256,192,240293,1,8,0:0:0:0:
256,192,240668,1,8,0:0:0:0:
256,192,240762,1,8,0:0:0:0:
256,192,240949,1,8,0:0:0:0:
256,192,241043,1,8,0:0:0:0:
256,192,241230,1,8,0:0:0:0:
256,192,241324,1,8,0:0:0:0:
256,192,241512,1,8,0:0:0:0:
256,192,241605,1,8,0:0:0:0:
256,192,241668,1,0,0:0:0:0:
256,192,241730,1,0,0:0:0:0:
256,192,241793,1,8,0:0:0:0:
256,192,241887,1,8,0:0:0:0:
256,192,241980,1,0,0:0:0:0:
256,192,242168,1,8,0:0:0:0:
256,192,242262,1,8,0:0:0:0:
256,192,242355,1,8,0:0:0:0:
256,192,242449,1,0,0:0:0:0:
256,192,242543,1,8,0:0:0:0:
256,192,242637,1,0,0:0:0:0:
256,192,242730,1,0,0:0:0:0:
256,192,242918,1,0,0:0:0:0:
256,192,243012,1,8,0:0:0:0:
256,192,243105,1,0,0:0:0:0:
256,192,243199,1,8,0:0:0:0:
256,192,243293,1,8,0:0:0:0:
256,192,243480,1,0,0:0:0:0:
256,192,243668,1,8,0:0:0:0:
256,192,243762,1,0,0:0:0:0:
256,192,243855,1,8,0:0:0:0:
256,192,243949,1,0,0:0:0:0:
256,192,244043,1,0,0:0:0:0:
256,192,244137,1,0,0:0:0:0:
256,192,244230,1,8,0:0:0:0:
256,192,244418,1,0,0:0:0:0:
256,192,244512,1,0,0:0:0:0:
256,192,244605,1,8,0:0:0:0:
256,192,244793,1,0,0:0:0:0:
256,192,244887,1,0,0:0:0:0:
256,192,244980,1,8,0:0:0:0:
256,192,245074,1,0,0:0:0:0:
256,192,245168,1,0,0:0:0:0:
256,192,245262,1,0,0:0:0:0:
256,192,245355,1,12,0:0:0:0:
256,192,245637,1,8,0:0:0:0:
256,192,245730,1,0,0:0:0:0:
256,192,245918,1,0,0:0:0:0:
256,192,246012,1,8,0:0:0:0:
256,192,246105,1,0,0:0:0:0:
256,192,246199,1,0,0:0:0:0:
256,192,246293,1,8,0:0:0:0:
256,192,246480,1,0,0:0:0:0:
256,192,246668,1,8,0:0:0:0:
256,192,246762,1,0,0:0:0:0:
256,192,246949,1,8,0:0:0:0:
256,192,247043,1,8,0:0:0:0:
256,192,247230,1,0,0:0:0:0:
256,192,247324,1,8,0:0:0:0:
256,192,247418,1,0,0:0:0:0:
256,192,247605,1,0,0:0:0:0:
256,192,247793,1,8,0:0:0:0:
256,192,247980,1,0,0:0:0:0:
256,192,248168,1,0,0:0:0:0:
256,192,248262,1,0,0:0:0:0:
256,192,248355,1,8,0:0:0:0:
256,192,248449,1,0,0:0:0:0:
256,192,248543,1,0,0:0:0:0:
256,192,248637,1,0,0:0:0:0:
256,192,248730,1,8,0:0:0:0:
256,192,248918,1,8,0:0:0:0:
256,192,249012,1,8,0:0:0:0:
256,192,249105,1,0,0:0:0:0:
256,192,249199,1,8,0:0:0:0:
256,192,249293,1,0,0:0:0:0:
256,192,249480,1,0,0:0:0:0:
256,192,249668,1,0,0:0:0:0:
256,192,249762,1,0,0:0:0:0:
256,192,249855,1,8,0:0:0:0:
256,192,250043,1,0,0:0:0:0:
256,192,250230,1,8,0:0:0:0:
256,192,250324,1,0,0:0:0:0:
256,192,250418,1,8,0:0:0:0:
256,192,250512,1,8,0:0:0:0:
256,192,250605,1,4,0:0:0:0:
256,192,250980,1,12,0:0:0:0:
256,192,251355,1,0,0:0:0:0:
256,192,251543,1,0,0:0:0:0:
256,192,251637,1,0,0:0:0:0:
256,192,251730,1,8,0:0:0:0:
256,192,251918,1,0,0:0:0:0:
256,192,252105,1,0,0:0:0:0:
256,192,252199,1,0,0:0:0:0:
256,192,252293,1,8,0:0:0:0:
256,192,252480,1,8,0:0:0:0:
256,192,252574,1,8,0:0:0:0:
256,192,252668,1,8,0:0:0:0:
256,192,252762,1,8,0:0:0:0:
256,192,252855,1,8,0:0:0:0:
256,192,253043,1,0,0:0:0:0:
256,192,253230,1,8,0:0:0:0:
256,192,253418,1,0,0:0:0:0:
256,192,253512,1,0,0:0:0:0:
256,192,253699,1,0,0:0:0:0:
256,192,253793,1,8,0:0:0:0:
256,192,253980,1,4,0:0:0:0:
256,192,256980,5,12,0:0:0:0:
256,192,257168,1,12,0:0:0:0:
256,192,258480,1,0,0:0:0:0:
256,192,258574,1,0,0:0:0:0:
256,192,258668,1,8,0:0:0:0:
256,192,258762,1,0,0:0:0:0:
256,192,258855,1,0,0:0:0:0:
256,192,258949,1,8,0:0:0:0:
256,192,259043,1,8,0:0:0:0:
256,192,259137,1,0,0:0:0:0:
256,192,259230,1,8,0:0:0:0:
256,192,259324,1,0,0:0:0:0:
256,192,259418,1,0,0:0:0:0:
256,192,259512,1,8,0:0:0:0:
256,192,259605,1,0,0:0:0:0:
256,192,259793,1,0,0:0:0:0:
256,192,259980,5,0,0:0:0:0:
256,192,260074,1,0,0:0:0:0:
256,192,260168,1,0,0:0:0:0:
256,192,260262,1,8,0:0:0:0:
256,192,260355,1,8,0:0:0:0:
256,192,260449,1,0,0:0:0:0:
256,192,260543,1,0,0:0:0:0:
256,192,260637,1,8,0:0:0:0:
256,192,260730,1,0,0:0:0:0:
256,192,260824,1,8,0:0:0:0:
256,192,260918,1,0,0:0:0:0:
256,192,261012,1,0,0:0:0:0:
256,192,261105,1,8,0:0:0:0:
256,192,261293,1,8,0:0:0:0:
256,192,261480,1,0,0:0:0:0:
256,192,261574,1,0,0:0:0:0:
256,192,261668,1,0,0:0:0:0:
256,192,261762,1,0,0:0:0:0:
256,192,261855,1,8,0:0:0:0:
256,192,261949,1,8,0:0:0:0:
256,192,262043,1,0,0:0:0:0:
256,192,262137,1,8,0:0:0:0:
256,192,262230,1,8,0:0:0:0:
256,192,262324,1,8,0:0:0:0:
256,192,262418,1,0,0:0:0:0:
256,192,262512,1,0,0:0:0:0:
256,192,262605,1,8,0:0:0:0:
256,192,262793,1,8,0:0:0:0:
224,96,262980,2,0,L|288:96,14,52.5000020027161
256,192,264480,1,0,0:0:0:0:
256,192,264855,1,0,0:0:0:0:
256,192,265230,1,8,0:0:0:0:
256,192,265418,1,8,0:0:0:0:
256,192,265512,1,0,0:0:0:0:
256,192,265605,1,8,0:0:0:0:
256,192,265980,5,0,0:0:0:0:
256,192,266168,1,8,0:0:0:0:
256,192,266262,1,0,0:0:0:0:
256,192,266355,1,0,0:0:0:0:
256,192,266449,1,8,0:0:0:0:
256,192,266543,1,8,0:0:0:0:
256,192,266637,1,8,0:0:0:0:
256,192,266730,1,0,0:0:0:0:
256,192,266918,1,8,0:0:0:0:
256,192,267105,1,0,0:0:0:0:
256,192,267199,1,0,0:0:0:0:
256,192,267293,1,8,0:0:0:0:
256,192,267387,1,8,0:0:0:0:
256,192,267480,1,0,0:0:0:0:
256,192,267668,1,0,0:0:0:0:
256,192,267762,1,0,0:0:0:0:
256,192,267855,1,0,0:0:0:0:
256,192,268230,1,0,0:0:0:0:
256,192,268512,1,0,0:0:0:0:
256,192,268793,1,0,0:0:0:0:
256,192,268980,1,12,0:0:0:0:
256,192,269355,1,4,0:0:0:0:
256,192,269730,1,12,0:0:0:0:
256,192,270105,1,4,0:0:0:0:
256,192,270480,1,0,0:0:0:0:
256,192,270543,1,0,0:0:0:0:
256,192,270605,1,0,0:0:0:0:
256,192,270668,1,8,0:0:0:0:
256,192,270762,1,8,0:0:0:0:
256,192,270855,1,8,0:0:0:0:
256,192,270918,1,0,0:0:0:0:
256,192,270980,1,0,0:0:0:0:
256,192,271043,1,8,0:0:0:0:
256,192,271137,1,0,0:0:0:0:
256,192,271230,1,8,0:0:0:0:
256,192,271293,1,0,0:0:0:0:
256,192,271355,1,8,0:0:0:0:
256,192,271418,1,8,0:0:0:0:
256,192,271512,1,0,0:0:0:0:
256,192,271605,1,8,0:0:0:0:
256,192,271668,1,8,0:0:0:0:
256,192,271730,1,8,0:0:0:0:
256,192,271793,1,0,0:0:0:0:
256,192,271887,1,8,0:0:0:0:
256,192,271980,1,0,0:0:0:0:
256,192,272105,1,8,0:0:0:0:
256,192,272230,1,8,0:0:0:0:
256,192,272355,1,4,0:0:0:0:
256,192,272480,1,8,0:0:0:0:
256,192,272605,1,8,0:0:0:0:
256,192,272730,1,0,0:0:0:0:
256,192,272855,1,8,0:0:0:0:
256,192,272980,1,0,0:0:0:0:
256,192,273105,1,0,0:0:0:0:
256,192,273230,1,0,0:0:0:0:
256,192,273355,1,8,0:0:0:0:
256,192,273480,1,0,0:0:0:0:
256,192,273605,1,0,0:0:0:0:
256,192,273730,1,8,0:0:0:0:
256,192,273855,1,0,0:0:0:0:
256,192,273980,1,8,0:0:0:0:
256,192,274105,1,8,0:0:0:0:
256,192,274230,1,0,0:0:0:0:
256,192,274324,1,8,0:0:0:0:
256,192,274418,1,0,0:0:0:0:
256,192,274512,1,0,0:0:0:0:
256,192,274605,1,8,0:0:0:0:
256,192,274699,1,0,0:0:0:0:
256,192,274793,1,0,0:0:0:0:
256,192,274887,1,0,0:0:0:0:
256,192,274980,1,8,0:0:0:0:
256,192,275168,1,8,0:0:0:0:
256,192,275449,1,8,0:0:0:0:
256,192,275543,1,0,0:0:0:0:
256,192,275730,1,0,0:0:0:0:
256,192,276012,1,0,0:0:0:0:
256,192,276105,1,0,0:0:0:0:
256,192,276293,1,8,0:0:0:0:
256,192,276480,1,0,0:0:0:0:
256,192,276668,1,8,0:0:0:0:
256,192,276762,1,8,0:0:0:0:
256,192,276855,1,8,0:0:0:0:
256,192,277043,1,8,0:0:0:0:
256,192,277137,1,8,0:0:0:0:
256,192,277230,1,0,0:0:0:0:
256,192,277324,1,8,0:0:0:0:
256,192,277418,1,8,0:0:0:0:
256,192,277512,1,0,0:0:0:0:
256,192,277605,1,0,0:0:0:0:
256,192,277793,1,8,0:0:0:0:
256,192,277980,1,0,0:0:0:0:
256,192,278168,1,0,0:0:0:0:
256,192,278355,1,8,0:0:0:0:
256,192,278512,1,8,0:0:0:0:
256,192,278637,1,8,0:0:0:0:
256,192,278762,1,8,0:0:0:0:
256,192,278855,1,8,0:0:0:0:
256,192,278941,1,8,0:0:0:0:
256,192,279012,1,8,0:0:0:0:
224,96,279105,2,0,L|256:96,8,27.1250002069473
256,192,279668,5,0,0:0:0:0:
256,192,280230,1,0,0:0:0:0:
256,192,280324,1,8,0:0:0:0:
256,192,280512,1,8,0:0:0:0:
256,192,280605,1,0,0:0:0:0:
256,192,280699,1,0,0:0:0:0:
256,192,280793,1,8,0:0:0:0:
256,192,280887,1,8,0:0:0:0:
256,192,280980,1,0,0:0:0:0:
256,192,281168,1,8,0:0:0:0:
256,192,281262,1,8,0:0:0:0:
256,192,281355,1,0,0:0:0:0:
256,192,281449,1,8,0:0:0:0:
256,192,281543,1,8,0:0:0:0:
256,192,281637,1,0,0:0:0:0:
256,192,281730,1,0,0:0:0:0:
256,192,281918,1,0,0:0:0:0:
256,192,282012,1,0,0:0:0:0:
256,192,282105,1,0,0:0:0:0:
256,192,282199,1,8,0:0:0:0:
256,192,282293,1,8,0:0:0:0:
256,192,282387,1,0,0:0:0:0:
256,192,282480,1,8,0:0:0:0:
256,192,282543,1,0,0:0:0:0:
256,192,282605,1,0,0:0:0:0:
256,192,282668,1,8,0:0:0:0:
256,192,282762,1,0,0:0:0:0:
256,192,282855,1,0,0:0:0:0:
256,192,282918,1,0,0:0:0:0:
256,192,282980,1,8,0:0:0:0:
256,192,283043,1,0,0:0:0:0:
256,192,283137,1,8,0:0:0:0:
256,192,283230,1,0,0:0:0:0:
256,192,283293,1,0,0:0:0:0:
256,192,283355,1,8,0:0:0:0:
256,192,283418,1,0,0:0:0:0:
256,192,283512,1,8,0:0:0:0:
256,192,283605,1,8,0:0:0:0:
256,192,283668,1,8,0:0:0:0:
256,192,283730,1,8,0:0:0:0:
256,192,283793,1,8,0:0:0:0:
256,192,283855,1,0,0:0:0:0:
256,192,283980,1,0,0:0:0:0:
256,192,284105,1,0,0:0:0:0:
256,192,284230,1,8,0:0:0:0:
256,192,284480,1,0,0:0:0:0:
256,192,284730,1,8,0:0:0:0:
256,192,284855,1,8,0:0:0:0:
256,192,284980,1,0,0:0:0:0:
256,192,285105,1,0,0:0:0:0:
256,192,285230,1,8,0:0:0:0:
256,192,285355,1,0,0:0:0:0:
256,192,285480,1,0,0:0:0:0:
256,192,285730,1,8,0:0:0:0:
256,192,285980,1,8,0:0:0:0:
256,192,286230,1,8,0:0:0:0:
256,192,286355,1,8,0:0:0:0:
256,192,286480,1,0,0:0:0:0:
256,192,286605,1,0,0:0:0:0:
256,192,286793,1,8,0:0:0:0:
256,192,286980,1,0,0:0:0:0:
256,192,287074,1,0,0:0:0:0:
256,192,287168,1,8,0:0:0:0:
256,192,287230,1,8,0:0:0:0:
256,192,287293,1,8,0:0:0:0:
256,192,287355,1,0,0:0:0:0:
256,192,287449,1,0,0:0:0:0:
256,192,287543,1,8,0:0:0:0:
256,192,287605,1,8,0:0:0:0:
256,192,287668,1,8,0:0:0:0:
256,192,287730,1,0,0:0:0:0:
256,192,287918,1,8,0:0:0:0:
256,192,288012,1,0,0:0:0:0:
256,192,288199,1,0,0:0:0:0:
256,192,288293,1,8,0:0:0:0:
256,192,288480,5,0,0:0:0:0:
256,192,288762,1,0,0:0:0:0:
256,192,288855,1,8,0:0:0:0:
256,192,289043,1,0,0:0:0:0:
256,192,289230,1,8,0:0:0:0:
256,192,289324,1,0,0:0:0:0:
256,192,289418,1,8,0:0:0:0:
256,192,289512,1,8,0:0:0:0:
256,192,289605,1,0,0:0:0:0:
256,192,289793,1,0,0:0:0:0:
256,192,289980,1,12,0:0:0:0:
256,192,290355,1,8,0:0:0:0:
256,192,290730,1,8,0:0:0:0:
256,192,290918,1,0,0:0:0:0:
256,192,291105,1,8,0:0:0:0:
256,192,291293,1,0,0:0:0:0:
256,192,291855,1,8,0:0:0:0:
256,192,292230,1,0,0:0:0:0:
256,192,292418,1,0,0:0:0:0:
256,192,292605,1,8,0:0:0:0:
256,192,293355,1,8,0:0:0:0:
256,192,293730,1,8,0:0:0:0:
256,192,293918,1,0,0:0:0:0:
256,192,294105,1,8,0:0:0:0:
256,192,294293,1,0,0:0:0:0:
256,192,294855,1,8,0:0:0:0:
256,192,295230,1,0,0:0:0:0:
256,192,295418,1,8,0:0:0:0:
256,192,295605,1,8,0:0:0:0:
256,192,295793,1,0,0:0:0:0:
256,192,296355,1,8,0:0:0:0:
256,192,296730,1,8,0:0:0:0:
256,192,296918,1,0,0:0:0:0:
256,192,297105,1,8,0:0:0:0:
256,192,297293,1,0,0:0:0:0:
256,192,297855,1,8,0:0:0:0:
256,192,298230,1,0,0:0:0:0:
256,192,298418,1,0,0:0:0:0:
256,192,298605,1,8,0:0:0:0:
256,192,299355,1,8,0:0:0:0:
256,192,299730,1,8,0:0:0:0:
256,192,299918,1,0,0:0:0:0:
256,192,300105,1,0,0:0:0:0:
256,192,300293,1,8,0:0:0:0:
256,192,300668,1,8,0:0:0:0:
256,192,300855,1,8,0:0:0:0:
256,192,301043,1,0,0:0:0:0:
256,192,301230,1,8,0:0:0:0:
256,192,301418,1,0,0:0:0:0:
256,192,301512,1,0,0:0:0:0:
256,192,301605,1,8,0:0:0:0:
256,192,301793,1,8,0:0:0:0:
256,192,301980,1,4,0:0:0:0:
256,192,302355,1,8,0:0:0:0:
256,192,302730,1,8,0:0:0:0:
256,192,302918,1,0,0:0:0:0:
256,192,303105,1,8,0:0:0:0:
256,192,303293,1,0,0:0:0:0:
256,192,303855,1,8,0:0:0:0:
256,192,304230,1,0,0:0:0:0:
256,192,304418,1,0,0:0:0:0:
256,192,304605,1,8,0:0:0:0:
256,192,305355,1,8,0:0:0:0:
256,192,305730,1,8,0:0:0:0:
256,192,305918,1,0,0:0:0:0:
256,192,306105,1,8,0:0:0:0:
256,192,306293,1,0,0:0:0:0:
256,192,306855,1,8,0:0:0:0:
256,192,307230,1,8,0:0:0:0:
256,192,307418,1,0,0:0:0:0:
256,192,307605,1,0,0:0:0:0:
256,192,307793,1,8,0:0:0:0:
256,192,308355,1,8,0:0:0:0:
256,192,308730,1,8,0:0:0:0:
256,192,308918,1,0,0:0:0:0:
256,192,309105,1,8,0:0:0:0:
256,192,309293,1,0,0:0:0:0:
256,192,309855,1,8,0:0:0:0:
256,192,310230,1,8,0:0:0:0:
256,192,310418,1,8,0:0:0:0:
256,192,310605,1,0,0:0:0:0:
256,192,311355,1,8,0:0:0:0:
256,192,311730,1,8,0:0:0:0:
256,192,311918,1,0,0:0:0:0:
256,192,312105,1,0,0:0:0:0:
256,192,312293,1,8,0:0:0:0:
256,192,312480,12,0,315480,0:0:0:0:
