osu file format v14

[General]
AudioFilename: audio.mp3
AudioLeadIn: 0
PreviewTime: 216484
Countdown: 0
SampleSet: Soft
StackLeniency: 0.7
Mode: 2
LetterboxInBreaks: 0
WidescreenStoryboard: 0

[Editor]
Bookmarks: 1984,13984,25984,37984,49984,61984,73984,85984,97984,109984,121984,133984,145984,157984,169984,181984,193984,205984,217984,229984,241984,253984,265984,277984,289984,301984,312296
DistanceSpacing: 1.1
BeatDivisor: 4
GridSize: 8
TimelineZoom: 2.700002

[Metadata]
Title:Hypnotize
TitleUnicode:Hypnotize
Artist:Camellia vs. lapix
ArtistUnicode:かめりあ vs. lapix
Creator:Seija
Version:Galactic Journey
Source:
Tags:L + GALAXY BURST エグジットチューンズ株式会社 EXIT TUNES Inc. EDP HiTECH NINJA Cametek KamelCamellia 大箭将也 Masaya Oya Dubcore PsyStyle Hi-tech Trap
BeatmapID:1882706
BeatmapSetID:901704

[Difficulty]
HPDrainRate:6
CircleSize:4.3
OverallDifficulty:9.6
ApproachRate:9.6
SliderMultiplier:2
SliderTickRate:2

[Events]
//Background and Video events
0,0,"soft-bg.jpg",0,0
//Break Periods
2,32184,37475
2,254184,256475
//Storyboard Layer 0 (Background)
//Storyboard Layer 1 (Fail)
//Storyboard Layer 2 (Pass)
//Storyboard Layer 3 (Foreground)
//Storyboard Sound Samples

[TimingPoints]
1984,375,4,2,1,60,1,0
1984,-200,4,2,1,60,0,0
13984,-100,4,2,1,80,0,0
49984,-66.6666666666667,4,2,2,80,0,0
55796,-100,4,2,2,80,0,0
59171,-100,4,2,2,60,0,0
60484,-66.6666666666667,4,2,1,80,0,0
61609,-100,4,2,1,80,0,0
61984,-100,4,2,2,80,0,1
73984,-50,4,2,2,80,0,0
74359,-100,4,2,2,80,0,1
82984,-66.6666666666667,4,2,2,80,0,1
84484,-100,4,2,2,80,0,1
85984,-66.6666666666667,4,2,2,80,0,0
87390,-100,4,2,2,80,0,0
87859,-66.6666666666667,4,2,2,80,0,0
88234,-100,4,2,2,80,0,0
88984,-66.6666666666667,4,2,2,80,0,0
95734,-100,4,2,2,80,0,0
96484,-66.6666666666667,4,2,2,80,0,0
103234,-40,4,2,2,80,0,0
103984,-66.6666666666667,4,2,2,80,0,0
114484,-100,4,2,2,80,0,0
119171,-66.6666666666667,4,2,2,80,0,0
121984,375,3,2,2,60,1,0
121984,-66.6666666666667,3,2,2,60,0,0
122359,-100,4,2,2,80,0,0
123109,375,4,2,2,80,1,1
123109,-66.6666666666667,4,2,2,80,0,1
126109,375,5,2,2,80,1,1
126109,-66.6666666666667,4,2,2,80,0,1
127984,375,3,2,2,80,1,0
127984,-66.6666666666667,4,2,2,80,0,0
129109,375,4,2,2,80,1,1
129109,-66.6666666666667,4,2,2,80,0,1
132109,375,5,2,2,80,1,1
132109,-66.6666666666667,4,2,2,80,0,1
133984,375,3,2,2,80,1,0
133984,-66.6666666666667,4,2,2,80,0,0
135109,375,4,2,2,80,1,1
135109,-66.6666666666667,4,2,2,80,0,1
138109,375,5,2,2,80,1,1
138109,-66.6666666666667,4,2,2,80,0,1
139984,375,3,2,2,80,1,1
139984,-66.6666666666667,4,2,2,80,0,1
141109,375,4,2,2,80,1,1
141109,-66.6666666666667,4,2,2,80,0,1
144109,375,5,2,2,80,1,1
144109,-66.6666666666667,4,2,2,80,0,1
145984,375,4,2,1,60,1,0
145984,-333.333333333333,4,2,1,60,0,0
150484,-333.333333333333,4,2,1,50,0,0
154984,-333.333333333333,4,2,1,40,0,0
157984,-100,4,2,2,80,0,0
169984,-100,4,2,2,90,0,0
181984,-100,4,2,2,90,0,0
193984,-66.6666666666667,4,2,2,90,0,0
205984,-100,4,2,1,80,0,0
213109,-66.6666666666667,4,2,1,90,0,0
216484,-50,4,2,2,80,0,0
216859,-33.3333333333333,4,2,1,100,0,0
217234,-50,4,2,2,80,0,0
217515,-100,4,2,1,80,0,0
217984,-66.6666666666667,4,2,1,90,0,1
240296,-80,4,2,1,90,0,0
241984,-57.1428571428571,4,2,1,90,0,1
242171,-66.6666666666667,4,2,1,90,0,1
243484,-57.1428571428571,4,2,1,90,0,1
243671,-66.6666666666667,4,2,1,90,0,1
244609,-57.1428571428571,4,2,1,90,0,1
244890,-66.6666666666667,4,2,1,90,0,1
245359,-57.1428571428571,4,2,1,90,0,1
245734,-66.6666666666667,4,2,1,90,0,1
253984,-100,4,2,1,90,0,0
258859,-66.6666666666667,4,2,1,90,0,0
259984,-66.6666666666667,4,2,1,90,0,1
261109,-66.6666666666667,4,2,1,90,0,0
261484,-66.6666666666667,4,2,1,90,0,1
262609,-66.6666666666667,4,2,1,90,0,0
262984,-66.6666666666667,4,2,1,80,0,1
264484,-66.6666666666667,4,2,1,80,0,0
265984,-66.6666666666667,4,2,2,80,0,1
268984,-66.6666666666667,4,2,2,80,0,0
271984,-66.6666666666667,4,2,1,80,0,0
272359,-66.6666666666667,4,2,2,80,0,1
274234,-66.6666666666667,4,2,1,80,0,1
276484,-66.6666666666667,4,2,1,80,0,0
277984,-100,4,2,1,80,0,0
278359,342.857142857143,4,2,1,70,1,0
278530,461.538461538462,4,2,1,70,1,0
278645,500,4,2,1,70,1,0
278770,387.096774193548,4,2,1,70,1,0
278866,342.857142857143,4,2,1,70,1,0
278951,324.324324324324,4,2,1,70,1,0
279032,300,4,2,1,70,1,0
279107,266.666666666667,4,2,1,70,1,0
279173,226.415094339623,4,2,1,70,1,0
279229,184.615384615385,4,2,1,70,1,0
279275,171.428571428571,4,2,1,60,1,0
279489,375,4,2,1,70,1,0
280239,375,4,2,1,80,1,0
280239,-66.6666666666667,4,2,1,80,0,0
280989,375,4,2,2,80,1,1
280989,-66.6666666666667,4,2,2,80,0,1
283989,250,4,2,2,70,1,0
283989,-100,4,2,2,70,0,0
286984,375,4,2,1,80,1,1
286984,-66.6666666666667,4,2,1,80,0,1
288484,-100,4,2,1,70,0,0
289984,-100,4,2,1,60,0,0
301984,-100,4,2,1,50,0,0
305359,-100,4,2,1,40,0,0
308354,-100,4,2,1,20,0,0
312484,-100,4,2,1,10,0,0

[Colours]
Combo1 : 243,209,90
Combo2 : 211,180,205
Combo3 : 53,58,255
Combo4 : 100,210,230

[HitObjects]
90,69,1984,6,0,B|82:190|250:234|250:234|372:187|314:83|199:113|253:235|253:235|410:245|457:333,1,750,2|0,0:0|0:0,0:0:0:0:
240,335,4984,6,0,P|182:335|248:161,1,350,2|0,0:0|0:0,0:0:0:0:
437,98,6484,6,0,L|80:94,1,350,2|0,0:0|0:0,0:0:0:0:
280,95,7984,6,0,B|309:19|424:24|475:90|436:165|410:228|327:210|327:210|325:255|325:255|309:212|309:212|301:255|301:255|290:151|189:131|120:182|130:220,1,750,2|0,0:0|0:0,0:0:0:0:
330,199,10984,6,0,P|428:215|316:341,1,350,2|0,0:0|0:0,0:0:0:0:
134,348,12484,6,0,P|91:287|131:230,1,150,2|0,0:0|0:0,0:0:0:0:
352,208,13234,2,0,L|424:209,1,50
234,126,13609,2,0,L|173:125,1,50
457,117,13984,6,0,P|477:180|448:211,1,100,6|0,0:0|0:0,0:0:0:0:
268,192,14359,2,0,L|270:306,1,100
325,291,14640,1,0,0:0:0:0:
383,300,14734,2,0,L|236:302,1,100
376,231,15109,1,0,0:0:0:0:
248,233,15296,1,0,0:0:0:0:
424,200,15484,6,0,P|453:288|397:303,1,150
345,297,15859,2,0,L|476:297,1,100
388,277,16140,1,0,0:0:0:0:
316,256,16234,2,0,P|285:211|328:168,1,100
467,155,16609,2,0,P|508:223|450:252,1,150
195,227,16984,6,0,P|160:276|203:313,1,100,6|0,0:0|0:0,0:0:0:0:
317,305,17359,1,0,0:0:0:0:
176,260,17546,2,0,L|140:209,2,50
311,270,17921,1,0,0:0:0:0:
169,317,18109,2,0,L|60:313,1,100
233,236,18484,6,0,L|373:233,1,100
194,169,18859,1,0,0:0:0:0:
295,108,19046,1,0,0:0:0:0:
238,105,19140,1,0,0:0:0:0:
182,105,19234,1,0,0:0:0:0:
295,70,19421,1,0,0:0:0:0:
160,79,19609,2,0,L|154:186,1,100
411,184,19984,6,0,L|512:234,1,100,6|0,0:0|0:0,0:0:0:0:
311,270,20359,2,0,L|428:257,1,100,2|0,0:0|0:0,0:0:0:0:
469,295,20640,1,0,0:0:0:0:
220,215,20734,2,0,L|100:195,1,100,2|0,0:0|0:0,0:0:0:0:
277,131,21109,2,0,L|395:120,1,100,2|0,0:0|0:0,0:0:0:0:
70,216,21484,6,0,L|53:98,1,100,2|0,0:0|0:0,0:0:0:0:
223,112,21859,2,0,L|108:91,1,100,2|0,0:0|0:0,0:0:0:0:
54,130,22140,1,0,0:0:0:0:
253,189,22234,2,0,L|358:181,1,100,2|0,0:0|0:0,0:0:0:0:
169,250,22609,2,0,L|31:247,1,100,2|0,0:0|0:0,0:0:0:0:
381,110,22984,5,6,0:0:0:0:
433,189,23171,1,2,0:0:0:0:
387,273,23359,1,2,0:0:0:0:
292,273,23546,1,2,0:0:0:0:
203,224,23734,1,2,0:0:0:0:
340,157,23921,1,2,0:0:0:0:
142,336,24109,1,2,0:0:0:0:
390,349,24296,2,0,L|391:323,2,25,2|0|0,0:0|0:0|0:0,0:0:0:0:
186,328,24484,5,2,0:0:0:0:
315,305,24671,1,0,0:0:0:0:
186,328,24859,1,2,0:0:0:0:
315,305,25046,1,0,0:0:0:0:
186,328,25234,1,2,0:0:0:0:
315,305,25421,1,0,0:0:0:0:
64,187,25609,1,2,0:0:0:0:
24,167,25702,1,2,0:0:0:0:
28,150,25796,1,2,0:0:0:0:
77,148,25890,1,2,0:0:0:0:
385,147,25984,5,6,0:0:0:0:
256,192,26171,12,0,31984,0:0:0:0:
148,279,37984,6,0,L|36:273,1,100,6|0,0:0|0:0,0:0:0:0:
188,175,38359,2,0,L|287:164,1,100,2|0,0:0|0:0,0:0:0:0:
167,259,38734,2,0,L|110:170,1,100,2|0,0:0|0:0,0:0:0:0:
263,126,39109,2,0,L|366:122,1,100,2|0,0:0|0:0,0:0:0:0:
95,272,39484,5,2,0:0:0:0:
16,207,39671,1,0,0:0:0:0:
62,124,39859,1,2,0:0:0:0:
158,112,40046,1,0,0:0:0:0:
319,112,40234,1,2,0:0:0:0:
226,190,40421,1,0,0:0:0:0:
385,210,40609,1,2,0:0:0:0:
402,303,40796,1,0,0:0:0:0:
98,309,40984,6,0,L|92:173,1,100,2|0,0:0|0:0,0:0:0:0:
223,178,41359,2,0,L|256:110,2,50,2|0|0,0:0|0:0|0:0,0:0:0:0:
70,211,41734,2,0,P|64:270|112:295,1,100,2|0,0:0|0:0,0:0:0:0:
170,293,42015,1,0,0:0:0:0:
237,263,42109,2,0,L|118:257,1,100,2|0,0:0|0:0,0:0:0:0:
380,203,42484,6,0,L|510:207,1,100,2|0,0:0|0:0,0:0:0:0:
300,280,42859,2,0,L|179:280,1,100,2|0,0:0|0:0,0:0:0:0:
260,254,43140,1,0,0:0:0:0:
484,218,43234,2,0,L|469:97,1,100,2|0,0:0|0:0,0:0:0:0:
391,116,43515,1,0,0:0:0:0:
195,150,43609,2,0,L|55:149,1,100,2|0,0:0|0:0,0:0:0:0:
368,182,43984,6,0,P|387:239|361:248,1,100,6|0,0:0|0:0,0:0:0:0:
300,254,44265,2,0,L|412:250,1,100,2|0,0:0|0:0,0:0:0:0:
333,218,44546,2,0,L|248:218,1,50,2|0,0:0|0:0,0:0:0:0:
433,160,44734,2,0,P|471:219|422:240,1,100,2|0,0:0|0:0,0:0:0:0:
378,249,45015,2,0,L|248:251,1,100,2|0,0:0|0:0,0:0:0:0:
327,224,45296,1,2,0:0:0:0:
190,231,45484,5,2,0:0:0:0:
314,159,45671,2,0,L|244:160,1,50
51,168,45859,2,0,P|42:246|74:260,1,100,2|0,0:0|0:0,0:0:0:0:
231,261,46234,2,0,L|341:261,1,100,2|0,0:0|0:0,0:0:0:0:
129,170,46609,2,0,L|3:168,1,100,2|0,0:0|0:0,0:0:0:0:
321,124,46984,6,0,L|460:124,1,100,2|0,0:0|0:0,0:0:0:0:
230,192,47265,2,0,P|205:220|261:261,1,100,2|0,0:0|0:0,0:0:0:0:
295,260,47546,2,0,L|345:260,1,50,2|0,0:0|0:0,0:0:0:0:
189,288,47734,2,0,P|141:234|185:215,1,100,2|0,0:0|0:0,0:0:0:0:
211,209,48015,2,0,L|328:214,1,100,2|0,0:0|0:0,0:0:0:0:
101,24,48296,6,0,P|55:82|396:93,1,800,6|0,0:0|0:0,0:0:0:0:
110,297,49984,6,0,L|228:140,2,150.000005722046,2|0|2,0:0|0:0|0:0,0:0:0:0:
261,318,50546,2,0,P|316:249|263:198,1,150.000005722046,0|2,0:0|0:0,0:0:0:0:
109,238,50921,2,0,P|51:197|200:84,1,300.000011444092
333,174,51484,6,0,L|214:313,2,150.000005722046,2|0|2,0:0|0:0|0:0,0:0:0:0:
133,174,52046,2,0,P|97:258|132:282,1,150.000005722046,0|2,0:0|0:0,0:0:0:0:
275,209,52421,2,0,P|364:302|231:358,1,300.000011444092
59,331,52984,6,0,L|174:180,2,150.000005722046,2|0|2,0:0|0:0|0:0,0:0:0:0:
251,338,53546,2,0,P|296:272|230:226,1,150.000005722046,0|2,0:0|0:0,0:0:0:0:
100,175,53921,2,0,L|375:326,1,300.000011444092
193,333,54484,6,0,L|276:181,2,150.000005722046,2|0|2,0:0|0:0|0:0,0:0:0:0:
374,266,55046,2,0,L|381:93,1,150.000005722046,0|2,0:0|0:0,0:0:0:0:
179,114,55421,2,0,P|76:175|212:188,1,300.000011444092
379,205,55984,5,4,0:0:0:0:
401,222,56030,1,0,0:0:0:0:
392,255,56077,1,0,0:0:0:0:
370,264,56124,1,0,0:0:0:0:
337,263,56171,1,2,0:0:0:0:
184,286,56359,1,2,0:0:0:0:
353,257,56452,1,10,0:0:0:0:
253,252,56640,1,2,0:0:0:0:
407,193,56734,1,10,0:0:0:0:
317,176,56921,1,2,0:0:0:0:
424,153,57015,1,10,0:0:0:0:
182,147,57202,2,0,L|144:188,2,50,2|2|2,0:0|0:0|0:0,0:0:0:0:
266,150,57484,5,6,0:0:0:0:
298,164,57530,1,0,0:0:0:0:
302,196,57577,1,0,0:0:0:0:
283,221,57624,1,0,0:0:0:0:
255,227,57671,1,2,0:0:0:0:
135,229,57859,1,2,0:0:0:0:
303,240,57952,1,10,0:0:0:0:
213,272,58140,1,2,0:0:0:0:
364,321,58234,1,10,0:0:0:0:
294,291,58421,1,2,0:0:0:0:
397,273,58515,1,10,0:0:0:0:
146,200,58702,1,2,0:0:0:0:
213,193,58796,1,2,0:0:0:0:
278,186,58890,1,2,0:0:0:0:
62,75,58984,5,6,0:0:0:0:
37,96,59030,1,0,0:0:0:0:
44,122,59077,1,0,0:0:0:0:
75,123,59124,1,0,0:0:0:0:
126,130,59171,2,0,L|194:129,1,50,2|2,0:0|0:0,0:0:0:0:
252,165,59359,2,0,L|251:240,1,50,2|2,0:0|0:0,0:0:0:0:
175,234,59546,2,0,L|88:231,1,50,2|2,0:0|0:0,0:0:0:0:
386,114,59734,5,6,0:0:0:0:
422,125,59780,1,0,0:0:0:0:
432,153,59827,1,0,0:0:0:0:
403,171,59874,1,0,0:0:0:0:
349,181,59921,2,0,L|277:179,1,50,2|2,0:0|0:0,0:0:0:0:
232,214,60109,2,0,L|237:298,1,50,2|2,0:0|0:0,0:0:0:0:
315,272,60296,2,0,L|389:273,1,50,2|2,0:0|0:0,0:0:0:0:
147,246,60484,6,0,L|321:190,2,150.000005722046,2|0|2,0:0|0:0|0:0,0:0:0:0:
411,108,61046,2,0,P|492:165|363:286,1,300.000011444092,2|2,0:0|0:0,0:0:0:0:
310,300,61515,1,0,0:0:0:0:
226,297,61609,2,0,L|224:214,1,50,10|0,0:0|0:0,0:0:0:0:
421,209,61796,2,0,L|505:210,1,50,2|0,0:0|0:0,0:0:0:0:
194,296,61984,6,0,L|188:182,1,100,6|0,0:0|0:0,0:0:0:0:
263,179,62265,1,0,0:0:0:0:
334,168,62359,2,0,L|475:167,1,100,2|0,0:0|0:0,0:0:0:0:
248,100,62734,1,2,0:0:0:0:
310,95,62827,1,0,0:0:0:0:
370,92,62921,1,0,0:0:0:0:
212,178,63109,2,0,L|183:226,2,50,2|0|0,0:0|0:0|0:0,0:0:0:0:
481,270,63484,6,0,L|343:267,1,100,2|0,0:0|0:0,0:0:0:0:
300,222,63765,1,0,0:0:0:0:
377,177,63859,2,0,L|497:179,1,100,2|0,0:0|0:0,0:0:0:0:
216,175,64234,2,0,L|217:101,1,50,2|0,0:0|0:0,0:0:0:0:
314,172,64421,2,0,L|316:102,1,50
115,93,64609,2,0,P|92:133|153:178,1,100,2|0,0:0|0:0,0:0:0:0:
204,186,64890,1,0,0:0:0:0:
415,166,64984,6,0,L|423:295,1,100,2|0,0:0|0:0,0:0:0:0:
340,275,65265,1,0,0:0:0:0:
255,262,65359,2,0,L|386:255,1,100,2|0,0:0|0:0,0:0:0:0:
421,290,65640,1,0,0:0:0:0:
208,245,65734,2,0,L|183:122,1,100,2|0,0:0|0:0,0:0:0:0:
269,128,66015,1,0,0:0:0:0:
104,214,66109,2,0,L|17:160,1,100,2|0,0:0|0:0,0:0:0:0:
100,138,66390,1,0,0:0:0:0:
426,107,66484,6,0,L|425:181,1,50,6|0,0:0|0:0,0:0:0:0:
332,193,66671,2,0,L|333:257,1,50
427,260,66859,1,10,0:0:0:0:
445,275,66905,1,0,0:0:0:0:
430,287,66952,1,0,0:0:0:0:
400,293,66999,1,0,0:0:0:0:
315,302,67046,2,0,L|231:302,1,50
316,254,67234,6,0,L|387:256,1,50,2|0,0:0|0:0,0:0:0:0:
168,208,67421,2,0,L|77:203,1,50
361,205,67609,2,0,L|359:141,1,50,10|0,0:0|0:0,0:0:0:0:
276,143,67796,2,0,L|195:140,1,50,2|0,0:0|0:0,0:0:0:0:
443,81,67984,6,0,P|477:163|459:172,1,100,6|0,0:0|0:0,0:0:0:0:
430,174,68265,1,0,0:0:0:0:
202,231,68359,2,0,L|325:233,1,100,2|0,0:0|0:0,0:0:0:0:
134,177,68734,2,0,L|281:177,1,100,2|0,0:0|0:0,0:0:0:0:
309,225,69015,1,0,0:0:0:0:
90,252,69109,2,0,L|52:129,1,100,2|0,0:0|0:0,0:0:0:0:
137,138,69390,1,0,0:0:0:0:
325,143,69484,6,0,L|195:135,1,100,2|0,0:0|0:0,0:0:0:0:
156,179,69765,1,0,0:0:0:0:
330,262,69859,2,0,L|330:178,1,50,2|0,0:0|0:0,0:0:0:0:
235,197,70046,2,0,L|232:126,1,50
422,124,70234,2,0,P|457:188|423:205,1,100,2|0,0:0|0:0,0:0:0:0:
381,205,70515,1,0,0:0:0:0:
211,226,70609,2,0,P|195:161|217:148,1,100,2|0,0:0|0:0,0:0:0:0:
290,149,70890,1,0,0:0:0:0:
72,198,70984,5,10,0:0:0:0:
211,194,71171,1,2,0:0:0:0:
220,189,71218,1,2,0:0:0:0:
214,180,71265,1,2,0:0:0:0:
46,229,71359,2,0,P|52:135|79:128,1,100,10|0,0:0|0:0,0:0:0:0:
131,130,71640,1,2,0:0:0:0:
332,136,71734,1,10,0:0:0:0:
159,183,71921,1,2,0:0:0:0:
384,182,72015,1,10,0:0:0:0:
205,154,72296,1,2,0:0:0:0:
361,159,72484,6,0,L|433:162,2,50,2|0|0,0:0|0:0|0:0,0:0:0:0:
202,218,72765,1,2,0:0:0:0:
263,212,72859,1,0,0:0:0:0:
326,209,72952,1,0,0:0:0:0:
131,183,73046,1,2,0:0:0:0:
48,188,73140,2,0,L|49:112,1,50
241,118,73327,1,2,0:0:0:0:
311,117,73421,2,0,L|313:194,1,50
143,184,73609,2,0,L|141:245,1,50,10|0,0:0|0:0,0:0:0:0:
338,211,73796,2,0,L|345:293,1,50,2|0,0:0|0:0,0:0:0:0:
156,224,73984,6,0,L|399:215,1,200,6|0,0:0|0:0,0:0:0:0:
162,147,74359,2,0,L|40:147,1,100,2|0,0:0|0:0,0:0:0:0:
134,133,74640,1,0,0:0:0:0:
306,122,74734,2,0,L|309:228,1,100,2|0,0:0|0:0,0:0:0:0:
126,254,75109,2,0,L|3:254,1,100,2|0,0:0|0:0,0:0:0:0:
280,285,75484,5,2,0:0:0:0:
368,277,75577,1,0,0:0:0:0:
280,285,75671,1,0,0:0:0:0:
192,292,75765,1,0,0:0:0:0:
380,196,75859,2,0,L|488:186,1,100,2|0,0:0|0:0,0:0:0:0:
403,172,76140,1,0,0:0:0:0:
180,211,76234,2,0,L|158:102,1,100,2|0,0:0|0:0,0:0:0:0:
244,100,76515,1,0,0:0:0:0:
47,145,76609,2,0,L|27:181,2,25,2|0|0,0:0|0:0|0:0,0:0:0:0:
210,146,76796,2,0,L|292:146,1,50,2|0,0:0|0:0,0:0:0:0:
176,201,76984,5,2,0:0:0:0:
364,186,77077,1,10,0:0:0:0:
251,192,77265,1,2,0:0:0:0:
428,172,77359,1,10,0:0:0:0:
270,118,77546,2,0,L|208:117,1,50,2|0,0:0|0:0,0:0:0:0:
420,150,77734,2,0,L|529:152,1,100,2|0,0:0|0:0,0:0:0:0:
451,124,78015,1,0,0:0:0:0:
238,135,78109,2,0,L|226:253,1,100,2|0,0:0|0:0,0:0:0:0:
390,234,78484,6,0,L|398:258,2,25,2|0|0,0:0|0:0|0:0,0:0:0:0:
193,233,78671,2,0,L|163:234,2,25
288,228,78859,2,0,L|286:139,1,50,2|0,0:0|0:0,0:0:0:0:
200,151,79046,2,0,L|143:152,1,50
379,139,79234,6,0,L|376:216,1,50,2|0,0:0|0:0,0:0:0:0:
272,229,79421,2,0,L|216:229,1,50
429,311,79609,2,0,L|487:311,1,50,2|0,0:0|0:0,0:0:0:0:
229,314,79796,2,0,L|161:317,1,50
372,221,79984,5,2,0:0:0:0:
396,203,80030,1,0,0:0:0:0:
377,180,80077,1,0,0:0:0:0:
346,178,80124,1,0,0:0:0:0:
284,177,80171,1,0,0:0:0:0:
247,170,80218,1,0,0:0:0:0:
232,146,80265,1,0,0:0:0:0:
256,126,80312,1,0,0:0:0:0:
398,108,80359,6,0,L|508:106,1,100,14|0,0:0|0:0,0:0:0:0:
432,90,80640,1,0,0:0:0:0:
262,190,80734,2,0,L|386:187,1,100,2|0,0:0|0:0,0:0:0:0:
202,318,81109,2,0,L|201:257,1,50,2|0,0:0|0:0,0:0:0:0:
291,243,81296,2,0,L|289:181,1,50,2|0,0:0|0:0,0:0:0:0:
132,265,81484,5,2,0:0:0:0:
95,244,81530,1,0,0:0:0:0:
91,211,81577,1,0,0:0:0:0:
131,200,81624,1,0,0:0:0:0:
188,193,81671,1,0,0:0:0:0:
222,174,81718,1,0,0:0:0:0:
233,137,81765,1,0,0:0:0:0:
184,115,81812,1,0,0:0:0:0:
57,124,81859,6,0,L|199:117,1,100,14|0,0:0|0:0,0:0:0:0:
235,157,82140,1,0,0:0:0:0:
61,273,82234,2,0,L|58:169,1,100,2|0,0:0|0:0,0:0:0:0:
228,185,82609,1,2,0:0:0:0:
309,184,82702,1,0,0:0:0:0:
228,185,82796,1,0,0:0:0:0:
154,189,82890,1,0,0:0:0:0:
354,276,82984,6,0,L|156:271,1,150.000005722046,6|10,0:0|0:0,0:0:0:0:
409,219,83452,2,0,L|463:163,1,75.0000028610231,2|10,0:0|0:0,0:0:0:0:
201,86,83734,2,0,L|367:104,1,150.000005722046,2|0,0:0|0:0,0:0:0:0:
289,140,84015,1,2,0:0:0:0:
73,169,84109,2,0,L|76:319,1,150.000005722046,10|2,0:0|0:0,0:0:0:0:
291,319,84484,5,6,0:0:0:0:
351,289,84577,1,0,0:0:0:0:
352,229,84671,1,0,0:0:0:0:
293,202,84765,1,0,0:0:0:0:
231,165,84859,1,2,0:0:0:0:
303,148,84952,1,0,0:0:0:0:
374,137,85046,1,0,0:0:0:0:
445,122,85140,1,0,0:0:0:0:
223,84,85234,6,0,L|158:86,1,50,2|0,0:0|0:0,0:0:0:0:
439,172,85421,2,0,L|441:238,1,50,2|0,0:0|0:0,0:0:0:0:
250,251,85609,2,0,L|249:314,1,50,2|0,0:0|0:0,0:0:0:0:
62,235,85796,2,0,L|61:173,1,50,2|0,0:0|0:0,0:0:0:0:
347,206,85984,6,0,L|160:214,1,150.000005722046,6|0,0:0|0:0,0:0:0:0:
264,251,86265,1,0,0:0:0:0:
341,252,86359,1,2,0:0:0:0:
420,251,86452,1,0,0:0:0:0:
420,251,86546,1,0,0:0:0:0:
341,252,86640,1,0,0:0:0:0:
33,236,86734,2,0,L|111:237,3,75.0000028610231,2|0|0|0,0:0|0:0|0:0|0:0,0:0:0:0:
332,190,87109,2,0,L|153:194,1,150.000005722046,2|0,0:0|0:0,0:0:0:0:
259,173,87390,1,0,0:0:0:0:
78,233,87484,6,0,L|-5:235,2,50,2|0|0,0:0|0:0|0:0,0:0:0:0:
283,206,87765,1,0,0:0:0:0:
216,181,87859,2,0,L|426:180,1,150.000005722046,2|0,0:0|0:0,0:0:0:0:
287,156,88140,1,0,0:0:0:0:
120,266,88234,2,0,L|120:184,1,50,2|0,0:0|0:0,0:0:0:0:
224,196,88421,2,0,L|302:198,1,50
374,172,88609,2,0,L|383:95,1,50,2|0,0:0|0:0,0:0:0:0:
264,89,88796,2,0,L|193:87,1,50
415,96,88984,6,0,P|454:143|363:157,1,150.000005722046,2|0,0:0|0:0,0:0:0:0:
312,189,89265,1,0,0:0:0:0:
141,243,89359,2,0,L|136:147,1,75.0000028610231,2|0,0:0|0:0,0:0:0:0:
219,157,89546,1,0,0:0:0:0:
401,149,89640,1,0,0:0:0:0:
216,223,89734,2,0,P|162:168|222:158,1,150.000005722046,2|0,0:0|0:0,0:0:0:0:
276,144,90015,1,0,0:0:0:0:
78,142,90109,2,0,L|85:249,1,75.0000028610231,2|0,0:0|0:0,0:0:0:0:
154,216,90296,2,0,L|255:221,1,75.0000028610231
46,147,90484,6,0,L|238:146,1,150.000005722046,2|0,0:0|0:0,0:0:0:0:
267,195,90765,1,0,0:0:0:0:
109,247,90859,2,0,L|35:249,1,75.0000028610231,2|0,0:0|0:0,0:0:0:0:
274,242,91046,2,0,L|276:342,1,75.0000028610231
39,217,91234,6,0,L|18:178,2,37.5000014305115,2|0|0,0:0|0:0|0:0,0:0:0:0:
83,220,91421,2,0,L|166:219,1,75.0000028610231,2|0,0:0|0:0,0:0:0:0:
348,216,91609,1,2,0:0:0:0:
381,241,91671,1,0,0:0:0:0:
339,268,91734,1,0,0:0:0:0:
277,273,91796,1,2,0:0:0:0:
243,307,91859,1,0,0:0:0:0:
280,327,91921,1,0,0:0:0:0:
459,337,91984,6,0,P|503:284|428:241,1,150.000005722046,6|0,0:0|0:0,0:0:0:0:
377,228,92265,1,0,0:0:0:0:
299,226,92359,1,2,0:0:0:0:
377,228,92452,1,0,0:0:0:0:
454,233,92546,1,0,0:0:0:0:
377,228,92640,1,0,0:0:0:0:
139,267,92734,2,0,L|137:183,1,75.0000028610231,2|0,0:0|0:0,0:0:0:0:
317,199,92921,2,0,L|318:279,1,75.0000028610231
85,270,93109,2,0,P|26:220|97:190,1,150.000005722046,2|0,0:0|0:0,0:0:0:0:
144,178,93390,1,0,0:0:0:0:
387,286,93484,6,0,L|385:189,1,75.0000028610231,2|0,0:0|0:0,0:0:0:0:
323,196,93671,2,0,L|237:196,2,75.0000028610231,0|0|2,0:0|0:0|0:0,0:0:0:0:
392,195,93952,1,0,0:0:0:0:
311,139,94046,2,0,L|214:141,1,75.0000028610231
50,133,94234,2,0,P|14:203|106:200,1,150.000005722046,2|0,0:0|0:0,0:0:0:0:
142,232,94515,1,2,0:0:0:0:
219,184,94609,2,0,L|35:188,1,150.000005722046,2|0,0:0|0:0,0:0:0:0:
326,308,94984,5,2,0:0:0:0:
381,291,95077,1,0,0:0:0:0:
419,249,95171,1,0,0:0:0:0:
415,187,95265,1,0,0:0:0:0:
372,140,95359,1,2,0:0:0:0:
315,113,95452,1,0,0:0:0:0:
254,106,95546,1,0,0:0:0:0:
192,114,95640,1,0,0:0:0:0:
385,155,95734,6,0,L|389:250,1,50,2|0,0:0|0:0,0:0:0:0:
296,216,95921,2,0,L|293:295,1,50,2|0,0:0|0:0,0:0:0:0:
199,199,96109,2,0,L|198:149,1,50,2|0,0:0|0:0,0:0:0:0:
301,135,96296,2,0,L|399:140,1,50,2|0,0:0|0:0,0:0:0:0:
121,122,96484,6,0,P|63:188|145:217,1,150.000005722046,10|0,0:0|0:0,0:0:0:0:
264,200,96765,2,0,P|282:259|207:292,1,150.000005722046,10|0,0:0|0:0,0:0:0:0:
408,157,97046,2,0,L|215:158,1,150.000005722046,10|0,0:0|0:0,0:0:0:0:
440,38,97327,2,0,P|481:107|401:110,1,150.000005722046,10|0,0:0|0:0,0:0:0:0:
156,194,97609,2,0,L|420:182,1,225.000008583069,10|0,0:0|0:0,0:0:0:0:
166,111,97984,6,0,P|98:157|163:190,1,150.000005722046,6|0,0:0|0:0,0:0:0:0:
200,197,98265,1,0,0:0:0:0:
283,195,98359,1,2,0:0:0:0:
200,197,98452,1,0,0:0:0:0:
114,196,98546,2,0,L|116:114,1,75.0000028610231
294,104,98734,2,0,L|459:104,1,150.000005722046,2|0,0:0|0:0,0:0:0:0:
383,139,99015,1,0,0:0:0:0:
189,180,99109,2,0,L|90:177,1,75.0000028610231,2|0,0:0|0:0,0:0:0:0:
379,273,99296,2,0,L|297:269,1,75.0000028610231
54,199,99484,6,0,L|241:204,1,150.000005722046,2|0,0:0|0:0,0:0:0:0:
141,238,99765,1,0,0:0:0:0:
326,219,99859,2,0,L|417:220,3,75.0000028610231,2|0|0|0,0:0|0:0|0:0|0:0,0:0:0:0:
164,256,100234,2,0,P|136:165|177:162,1,150.000005722046,2|0,0:0|0:0,0:0:0:0:
232,163,100515,1,0,0:0:0:0:
315,118,100609,2,0,L|212:118,1,75.0000028610231,2|0,0:0|0:0,0:0:0:0:
166,117,100796,2,0,L|50:116,1,75.0000028610231
333,239,100984,5,2,0:0:0:0:
158,226,101077,1,10,0:0:0:0:
246,194,101265,1,2,0:0:0:0:
93,178,101359,1,10,0:0:0:0:
238,136,101546,1,2,0:0:0:0:
63,118,101734,6,0,L|227:132,1,150.000005722046,2|0,0:0|0:0,0:0:0:0:
276,184,102015,1,0,0:0:0:0:
91,226,102109,1,10,0:0:0:0:
18,207,102202,1,0,0:0:0:0:
91,231,102296,1,0,0:0:0:0:
156,257,102390,1,0,0:0:0:0:
351,210,102484,6,0,L|166:178,1,150.000005722046,2|0,0:0|0:0,0:0:0:0:
140,235,102765,1,2,0:0:0:0:
327,273,102859,2,0,P|374:217|316:185,1,150.000005722046,10|0,0:0|0:0,0:0:0:0:
245,182,103140,1,0,0:0:0:0:
451,279,103234,2,0,L|138:254,2,250,2|2|2,0:0|0:0|0:0,0:0:0:0:
135,324,103796,1,2,0:0:0:0:
389,339,103984,5,6,0:0:0:0:
409,332,104030,1,0,0:0:0:0:
398,315,104077,1,0,0:0:0:0:
365,314,104124,1,0,0:0:0:0:
319,316,104171,2,0,L|239:318,1,75.0000028610231
315,288,104359,5,2,0:0:0:0:
156,200,104452,1,10,0:0:0:0:
264,167,104640,1,2,0:0:0:0:
98,148,104734,1,10,0:0:0:0:
219,115,104921,1,2,0:0:0:0:
150,99,105015,1,10,0:0:0:0:
377,119,105109,1,2,0:0:0:0:
471,184,105202,1,2,0:0:0:0:
377,119,105296,1,2,0:0:0:0:
295,193,105390,1,2,0:0:0:0:
454,232,105484,5,6,0:0:0:0:
478,221,105530,1,0,0:0:0:0:
476,201,105577,1,0,0:0:0:0:
454,191,105624,1,0,0:0:0:0:
412,179,105671,2,0,L|332:181,1,75.0000028610231
241,137,105859,5,2,0:0:0:0:
399,132,105952,1,10,0:0:0:0:
305,95,106140,1,2,0:0:0:0:
459,92,106234,1,10,0:0:0:0:
363,52,106421,1,2,0:0:0:0:
426,42,106515,1,10,0:0:0:0:
145,265,106609,2,0,L|60:264,1,75.0000028610231,2|2,0:0|0:0,0:0:0:0:
138,217,106796,2,0,L|238:216,1,75.0000028610231,2|2,0:0|0:0,0:0:0:0:
402,303,106984,5,6,0:0:0:0:
427,292,107030,1,0,0:0:0:0:
422,270,107077,1,0,0:0:0:0:
394,266,107124,1,0,0:0:0:0:
349,266,107171,2,0,L|342:187,1,75.0000028610231
424,187,107359,2,0,L|517:180,1,75.0000028610231,2|0,0:0|0:0,0:0:0:0:
418,112,107546,2,0,L|321:120,1,75.0000028610231
166,97,107734,5,6,0:0:0:0:
143,118,107780,1,0,0:0:0:0:
155,137,107827,1,0,0:0:0:0:
179,141,107874,1,0,0:0:0:0:
228,148,107921,2,0,L|235:230,1,75.0000028610231
147,236,108109,2,0,L|46:239,1,75.0000028610231,2|0,0:0|0:0,0:0:0:0:
173,312,108296,2,0,L|294:312,1,75.0000028610231
76,333,108484,6,0,P|26:269|102:224,1,150.000005722046,10|0,0:0|0:0,0:0:0:0:
264,271,108765,2,0,P|297:190|237:168,1,150.000005722046,10|0,0:0|0:0,0:0:0:0:
182,166,109046,2,0,L|104:166,1,75.0000028610231,10|0,0:0|0:0,0:0:0:0:
369,188,109234,5,2,0:0:0:0:
435,189,109327,1,0,0:0:0:0:
435,189,109421,1,0,0:0:0:0:
365,187,109515,1,0,0:0:0:0:
281,196,109609,1,10,0:0:0:0:
251,217,109655,1,0,0:0:0:0:
234,250,109702,1,0,0:0:0:0:
235,287,109749,1,0,0:0:0:0:
253,319,109796,1,0,0:0:0:0:
285,339,109843,1,0,0:0:0:0:
322,342,109890,1,0,0:0:0:0:
493,340,109984,5,6,0:0:0:0:
336,256,110171,2,0,L|454:113,1,150.000005722046,0|2,0:0|0:0,0:0:0:0:
292,144,110546,2,0,P|212:174|332:293,1,300.000011444092
446,304,111109,2,0,P|492:219|450:181,1,150.000005722046,2|0,0:0|0:0,0:0:0:0:
139,205,111484,6,0,L|239:324,2,150.000005722046,2|0|2,0:0|0:0|0:0,0:0:0:0:
291,159,112046,2,0,P|382:218|265:306,1,300.000011444092
114,291,112609,2,0,L|103:137,1,150.000005722046,2|0,0:0|0:0,0:0:0:0:
347,101,112984,6,0,L|250:233,2,150.000005722046,2|0|2,0:0|0:0|0:0,0:0:0:0:
168,57,113546,2,0,P|107:144|272:220,1,300.000011444092
376,189,114109,2,0,L|422:346,1,150.000005722046,2|0,0:0|0:0,0:0:0:0:
105,331,114484,6,0,L|236:313,1,100,2|0,0:0|0:0,0:0:0:0:
354,252,114859,1,2,0:0:0:0:
376,261,114905,1,0,0:0:0:0:
393,280,114952,1,0,0:0:0:0:
398,304,114999,1,0,0:0:0:0:
393,328,115046,1,0,0:0:0:0:
377,347,115093,1,0,0:0:0:0:
354,356,115140,1,0,0:0:0:0:
141,330,115234,6,0,L|137:240,1,50,2|0,0:0|0:0,0:0:0:0:
247,250,115421,2,0,L|242:163,1,50,2|0,0:0|0:0,0:0:0:0:
155,162,115609,2,0,L|72:162,1,50,2|0,0:0|0:0,0:0:0:0:
379,174,115796,2,0,L|449:177,1,50,2|0,0:0|0:0,0:0:0:0:
216,251,115984,5,6,0:0:0:0:
194,268,116030,1,0,0:0:0:0:
203,301,116077,1,0,0:0:0:0:
225,310,116124,1,0,0:0:0:0:
258,309,116171,1,2,0:0:0:0:
160,213,116359,1,2,0:0:0:0:
310,206,116452,1,10,0:0:0:0:
209,170,116640,1,2,0:0:0:0:
360,172,116734,1,10,0:0:0:0:
264,139,116921,1,2,0:0:0:0:
322,132,117015,1,10,0:0:0:0:
50,208,117202,2,0,L|22:153,2,50,2|2|2,0:0|0:0|0:0,0:0:0:0:
234,253,117484,5,6,0:0:0:0:
256,270,117530,1,0,0:0:0:0:
247,303,117577,1,0,0:0:0:0:
225,312,117624,1,0,0:0:0:0:
192,311,117671,1,2,0:0:0:0:
305,338,117859,1,2,0:0:0:0:
146,253,117952,1,10,0:0:0:0:
268,198,118140,1,2,0:0:0:0:
116,163,118234,1,10,0:0:0:0:
249,130,118421,1,2,0:0:0:0:
186,122,118515,1,10,0:0:0:0:
459,217,118702,2,0,L|487:282,2,50,2|2|2,0:0|0:0|0:0,0:0:0:0:
257,171,118984,5,6,0:0:0:0:
228,195,119030,1,0,0:0:0:0:
239,230,119077,1,0,0:0:0:0:
275,233,119124,1,0,0:0:0:0:
339,233,119171,2,0,L|356:336,1,75.0000028610231,2|0,0:0|0:0,0:0:0:0:
268,338,119359,2,0,L|177:343,1,75.0000028610231,2|0,0:0|0:0,0:0:0:0:
103,319,119546,2,0,L|99:237,1,75.0000028610231,2|0,0:0|0:0,0:0:0:0:
299,188,119734,5,6,0:0:0:0:
328,202,119780,1,0,0:0:0:0:
332,228,119827,1,0,0:0:0:0:
297,241,119874,1,0,0:0:0:0:
231,247,119921,2,0,L|226:324,1,75.0000028610231,2|0,0:0|0:0,0:0:0:0:
305,335,120109,2,0,L|382:335,1,75.0000028610231,2|0,0:0|0:0,0:0:0:0:
151,324,120296,2,0,L|60:323,1,75.0000028610231,2|0,0:0|0:0,0:0:0:0:
385,148,120484,6,0,P|443:195|361:306,1,225.000008583069,10|0,0:0|0:0,0:0:0:0:
202,289,120859,2,0,L|399:259,1,150.000005722046,10|0,0:0|0:0,0:0:0:0:
425,307,121140,1,0,0:0:0:0:
215,346,121234,1,2,0:0:0:0:
143,288,121327,1,0,0:0:0:0:
215,346,121421,1,2,0:0:0:0:
295,301,121515,1,0,0:0:0:0:
93,264,121609,2,0,P|15:242|83:190,1,150.000005722046,10|0,0:0|0:0,0:0:0:0:
105,184,121890,1,0,0:0:0:0:
378,216,121984,6,0,L|132:238,1,225.000008583069,6|0,0:0|0:0,0:0:0:0:
413,355,122359,2,0,L|411:289,1,50,2|0,0:0|0:0,0:0:0:0:
254,271,122546,2,0,L|165:269,1,50,2|0,0:0|0:0,0:0:0:0:
453,258,122734,5,2,0:0:0:0:
472,242,122780,1,0,0:0:0:0:
482,219,122827,1,0,0:0:0:0:
481,195,122874,1,0,0:0:0:0:
470,173,122921,1,0,0:0:0:0:
450,158,122968,1,0,0:0:0:0:
426,154,123015,1,0,0:0:0:0:
268,162,123109,6,0,L|272:244,1,75.0000028610231,2|0,0:0|0:0,0:0:0:0:
350,251,123296,2,0,L|425:250,1,75.0000028610231
260,334,123484,2,0,L|159:334,1,75.0000028610231
260,334,123671,2,0,L|381:335,1,75.0000028610231
180,147,123859,2,0,P|129:210|207:214,1,150.000005722046,2|0,0:0|0:0,0:0:0:0:
260,232,124140,1,0,0:0:0:0:
81,226,124234,6,0,L|0:227,2,75.0000028610231,10|0|0,0:0|0:0|0:0,0:0:0:0:
157,224,124515,1,0,0:0:0:0:
81,226,124609,1,2,0:0:0:0:
49,206,124655,1,0,0:0:0:0:
37,172,124702,1,0,0:0:0:0:
51,139,124749,1,0,0:0:0:0:
84,122,124796,1,0,0:0:0:0:
152,125,124890,1,0,0:0:0:0:
354,146,124984,6,0,P|392:202|326:241,1,150.000005722046,6|0,0:0|0:0,0:0:0:0:
254,248,125265,1,0,0:0:0:0:
179,245,125359,2,0,L|285:248,3,75.0000028610231,2|0|0|0,0:0|0:0|0:0|0:0,0:0:0:0:
61,216,125734,2,0,P|25:146|110:115,1,150.000005722046,10|0,0:0|0:0,0:0:0:0:
163,106,126015,1,0,0:0:0:0:
379,192,126109,6,0,L|299:193,1,75.0000028610231,2|0,0:0|0:0,0:0:0:0:
220,191,126296,2,0,L|118:189,1,75.0000028610231
397,131,126484,2,0,L|396:241,1,75.0000028610231
305,226,126671,2,0,L|306:304,1,75.0000028610231
406,308,126859,1,2,0:0:0:0:
441,300,126905,1,0,0:0:0:0:
441,275,126952,1,0,0:0:0:0:
402,270,126999,1,0,0:0:0:0:
342,264,127046,2,0,L|255:266,1,75.0000028610231
204,243,127234,2,0,L|373:239,1,150.000005722046,10|2,0:0|0:0,0:0:0:0:
286,210,127515,1,0,0:0:0:0:
107,216,127609,2,0,P|83:284|153:284,1,150.000005722046,2|0,0:0|0:0,0:0:0:0:
226,284,127890,1,0,0:0:0:0:
376,245,127984,6,0,P|419:292|330:287,1,150.000005722046,6|0,0:0|0:0,0:0:0:0:
281,333,128265,1,0,0:0:0:0:
465,292,128359,2,0,L|466:208,1,75.0000028610231,2|0,0:0|0:0,0:0:0:0:
372,217,128546,2,0,L|370:131,1,75.0000028610231,2|0,0:0|0:0,0:0:0:0:
276,149,128734,1,2,0:0:0:0:
240,157,128780,1,0,0:0:0:0:
223,189,128827,1,0,0:0:0:0:
237,223,128874,1,0,0:0:0:0:
275,234,128921,1,0,0:0:0:0:
360,233,129015,1,0,0:0:0:0:
211,306,129109,6,0,L|208:202,1,75.0000028610231,2|0,0:0|0:0,0:0:0:0:
312,208,129296,2,0,L|409:208,1,75.0000028610231
220,190,129484,1,0,0:0:0:0:
145,192,129577,1,0,0:0:0:0:
144,257,129671,1,0,0:0:0:0:
219,259,129765,1,0,0:0:0:0:
137,311,129859,2,0,L|52:311,2,75.0000028610231,2|0|0,0:0|0:0|0:0,0:0:0:0:
220,314,130140,1,0,0:0:0:0:
33,290,130234,6,0,P|43:197|98:169,1,150.000005722046,10|0,0:0|0:0,0:0:0:0:
167,164,130515,1,0,0:0:0:0:
360,177,130609,1,2,0:0:0:0:
399,177,130655,1,0,0:0:0:0:
429,199,130702,1,0,0:0:0:0:
440,234,130749,1,0,0:0:0:0:
427,269,130796,1,0,0:0:0:0:
397,289,130843,1,0,0:0:0:0:
360,288,130890,1,0,0:0:0:0:
140,263,130984,6,0,L|302:245,1,150.000005722046,6|0,0:0|0:0,0:0:0:0:
207,234,131265,1,0,0:0:0:0:
127,239,131359,2,0,L|118:163,1,75.0000028610231,10|0,0:0|0:0,0:0:0:0:
215,145,131546,2,0,L|299:136,1,75.0000028610231
86,306,131734,2,0,P|9:264|69:230,1,150.000005722046,2|0,0:0|0:0,0:0:0:0:
106,223,132015,1,2,0:0:0:0:
182,190,132109,2,0,L|-5:192,1,150.000005722046,2|0,0:0|0:0,0:0:0:0:
114,169,132390,1,2,0:0:0:0:
345,162,132484,6,0,P|387:243|303:251,1,150.000005722046,2|0,0:0|0:0,0:0:0:0:
144,279,132765,2,0,L|140:192,1,75.0000028610231,2|0,0:0|0:0,0:0:0:0:
254,193,132952,1,0,0:0:0:0:
89,156,133046,2,0,L|30:111,2,75.0000028610231,2|0|0,0:0|0:0|0:0,0:0:0:0:
319,174,133327,1,2,0:0:0:0:
258,177,133421,1,0,0:0:0:0:
198,178,133515,1,0,0:0:0:0:
433,131,133609,2,0,P|474:203|383:212,1,150.000005722046,2|0,0:0|0:0,0:0:0:0:
347,234,133890,1,0,0:0:0:0:
136,293,133984,5,6,0:0:0:0:
172,299,134030,1,0,0:0:0:0:
205,283,134077,1,0,0:0:0:0:
221,250,134124,1,0,0:0:0:0:
214,214,134171,1,0,0:0:0:0:
186,189,134218,1,0,0:0:0:0:
149,187,134265,1,0,0:0:0:0:
78,190,134359,6,0,L|71:89,1,75.0000028610231,2|0,0:0|0:0,0:0:0:0:
181,184,134546,2,0,L|183:273,1,75.0000028610231,2|0,0:0|0:0,0:0:0:0:
97,286,134734,1,2,0:0:0:0:
67,307,134780,1,0,0:0:0:0:
64,344,134827,1,0,0:0:0:0:
88,371,134874,1,0,0:0:0:0:
124,371,134921,1,0,0:0:0:0:
196,364,135015,1,0,0:0:0:0:
400,340,135109,6,0,L|398:243,1,75.0000028610231,2|0,0:0|0:0,0:0:0:0:
318,249,135296,2,0,L|224:249,1,75.0000028610231
490,286,135484,2,0,L|482:191,1,75.0000028610231
390,196,135671,2,0,L|300:201,1,75.0000028610231
226,197,135859,2,0,L|198:104,1,75.0000028610231,2|0,0:0|0:0,0:0:0:0:
299,107,136046,2,0,L|392:100,1,75.0000028610231
158,226,136234,5,10,0:0:0:0:
80,229,136327,1,0,0:0:0:0:
158,226,136421,1,0,0:0:0:0:
227,226,136515,1,0,0:0:0:0:
301,222,136609,1,2,0:0:0:0:
318,205,136655,1,0,0:0:0:0:
314,189,136702,1,0,0:0:0:0:
285,179,136749,1,0,0:0:0:0:
240,176,136796,2,0,L|159:173,1,75.0000028610231
415,148,136984,5,2,0:0:0:0:
445,165,137030,1,0,0:0:0:0:
456,201,137077,1,0,0:0:0:0:
439,233,137124,1,0,0:0:0:0:
404,244,137171,1,0,0:0:0:0:
341,245,137265,1,0,0:0:0:0:
280,269,137359,2,0,L|360:303,3,75.0000028610231,2|0|0|0,0:0|0:0|0:0|0:0,0:0:0:0:
145,313,137734,2,0,P|63:249|109:216,1,150.000005722046,2|2,0:0|0:0,0:0:0:0:
148,223,138015,1,0,0:0:0:0:
311,217,138109,6,0,L|337:119,1,75.0000028610231,2|0,0:0|0:0,0:0:0:0:
219,134,138296,2,0,L|202:33,1,75.0000028610231
363,126,138484,2,0,L|451:128,1,75.0000028610231
492,158,138671,2,0,L|390:157,1,75.0000028610231
253,109,138859,2,0,L|348:108,1,75.0000028610231,2|0,0:0|0:0,0:0:0:0:
395,149,139046,2,0,L|296:156,1,75.0000028610231
106,84,139234,6,0,L|199:85,1,75.0000028610231,10|0,0:0|0:0,0:0:0:0:
414,84,139421,2,0,L|330:84,1,75.0000028610231,2|0,0:0|0:0,0:0:0:0:
110,219,139609,1,2,0:0:0:0:
75,231,139655,1,0,0:0:0:0:
41,216,139702,1,0,0:0:0:0:
26,183,139749,1,0,0:0:0:0:
37,148,139796,1,0,0:0:0:0:
69,130,139843,1,0,0:0:0:0:
108,132,139890,1,0,0:0:0:0:
265,142,139984,5,6,0:0:0:0:
181,142,140077,2,0,P|61:185|253:314,1,450.000017166138
411,335,140734,5,2,0:0:0:0:
444,317,140780,1,0,0:0:0:0:
457,283,140827,1,0,0:0:0:0:
445,249,140874,1,0,0:0:0:0:
413,231,140921,1,0,0:0:0:0:
342,231,141015,1,0,0:0:0:0:
162,241,141109,6,0,L|146:139,1,75.0000028610231,2|0,0:0|0:0,0:0:0:0:
249,135,141296,2,0,L|349:137,1,75.0000028610231
109,237,141484,2,0,L|290:231,1,150.000005722046
360,275,141765,1,0,0:0:0:0:
162,143,141859,2,0,L|163:230,1,75.0000028610231,2|0,0:0|0:0,0:0:0:0:
269,144,142046,2,0,L|272:42,1,75.0000028610231
74,72,142234,6,0,P|18:112|67:163,1,150.000005722046,10|0,0:0|0:0,0:0:0:0:
153,168,142515,1,0,0:0:0:0:
323,184,142609,1,2,0:0:0:0:
353,206,142655,1,0,0:0:0:0:
367,248,142702,1,0,0:0:0:0:
345,290,142749,1,0,0:0:0:0:
306,310,142796,1,2,0:0:0:0:
234,312,142890,1,0,0:0:0:0:
472,275,142984,6,0,L|270:266,1,150.000005722046,6|0,0:0|0:0,0:0:0:0:
254,309,143265,1,0,0:0:0:0:
440,325,143359,2,0,P|478:253|425:212,1,150.000005722046,2|0,0:0|0:0,0:0:0:0:
359,208,143640,1,0,0:0:0:0:
186,265,143734,5,10,0:0:0:0:
229,206,143827,1,0,0:0:0:0:
294,178,143921,1,0,0:0:0:0:
366,170,144015,1,0,0:0:0:0:
167,157,144109,2,0,L|168:63,1,75.0000028610231,2|0,0:0|0:0,0:0:0:0:
348,225,144296,6,0,L|157:220,1,150.000005722046,2|0,0:0|0:0,0:0:0:0:
122,275,144577,1,0,0:0:0:0:
345,299,144671,2,0,L|348:197,1,75.0000028610231,2|0,0:0|0:0,0:0:0:0:
184,169,144859,2,0,L|344:170,1,150.000005722046,2|0,0:0|0:0,0:0:0:0:
411,221,145140,1,0,0:0:0:0:
91,68,145234,2,0,B|61:64|7:98|4:158|21:235|133:216|133:216|154:254|197:173|230:246|228:336|163:362|79:346,1,525.000020027161,14|0,0:0|0:0,0:0:0:0:
374,29,145984,6,0,B|315:152|315:152|429:244|429:244|283:234|283:234|226:363|226:363|190:235|190:235|51:218|51:218|174:139|174:139|140:5|140:5|246:95|246:95|371:-5|418:0|456:16|492:43|504:83|505:120|498:155|476:180|451:198|408:197|367:170|338:144|351:97|374:69|403:49|437:72|430:126,1,1859.99994323731,6|0,0:0|0:0,0:0:0:0:
117,209,157984,6,0,L|107:340,1,100
260,307,158359,2,0,P|327:271|241:210,1,200
144,206,158921,1,0,0:0:0:0:
292,206,159109,1,0,0:0:0:0:
133,165,159296,6,0,P|93:240|188:309,1,200
305,310,159859,2,0,P|350:247|315:222,1,100
221,224,160234,2,0,L|220:153,1,50
302,218,160421,2,0,L|302:282,1,50
224,286,160609,2,0,P|192:257|243:194,1,100
391,181,160984,6,0,L|403:309,1,100
251,304,161359,2,0,P|185:262|265:199,1,200
425,221,161921,1,0,0:0:0:0:
271,218,162109,1,0,0:0:0:0:
435,206,162296,6,0,L|209:212,1,200
393,128,162859,2,0,P|419:207|397:228,1,100
261,222,163234,2,0,L|262:282,1,50
187,283,163421,2,0,L|186:357,1,50
264,339,163609,1,0,0:0:0:0:
127,329,163796,6,0,P|65:293|147:215,1,200
299,192,164359,2,0,P|306:273|281:296,1,100
156,275,164734,2,0,L|284:250,2,100
309,160,165296,6,0,L|102:220,1,200
301,266,165859,2,0,L|363:243,2,50
183,300,166234,2,0,L|180:222,1,50
262,233,166421,2,0,L|261:162,1,50
180,187,166609,6,0,P|131:233|207:287,1,150
268,308,166984,2,0,L|412:308,1,100
217,256,167359,2,0,P|160:200|224:174,1,150
307,182,167734,2,0,L|308:104,1,50
231,205,167921,2,0,L|229:278,1,50
326,261,168109,1,0,0:0:0:0:
186,329,168296,6,0,P|101:284|168:225,1,200
266,222,168859,1,0,0:0:0:0:
128,170,169046,1,0,0:0:0:0:
231,135,169234,1,0,0:0:0:0:
85,107,169421,1,0,0:0:0:0:
336,180,169609,2,0,L|337:287,1,100
75,287,169984,6,0,L|72:168,1,100,6|0,0:0|0:0,0:0:0:0:
181,175,170359,1,0,0:0:0:0:
328,162,170546,2,0,L|250:164,1,50
70,224,170734,2,0,L|213:224,2,100
278,158,171296,1,0,0:0:0:0:
143,122,171484,6,0,L|353:120,1,200
231,201,172046,1,0,0:0:0:0:
289,200,172140,1,0,0:0:0:0:
346,197,172234,1,0,0:0:0:0:
186,141,172421,1,0,0:0:0:0:
360,131,172609,2,0,P|383:213|350:237,1,100
305,224,172890,1,0,0:0:0:0:
220,220,172984,6,0,P|165:150|227:109,1,150,2|0,0:0|0:0,0:0:0:0:
260,121,173359,1,0,0:0:0:0:
75,210,173546,2,0,L|40:257,2,50
219,193,173921,1,0,0:0:0:0:
100,203,174109,1,0,0:0:0:0:
342,137,174296,6,0,P|387:182|283:257,1,200
150,213,174859,2,0,L|277:211,1,100
312,257,175140,1,0,0:0:0:0:
90,306,175234,2,0,L|86:224,1,50
157,231,175421,2,0,L|223:231,1,50
136,178,175609,2,0,L|68:178,2,50
405,331,175984,6,0,L|408:224,1,100,2|0,0:0|0:0,0:0:0:0:
245,212,176359,2,0,L|113:207,1,100,2|0,0:0|0:0,0:0:0:0:
214,174,176640,1,0,0:0:0:0:
294,165,176734,2,0,L|431:158,2,100,2|0|2,0:0|0:0|0:0,0:0:0:0:
164,243,177296,1,0,0:0:0:0:
430,242,177484,6,0,P|442:319|418:347,1,100,2|0,0:0|0:0,0:0:0:0:
256,335,177859,2,0,L|145:337,1,100,2|0,0:0|0:0,0:0:0:0:
228,299,178140,1,0,0:0:0:0:
301,280,178234,2,0,L|303:179,1,100,2|0,0:0|0:0,0:0:0:0:
119,194,178609,2,0,L|65:308,1,100,2|0,0:0|0:0,0:0:0:0:
248,314,178984,1,2,0:0:0:0:
142,315,179171,1,2,0:0:0:0:
426,241,179359,5,2,0:0:0:0:
289,179,179546,1,2,0:0:0:0:
381,75,179734,1,2,0:0:0:0:
242,81,179921,1,2,0:0:0:0:
398,146,180109,1,2,0:0:0:0:
124,187,180296,1,2,0:0:0:0:
263,187,180484,5,2,0:0:0:0:
168,146,180671,1,0,0:0:0:0:
320,159,180859,1,2,0:0:0:0:
223,110,181046,1,0,0:0:0:0:
377,126,181234,1,2,0:0:0:0:
110,79,181421,1,0,0:0:0:0:
278,145,181609,2,0,L|357:145,1,50,2|2,0:0|0:0,0:0:0:0:
235,208,181796,2,0,L|145:208,1,50,2|2,0:0|0:0,0:0:0:0:
393,298,181984,5,6,0:0:0:0:
227,286,182171,2,0,L|228:203,1,50
297,218,182359,1,0,0:0:0:0:
375,217,182452,1,0,0:0:0:0:
375,217,182546,1,0,0:0:0:0:
293,219,182640,1,0,0:0:0:0:
200,214,182734,6,0,L|199:137,1,50,2|0,0:0|0:0,0:0:0:0:
269,149,182921,1,0,0:0:0:0:
191,106,183015,2,0,L|114:106,2,50
271,107,183296,2,0,L|361:107,1,50
169,304,183484,6,0,L|166:212,1,50,2|0,0:0|0:0,0:0:0:0:
234,240,183671,1,0,0:0:0:0:
305,243,183765,1,0,0:0:0:0:
311,168,183859,1,0,0:0:0:0:
235,168,183952,1,0,0:0:0:0:
153,170,184046,2,0,L|145:89,1,50
340,64,184234,6,0,L|431:64,2,50,2|0|0,0:0|0:0|0:0,0:0:0:0:
261,65,184515,2,0,L|196:66,2,50
339,72,184796,2,0,L|340:154,1,50
170,199,184984,6,0,L|76:198,2,50,6|0|0,0:0|0:0|0:0,0:0:0:0:
258,199,185265,2,0,L|343:198,2,50
170,199,185546,2,0,L|252:202,1,50
392,201,185734,6,0,L|460:200,2,50,2|0|0,0:0|0:0|0:0,0:0:0:0:
313,202,186015,2,0,L|313:121,1,50
391,133,186202,2,0,L|466:135,2,50
185,260,186484,6,0,L|182:342,1,50,2|0,0:0|0:0,0:0:0:0:
277,310,186671,2,0,L|275:213,1,50
194,250,186859,2,0,L|104:248,1,50
232,187,187046,2,0,L|323:187,1,50
98,127,187234,6,0,L|22:126,2,50,2|0|0,0:0|0:0|0:0,0:0:0:0:
334,106,187515,2,0,L|418:105,2,50
241,106,187796,2,0,L|241:32,1,50
432,255,187984,6,0,L|482:254,2,50,6|0|0,0:0|0:0|0:0,0:0:0:0:
351,253,188265,2,0,L|353:157,1,50
429,203,188452,1,0,0:0:0:0:
497,205,188546,2,0,L|414:204,1,50
176,258,188734,6,0,L|175:170,1,50,2|0,0:0|0:0,0:0:0:0:
249,201,188921,1,0,0:0:0:0:
321,199,189015,2,0,L|415:195,2,50
245,235,189296,2,0,L|245:327,1,50
419,290,189484,6,0,L|419:202,1,50,2|0,0:0|0:0,0:0:0:0:
317,230,189671,2,0,L|317:154,1,50
406,171,189859,1,0,0:0:0:0:
485,179,189952,2,0,L|489:244,1,50
405,238,190140,1,0,0:0:0:0:
207,254,190234,6,0,L|132:256,2,50,2|0|0,0:0|0:0|0:0,0:0:0:0:
294,209,190515,2,0,L|375:209,2,50
193,194,190796,2,0,L|193:102,1,50
385,146,190984,6,0,L|383:242,1,50,6|0,0:0|0:0,0:0:0:0:
307,194,191171,1,0,0:0:0:0:
383,195,191265,2,0,L|462:195,2,50
303,139,191546,2,0,L|388:141,1,50
162,216,191734,6,0,L|64:215,2,50,2|0|0,0:0|0:0|0:0,0:0:0:0:
247,220,192015,2,0,L|249:302,1,50
165,277,192202,1,0,0:0:0:0:
86,342,192296,2,0,L|180:340,1,50
313,291,192484,6,0,L|385:290,2,50,2|0|0,0:0|0:0|0:0,0:0:0:0:
397,236,192765,2,0,L|469:238,2,50
220,227,193046,2,0,L|220:139,1,50
304,175,193234,5,2,0:0:0:0:
94,197,193327,2,0,L|0:192,2,50
271,198,193609,1,0,0:0:0:0:
364,198,193702,1,0,0:0:0:0:
271,198,193796,1,0,0:0:0:0:
364,198,193890,1,0,0:0:0:0:
101,195,193984,6,0,P|93:273|179:306,1,150.000005722046,6|0,0:0|0:0,0:0:0:0:
225,311,194265,1,0,0:0:0:0:
316,319,194359,2,0,L|330:156,1,150.000005722046,10|0,0:0|0:0,0:0:0:0:
165,170,194734,1,2,0:0:0:0:
341,246,194921,2,0,L|469:246,1,75.0000028610231
188,269,195109,2,0,P|151:225|232:182,1,150.000005722046,2|0,0:0|0:0,0:0:0:0:
289,173,195390,1,0,0:0:0:0:
83,129,195484,6,0,L|81:237,1,75.0000028610231,2|0,0:0|0:0,0:0:0:0:
166,198,195671,2,0,L|169:304,1,75.0000028610231
77,275,195859,2,0,P|19:324|96:356,1,150.000005722046,10|0,0:0|0:0,0:0:0:0:
132,360,196140,1,0,0:0:0:0:
202,327,196234,2,0,L|34:321,1,150.000005722046,2|0,0:0|0:0,0:0:0:0:
250,231,196515,2,0,P|310:142|234:120,1,150.000005722046,2|0,0:0|0:0,0:0:0:0:
237,130,196796,1,2,0:0:0:0:
170,131,196890,1,0,0:0:0:0:
449,184,196984,6,0,P|450:303|423:310,1,150.000005722046,6|0,0:0|0:0,0:0:0:0:
377,304,197265,1,0,0:0:0:0:
217,228,197359,2,0,L|400:225,1,150.000005722046,10|0,0:0|0:0,0:0:0:0:
219,169,197734,1,2,0:0:0:0:
321,114,197921,1,0,0:0:0:0:
252,111,198015,1,0,0:0:0:0:
188,113,198109,1,2,0:0:0:0:
379,78,198296,2,0,L|382:176,1,75.0000028610231
115,177,198484,6,0,P|77:258|165:258,1,150.000005722046,2|0,0:0|0:0,0:0:0:0:
189,277,198765,1,2,0:0:0:0:
112,280,198859,1,10,0:0:0:0:
35,282,198952,2,0,P|30:204|102:191,1,150.000005722046
300,159,199234,2,0,P|298:256|241:255,1,150.000005722046,2|0,0:0|0:0,0:0:0:0:
190,266,199515,1,2,0:0:0:0:
266,262,199609,2,0,L|470:262,1,150.000005722046,2|0,0:0|0:0,0:0:0:0:
343,231,199890,1,0,0:0:0:0:
174,147,199984,6,0,L|286:149,1,75.0000028610231,6|0,0:0|0:0,0:0:0:0:
315,148,200171,2,0,L|410:149,1,75.0000028610231
201,221,200359,2,0,P|202:344|241:342,1,150.000005722046,10|0,0:0|0:0,0:0:0:0:
269,342,200640,1,0,0:0:0:0:
345,340,200734,2,0,L|342:222,1,75.0000028610231,2|0,0:0|0:0,0:0:0:0:
250,260,200921,2,0,L|250:166,1,75.0000028610231
348,178,201109,1,2,0:0:0:0:
427,180,201202,1,0,0:0:0:0:
427,180,201296,1,0,0:0:0:0:
347,180,201390,1,0,0:0:0:0:
106,160,201484,6,0,P|43:210|126:237,1,150.000005722046,2|0,0:0|0:0,0:0:0:0:
165,255,201765,1,0,0:0:0:0:
329,217,201859,2,0,P|368:313|318:308,1,150.000005722046,10|0,0:0|0:0,0:0:0:0:
300,306,202140,1,0,0:0:0:0:
226,258,202234,1,2,0:0:0:0:
300,257,202327,1,0,0:0:0:0:
369,258,202421,1,0,0:0:0:0:
432,258,202515,1,0,0:0:0:0:
212,186,202609,2,0,L|110:185,1,75.0000028610231,2|0,0:0|0:0,0:0:0:0:
374,145,202796,2,0,L|470:147,1,75.0000028610231
175,260,202984,6,0,P|81:224|192:208,1,225.000008583069,10|0,0:0|0:0,0:0:0:0:
360,155,203359,2,0,P|437:211|316:273,1,225.000008583069,10|0,0:0|0:0,0:0:0:0:
118,120,203734,2,0,P|39:197|148:266,1,225.000008583069,10|2,0:0|0:0,0:0:0:0:
372,295,204109,2,0,L|383:196,1,75.0000028610231,10|0,0:0|0:0,0:0:0:0:
133,28,204296,6,0,P|104:51|364:11,1,1200.00004577637,6|0,0:0|0:0,0:0:0:0:
119,302,205984,5,2,0:0:0:0:
283,304,206171,1,2,0:0:0:0:
31,263,206359,1,2,0:0:0:0:
286,257,206546,1,2,0:0:0:0:
426,262,206734,1,2,0:0:0:0:
284,308,206921,1,2,0:0:0:0:
135,316,207109,1,2,0:0:0:0:
432,319,207296,1,2,0:0:0:0:
127,317,207484,5,6,0:0:0:0:
289,288,207671,1,2,0:0:0:0:
23,275,207859,1,2,0:0:0:0:
289,339,208046,1,2,0:0:0:0:
131,282,208234,1,2,0:0:0:0:
445,238,208421,1,2,0:0:0:0:
132,142,208609,1,2,0:0:0:0:
111,185,208702,1,0,0:0:0:0:
133,229,208796,1,2,0:0:0:0:
180,239,208890,1,0,0:0:0:0:
362,197,208984,5,6,0:0:0:0:
228,197,209171,1,2,0:0:0:0:
499,195,209359,1,2,0:0:0:0:
211,331,209546,1,2,0:0:0:0:
54,285,209734,1,2,0:0:0:0:
219,280,209921,1,2,0:0:0:0:
367,351,210109,1,2,0:0:0:0:
76,255,210296,1,2,0:0:0:0:
442,211,210484,5,6,0:0:0:0:
266,234,210671,2,0,L|265:315,1,50
356,282,210859,2,0,L|356:210,1,50,2|0,0:0|0:0,0:0:0:0:
241,235,211046,2,0,L|240:321,1,50
328,326,211234,6,0,L|399:328,1,50,2|0,0:0|0:0,0:0:0:0:
184,339,211421,2,0,L|113:340,1,50
320,255,211609,2,0,L|252:254,1,50,2|0,0:0|0:0,0:0:0:0:
207,253,211796,2,0,L|132:253,1,50
354,321,211984,5,6,0:0:0:0:
383,314,212030,1,0,0:0:0:0:
393,293,212077,1,0,0:0:0:0:
379,271,212124,1,0,0:0:0:0:
340,266,212171,1,0,0:0:0:0:
304,268,212218,1,0,0:0:0:0:
267,271,212265,1,0,0:0:0:0:
227,266,212312,1,0,0:0:0:0:
212,242,212359,1,0,0:0:0:0:
220,212,212405,1,0,0:0:0:0:
247,189,212452,1,0,0:0:0:0:
277,183,212499,1,0,0:0:0:0:
313,180,212546,1,0,0:0:0:0:
347,180,212593,1,0,0:0:0:0:
379,181,212640,1,0,0:0:0:0:
404,180,212687,1,0,0:0:0:0:
365,169,212734,5,0,0:0:0:0:
336,178,212780,1,0,0:0:0:0:
314,194,212827,1,0,0:0:0:0:
298,212,212874,1,0,0:0:0:0:
294,238,212921,1,0,0:0:0:0:
305,263,212968,1,0,0:0:0:0:
324,280,213015,1,0,0:0:0:0:
350,292,213062,1,0,0:0:0:0:
390,307,213109,2,0,L|179:293,1,150.000005722046,6|0,0:0|0:0,0:0:0:0:
173,320,213390,1,0,0:0:0:0:
324,357,213484,5,6,0:0:0:0:
362,360,213530,1,0,0:0:0:0:
399,354,213577,1,0,0:0:0:0:
433,339,213624,1,0,0:0:0:0:
461,315,213671,1,0,0:0:0:0:
483,284,213718,1,0,0:0:0:0:
495,249,213765,1,0,0:0:0:0:
498,212,213812,1,0,0:0:0:0:
491,175,213859,1,0,0:0:0:0:
475,141,213905,1,0,0:0:0:0:
450,113,213952,1,0,0:0:0:0:
419,93,213999,1,0,0:0:0:0:
384,81,214046,1,0,0:0:0:0:
346,79,214093,1,0,0:0:0:0:
310,87,214140,1,0,0:0:0:0:
271,110,214187,1,0,0:0:0:0:
231,142,214234,5,0,0:0:0:0:
208,169,214280,1,0,0:0:0:0:
200,205,214327,1,0,0:0:0:0:
207,242,214374,1,0,0:0:0:0:
226,274,214421,1,0,0:0:0:0:
255,297,214468,1,0,0:0:0:0:
291,307,214515,1,0,0:0:0:0:
326,302,214562,1,0,0:0:0:0:
377,265,214609,2,0,L|301:266,1,75.0000028610231,6|0,0:0|0:0,0:0:0:0:
116,173,214796,2,0,L|23:171,1,75.0000028610231,2|0,0:0|0:0,0:0:0:0:
256,309,214984,5,6,0:0:0:0:
282,300,215030,1,0,0:0:0:0:
284,281,215077,1,0,0:0:0:0:
258,275,215124,1,0,0:0:0:0:
198,267,215171,2,0,L|196:184,1,75.0000028610231,2|0,0:0|0:0,0:0:0:0:
267,185,215359,2,0,L|387:186,1,75.0000028610231,2|0,0:0|0:0,0:0:0:0:
393,252,215546,2,0,L|291:256,1,75.0000028610231,2|0,0:0|0:0,0:0:0:0:
114,234,215734,6,0,L|110:322,1,75.0000028610231,10|0,0:0|0:0,0:0:0:0:
215,313,215921,2,0,L|308:314,1,75.0000028610231,2|0,0:0|0:0,0:0:0:0:
390,304,216109,2,0,L|394:216,1,75.0000028610231,2|0,0:0|0:0,0:0:0:0:
195,218,216296,2,0,L|104:218,1,75.0000028610231,2|0,0:0|0:0,0:0:0:0:
323,87,216484,6,0,B|325:56|368:42|402:56|409:96|391:123|391:123|421:120|447:147|444:178|426:208|396:217|360:208,1,300,10|0,0:0|0:0,0:0:0:0:
148,310,216859,2,0,B|120:288|110:233|169:178|221:183|223:253|346:344|346:344|346:265|406:186,1,450.000017166138,10|0,0:0|0:0,0:0:0:0:
72,203,217234,2,0,B|59:135|80:68|80:68|67:96|34:128,1,200,10|0,0:0|0:0,0:0:0:0:
245,223,217515,1,2,0:0:0:0:
420,271,217609,2,0,L|353:269,1,50,2|2,0:0|0:0,0:0:0:0:
193,150,217796,2,0,L|114:151,1,50,2|2,0:0|0:0,0:0:0:0:
424,184,217984,6,0,L|428:303,1,75.0000028610231,6|0,0:0|0:0,0:0:0:0:
334,285,218171,2,0,L|244:290,2,75.0000028610231,0|0|10,0:0|0:0|0:0,0:0:0:0:
416,278,218452,2,0,L|422:191,1,75.0000028610231
337,188,218640,1,0,0:0:0:0:
149,184,218734,2,0,P|89:238|173:289,1,150.000005722046,10|0,0:0|0:0,0:0:0:0:
201,290,219015,1,0,0:0:0:0:
283,287,219109,2,0,L|283:184,1,75.0000028610231,10|0,0:0|0:0,0:0:0:0:
190,191,219296,2,0,L|107:190,1,75.0000028610231
319,125,219484,5,2,0:0:0:0:
406,129,219577,1,0,0:0:0:0:
319,125,219671,1,0,0:0:0:0:
234,119,219765,1,0,0:0:0:0:
324,86,219859,2,0,L|534:88,1,150.000005722046,10|0,0:0|0:0,0:0:0:0:
404,127,220140,1,0,0:0:0:0:
187,172,220234,2,0,L|82:171,2,75.0000028610231,10|0|0,0:0|0:0|0:0,0:0:0:0:
344,238,220515,2,0,L|233:236,2,75.0000028610231,0|10|0,0:0|0:0|0:0,0:0:0:0:
190,335,220796,2,0,L|190:225,1,75.0000028610231
340,261,220984,6,0,L|129:260,1,150.000005722046,2|0,0:0|0:0,0:0:0:0:
262,257,221265,1,0,0:0:0:0:
349,236,221359,2,0,L|349:142,1,75.0000028610231,10|0,0:0|0:0,0:0:0:0:
259,156,221546,2,0,L|250:58,1,75.0000028610231
418,98,221734,1,10,0:0:0:0:
497,101,221827,1,0,0:0:0:0:
497,101,221921,1,0,0:0:0:0:
422,97,222015,1,0,0:0:0:0:
238,106,222109,2,0,L|324:107,2,75.0000028610231,10|0|0,0:0|0:0|0:0,0:0:0:0:
397,189,222390,1,0,0:0:0:0:
145,249,222484,6,0,P|122:325|179:340,1,150.000005722046,2|0,0:0|0:0,0:0:0:0:
249,355,222765,1,0,0:0:0:0:
174,341,222859,2,0,L|53:338,2,75.0000028610231,10|0|0,0:0|0:0|0:0,0:0:0:0:
251,339,223140,1,0,0:0:0:0:
81,286,223234,2,0,P|32:211|113:175,1,150.000005722046,10|0,0:0|0:0,0:0:0:0:
328,156,223515,2,0,L|152:152,1,150.000005722046,10|0,0:0|0:0,0:0:0:0:
239,124,223796,2,0,L|367:125,1,75.0000028610231,10|0,0:0|0:0,0:0:0:0:
82,252,223984,6,0,P|39:226|120:178,1,150.000005722046,2|0,0:0|0:0,0:0:0:0:
168,159,224265,1,0,0:0:0:0:
261,164,224359,2,0,L|270:74,1,75.0000028610231,10|0,0:0|0:0,0:0:0:0:
170,76,224546,2,0,L|55:70,1,75.0000028610231
465,133,224734,2,0,P|477:208|399:245,1,150.000005722046,10|0,0:0|0:0,0:0:0:0:
252,263,225015,2,0,L|454:258,1,150.000005722046,10|0,0:0|0:0,0:0:0:0:
334,240,225296,1,10,0:0:0:0:
270,229,225390,1,0,0:0:0:0:
450,149,225484,6,0,L|561:149,3,75.0000028610231,2|0|0|0,0:0|0:0|0:0|0:0,0:0:0:0:
427,86,225859,2,0,L|326:86,1,75.0000028610231,10|0,0:0|0:0,0:0:0:0:
264,120,226046,2,0,L|263:229,1,75.0000028610231
419,215,226234,2,0,P|483:279|444:310,1,150.000005722046,10|0,0:0|0:0,0:0:0:0:
386,313,226515,1,0,0:0:0:0:
178,315,226609,2,0,L|176:212,1,75.0000028610231,10|0,0:0|0:0,0:0:0:0:
352,221,226796,2,0,L|461:220,1,75.0000028610231
145,194,226984,6,0,P|74:139|160:120,1,150.000005722046,2|0,0:0|0:0,0:0:0:0:
172,102,227265,1,0,0:0:0:0:
359,140,227359,2,0,L|251:145,1,75.0000028610231,10|0,0:0|0:0,0:0:0:0:
122,157,227546,1,0,0:0:0:0:
277,180,227640,1,0,0:0:0:0:
204,180,227734,2,0,L|378:178,1,150.000005722046,10|0,0:0|0:0,0:0:0:0:
199,251,228015,2,0,P|141:174|221:139,1,150.000005722046,10|0,0:0|0:0,0:0:0:0:
360,129,228296,2,0,L|451:130,1,75.0000028610231,10|0,0:0|0:0,0:0:0:0:
174,286,228484,6,0,P|134:210|205:199,1,150.000005722046,10|0,0:0|0:0,0:0:0:0:
208,181,228718,1,0,0:0:0:0:
237,180,228765,1,0,0:0:0:0:
268,180,228812,1,0,0:0:0:0:
97,161,228859,1,10,0:0:0:0:
31,163,228952,1,0,0:0:0:0:
97,161,229046,1,0,0:0:0:0:
290,124,229140,2,0,L|92:123,1,150.000005722046,10|8,0:0|0:0,0:0:0:0:
307,216,229421,1,10,0:0:0:0:
163,248,229609,1,10,0:0:0:0:
77,251,229702,1,2,0:0:0:0:
163,248,229796,1,10,0:0:0:0:
77,251,229890,1,2,0:0:0:0:
333,170,229984,5,2,0:0:0:0:
349,201,230030,1,0,0:0:0:0:
327,229,230077,1,0,0:0:0:0:
293,235,230124,1,0,0:0:0:0:
152,257,230171,1,0,0:0:0:0:
142,292,230218,1,0,0:0:0:0:
160,323,230265,1,0,0:0:0:0:
197,335,230312,1,0,0:0:0:0:
354,326,230359,6,0,L|468:326,1,75.0000028610231,6|0,0:0|0:0,0:0:0:0:
334,266,230546,2,0,L|203:264,1,75.0000028610231
438,169,230734,2,0,P|469:252|398:248,1,150.000005722046,10|0,0:0|0:0,0:0:0:0:
353,270,231015,1,0,0:0:0:0:
173,226,231109,2,0,L|385:222,1,150.000005722046,10|0,0:0|0:0,0:0:0:0:
254,249,231390,1,0,0:0:0:0:
54,278,231484,6,0,L|57:187,1,75.0000028610231,2|0,0:0|0:0,0:0:0:0:
281,220,231671,2,0,L|279:318,1,75.0000028610231
123,307,231859,1,10,0:0:0:0:
47,302,231952,1,0,0:0:0:0:
123,307,232046,1,0,0:0:0:0:
192,318,232140,1,0,0:0:0:0:
41,223,232234,2,0,P|26:122|68:111,1,150.000005722046,10|0,0:0|0:0,0:0:0:0:
132,108,232515,1,0,0:0:0:0:
328,88,232609,2,0,L|212:86,1,75.0000028610231,10|0,0:0|0:0,0:0:0:0:
170,165,232796,2,0,L|69:162,1,75.0000028610231
474,146,232984,6,0,P|523:218|449:251,1,150.000005722046,2|0,0:0|0:0,0:0:0:0:
411,264,233265,1,0,0:0:0:0:
226,262,233359,2,0,L|229:148,1,75.0000028610231,10|0,0:0|0:0,0:0:0:0:
325,180,233546,2,0,L|455:180,1,75.0000028610231
188,150,233734,2,0,P|138:178|224:212,1,150.000005722046,10|0,0:0|0:0,0:0:0:0:
259,243,234015,1,0,0:0:0:0:
85,212,234109,2,0,P|37:269|98:272,1,150.000005722046,10|0,0:0|0:0,0:0:0:0:
165,279,234390,1,0,0:0:0:0:
357,278,234484,6,0,L|486:269,1,75.0000028610231,2|0,0:0|0:0,0:0:0:0:
271,200,234671,1,10,0:0:0:0:
238,185,234718,1,0,0:0:0:0:
210,207,234765,1,0,0:0:0:0:
215,242,234812,1,0,0:0:0:0:
250,252,234859,1,10,0:0:0:0:
332,251,234952,1,0,0:0:0:0:
137,199,235046,5,10,0:0:0:0:
104,184,235093,1,0,0:0:0:0:
76,206,235140,1,0,0:0:0:0:
82,241,235187,1,0,0:0:0:0:
116,251,235234,1,10,0:0:0:0:
206,259,235327,1,0,0:0:0:0:
385,262,235421,2,0,L|272:265,1,75.0000028610231,10|10,0:0|0:0,0:0:0:0:
120,286,235609,2,0,L|14:291,3,75.0000028610231,10|10|10|10,0:0|0:0|0:0|0:0,0:0:0:0:
330,204,235984,5,2,0:0:0:0:
354,215,236030,1,0,0:0:0:0:
358,239,236077,1,0,0:0:0:0:
325,244,236124,1,0,0:0:0:0:
268,251,236171,2,0,L|263:347,1,75.0000028610231
354,272,236359,2,0,L|466:275,1,75.0000028610231,2|2,0:0|0:0,0:0:0:0:
199,211,236546,2,0,L|196:103,1,75.0000028610231,0|2,0:0|0:0,0:0:0:0:
382,156,236734,6,0,L|509:156,1,75.0000028610231,2|0,0:0|0:0,0:0:0:0:
290,98,236921,1,2,0:0:0:0:
123,157,237015,2,0,L|123:252,1,75.0000028610231,2|0,0:0|0:0,0:0:0:0:
312,162,237202,1,2,0:0:0:0:
312,162,237296,1,2,0:0:0:0:
230,158,237390,1,2,0:0:0:0:
455,181,237484,5,10,0:0:0:0:
469,169,237530,1,0,0:0:0:0:
463,153,237577,1,0,0:0:0:0:
440,144,237624,1,0,0:0:0:0:
380,138,237671,2,0,L|283:137,1,75.0000028610231
229,141,237859,2,0,L|227:50,1,75.0000028610231,2|2,0:0|0:0,0:0:0:0:
321,62,238046,2,0,L|427:63,1,75.0000028610231,0|2,0:0|0:0,0:0:0:0:
140,295,238234,6,0,L|14:294,1,75.0000028610231,2|0,0:0|0:0,0:0:0:0:
252,217,238421,1,2,0:0:0:0:
414,207,238515,2,0,L|409:97,1,75.0000028610231,2|0,0:0|0:0,0:0:0:0:
225,170,238702,1,2,0:0:0:0:
149,168,238796,1,2,0:0:0:0:
225,170,238890,1,2,0:0:0:0:
399,228,238984,6,0,L|398:160,2,37.5000014305115,10|0|0,0:0|0:0|0:0,0:0:0:0:
294,186,239171,2,0,L|295:112,1,75.0000028610231,2|0,0:0|0:0,0:0:0:0:
198,115,239359,2,0,L|197:4,1,75.0000028610231,2|0,0:0|0:0,0:0:0:0:
415,71,239546,2,0,L|417:124,2,37.5000014305115,2|0|0,0:0|0:0|0:0,0:0:0:0:
320,122,239734,2,0,L|319:216,1,75.0000028610231,2|0,0:0|0:0,0:0:0:0:
224,200,239921,2,0,L|220:307,1,75.0000028610231,2|0,0:0|0:0,0:0:0:0:
325,293,240109,2,0,L|445:295,1,75.0000028610231,2|0,0:0|0:0,0:0:0:0:
28,158,240296,6,0,L|294:162,1,250,6|0,0:0|0:0,0:0:0:0:
52,210,240765,1,2,0:0:0:0:
206,302,240952,1,2,0:0:0:0:
112,297,241046,1,2,0:0:0:0:
285,208,241234,1,2,0:0:0:0:
213,209,241327,1,2,0:0:0:0:
142,214,241421,1,2,0:0:0:0:
68,217,241515,1,2,0:0:0:0:
305,248,241609,1,2,0:0:0:0:
224,241,241702,1,0,0:0:0:0:
194,262,241749,1,0,0:0:0:0:
191,295,241796,1,0,0:0:0:0:
210,317,241843,1,0,0:0:0:0:
235,329,241890,1,0,0:0:0:0:
424,306,241984,6,0,P|483:259|388:260,1,175.00000166893,6|0,0:0|0:0,0:0:0:0:
340,220,242265,1,0,0:0:0:0:
254,234,242359,2,0,L|252:133,1,75.0000028610231,10|0,0:0|0:0,0:0:0:0:
334,138,242546,2,0,L|438:138,1,75.0000028610231
182,133,242734,2,0,L|181:208,1,75.0000028610231,10|0,0:0|0:0,0:0:0:0:
279,239,242921,2,0,L|279:315,1,75.0000028610231
378,235,243109,2,0,L|376:133,1,75.0000028610231,10|0,0:0|0:0,0:0:0:0:
274,136,243296,2,0,L|146:136,1,75.0000028610231
383,61,243484,6,0,L|143:58,1,175.00000166893,2|0,0:0|0:0,0:0:0:0:
281,98,243765,1,0,0:0:0:0:
123,156,243859,1,10,0:0:0:0:
45,159,243952,1,0,0:0:0:0:
123,156,244046,1,0,0:0:0:0:
200,158,244140,1,0,0:0:0:0:
16,72,244234,2,0,L|112:73,1,75.0000028610231,10|0,0:0|0:0,0:0:0:0:
307,72,244421,2,0,L|389:74,1,75.0000028610231,2|0,0:0|0:0,0:0:0:0:
136,168,244609,2,0,P|48:178|158:212,1,262.500002503395,10|0,0:0|0:0,0:0:0:0:
292,266,244984,5,2,0:0:0:0:
401,245,245077,1,2,0:0:0:0:
292,266,245171,1,2,0:0:0:0:
401,245,245265,1,2,0:0:0:0:
174,184,245359,2,0,L|412:160,1,175.00000166893,10|0,0:0|0:0,0:0:0:0:
430,163,245640,1,0,0:0:0:0:
245,292,245734,2,0,L|243:186,1,75.0000028610231,10|0,0:0|0:0,0:0:0:0:
330,207,245921,2,0,L|460:206,1,75.0000028610231
191,137,246109,2,0,L|303:139,1,75.0000028610231,10|0,0:0|0:0,0:0:0:0:
434,155,246296,2,0,L|435:265,1,75.0000028610231
222,259,246484,5,2,0:0:0:0:
290,244,246577,1,0,0:0:0:0:
355,225,246671,1,0,0:0:0:0:
138,215,246765,2,0,L|45:214,2,75.0000028610231,2|10|0,0:0|0:0|0:0,0:0:0:0:
314,235,247046,2,0,L|116:231,1,150.000005722046,2|2,0:0|0:0,0:0:0:0:
351,162,247327,2,0,L|265:163,1,75.0000028610231,2|0,0:0|0:0,0:0:0:0:
199,163,247515,1,0,0:0:0:0:
351,255,247609,2,0,L|455:257,3,75.0000028610231,10|2|2|2,0:0|0:0|0:0|0:0,0:0:0:0:
159,315,247984,6,0,L|-5:315,1,150.000005722046,2|0,0:0|0:0,0:0:0:0:
85,280,248265,1,0,0:0:0:0:
239,284,248359,2,0,P|301:232|228:213,1,150.000005722046,10|0,0:0|0:0,0:0:0:0:
196,189,248640,1,0,0:0:0:0:
122,210,248734,2,0,L|120:89,1,75.0000028610231,10|0,0:0|0:0,0:0:0:0:
225,108,248921,2,0,L|349:110,1,75.0000028610231
77,208,249109,2,0,L|67:360,1,150.000005722046,10|0,0:0|0:0,0:0:0:0:
408,245,249484,6,0,L|212:252,1,150.000005722046,2|2,0:0|0:0,0:0:0:0:
176,296,249765,1,0,0:0:0:0:
484,163,249859,2,0,L|266:168,1,150.000005722046,10|0,0:0|0:0,0:0:0:0:
398,142,250140,1,0,0:0:0:0:
232,237,250234,2,0,L|142:235,2,75.0000028610231,10|0|0,0:0|0:0|0:0,0:0:0:0:
317,241,250515,1,0,0:0:0:0:
160,302,250609,1,10,0:0:0:0:
124,309,250655,1,0,0:0:0:0:
91,292,250702,1,0,0:0:0:0:
78,257,250749,1,0,0:0:0:0:
91,223,250796,1,0,0:0:0:0:
123,204,250843,1,0,0:0:0:0:
160,209,250890,1,0,0:0:0:0:
341,145,250984,6,0,L|61:144,1,225.000008583069,2|0,0:0|0:0,0:0:0:0:
395,84,251359,2,0,P|433:157|357:199,1,150.000005722046,10|0,0:0|0:0,0:0:0:0:
296,204,251640,1,0,0:0:0:0:
28,235,251734,2,0,L|26:126,1,75.0000028610231,10|0,0:0|0:0,0:0:0:0:
129,144,251921,2,0,L|127:56,1,75.0000028610231
279,146,252109,2,0,L|86:144,1,150.000005722046,10|0,0:0|0:0,0:0:0:0:
209,188,252390,1,0,0:0:0:0:
389,237,252484,5,2,0:0:0:0:
479,220,252577,1,2,0:0:0:0:
389,237,252671,1,2,0:0:0:0:
479,220,252765,1,2,0:0:0:0:
207,232,252859,2,0,P|123:177|217:169,1,225.000008583069,10|0,0:0|0:0,0:0:0:0:
415,137,253234,2,0,P|429:238|364:255,1,150.000005722046,10|0,0:0|0:0,0:0:0:0:
173,263,253515,1,10,0:0:0:0:
316,193,253702,1,2,0:0:0:0:
208,188,253796,1,10,0:0:0:0:
459,260,253984,5,6,0:0:0:0:
154,177,256984,5,2,0:0:0:0:
342,188,257171,1,2,0:0:0:0:
242,277,258484,5,2,0:0:0:0:
166,272,258577,1,0,0:0:0:0:
166,272,258671,1,2,0:0:0:0:
242,277,258765,1,2,0:0:0:0:
392,211,258859,2,0,L|393:100,1,75.0000028610231,0|2,0:0|0:0,0:0:0:0:
231,154,259046,2,0,L|220:59,1,75.0000028610231,2|2,0:0|0:0,0:0:0:0:
417,168,259234,2,0,L|308:162,1,75.0000028610231,2|0,0:0|0:0,0:0:0:0:
149,165,259421,2,0,L|66:220,1,75.0000028610231,2|0,0:0|0:0,0:0:0:0:
296,241,259609,1,2,0:0:0:0:
152,242,259796,1,2,0:0:0:0:
435,284,259984,6,0,L|436:186,1,75.0000028610231,6|0,0:0|0:0,0:0:0:0:
283,212,260171,2,0,L|280:112,1,75.0000028610231
459,94,260359,2,0,L|364:94,1,75.0000028610231,10|0,0:0|0:0,0:0:0:0:
152,193,260546,2,0,L|156:77,1,75.0000028610231
384,94,260734,2,0,L|485:92,1,75.0000028610231,10|0,0:0|0:0,0:0:0:0:
149,329,260921,2,0,L|61:332,1,75.0000028610231
304,314,261109,2,0,L|305:257,2,37.5000014305115
206,263,261296,2,0,L|204:211,2,37.5000014305115
369,242,261484,5,2,0:0:0:0:
432,223,261577,1,0,0:0:0:0:
422,170,261671,1,0,0:0:0:0:
358,157,261765,1,0,0:0:0:0:
204,166,261859,2,0,L|95:165,1,75.0000028610231,10|0,0:0|0:0,0:0:0:0:
292,241,262046,2,0,L|379:238,1,75.0000028610231
104,203,262234,2,0,L|87:104,1,75.0000028610231,10|0,0:0|0:0,0:0:0:0:
434,226,262421,2,0,L|443:129,1,75.0000028610231
184,193,262609,2,0,L|346:188,1,150.000005722046,2|2,0:0|0:0,0:0:0:0:
165,303,262984,5,2,0:0:0:0:
129,312,263030,1,0,0:0:0:0:
93,300,263077,1,0,0:0:0:0:
70,272,263124,1,0,0:0:0:0:
65,235,263171,1,0,0:0:0:0:
81,202,263218,1,0,0:0:0:0:
112,182,263265,1,0,0:0:0:0:
157,182,263312,1,0,0:0:0:0:
303,187,263359,5,10,0:0:0:0:
339,196,263405,1,0,0:0:0:0:
375,184,263452,1,0,0:0:0:0:
398,156,263499,1,0,0:0:0:0:
403,119,263546,1,0,0:0:0:0:
387,86,263593,1,0,0:0:0:0:
356,66,263640,1,0,0:0:0:0:
311,66,263687,1,0,0:0:0:0:
133,175,263734,5,10,0:0:0:0:
97,184,263780,1,0,0:0:0:0:
61,172,263827,1,0,0:0:0:0:
38,144,263874,1,0,0:0:0:0:
33,107,263921,1,0,0:0:0:0:
49,74,263968,1,0,0:0:0:0:
80,54,264015,1,0,0:0:0:0:
125,54,264062,1,0,0:0:0:0:
379,175,264109,5,10,0:0:0:0:
415,184,264155,1,0,0:0:0:0:
451,172,264202,1,0,0:0:0:0:
474,144,264249,1,0,0:0:0:0:
479,107,264296,1,0,0:0:0:0:
463,74,264343,1,0,0:0:0:0:
432,54,264390,1,0,0:0:0:0:
387,54,264437,1,0,0:0:0:0:
167,286,264484,6,0,P|56:246|117:191,1,225.000008583069,2|0,0:0|0:0,0:0:0:0:
305,171,264859,2,0,L|44:169,1,225.000008583069,2|0,0:0|0:0,0:0:0:0:
319,99,265234,2,0,P|391:169|291:204,1,225.000008583069,2|0,0:0|0:0,0:0:0:0:
72,219,265609,6,0,L|56:249,13,18.7500007152558,8|0|0|0|0|0|0|0|0|0|0|0|0|0,0:0|0:0|0:0|0:0|0:0|0:0|0:0|0:0|0:0|0:0|0:0|0:0|0:0|0:0,0:0:0:0:
225,275,265984,6,0,L|413:275,1,150.000005722046,6|0,0:0|0:0,0:0:0:0:
307,247,266265,1,0,0:0:0:0:
74,263,266359,2,0,P|51:177|137:160,1,150.000005722046,2|0,0:0|0:0,0:0:0:0:
278,125,266734,2,0,L|126:123,1,150.000005722046,2|0,0:0|0:0,0:0:0:0:
198,141,267015,1,0,0:0:0:0:
447,114,267109,2,0,P|471:189|415:190,1,150.000005722046,2|0,0:0|0:0,0:0:0:0:
42,278,267484,6,0,P|8:189|60:171,1,150.000005722046,2|2,0:0|0:0,0:0:0:0:
119,164,267765,1,2,0:0:0:0:
195,119,267859,2,0,L|-25:123,1,150.000005722046,2|0,0:0|0:0,0:0:0:0:
356,155,268234,2,0,P|397:216|319:227,1,150.000005722046,2|0,0:0|0:0,0:0:0:0:
143,201,268515,2,0,L|346:202,1,150.000005722046,2|0,0:0|0:0,0:0:0:0:
32,110,268796,2,0,L|28:210,1,75.0000028610231,2|0,0:0|0:0,0:0:0:0:
385,124,268984,6,0,P|437:218|314:302,1,225.000008583069,2|0,0:0|0:0,0:0:0:0:
186,235,269359,2,0,L|434:207,1,225.000008583069,2|0,0:0|0:0,0:0:0:0:
103,175,269734,2,0,P|58:263|188:283,1,225.000008583069,2|0,0:0|0:0,0:0:0:0:
308,206,270109,2,0,L|122:207,1,150.000005722046,2|0,0:0|0:0,0:0:0:0:
188,188,270343,1,0,0:0:0:0:
212,190,270390,1,0,0:0:0:0:
239,189,270437,1,0,0:0:0:0:
460,138,270484,6,0,L|459:239,1,75.0000028610231,6|0,0:0|0:0,0:0:0:0:
384,227,270671,2,0,L|299:229,1,75.0000028610231
468,160,270859,1,2,0:0:0:0:
495,184,270905,1,0,0:0:0:0:
480,201,270952,1,0,0:0:0:0:
448,206,270999,1,0,0:0:0:0:
373,214,271046,2,0,L|262:214,1,75.0000028610231
377,161,271234,6,0,L|495:160,1,75.0000028610231,2|0,0:0|0:0,0:0:0:0:
217,176,271421,2,0,L|217:80,1,75.0000028610231
379,82,271609,2,0,L|506:81,1,75.0000028610231,2|0,0:0|0:0,0:0:0:0:
259,171,271796,2,0,L|166:171,1,75.0000028610231
401,221,271984,6,0,L|541:235,2,100.000003814697,10|10|10,0:0|0:0|0:0,0:0:0:0:
145,120,272359,1,6,0:0:0:0:
238,130,272484,1,0,0:0:0:0:
326,141,272609,1,0,0:0:0:0:
80,290,272734,1,2,0:0:0:0:
37,204,272859,1,0,0:0:0:0:
149,171,272984,1,0,0:0:0:0:
391,234,273109,1,2,0:0:0:0:
426,151,273234,1,0,0:0:0:0:
319,129,273359,1,0,0:0:0:0:
55,195,273484,6,0,L|175:172,2,100.000003814697,2|0|0,0:0|0:0|0:0,0:0:0:0:
325,239,273859,2,0,L|205:222,2,100.000003814697,2|0|0,0:0|0:0|0:0,0:0:0:0:
93,170,274234,1,2,0:0:0:0:
267,284,274421,2,0,L|379:287,1,75.0000028610231
148,277,274609,1,2,0:0:0:0:
68,283,274702,1,0,0:0:0:0:
37,226,274796,1,0,0:0:0:0:
95,201,274890,1,0,0:0:0:0:
310,186,274984,6,0,L|118:188,1,150.000005722046,10|10,0:0|0:0,0:0:0:0:
404,140,275452,2,0,P|436:233|346:249,1,150.000005722046,10|0,0:0|0:0,0:0:0:0:
212,259,275734,2,0,L|42:257,1,150.000005722046,10|0,0:0|0:0,0:0:0:0:
424,162,276015,2,0,P|489:231|407:280,1,150.000005722046,10|0,0:0|0:0,0:0:0:0:
266,254,276296,2,0,L|129:253,1,75.0000028610231,10|0,0:0|0:0,0:0:0:0:
382,254,276484,5,2,0:0:0:0:
448,252,276577,1,0,0:0:0:0:
445,189,276671,1,0,0:0:0:0:
230,180,276765,2,0,L|175:254,2,75.0000028610231,2|0|0,0:0|0:0|0:0,0:0:0:0:
413,108,277046,2,0,L|470:158,2,75.0000028610231,2|0|0,0:0|0:0|0:0,0:0:0:0:
101,196,277327,2,0,L|17:195,2,75.0000028610231,2|2|0,0:0|0:0|0:0,0:0:0:0:
322,315,277609,2,0,P|406:269|306:223,1,225.000008583069,10|0,0:0|0:0,0:0:0:0:
97,200,277984,5,6,0:0:0:0:
249,222,278171,1,2,0:0:0:0:
111,230,278359,2,0,L|108:298,1,50,8|0,0:0|0:0,0:0:0:0:
186,289,278530,1,8,0:0:0:0:
262,286,278645,2,8,L|262:217,1,50
196,228,278866,1,8,0:0:0:0:
127,229,278951,1,8,0:0:0:0:
196,228,279032,1,8,0:0:0:0:
265,225,279107,1,8,0:0:0:0:
265,225,279173,1,8,0:0:0:0:
196,228,279229,5,8,0:0:0:0:
137,228,279275,1,8,0:0:0:0:
113,219,279296,1,8,0:0:0:0:
94,202,279317,1,8,0:0:0:0:
82,181,279339,1,8,0:0:0:0:
78,156,279360,1,8,0:0:0:0:
82,132,279382,1,8,0:0:0:0:
95,110,279403,1,8,0:0:0:0:
114,94,279425,1,8,0:0:0:0:
137,85,279446,1,8,0:0:0:0:
357,204,279489,5,6,0:0:0:0:
394,207,279535,1,0,0:0:0:0:
422,231,279582,1,0,0:0:0:0:
431,267,279629,1,0,0:0:0:0:
418,301,279676,1,0,0:0:0:0:
388,322,279723,1,0,0:0:0:0:
351,321,279770,1,0,0:0:0:0:
173,328,279864,5,10,0:0:0:0:
120,304,279926,1,0,0:0:0:0:
110,260,279989,1,0,0:0:0:0:
148,218,280051,1,0,0:0:0:0:
196,207,280114,1,0,0:0:0:0:
254,205,280176,1,0,0:0:0:0:
326,205,280239,6,0,L|331:113,1,75.0000028610231,2|0,0:0|0:0,0:0:0:0:
235,135,280426,2,0,L|230:226,1,75.0000028610231
325,268,280614,2,0,L|412:269,1,75.0000028610231,10|0,0:0|0:0,0:0:0:0:
166,286,280801,2,0,L|90:286,1,75.0000028610231
348,344,280989,6,0,P|407:269|326:256,1,150.000005722046,6|0,0:0|0:0,0:0:0:0:
298,248,281270,1,0,0:0:0:0:
101,169,281364,2,0,L|294:168,1,150.000005722046,2|0,0:0|0:0,0:0:0:0:
88,115,281739,2,0,P|57:187|130:213,1,150.000005722046,2|0,0:0|0:0,0:0:0:0:
205,218,282020,1,0,0:0:0:0:
379,173,282114,2,0,L|200:169,1,150.000005722046,2|0,0:0|0:0,0:0:0:0:
138,216,282395,1,0,0:0:0:0:
428,260,282489,6,0,L|429:168,1,75.0000028610231,2|0,0:0|0:0,0:0:0:0:
328,178,282676,2,0,L|325:310,1,75.0000028610231
426,252,282864,2,0,L|465:253,2,37.5000014305115,2|0|0,0:0|0:0|0:0,0:0:0:0:
235,258,283051,2,0,L|234:163,1,75.0000028610231
336,160,283239,6,0,L|432:158,1,75.0000028610231,2|0,0:0|0:0,0:0:0:0:
179,186,283426,2,0,L|85:188,1,75.0000028610231
363,240,283614,2,0,L|385:284,7,37.5000014305115,2|0|0|0|0|0|0|0,0:0|0:0|0:0|0:0|0:0|0:0|0:0|0:0,0:0:0:0:
119,268,283989,6,0,P|45:259|98:173,1,200,6|0,0:0|0:0,0:0:0:0:
186,156,284364,1,0,0:0:0:0:
413,116,284489,2,0,L|190:117,1,200,2|0,0:0|0:0,0:0:0:0:
308,168,284864,1,0,0:0:0:0:
87,222,284989,6,0,P|51:237|149:291,1,200,2|0,0:0|0:0,0:0:0:0:
211,333,285364,1,0,0:0:0:0:
470,245,285489,2,0,L|207:239,1,200.000007629395,2|0,0:0|0:0,0:0:0:0:
356,213,285864,1,0,0:0:0:0:
114,285,285989,6,0,P|35:213|132:182,1,200.000007629395,2|0,0:0|0:0,0:0:0:0:
186,162,286364,1,0,0:0:0:0:
414,169,286489,1,2,0:0:0:0:
181,202,286655,1,2,0:0:0:0:
320,199,286822,1,2,0:0:0:0:
380,200,286905,1,2,0:0:0:0:
179,287,286984,5,6,0:0:0:0:
287,318,287171,1,0,0:0:0:0:
315,311,287218,1,0,0:0:0:0:
320,291,287265,1,0,0:0:0:0:
286,279,287312,1,0,0:0:0:0:
225,272,287359,2,0,L|398:261,1,150.000005722046,10|0,0:0|0:0,0:0:0:0:
340,250,287593,1,0,0:0:0:0:
310,249,287640,1,0,0:0:0:0:
284,249,287687,1,0,0:0:0:0:
88,240,287734,6,0,P|48:157|102:148,1,150.000005722046,10|0,0:0|0:0,0:0:0:0:
299,133,288015,2,0,L|470:133,1,150.000005722046,10|0,0:0|0:0,0:0:0:0:
373,116,288296,2,0,L|264:115,1,75.0000028610231,10|0,0:0|0:0,0:0:0:0:
465,219,288484,5,6,0:0:0:0:
289,289,288765,1,2,0:0:0:0:
421,259,289046,1,2,0:0:0:0:
215,229,289327,1,2,0:0:0:0:
423,162,289609,1,2,0:0:0:0:
423,162,289796,1,2,0:0:0:0:
175,287,289984,6,0,L|169:160,1,100,6|0,0:0|0:0,0:0:0:0:
323,177,290359,1,0,0:0:0:0:
165,345,290734,5,0,0:0:0:0:
328,312,290921,1,0,0:0:0:0:
165,345,291109,1,0,0:0:0:0:
360,354,291296,1,0,0:0:0:0:
119,191,291859,6,0,L|115:338,1,100
252,308,292234,1,0,0:0:0:0:
109,351,292421,1,0,0:0:0:0:
391,275,292609,2,0,P|464:206|390:157,1,200
189,247,293359,6,0,L|319:248,1,100
141,166,293734,1,0,0:0:0:0:
300,157,293921,1,0,0:0:0:0:
141,166,294109,1,0,0:0:0:0:
300,157,294296,1,0,0:0:0:0:
44,328,294484,5,0,0:0:0:0:
310,279,294859,2,0,P|317:274|280:188,1,100
190,168,295234,1,0,0:0:0:0:
309,104,295421,1,0,0:0:0:0:
174,47,295609,1,0,0:0:0:0:
354,48,295796,1,0,0:0:0:0:
91,202,295984,5,4,0:0:0:0:
301,195,296359,2,0,L|300:321,1,100
149,287,296734,1,0,0:0:0:0:
300,294,296921,1,0,0:0:0:0:
149,287,297109,1,0,0:0:0:0:
449,222,297296,1,0,0:0:0:0:
201,289,297859,6,0,L|203:158,1,100
342,205,298234,1,0,0:0:0:0:
203,148,298421,1,0,0:0:0:0:
368,86,298609,2,0,L|366:215,1,100
109,242,298984,5,0,0:0:0:0:
341,204,299359,2,0,P|409:270|330:324,1,200
212,314,299921,1,0,0:0:0:0:
373,317,300109,1,0,0:0:0:0:
212,314,300296,6,0,L|435:306,1,200
247,215,300859,1,0,0:0:0:0:
413,213,301046,1,0,0:0:0:0:
247,215,301234,1,0,0:0:0:0:
413,213,301421,1,0,0:0:0:0:
228,216,301609,2,0,L|227:357,1,100
488,313,301984,5,4,0:0:0:0:
239,249,302359,2,0,L|242:372,1,100
395,306,302734,1,0,0:0:0:0:
395,306,302921,1,0,0:0:0:0:
233,309,303109,1,0,0:0:0:0:
395,306,303296,1,0,0:0:0:0:
170,301,303859,6,0,P|141:249|173:225,1,100
307,211,304234,1,0,0:0:0:0:
307,211,304421,1,0,0:0:0:0:
141,164,304609,2,0,P|78:207|153:302,1,200
353,302,305359,6,0,L|358:174,1,100
189,193,305734,1,0,0:0:0:0:
323,193,305921,1,0,0:0:0:0:
189,193,306109,1,0,0:0:0:0:
323,193,306296,1,0,0:0:0:0:
130,191,306859,6,0,P|68:258|165:287,1,200
311,275,307421,1,0,0:0:0:0:
165,237,307609,1,0,0:0:0:0:
311,275,307796,1,0,0:0:0:0:
129,283,308359,6,0,L|127:157,1,100
282,194,308734,1,0,0:0:0:0:
282,194,308921,1,0,0:0:0:0:
111,195,309109,1,0,0:0:0:0:
282,194,309296,1,0,0:0:0:0:
382,209,309859,6,0,L|387:101,1,100
241,139,310234,1,0,0:0:0:0:
386,109,310421,1,0,0:0:0:0:
203,86,310609,2,0,P|137:119|213:194,1,200
384,245,311359,5,0,0:0:0:0:
176,216,311734,1,0,0:0:0:0:
319,198,311921,1,0,0:0:0:0:
179,143,312109,1,0,0:0:0:0:
335,141,312296,1,0,0:0:0:0:
256,192,312484,12,0,313984,0:0:0:0:
