osu file format v14

[General]
AudioFilename: audio.mp3
AudioLeadIn: 0
PreviewTime: 216438
Countdown: 0
SampleSet: Normal
StackLeniency: 0.2
Mode: 1
LetterboxInBreaks: 0
WidescreenStoryboard: 0

[Editor]
Bookmarks: 25985,49985,61985,109985,121985,145985,157985,181985,205985,217985,241985,253985,265985,289985
DistanceSpacing: 1.1
BeatDivisor: 4
GridSize: 32
TimelineZoom: 4.46

[Metadata]
Title:Hypnotize
TitleUnicode:Hypnotize
Artist:Camellia vs. lapix
ArtistUnicode:かめりあ vs. lapix
Creator:Genjuro
Version:Narcosis
Source:
Tags:l + galaxy burst エグジットチューンズ株式会社 exit tunes inc. edp hitech ninja cametek かめるかめりあ kamelcamellia 大箭将也 masaya oya dubcore psystyle hi-tech trap
BeatmapID:2196763
BeatmapSetID:1051122

[Difficulty]
HPDrainRate:5
CircleSize:2
OverallDifficulty:6.5
ApproachRate:9
SliderMultiplier:1.4
SliderTickRate:1

[Events]
//Background and Video events
0,0,"bg.jpg",0,-80
//Break Periods
//Storyboard Layer 0 (Background)
//Storyboard Layer 1 (Fail)
//Storyboard Layer 2 (Pass)
//Storyboard Layer 3 (Foreground)
//Storyboard Layer 4 (Overlay)
//Storyboard Sound Samples

[TimingPoints]
485,375,4,1,0,75,1,0
485,-125,4,1,0,75,0,0
1985,375,4,1,0,75,1,0
1985,-125,4,1,0,75,0,0
12860,-122.819795112018,4,1,0,75,0,0
13047,-120.714339173493,4,1,0,75,0,0
13235,-118.679711940603,4,1,0,75,0,0
13422,-116.712670911117,4,1,0,75,0,0
13610,-114.809771689288,4,1,0,75,0,0
13797,-112.967927275767,4,1,0,75,0,0
13985,-111.18424563713,4,1,0,100,0,0
20360,-108.115705427949,4,1,0,100,0,0
20547,-106.677704253133,4,1,0,100,0,0
20641,-105.973065885575,4,1,0,100,0,0
20735,-105.277564298272,4,1,0,100,0,0
21110,-102.584619488,4,1,0,100,0,0
21297,-101.28910645789,4,1,0,100,0,0
21485,-100.026006761758,4,1,0,100,0,0
21860,-97.5919193890746,4,1,0,100,0,0
22047,-96.4187195015538,4,1,0,100,0,0
22141,-95.8426340622805,4,1,0,100,0,0
22235,-95.273482531607,4,1,0,100,0,0
22422,-94.1550432265803,4,1,0,100,0,0
22610,-93.0626451195622,4,1,0,100,0,0
22985,-90.9090909090909,4,1,0,100,0,0
23172,-88.8991616809054,4,1,0,100,0,0
23360,-86.9761102717917,4,1,0,100,0,0
23547,-85.1345679548378,4,1,0,100,0,0
23735,-83.3693210902706,4,1,0,100,0,0
23922,-81.6758579232116,4,1,0,100,0,0
24110,-80.049758930151,4,1,0,100,0,0
24203,-79.2607822405121,4,1,0,100,0,0
24297,-78.4872061929545,4,1,0,100,0,0
24485,-76.9230769230769,4,1,0,100,0,0
24672,-78.6516588814633,4,1,0,100,0,0
24860,-80.459779363193,4,1,0,100,0,0
25047,-82.3529217993125,4,1,0,100,0,0
25235,-84.3373697198481,4,1,0,100,0,0
25422,-86.4197424173157,4,1,0,100,0,0
25610,-88.6076285851754,4,1,0,100,0,0
25703,-89.7435667324188,4,1,0,100,0,0
25797,-90.9090909090909,4,1,0,100,0,0
25985,-83.3333333333333,4,1,0,100,0,0
26360,-100,4,1,0,100,0,0
37985,-93.0232558139535,4,1,0,100,0,0
48391,-93.0232558139535,4,1,0,75,0,0
49797,-100,4,1,0,100,0,0
56031,-99.6119119908835,4,1,0,100,0,0
56078,-99.2268245828504,4,1,0,100,0,0
56172,-98.4655134385733,4,1,0,100,0,0
56360,-96.9773140969133,4,1,0,100,0,0
56453,-96.2500036093751,4,1,0,100,0,0
56641,-94.8276270808737,4,1,0,100,0,0
56735,-94.1319994201469,4,1,0,100,0,0
56922,-92.7710910436933,4,1,0,100,0,0
57016,-92.1052873961283,4,1,0,100,0,0
57203,-90.8018621645893,4,1,0,100,0,0
57297,-90.1639270357437,4,1,0,100,0,0
57391,-89.5348930908609,4,1,0,100,0,0
57485,-88.9145753217596,4,1,0,100,0,0
57531,-88.6076285851754,4,1,0,100,0,0
57578,-88.3027158383283,4,1,0,100,0,0
57672,-87.6992966516409,4,1,0,100,0,0
57860,-86.5168655977796,4,1,0,100,0,0
57953,-85.9375268554771,4,1,0,100,0,0
58141,-84.8017462375585,4,1,0,100,0,0
58235,-84.2450756647147,4,1,0,100,0,0
58422,-83.1533755697046,4,1,0,100,0,0
58516,-82.6179991572964,4,1,0,100,0,0
58703,-81.5677983383008,4,1,0,100,0,0
58797,-81.052646936291,4,1,0,100,0,0
58891,-80.5439616997353,4,1,0,100,0,0
58985,-80,4,1,0,100,0,0
59031,-79.5056655737288,4,1,0,100,0,0
59078,-79.0174027927911,4,1,0,100,0,0
59172,-78.0586501473747,4,1,0,100,0,0
59266,-77.1228845192776,4,1,0,100,0,0
59360,-76.2092889978174,4,1,0,100,0,0
59453,-75.317084927545,4,1,0,100,0,0
59547,-74.4455296948329,4,1,0,100,0,0
59641,-73.5939146663841,4,1,0,100,0,0
59735,-72.7615632676345,4,1,0,100,0,0
59781,-72.3524083222634,4,1,0,100,0,0
59828,-71.9478291900977,4,1,0,100,0,0
59922,-71.1520947176685,4,1,0,100,0,0
60016,-70.3737691627773,4,1,0,100,0,0
60110,-69.6122874040743,4,1,0,100,0,0
60203,-68.8670610912812,4,1,0,100,0,0
60297,-68.1376680700755,4,1,0,100,0,0
60391,-67.4235635915454,4,1,0,100,0,0
60485,-66.7242719547876,4,1,0,100,0,0
60860,-74.0740740740741,4,1,0,100,0,0
61235,-83.3333333333333,4,1,0,100,0,0
61422,-80,4,1,0,100,0,0
61485,-78.9473476454348,4,1,0,100,0,0
61547,-77.9220981615839,4,1,0,100,0,0
61610,-76.9230769230769,4,1,0,100,0,0
61797,-74.0740740740741,4,1,0,100,0,0
61985,-66.6666666666667,4,1,0,100,0,0
62078,-67.2210611651158,4,1,0,100,0,0
62172,-67.7847535820853,4,1,0,100,0,0
62266,-68.3579798029513,4,1,0,100,0,0
62360,-68.941031288887,4,1,0,100,0,0
62453,-69.5340661296783,4,1,0,100,0,0
62547,-70.1373921374581,4,1,0,100,0,0
62641,-70.7512795368904,4,1,0,100,0,0
62735,-71.4285714285714,4,1,0,100,0,0
62828,-71.745584418007,4,1,0,100,0,0
62922,-72.0653719401944,4,1,0,100,0,0
63016,-72.3880753675685,4,1,0,100,0,0
63110,-72.7136290063392,4,1,0,100,0,0
63203,-73.0421774749611,4,1,0,100,0,0
63297,-73.3736546023258,4,1,0,100,0,0
63391,-73.7082083672084,4,1,0,100,0,0
63485,-74.0740740740741,4,1,0,100,0,0
63578,-74.7591447254807,4,1,0,100,0,0
63672,-75.45700535292,4,1,0,100,0,0
63766,-76.1680175064571,4,1,0,100,0,0
63860,-76.8926156176591,4,1,0,100,0,0
63953,-77.6310723024755,4,1,0,100,0,0
64047,-78.3838504185306,4,1,0,100,0,0
64141,-79.1513706642858,4,1,0,100,0,0
64235,-80,4,1,0,100,0,0
64328,-80.3978729938721,4,1,0,100,0,0
64422,-80.7996580558471,4,1,0,100,0,0
64516,-81.2055450394375,4,1,0,100,0,0
64610,-81.6154638451657,4,1,0,100,0,0
64703,-82.0296094078118,4,1,0,100,0,0
64797,-82.4479114707306,4,1,0,100,0,0
64891,-82.8705702572551,4,1,0,100,0,0
64985,-83.3333333333333,4,1,0,100,0,0
65078,-84.2013793869971,4,1,0,100,0,0
65172,-85.087699892279,4,1,0,100,0,0
65266,-85.9928780698383,4,1,0,100,0,0
65360,-86.9175977714328,4,1,0,100,0,0
65453,-87.8623443079259,4,1,0,100,0,0
65547,-88.8278542832347,4,1,0,100,0,0
65641,-89.814819804527,4,1,0,100,0,0
65735,-90.9090909090909,4,1,0,100,0,0
65828,-91.4232218640464,4,1,0,100,0,0
65922,-91.9431166326017,4,1,0,100,0,0
66016,-92.4690436759034,4,1,0,100,0,0
66110,-93.000935589412,4,1,0,100,0,0
66203,-93.5390693985064,4,1,0,100,0,0
66297,-94.0833785717579,4,1,0,100,0,0
66391,-94.6341491112434,4,1,0,100,0,0
66485,-95.1914061198555,4,1,0,100,0,0
66672,-90.9090909090909,4,1,0,100,0,0
66860,-83.3333333333333,4,1,0,100,0,0
66922,-82.6446280991736,4,1,0,100,0,0
66985,-81.9672131147541,4,1,0,100,0,0
67047,-81.3008130081301,4,1,0,100,0,0
67141,-80.3212851405622,4,1,0,100,0,0
67235,-79.3650793650794,4,1,0,100,0,0
67328,-78.4313725490196,4,1,0,100,0,0
67422,-77.5193798449612,4,1,0,100,0,0
67516,-76.6283524904215,4,1,0,100,0,0
67610,-75.7575757575758,4,1,0,100,0,0
67672,-75.187969924812,4,1,0,100,0,0
67735,-74.6268656716418,4,1,0,100,0,0
67797,-74.0740740740741,4,1,0,100,0,0
67985,-66.6666666666667,4,1,0,100,0,0
68078,-67.2210611651158,4,1,0,100,0,0
68172,-67.7847535820853,4,1,0,100,0,0
68266,-68.3579798029513,4,1,0,100,0,0
68360,-68.941031288887,4,1,0,100,0,0
68453,-69.5340661296783,4,1,0,100,0,0
68547,-70.1373921374581,4,1,0,100,0,0
68641,-70.7512795368904,4,1,0,100,0,0
68735,-71.4285714285714,4,1,0,100,0,0
68828,-71.745584418007,4,1,0,100,0,0
68922,-72.0653719401944,4,1,0,100,0,0
69016,-72.3880753675685,4,1,0,100,0,0
69110,-72.7136290063392,4,1,0,100,0,0
69203,-73.0421774749611,4,1,0,100,0,0
69297,-73.3736546023258,4,1,0,100,0,0
69391,-73.7082083672084,4,1,0,100,0,0
69485,-74.0740740740741,4,1,0,100,0,0
69578,-74.7591447254807,4,1,0,100,0,0
69672,-75.45700535292,4,1,0,100,0,0
69766,-76.1680175064571,4,1,0,100,0,0
69860,-76.8926156176591,4,1,0,100,0,0
69953,-77.6310723024755,4,1,0,100,0,0
70047,-78.3838504185306,4,1,0,100,0,0
70141,-79.1513706642858,4,1,0,100,0,0
70235,-80,4,1,0,100,0,0
70422,-83.3333333333333,4,1,0,100,0,0
70610,-76.9230769230769,4,1,0,100,0,0
70703,-77.3675834467413,4,1,0,100,0,0
70797,-77.817257066196,4,1,0,100,0,0
70891,-78.2721884042884,4,1,0,100,0,0
70985,-78.7324702155065,4,1,0,100,0,0
71078,-79.1981347255309,4,1,0,100,0,0
71172,-79.669403841818,4,1,0,100,0,0
71219,-79.9071798199212,4,1,0,100,0,0
71266,-80.1463151128701,4,1,0,100,0,0
71360,-80.6289704728647,4,1,0,100,0,0
71641,-82.1124579378934,4,1,0,100,0,0
71735,-82.6191595483376,4,1,0,100,0,0
71922,-83.6514878253625,4,1,0,100,0,0
72016,-84.1774224368185,4,1,0,100,0,0
72297,-85.7956690346271,4,1,0,100,0,0
72485,-86.9565217391304,4,1,0,100,0,0
72766,-89.8667186695412,4,1,0,100,0,0
73047,-92.9785396232696,4,1,0,100,0,0
73328,-96.3135043090662,4,1,0,100,0,0
73610,-100,4,1,0,100,0,0
73797,-93.7499707031342,4,1,0,100,0,0
73985,-88.2353200692118,4,1,0,100,0,0
74172,-83.3333333333333,4,1,0,100,0,0
74360,-66.6666666666667,4,1,0,100,0,0
74453,-67.2210611651158,4,1,0,100,0,0
74547,-67.7847535820853,4,1,0,100,0,0
74641,-68.3579798029513,4,1,0,100,0,0
74735,-68.941031288887,4,1,0,100,0,0
74828,-69.5340661296783,4,1,0,100,0,0
74922,-70.1373921374581,4,1,0,100,0,0
75016,-70.7512795368904,4,1,0,100,0,0
75110,-71.4285714285714,4,1,0,100,0,0
75203,-71.745584418007,4,1,0,100,0,0
75297,-72.0653719401944,4,1,0,100,0,0
75391,-72.3880753675685,4,1,0,100,0,0
75485,-72.7136290063392,4,1,0,100,0,0
75578,-73.0421774749611,4,1,0,100,0,0
75672,-73.3736546023258,4,1,0,100,0,0
75766,-73.7082083672084,4,1,0,100,0,0
75860,-74.0740740740741,4,1,0,100,0,0
75953,-74.7591447254807,4,1,0,100,0,0
76047,-75.45700535292,4,1,0,100,0,0
76141,-76.1680175064571,4,1,0,100,0,0
76235,-76.8926156176591,4,1,0,100,0,0
76328,-77.6310723024755,4,1,0,100,0,0
76422,-78.3838504185306,4,1,0,100,0,0
76516,-79.1513706642858,4,1,0,100,0,0
76610,-80,4,1,0,100,0,0
76797,-83.3333333333333,4,1,0,100,0,0
76985,-76.9230769230769,4,1,0,100,0,0
77078,-77.3675834467413,4,1,0,100,0,0
77266,-78.2721884042884,4,1,0,100,0,0
77360,-78.7324702155065,4,1,0,100,0,0
77547,-79.669403841818,4,1,0,100,0,0
77735,-80.6289704728647,4,1,0,100,0,0
77828,-81.1174743263194,4,1,0,100,0,0
77922,-81.6119336233821,4,1,0,100,0,0
78016,-82.1124579378934,4,1,0,100,0,0
78110,-82.6191595483376,4,1,0,100,0,0
78203,-83.1320844123185,4,1,0,100,0,0
78297,-83.6514878253625,4,1,0,100,0,0
78391,-84.1774224368185,4,1,0,100,0,0
78485,-84.7100122151838,4,1,0,100,0,0
78578,-85.249384286322,4,1,0,100,0,0
78672,-85.7956690346271,4,1,0,100,0,0
78766,-86.3490002081011,4,1,0,100,0,0
78860,-83.3333333333333,4,1,0,100,0,0
78922,-82.6446280991736,4,1,0,100,0,0
78985,-81.9672131147541,4,1,0,100,0,0
79047,-81.3008130081301,4,1,0,100,0,0
79141,-80.3212851405622,4,1,0,100,0,0
79235,-79.3650793650794,4,1,0,100,0,0
79297,-78.740157480315,4,1,0,100,0,0
79360,-78.125,4,1,0,100,0,0
79422,-77.5193798449612,4,1,0,100,0,0
79516,-76.6283524904215,4,1,0,100,0,0
79610,-75.7575757575758,4,1,0,100,0,0
79672,-75.187969924812,4,1,0,100,0,0
79735,-74.6268656716418,4,1,0,100,0,0
79797,-74.0740740740741,4,1,0,100,0,0
79985,-76.9230769230769,4,1,0,100,0,0
80078,-78.4313725490196,4,1,0,100,0,0
80172,-80,4,1,0,100,0,0
80360,-74.0740740740741,4,1,0,100,0,0
80453,-74.7591447254807,4,1,0,100,0,0
80547,-75.45700535292,4,1,0,100,0,0
80641,-76.1680175064571,4,1,0,100,0,0
80735,-76.8926156176591,4,1,0,100,0,0
80828,-77.6310723024755,4,1,0,100,0,0
80922,-78.3838504185306,4,1,0,100,0,0
81016,-79.1513706642858,4,1,0,100,0,0
81110,-78.4313725490196,4,1,0,100,0,0
81485,-76.9230769230769,4,1,0,100,0,0
81547,-75.9689651583535,4,1,0,100,0,0
81610,-75.0382882865982,4,1,0,100,0,0
81672,-74.130083470474,4,1,0,100,0,0
81735,-73.2436538036162,4,1,0,100,0,0
81797,-72.3781206731455,4,1,0,100,0,0
81860,-71.4285714285714,4,1,0,100,0,0
82047,-72.7136290063392,4,1,0,100,0,0
82141,-73.3736546023258,4,1,0,100,0,0
82235,-74.045826962307,4,1,0,100,0,0
82328,-74.7303728148839,4,1,0,100,0,0
82422,-75.42769388123,4,1,0,100,0,0
82516,-76.1381511525032,4,1,0,100,0,0
82610,-76.9230769230769,4,1,0,100,0,0
82985,-66.6666666666667,4,1,0,100,0,0
83172,-68.1818026859539,4,1,0,100,0,0
83453,-70.588218685125,4,1,0,100,0,0
83547,-71.4285714285714,4,1,0,100,0,0
83735,-66.6666666666667,4,1,0,100,0,0
84016,-70.1373921374581,4,1,0,100,0,0
84110,-71.3760080968944,4,1,0,100,0,0
84297,-73.9893425750955,4,1,0,100,0,0
84485,-76.8012583118162,4,1,0,100,0,0
84860,-83.3333333333333,4,1,0,100,0,0
85235,-90.9090909090909,4,1,0,100,0,0
85610,-76.9230769230769,4,1,0,100,0,0
85985,-66.6666666666667,4,1,0,100,0,0
86078,-67.3647450648588,4,1,0,100,0,0
86172,-68.0775975688128,4,1,0,100,0,0
86266,-68.8056982127032,4,1,0,100,0,0
86360,-69.5495415294222,4,1,0,100,0,0
86453,-70.3096436707259,4,1,0,100,0,0
86547,-71.0865436016424,4,1,0,100,0,0
86641,-71.8808043749533,4,1,0,100,0,0
86735,-72.6930144920794,4,1,0,100,0,0
86828,-73.5237893572844,4,1,0,100,0,0
86922,-74.3737728327483,4,1,0,100,0,0
87110,-66.6666666666667,4,1,0,100,0,0
87203,-67.3647450648588,4,1,0,100,0,0
87297,-68.0775975688128,4,1,0,100,0,0
87391,-68.8056982127032,4,1,0,100,0,0
87485,-69.5495415294222,4,1,0,100,0,0
87578,-70.3096436707259,4,1,0,100,0,0
87672,-71.0865436016424,4,1,0,100,0,0
87766,-71.8808043749533,4,1,0,100,0,0
87860,-72.6930144920794,4,1,0,100,0,0
87953,-73.5237893572844,4,1,0,100,0,0
88047,-74.3737728327483,4,1,0,100,0,0
88141,-75.2436389027672,4,1,0,100,0,0
88235,-76.1340934561224,4,1,0,100,0,0
88328,-77.0459355572386,4,1,0,100,0,0
88422,-77.9798235004675,4,1,0,100,0,0
88610,-66.6666666666667,4,1,0,100,0,0
88703,-67.3647450648588,4,1,0,100,0,0
88797,-68.0775975688128,4,1,0,100,0,0
88891,-68.8056982127032,4,1,0,100,0,0
88985,-69.5495415294222,4,1,0,100,0,0
89078,-70.3096436707259,4,1,0,100,0,0
89172,-71.0865436016424,4,1,0,100,0,0
89266,-71.8808043749533,4,1,0,100,0,0
89360,-72.6930144920794,4,1,0,100,0,0
89453,-73.5237893572844,4,1,0,100,0,0
89547,-74.3737728327483,4,1,0,100,0,0
89641,-75.2436389027672,4,1,0,100,0,0
89735,-76.1340934561224,4,1,0,100,0,0
89828,-77.0459355572386,4,1,0,100,0,0
89922,-77.9798235004675,4,1,0,100,0,0
90110,-66.6666666666667,4,1,0,100,0,0
90203,-67.3647450648588,4,1,0,100,0,0
90297,-68.0775975688128,4,1,0,100,0,0
90391,-68.8056982127032,4,1,0,100,0,0
90485,-69.5495415294222,4,1,0,100,0,0
90578,-70.3096436707259,4,1,0,100,0,0
90672,-71.0865436016424,4,1,0,100,0,0
90766,-71.8808043749533,4,1,0,100,0,0
90860,-72.6930144920794,4,1,0,100,0,0
90953,-73.5237893572844,4,1,0,100,0,0
91047,-74.3737728327483,4,1,0,100,0,0
91141,-75.2436389027672,4,1,0,100,0,0
91235,-76.1340934561224,4,1,0,100,0,0
91328,-77.0459355572386,4,1,0,100,0,0
91422,-77.9798235004675,4,1,0,100,0,0
91610,-79.9172057748173,4,1,0,100,0,0
91797,-72.7272727272727,4,1,0,100,0,0
91985,-66.6666666666667,4,1,0,100,0,0
92172,-68.0775975688128,4,1,0,100,0,0
92266,-68.8056982127032,4,1,0,100,0,0
92360,-69.5495415294222,4,1,0,100,0,0
92453,-70.3096436707259,4,1,0,100,0,0
92547,-71.0865436016424,4,1,0,100,0,0
92641,-71.8808043749533,4,1,0,100,0,0
92735,-72.6930144920794,4,1,0,100,0,0
92828,-73.5237893572844,4,1,0,100,0,0
92922,-74.3737728327483,4,1,0,100,0,0
93110,-66.6666666666667,4,1,0,100,0,0
93203,-67.3647450648588,4,1,0,100,0,0
93297,-68.0775975688128,4,1,0,100,0,0
93391,-68.8056982127032,4,1,0,100,0,0
93485,-69.5495415294222,4,1,0,100,0,0
93578,-70.3096436707259,4,1,0,100,0,0
93672,-71.0865436016424,4,1,0,100,0,0
93766,-71.8808043749533,4,1,0,100,0,0
93860,-72.6930144920794,4,1,0,100,0,0
93953,-73.5237893572844,4,1,0,100,0,0
94047,-74.3737728327483,4,1,0,100,0,0
94141,-75.2436389027672,4,1,0,100,0,0
94235,-76.1340934561224,4,1,0,100,0,0
94516,-80,4,1,0,100,0,0
94610,-76.9716282578242,4,1,0,100,0,0
94797,-71.5542513600674,4,1,0,100,0,0
94985,-66.6666666666667,4,1,0,100,0,0
95172,-69.7674580854554,4,1,0,100,0,0
95266,-71.4285714285714,4,1,0,100,0,0
95360,-73.1707138608015,4,1,0,100,0,0
95453,-75.0000187500047,4,1,0,100,0,0
95547,-76.9230769230769,4,1,0,100,0,0
95641,-78.9473476454348,4,1,0,100,0,0
95735,-81.0811029948927,4,1,0,100,0,0
95828,-83.3333333333333,4,1,0,100,0,0
95922,-85.7142612244968,4,1,0,100,0,0
96016,-88.2353200692118,4,1,0,100,0,0
96110,-90.9090909090909,4,1,0,100,0,0
96203,-93.7499707031342,4,1,0,100,0,0
96297,-96.774224765879,4,1,0,100,0,0
96391,-100,4,1,0,100,0,0
96485,-66.6666666666667,4,1,0,100,0,0
96766,-71.4285714285714,4,1,0,100,0,0
97047,-76.9230769230769,4,1,0,100,0,0
97328,-83.3333333333333,4,1,0,100,0,0
97610,-90.9090909090909,4,1,0,100,0,0
97985,-66.6666666666667,4,1,0,100,0,0
98172,-68.287726237237,4,1,0,100,0,0
98266,-69.1281830071866,4,1,0,100,0,0
98360,-69.9896345351253,4,1,0,100,0,0
98453,-70.8727769867588,4,1,0,100,0,0
98547,-71.7784915749995,4,1,0,100,0,0
98641,-72.7076548800287,4,1,0,100,0,0
98735,-73.6611894661553,4,1,0,100,0,0
98828,-74.640066937212,4,1,0,100,0,0
98922,-75.6453684610252,4,1,0,100,0,0
99016,-76.6780610265352,4,1,0,100,0,0
99110,-77.7393399930035,4,1,0,100,0,0
99203,-78.8304089879279,4,1,0,100,0,0
99297,-79.9525401721538,4,1,0,100,0,0
99391,-81.1070791880857,4,1,0,100,0,0
99485,-82.2954505429031,4,1,0,100,0,0
99578,-83.5192332266236,4,1,0,100,0,0
99672,-84.7798902100422,4,1,0,100,0,0
99766,-86.0791876879216,4,1,0,100,0,0
99860,-87.4189298699119,4,1,0,100,0,0
99953,-88.8010350648647,4,1,0,100,0,0
100047,-90.2275448453455,4,1,0,100,0,0
100141,-91.700718200025,4,1,0,100,0,0
100235,-93.2227090519251,4,1,0,100,0,0
100328,-94.7960746841395,4,1,0,100,0,0
100422,-96.4234609851392,4,1,0,100,0,0
100516,-98.107698707333,4,1,0,100,0,0
100610,-99.8518198992695,4,1,0,100,0,0
100985,-80,4,1,0,100,0,0
101078,-77.4193348595265,4,1,0,100,0,0
101266,-72.7272727272727,4,1,0,100,0,0
101360,-70.588218685125,4,1,0,100,0,0
101547,-66.6666666666667,4,1,0,100,0,0
101641,-67.3647450648588,4,1,0,100,0,0
101735,-68.0775975688128,4,1,0,100,0,0
101828,-68.8056982127032,4,1,0,100,0,0
101922,-69.5495415294222,4,1,0,100,0,0
102016,-70.3096436707259,4,1,0,100,0,0
102110,-71.0865436016424,4,1,0,100,0,0
102203,-71.8808043749533,4,1,0,100,0,0
102297,-72.6930144920794,4,1,0,100,0,0
102391,-73.5237893572844,4,1,0,100,0,0
102485,-74.3737728327483,4,1,0,100,0,0
102766,-77.0459355572386,4,1,0,100,0,0
102860,-77.9798235004675,4,1,0,100,0,0
103047,-80,4,1,0,100,0,0
103141,-81.618861139383,4,1,0,100,0,0
103235,-83.3046626452729,4,1,0,100,0,0
103422,-86.8941091007676,4,1,0,100,0,0
103610,-90.8067269623334,4,1,0,100,0,0
103797,-95.0883989300653,4,1,0,100,0,0
103985,-99.7938259555758,4,1,0,100,0,0
104031,-99.5346753925399,4,1,0,100,0,0
104078,-99.0735631113458,4,1,0,100,0,0
104172,-98.1642307212813,4,1,0,100,0,0
104360,-96.3945544788284,4,1,0,100,0,0
104453,-95.5335212796142,4,1,0,100,0,0
104641,-93.8566152488843,4,1,0,100,0,0
104735,-93.0401328613097,4,1,0,100,0,0
104922,-91.4489723878973,4,1,0,100,0,0
105016,-90.6735868748169,4,1,0,100,0,0
105203,-89.1616840145583,4,1,0,100,0,0
105297,-88.4244444071097,4,1,0,100,0,0
105391,-87.6992966516409,4,1,0,100,0,0
105485,-86.9860213463696,4,1,0,100,0,0
105531,-86.6336419223659,4,1,0,100,0,0
105578,-86.284180399513,4,1,0,100,0,0
105672,-85.5935743191887,4,1,0,100,0,0
105860,-84.2450756647147,4,1,0,100,0,0
105953,-83.586600733556,4,1,0,100,0,0
106141,-82.3001238616864,4,1,0,100,0,0
106235,-81.6715887410815,4,1,0,100,0,0
106422,-80.4429510657484,4,1,0,100,0,0
106516,-79.8423592459049,4,1,0,100,0,0
106703,-78.6677459881416,4,1,0,100,0,0
106797,-78.0933355928338,4,1,0,100,0,0
106891,-77.5271926628265,4,1,0,100,0,0
106985,-76.9230769230769,4,1,0,100,0,0
107031,-76.3751731807052,4,1,0,100,0,0
107078,-75.8349618891399,4,1,0,100,0,0
107172,-74.7772013286413,4,1,0,100,0,0
107266,-73.748542544428,4,1,0,100,0,0
107360,-72.7478537564446,4,1,0,100,0,0
107453,-71.7739064527613,4,1,0,100,0,0
107547,-70.8256930116997,4,1,0,100,0,0
107641,-69.9022068126691,4,1,0,100,0,0
107735,-69.0024930600743,4,1,0,100,0,0
107781,-68.5612893361827,4,1,0,100,0,0
107828,-68.125645490491,4,1,0,100,0,0
107922,-67.2708485813923,4,1,0,100,0,0
108016,-66.4371926034145,4,1,0,100,0,0
108110,-65.6239459153687,4,1,0,100,0,0
108203,-64.830368100347,4,1,0,100,0,0
108297,-64.0557541283934,4,1,0,100,0,0
108391,-63.299432267392,4,1,0,100,0,0
108485,-60.6060606060606,4,1,0,100,0,0
108766,-64.9916160815255,4,1,0,100,0,0
109047,-70.0613737634168,4,1,0,100,0,0
109235,-73.9047500800019,4,1,0,100,0,0
109985,-100,4,1,0,100,0,0
114860,-83.3333333333333,4,1,0,100,0,0
114922,-84.1066943882331,4,1,0,100,0,0
114985,-84.8946160683436,4,1,0,100,0,0
115047,-85.6973666056216,4,1,0,100,0,0
115110,-86.5155182885154,4,1,0,100,0,0
115172,-87.3493660183014,4,1,0,100,0,0
115235,-88.1995214293967,4,1,0,100,0,0
115422,-90.8521018633766,4,1,0,100,0,0
115485,-91.7721664196466,4,1,0,100,0,0
115547,-92.7109707673038,4,1,0,100,0,0
115610,-93.6692687989539,4,1,0,100,0,0
115703,-95.1444006568769,4,1,0,100,0,0
115797,-96.6666441111164,4,1,0,100,0,0
115891,-98.2384857126858,4,1,0,100,0,0
115985,-99.8622899022248,4,1,0,100,0,0
116031,-99.6119119908835,4,1,0,100,0,0
116078,-99.2268245828504,4,1,0,100,0,0
116172,-98.4655134385733,4,1,0,100,0,0
116360,-96.9773140969133,4,1,0,100,0,0
116453,-96.2500036093751,4,1,0,100,0,0
116641,-94.8276270808737,4,1,0,100,0,0
116735,-94.1319994201469,4,1,0,100,0,0
116922,-92.7710910436933,4,1,0,100,0,0
117016,-92.1052873961283,4,1,0,100,0,0
117203,-90.8018621645893,4,1,0,100,0,0
117297,-90.1639270357437,4,1,0,100,0,0
117391,-89.5348930908609,4,1,0,100,0,0
117485,-88.9145753217596,4,1,0,100,0,0
117531,-88.6076285851754,4,1,0,100,0,0
117578,-88.3027158383283,4,1,0,100,0,0
117672,-87.6992966516409,4,1,0,100,0,0
117860,-86.5168655977796,4,1,0,100,0,0
117953,-85.9375268554771,4,1,0,100,0,0
118141,-84.8017462375585,4,1,0,100,0,0
118235,-84.2450756647147,4,1,0,100,0,0
118422,-83.1533755697046,4,1,0,100,0,0
118516,-82.6179991572964,4,1,0,100,0,0
118703,-81.5677983383008,4,1,0,100,0,0
118797,-81.052646936291,4,1,0,100,0,0
118891,-80.5439616997353,4,1,0,100,0,0
118985,-80,4,1,0,100,0,0
119031,-79.5056655737288,4,1,0,100,0,0
119078,-79.0174027927911,4,1,0,100,0,0
119172,-78.0586501473747,4,1,0,100,0,0
119266,-77.1228845192776,4,1,0,100,0,0
119360,-76.2092889978174,4,1,0,100,0,0
119453,-75.317084927545,4,1,0,100,0,0
119547,-74.4455296948329,4,1,0,100,0,0
119641,-73.5939146663841,4,1,0,100,0,0
119735,-72.7615632676345,4,1,0,100,0,0
119781,-72.3524083222634,4,1,0,100,0,0
119828,-71.9478291900977,4,1,0,100,0,0
119922,-71.1520947176685,4,1,0,100,0,0
120016,-70.3737691627773,4,1,0,100,0,0
120110,-69.6122874040743,4,1,0,100,0,0
120203,-68.8670610912812,4,1,0,100,0,0
120297,-68.1376680700755,4,1,0,100,0,0
120391,-67.4235635915454,4,1,0,100,0,0
120485,-66.7242719547876,4,1,0,100,0,0
120860,-74.0740740740741,4,1,0,100,0,0
121235,-83.3333333333333,4,1,0,100,0,0
121422,-80,4,1,0,100,0,0
121485,-78.9473476454348,4,1,0,100,0,0
121547,-77.9220981615839,4,1,0,100,0,0
121610,-76.9230769230769,4,1,0,100,0,0
121985,-66.6666666666667,4,1,0,100,0,0
122360,-83.3333333333333,4,1,0,100,0,0
122547,-90.8239640845716,4,1,0,100,0,0
122735,-99.7942243094739,4,1,0,100,0,0
123110,-124.358929717307,4,1,0,100,0,1
124985,-100,4,1,0,100,0,1
125172,-103.423632506875,4,1,0,100,0,1
125266,-105.224944625373,4,1,0,100,0,1
125360,-107.090115261091,4,1,0,100,0,1
125453,-109.022601475512,4,1,0,100,0,1
125547,-111.025991184536,4,1,0,100,0,1
125641,-113.104515358462,4,1,0,100,0,1
125735,-115.262348631721,4,1,0,100,0,1
125922,-119.834676080879,4,1,0,100,0,1
126110,-124.784902025134,4,1,0,100,0,1
127422,-117.71838231399,4,1,0,100,0,1
127469,-116.028663721086,4,1,0,100,0,1
127610,-111.238541039791,4,1,0,100,0,1
127656,-109.72853161279,4,1,0,100,0,1
127797,-105.434739059564,4,1,0,100,0,1
127891,-102.754224226158,4,1,0,100,0,1
127985,-100.206626062942,4,1,0,100,0,0
128360,-111.111111111111,4,1,0,100,0,0
128547,-114.252026259686,4,1,0,100,0,0
128735,-117.575821708024,4,1,0,100,0,0
129110,-124.839113592358,4,1,0,100,0,1
130985,-125,4,1,0,100,0,1
131266,-120.776010019578,4,1,0,100,0,1
131453,-118.115072428162,4,1,0,100,0,1
131641,-115.568858815304,4,1,0,100,0,1
131735,-114.336545046884,4,1,0,100,0,1
131922,-111.948987085565,4,1,0,100,0,1
132110,-109.65910274729,4,1,0,100,0,1
132391,-106.394750057453,4,1,0,100,0,1
132485,-105.263157894737,4,1,0,100,0,1
132672,-102.577779601383,4,1,0,100,0,1
132766,-101.285720941633,4,1,0,100,0,1
132860,-100.025906709838,4,1,0,100,0,1
132953,-98.7970471538547,4,1,0,100,0,1
133047,-97.5980152467619,4,1,0,100,0,1
133235,-95.2851025553559,4,1,0,100,0,1
133328,-94.1693183177216,4,1,0,100,0,1
133422,-93.0793631882288,4,1,0,100,0,1
133516,-92.0142658917839,4,1,0,100,0,1
133610,-90.9733511762399,4,1,0,100,0,1
133797,-88.9606109103072,4,1,0,100,0,1
133891,-87.987273520758,4,1,0,100,0,1
133985,-87.0349288576491,4,1,0,100,0,0
134360,-95.2380952380952,4,1,0,100,0,0
134547,-103.798829564398,4,1,0,100,0,0
134735,-114.050574586795,4,1,0,100,0,0
135110,-142.124592102421,4,1,0,100,0,1
136985,-111.111111111111,4,1,0,100,0,1
137172,-115.353957851971,4,1,0,100,0,1
137266,-117.599327331848,4,1,0,100,0,1
137360,-119.933844491379,4,1,0,100,0,1
137453,-122.362925991231,4,1,0,100,0,1
137547,-124.892280408148,4,1,0,100,0,1
137641,-127.528572776731,4,1,0,100,0,1
137735,-130.278561620457,4,1,0,100,0,1
137922,-136.15018999759,4,1,0,100,0,1
138110,-142.576267609951,4,1,0,100,0,1
139422,-133.424951800236,4,1,0,100,0,1
139469,-131.258400537634,4,1,0,100,0,1
139610,-125.161301627472,4,1,0,100,0,1
139656,-123.252890280277,4,1,0,100,0,1
139985,-111.366263595037,4,1,0,100,0,1
140078,-100.206626062942,4,1,0,100,0,0
140735,-125.323020084268,4,1,0,100,0,0
141110,-143.279202450648,4,1,0,100,0,1
142985,-134.047179245207,4,1,0,100,0,1
143360,-119.329036692486,4,1,0,100,0,1
143735,-107.523181998039,4,1,0,100,0,1
144297,-93.6284877782053,4,1,0,100,0,1
144485,-89.7619334002359,4,1,0,100,0,1
144860,-82.913927052327,4,1,0,100,0,1
145235,-77.0366763912631,4,1,0,100,0,1
145985,-100,4,1,0,100,0,0
146172,-125,4,1,0,50,0,0
157985,-125,4,1,0,100,0,0
167922,-123.71582968784,4,1,0,100,0,0
168110,-122.457626599756,4,1,0,100,0,0
168297,-121.224904929368,4,1,0,100,0,0
168485,-120.016610298865,4,1,0,100,0,0
168672,-118.8323062261,4,1,0,100,0,0
168860,-117.671008334638,4,1,0,100,0,0
169047,-116.532324318781,4,1,0,100,0,0
169235,-115.415333619563,4,1,0,100,0,0
169422,-114.319683563116,4,1,0,100,0,0
169610,-113.244511887843,4,1,0,100,0,0
169797,-112.189501530826,4,1,0,100,0,0
169985,-111.153843588757,4,1,0,100,0,0
176360,-108.115705427949,4,1,0,100,0,0
176547,-106.677704253133,4,1,0,100,0,0
176641,-105.973065885575,4,1,0,100,0,0
176735,-105.277564298272,4,1,0,100,0,0
177110,-102.584619488,4,1,0,100,0,0
177297,-101.28910645789,4,1,0,100,0,0
177485,-100.026006761758,4,1,0,100,0,0
177860,-97.5919193890746,4,1,0,100,0,0
178047,-96.4187195015538,4,1,0,100,0,0
178141,-95.8426340622805,4,1,0,100,0,0
178235,-95.273482531607,4,1,0,100,0,0
178422,-94.1550432265803,4,1,0,100,0,0
178610,-93.0626451195622,4,1,0,100,0,0
178985,-90.9090909090909,4,1,0,100,0,0
179172,-88.8991616809054,4,1,0,100,0,0
179360,-86.9761102717917,4,1,0,100,0,0
179547,-85.1345679548378,4,1,0,100,0,0
179735,-83.3693210902706,4,1,0,100,0,0
179922,-81.6758579232116,4,1,0,100,0,0
180110,-80.049758930151,4,1,0,100,0,0
180203,-79.2607822405121,4,1,0,100,0,0
180297,-78.4872061929545,4,1,0,100,0,0
180485,-76.9230769230769,4,1,0,100,0,0
180672,-78.6516588814633,4,1,0,100,0,0
180860,-80.459779363193,4,1,0,100,0,0
181047,-82.3529217993125,4,1,0,100,0,0
181235,-84.3373697198481,4,1,0,100,0,0
181422,-86.4197424173157,4,1,0,100,0,0
181610,-88.6076285851754,4,1,0,100,0,0
181703,-89.7435667324188,4,1,0,100,0,0
181797,-90.9090909090909,4,1,0,100,0,0
181985,-86.9565217391304,4,1,0,100,0,0
182172,-90.9090909090909,4,1,0,100,0,0
182266,-92.2882123957835,4,1,0,100,0,0
182360,-93.709909729244,4,1,0,100,0,0
182453,-95.1760042258146,4,1,0,100,0,0
182547,-96.6887020218575,4,1,0,100,0,0
182641,-98.2503576313018,4,1,0,100,0,0
182735,-99.8631874332165,4,1,0,100,0,0
183672,-90.9090909090909,4,1,0,100,0,0
183766,-92.2882123957835,4,1,0,100,0,0
183860,-93.709909729244,4,1,0,100,0,0
183953,-95.1760042258146,4,1,0,100,0,0
184047,-96.6887020218575,4,1,0,100,0,0
184141,-98.2503576313018,4,1,0,100,0,0
184235,-99.8631874332165,4,1,0,100,0,0
188172,-90.9090909090909,4,1,0,100,0,0
188266,-92.2882123957835,4,1,0,100,0,0
188360,-93.709909729244,4,1,0,100,0,0
188453,-95.1760042258146,4,1,0,100,0,0
188547,-96.6887020218575,4,1,0,100,0,0
188641,-98.2503576313018,4,1,0,100,0,0
188735,-99.8631874332165,4,1,0,100,0,0
189672,-90.9090909090909,4,1,0,100,0,0
189766,-92.2882123957835,4,1,0,100,0,0
189860,-93.709909729244,4,1,0,100,0,0
189953,-95.1760042258146,4,1,0,100,0,0
190047,-96.6887020218575,4,1,0,100,0,0
190141,-98.2503576313018,4,1,0,100,0,0
190235,-99.8631874332165,4,1,0,100,0,0
193985,-83.5044478644155,4,1,0,100,0,0
194172,-86.9565217391304,4,1,0,100,0,0
194266,-88.8618748789257,4,1,0,100,0,0
194360,-90.852514570472,4,1,0,100,0,0
194453,-92.9344709751707,4,1,0,100,0,0
194547,-95.1139941219552,4,1,0,100,0,0
194641,-97.3982966985873,4,1,0,100,0,0
194735,-99.7949214364481,4,1,0,100,0,0
195672,-86.9565217391304,4,1,0,100,0,0
195766,-88.8618748789257,4,1,0,100,0,0
195860,-90.852514570472,4,1,0,100,0,0
195953,-92.9344709751707,4,1,0,100,0,0
196047,-95.1139941219552,4,1,0,100,0,0
196141,-97.3982966985873,4,1,0,100,0,0
196235,-99.7949214364481,4,1,0,100,0,0
205985,-100,4,1,0,100,0,0
212047,-99.4831848546799,4,1,0,100,0,0
212110,-98.9716842011501,4,1,0,100,0,0
212172,-98.4655134385733,4,1,0,100,0,0
212266,-97.7157000792474,4,1,0,100,0,0
212360,-96.9773140969133,4,1,0,100,0,0
212422,-96.4911942136161,4,1,0,100,0,0
212485,-96.0100157648446,4,1,0,100,0,0
212547,-95.5335212796142,4,1,0,100,0,0
212641,-94.8276270808737,4,1,0,100,0,0
212735,-94.1319994201469,4,1,0,100,0,0
212797,-93.6740069618522,4,1,0,100,0,0
212860,-93.2203626831431,4,1,0,100,0,0
212922,-92.7710910436933,4,1,0,100,0,0
213016,-92.1052873961283,4,1,0,100,0,0
213110,-91.4489723878973,4,1,0,100,0,0
213297,-90.1639270357437,4,1,0,100,0,0
213485,-88.9145753217596,4,1,0,100,0,0
213547,-88.5057572995123,4,1,0,100,0,0
213610,-88.1006814587711,4,1,0,100,0,0
213672,-87.6992966516409,4,1,0,100,0,0
213766,-87.1040684568295,4,1,0,100,0,0
213860,-86.5168655977796,4,1,0,100,0,0
213922,-86.1297510247287,4,1,0,100,0,0
213985,-85.7460852624773,4,1,0,100,0,0
214047,-85.3658224271381,4,1,0,100,0,0
214141,-84.8017462375585,4,1,0,100,0,0
214235,-84.2450756647147,4,1,0,100,0,0
214297,-83.8779810234456,4,1,0,100,0,0
214360,-83.5140717035117,4,1,0,100,0,0
214422,-83.1533755697046,4,1,0,100,0,0
214516,-82.6179991572964,4,1,0,100,0,0
214610,-82.0895399866358,4,1,0,100,0,0
214797,-81.052646936291,4,1,0,100,0,0
214985,-80,4,1,0,100,0,0
215047,-79.3422212489576,4,1,0,100,0,0
215110,-78.6952330362588,4,1,0,100,0,0
215172,-78.0586501473747,4,1,0,100,0,0
215266,-77.1228845192776,4,1,0,100,0,0
215360,-76.2092889978174,4,1,0,100,0,0
215453,-75.317084927545,4,1,0,100,0,0
215547,-74.4455296948329,4,1,0,100,0,0
215641,-73.5939146663841,4,1,0,100,0,0
215735,-72.7615632676345,4,1,0,100,0,0
215828,-71.9478291900977,4,1,0,100,0,0
215922,-71.1520947176685,4,1,0,100,0,0
216016,-70.3737691627773,4,1,0,100,0,0
216110,-69.6122874040743,4,1,0,100,0,0
216203,-68.8670610912812,4,1,0,100,0,0
216297,-68.1376680700755,4,1,0,100,0,0
216391,-67.4235635915454,4,1,0,100,0,0
216485,-66.7242719547876,4,1,0,100,0,0
216860,-80,4,1,0,100,0,0
217235,-100,4,1,0,100,0,0
217422,-105.263157894737,4,1,0,100,0,0
217516,-103.472752520079,4,1,0,100,0,0
217610,-101.742130500561,4,1,0,100,0,0
217703,-100.068546954664,4,1,0,100,0,0
217797,-98.4491308418484,4,1,0,100,0,0
217891,-96.8812003968254,4,1,0,100,0,0
217985,-95.3625206221451,4,1,0,100,0,1
229703,-96.774224765879,4,1,0,100,0,1
229797,-98.3606234883202,4,1,0,100,0,1
229891,-100,4,1,0,100,0,1
229985,-101.694949727102,4,1,0,100,0,0
230172,-105.263157894737,4,1,0,100,0,0
230360,-95.2380952380954,4,1,0,100,0,1
234672,-96.1538461538461,4,1,0,100,0,1
234719,-96.3855421686747,4,1,0,100,0,1
234766,-96.6183574879227,4,1,0,100,0,1
234860,-97.0873786407767,4,1,0,100,0,1
235047,-98.0392156862745,4,1,0,100,0,1
235094,-98.2800982800983,4,1,0,100,0,1
235141,-98.5221674876847,4,1,0,100,0,1
235235,-99.009900990099,4,1,0,100,0,1
235422,-100,4,1,0,100,0,1
236031,-99.5346753925399,4,1,0,100,0,1
236078,-99.0735631113458,4,1,0,100,0,1
236172,-98.1642307212813,4,1,0,100,0,1
236360,-96.3945544788284,4,1,0,100,0,1
236453,-95.5335212796142,4,1,0,100,0,1
236547,-94.6876443986577,4,1,0,100,0,1
236641,-93.8566152488843,4,1,0,100,0,1
236735,-93.0401328613097,4,1,0,100,0,1
236922,-91.4489723878973,4,1,0,100,0,1
237016,-90.6735868748169,4,1,0,100,0,1
237203,-89.1616840145583,4,1,0,100,0,1
237297,-88.4244444071097,4,1,0,100,0,1
237391,-87.6992966516409,4,1,0,100,0,1
237485,-86.9860213463696,4,1,0,100,0,1
237531,-86.6336419223659,4,1,0,100,0,1
237578,-86.284180399513,4,1,0,100,0,1
237672,-85.5935743191887,4,1,0,100,0,1
237860,-84.2450756647147,4,1,0,100,0,1
237953,-83.586600733556,4,1,0,100,0,1
238141,-82.3001238616864,4,1,0,100,0,1
238235,-81.6715887410815,4,1,0,100,0,1
238422,-80.4429510657484,4,1,0,100,0,1
238516,-79.8423592459049,4,1,0,100,0,1
238703,-78.6677459881416,4,1,0,100,0,1
238797,-78.0933355928338,4,1,0,100,0,1
238891,-77.5271926628265,4,1,0,100,0,1
238985,-76.9230769230769,4,1,0,100,0,1
239031,-76.3751731807052,4,1,0,100,0,1
239078,-75.8349618891399,4,1,0,100,0,1
239172,-74.7772013286413,4,1,0,100,0,1
239266,-73.748542544428,4,1,0,100,0,1
239360,-72.7478537564446,4,1,0,100,0,1
239453,-71.7739064527613,4,1,0,100,0,1
239547,-70.8256930116997,4,1,0,100,0,1
239641,-69.9022068126691,4,1,0,100,0,1
239735,-69.0024930600743,4,1,0,100,0,1
239828,-68.125645490491,4,1,0,100,0,1
239922,-67.2708485813923,4,1,0,100,0,1
240016,-66.4371926034145,4,1,0,100,0,1
240110,-65.6239459153687,4,1,0,100,0,1
240203,-64.830368100347,4,1,0,100,0,1
240297,-64.0557541283934,4,1,0,100,0,0
240485,-62.5,4,1,0,100,0,0
240672,-66.3265441482743,4,1,0,100,0,0
240766,-68.421074238234,4,1,0,100,0,0
240860,-70.6521547140884,4,1,0,100,0,0
240953,-73.0336955561187,4,1,0,100,0,0
241047,-75.5813909545703,4,1,0,100,0,0
241235,-81.2500152343779,4,1,0,100,0,0
241328,-84.4156118232506,4,1,0,100,0,0
241516,-91.5492699861211,4,1,0,100,0,0
241610,-95.5882212370263,4,1,0,100,0,0
241703,-100,4,1,0,100,0,0
241985,-90.9090909090909,4,1,0,100,0,1
244985,-105.263157894737,4,1,0,100,0,0
245078,-101.344332571562,4,1,0,100,0,0
245172,-97.7069163794898,4,1,0,100,0,0
245266,-94.3214702076204,4,1,0,100,0,0
245360,-91.1627720411071,4,1,0,100,0,1
247328,-100,4,1,0,100,0,1
247422,-98.6078543128117,4,1,0,100,0,1
247610,-95.9367891683527,4,1,0,100,0,1
247797,-93.4066139355195,4,1,0,100,0,1
247891,-92.190879371922,4,1,0,100,0,1
247985,-91.0063850079722,4,1,0,100,0,1
251172,-86.9565217391304,4,1,0,100,0,1
251360,-83.3333333333333,4,1,0,100,0,1
251735,-90.9090909090909,4,1,0,100,0,1
251922,-86.9565217391304,4,1,0,100,0,1
252110,-83.3333333333333,4,1,0,100,0,1
252485,-90.9090909090909,4,1,0,100,0,1
252578,-88.9292034611246,4,1,0,100,0,1
252672,-87.0337168619123,4,1,0,100,0,1
252766,-85.2174194631473,4,1,0,100,0,1
252860,-83.4753109246644,4,1,0,100,0,1
253047,-85.6973666056216,4,1,0,100,0,1
253141,-86.9304426063485,4,1,0,100,0,1
253235,-88.1995214293967,4,1,0,100,0,1
253422,-90.8521018633766,4,1,0,100,0,1
253516,-92.2391798830038,4,1,0,100,0,1
253703,-95.1444006568769,4,1,0,100,0,1
253797,-96.6666441111164,4,1,0,100,0,1
253985,-99.8622899022248,4,1,0,100,0,0
256985,-90.7952666611584,4,1,0,100,0,0
257172,-83.2376793667943,4,1,0,100,0,0
258485,-100,4,1,0,100,0,0
260078,-99.2268245828504,4,1,0,100,0,0
260172,-98.4655134385733,4,1,0,100,0,0
260266,-97.7157000792474,4,1,0,100,0,0
260360,-96.9773140969133,4,1,0,100,0,0
260453,-96.2500036093751,4,1,0,100,0,0
260547,-95.5335212796142,4,1,0,100,0,0
260641,-94.8276270808737,4,1,0,100,0,0
260735,-94.1319994201469,4,1,0,100,0,0
260828,-93.4465906011419,4,1,0,100,0,0
260922,-92.7710910436933,4,1,0,100,0,0
261016,-92.1052873961283,4,1,0,100,0,0
261110,-91.4489723878973,4,1,0,100,0,0
261485,-88.9145753217596,4,1,0,100,0,0
261578,-88.3027158383283,4,1,0,100,0,0
261672,-87.6992966516409,4,1,0,100,0,0
261766,-87.1040684568295,4,1,0,100,0,0
261860,-86.5168655977796,4,1,0,100,0,0
261953,-85.9375268554771,4,1,0,100,0,0
262047,-85.3658224271381,4,1,0,100,0,0
262141,-84.8017462375585,4,1,0,100,0,0
262235,-84.2450756647147,4,1,0,100,0,0
262328,-83.6956658199455,4,1,0,100,0,0
262422,-83.1533755697046,4,1,0,100,0,0
262516,-82.6179991572964,4,1,0,100,0,0
262610,-82.0895399866358,4,1,0,100,0,0
262985,-80,4,1,0,100,0,0
263047,-79.3422212489576,4,1,0,100,0,0
263110,-78.6952330362588,4,1,0,100,0,0
263172,-78.0586501473747,4,1,0,100,0,0
263266,-77.1228845192776,4,1,0,100,0,0
263360,-76.2092889978174,4,1,0,100,0,0
263422,-75.6121369577759,4,1,0,100,0,0
263485,-75.0242703514587,4,1,0,100,0,0
263547,-74.4455296948329,4,1,0,100,0,0
263641,-73.5939146663841,4,1,0,100,0,0
263735,-72.7615632676345,4,1,0,100,0,0
263797,-72.2170266083635,4,1,0,100,0,0
263860,-71.6805798672189,4,1,0,100,0,0
263922,-71.1520947176685,4,1,0,100,0,0
264016,-70.3737691627773,4,1,0,100,0,0
264110,-69.6122874040743,4,1,0,100,0,0
264172,-69.1137065611715,4,1,0,100,0,0
264235,-68.6222168544399,4,1,0,100,0,0
264297,-68.1376680700755,4,1,0,100,0,0
264360,-67.6599599858997,4,1,0,100,0,0
264422,-67.1888584747323,4,1,0,100,0,0
264485,-66.6666666666667,4,1,0,100,0,0
264860,-73.1215440930223,4,1,0,100,0,0
265235,-80.9603844646738,4,1,0,100,0,0
265422,-85.5456873852619,4,1,0,100,0,0
265610,-90.6816448562197,4,1,0,100,0,0
265985,-66.6666666666667,4,1,0,100,0,0
266078,-67.2210611651158,4,1,0,100,0,0
266172,-67.7847535820853,4,1,0,100,0,0
266266,-68.3579798029513,4,1,0,100,0,0
266360,-68.941031288887,4,1,0,100,0,0
266453,-69.5340661296783,4,1,0,100,0,0
266547,-70.1373921374581,4,1,0,100,0,0
266641,-70.7512795368904,4,1,0,100,0,0
266735,-71.4285714285714,4,1,0,100,0,0
266828,-71.745584418007,4,1,0,100,0,0
266922,-72.0653719401944,4,1,0,100,0,0
267016,-72.3880753675685,4,1,0,100,0,0
267110,-72.7136290063392,4,1,0,100,0,0
267203,-73.0421774749611,4,1,0,100,0,0
267297,-73.3736546023258,4,1,0,100,0,0
267391,-73.7082083672084,4,1,0,100,0,0
267485,-74.0740740740741,4,1,0,100,0,0
267672,-75.45700535292,4,1,0,100,0,0
267766,-76.1680175064571,4,1,0,100,0,0
267860,-76.8926156176591,4,1,0,100,0,0
268047,-78.3838504185306,4,1,0,100,0,0
268235,-80,4,1,0,100,0,0
268328,-80.3978729938721,4,1,0,100,0,0
268422,-80.7996580558471,4,1,0,100,0,0
268516,-81.2055450394375,4,1,0,100,0,0
268610,-81.6154638451657,4,1,0,100,0,0
268703,-82.0296094078118,4,1,0,100,0,0
268797,-82.4479114707306,4,1,0,100,0,0
268985,-76.9230769230769,4,1,0,100,0,0
270485,-79.9670535739275,4,1,0,100,0,0
270672,-81.5811736757132,4,1,0,100,0,0
270860,-83.3333333333333,4,1,0,100,0,0
270922,-82.6446280991736,4,1,0,100,0,0
270985,-81.9672131147541,4,1,0,100,0,0
271047,-81.3008130081301,4,1,0,100,0,0
271141,-80.3212851405622,4,1,0,100,0,0
271235,-79.3650793650794,4,1,0,100,0,0
271328,-78.4313725490196,4,1,0,100,0,0
271422,-77.5193798449612,4,1,0,100,0,0
271516,-76.6283524904215,4,1,0,100,0,0
271610,-75.7575757575758,4,1,0,100,0,0
271672,-75.187969924812,4,1,0,100,0,0
271735,-74.6268656716418,4,1,0,100,0,0
271797,-74.0740740740741,4,1,0,100,0,0
271985,-76.4587371310388,4,1,0,100,0,0
272110,-78.1356826128572,4,1,0,100,0,0
272235,-79.8879012969002,4,1,0,100,0,0
272360,-66.6666666666667,4,1,0,100,0,0
272485,-67.4126096634628,4,1,0,100,0,0
272610,-68.175388003177,4,1,0,100,0,0
272735,-68.955673224581,4,1,0,100,0,0
272860,-69.7539777205795,4,1,0,100,0,0
272985,-70.5710325671201,4,1,0,100,0,0
273110,-71.407404233745,4,1,0,100,0,0
273235,-72.2638903843499,4,1,0,100,0,0
273360,-73.1411184739837,4,1,0,100,0,0
273485,-74.0399608476687,4,1,0,100,0,0
273610,-74.9611139221529,4,1,0,100,0,0
273735,-75.9055340447706,4,1,0,100,0,0
273860,-76.8739958334294,4,1,0,100,0,0
273985,-77.8675504114521,4,1,0,100,0,0
274110,-78.8870613386345,4,1,0,100,0,0
274235,-79.9336870132538,4,1,0,100,0,0
274422,-74.0172178852245,4,1,0,100,0,0
274985,-76.9230769230769,4,1,0,100,0,0
276766,-80.3832028044092,4,1,0,100,0,0
277047,-84.1692036667472,4,1,0,100,0,0
277328,-88.3295469400878,4,1,0,100,0,0
277610,-92.9224673516911,4,1,0,100,0,0
277985,-99.8448411169043,4,1,0,100,0,0
278172,-97.5609756097561,4,1,0,100,0,0
278360,-95.2380952380952,4,1,0,100,0,0
278485,-92.3369560199079,4,1,0,100,0,0
278610,-89.6074209281716,4,1,0,100,0,0
278735,-87.0345501053553,4,1,0,100,0,0
278828,-85.1998490258675,4,1,0,100,0,0
278922,-83.4408329397707,4,1,0,100,0,0
279016,-81.7530469360593,4,1,0,100,0,0
279110,-80,4,1,0,100,0,0
279172,-78.4627576520804,4,1,0,100,0,0
279235,-76.9834793453325,4,1,0,100,0,0
279297,-75.5590044043344,4,1,0,100,0,0
279360,-74.1862326673141,4,1,0,100,0,0
279422,-72.862452448142,4,1,0,100,0,0
279485,-71.5850871083132,4,1,0,100,0,0
279672,-73.6842027700839,4,1,0,100,0,0
280047,-78.6516588814633,4,1,0,100,0,0
280141,-80,4,1,0,100,0,0
280235,-81.3953772309455,4,1,0,100,0,0
280328,-82.8402268828134,4,1,0,100,0,0
280516,-85.8895494749572,4,1,0,100,0,0
280797,-90.9090909090909,4,1,0,100,0,0
280985,-66.6666666666667,4,1,0,100,0,0
281078,-67.2210611651158,4,1,0,100,0,0
281172,-67.7847535820853,4,1,0,100,0,0
281266,-68.3579798029513,4,1,0,100,0,0
281360,-68.941031288887,4,1,0,100,0,0
281453,-69.5340661296783,4,1,0,100,0,0
281547,-70.1373921374581,4,1,0,100,0,0
281641,-70.7512795368904,4,1,0,100,0,0
281735,-71.4285714285714,4,1,0,100,0,0
281828,-71.745584418007,4,1,0,100,0,0
281922,-72.0653719401944,4,1,0,100,0,0
282016,-72.3880753675685,4,1,0,100,0,0
282110,-72.7136290063392,4,1,0,100,0,0
282203,-73.0421774749611,4,1,0,100,0,0
282297,-73.3736546023258,4,1,0,100,0,0
282391,-73.7082083672084,4,1,0,100,0,0
282485,-74.0740740740741,4,1,0,100,0,0
282578,-74.7591447254807,4,1,0,100,0,0
282672,-75.45700535292,4,1,0,100,0,0
282766,-76.1680175064571,4,1,0,100,0,0
282860,-76.8926156176591,4,1,0,100,0,0
282953,-77.6310723024755,4,1,0,100,0,0
283047,-78.3838504185306,4,1,0,100,0,0
283141,-79.1513706642858,4,1,0,100,0,0
283235,-80,4,1,0,100,0,0
283516,-85.1063829787234,4,1,0,100,0,0
283610,-83.3333333333333,4,1,0,100,0,0
283985,-90.9090909090909,4,1,0,100,0,0
284110,-93.0232558139535,4,1,0,100,0,0
284235,-95.2380952380952,4,1,0,100,0,0
284485,-90.9090909090909,4,1,0,100,0,0
284610,-93.0232558139535,4,1,0,100,0,0
284735,-95.2380952380952,4,1,0,100,0,0
284985,-90.9090909090909,4,1,0,100,0,0
285110,-93.0232558139535,4,1,0,100,0,0
285235,-95.2380952380952,4,1,0,100,0,0
285485,-90.9090909090909,4,1,0,100,0,0
285610,-93.0232558139535,4,1,0,100,0,0
285735,-95.2380952380952,4,1,0,100,0,0
285985,-90.9090909090909,4,1,0,100,0,0
286110,-93.0232558139535,4,1,0,100,0,0
286235,-95.2380952380952,4,1,0,100,0,0
286485,-101.694949727102,4,1,0,100,0,0
286797,-111.111111111111,4,1,0,100,0,0
286985,-90.9090909090909,4,1,0,100,0,0
287172,-90.0900900900901,4,1,0,100,0,0
287219,-89.8876404494382,4,1,0,100,0,0
287266,-89.6860986547085,4,1,0,100,0,0
287360,-89.2857142857143,4,1,0,100,0,0
287547,-88.495575221239,4,1,0,100,0,0
287594,-88.3002207505519,4,1,0,100,0,0
287641,-88.1057268722467,4,1,0,100,0,0
287735,-87.719298245614,4,1,0,100,0,0
287922,-86.9565217391304,4,1,0,100,0,0
288016,-85.1624089720301,4,1,0,100,0,0
288203,-81.7186410843737,4,1,0,100,0,0
288297,-80.0990665254787,4,1,0,100,0,0
288391,-78.5425024897973,4,1,0,100,0,0
288485,-76.9230769230769,4,1,0,100,0,0
288766,-81.5982152838353,4,1,0,100,0,0
289047,-86.8784067195235,4,1,0,100,0,0
289328,-92.8891498041897,4,1,0,100,0,0
289610,-99.7935271922393,4,1,0,100,0,0
289985,-110.856264875525,4,1,0,100,0,0
290172,-110.856264875525,4,1,0,75,0,0

[HitObjects]
256,192,1985,5,4,0:0:0:0:
256,192,2360,1,8,0:0:0:0:
256,192,2735,1,0,0:0:0:0:
256,192,2922,1,8,0:0:0:0:
256,192,3110,1,0,0:0:0:0:
256,192,3297,1,0,0:0:0:0:
256,192,3860,1,8,0:0:0:0:
256,192,4235,1,8,0:0:0:0:
256,192,4422,1,0,0:0:0:0:
256,192,4610,1,8,0:0:0:0:
256,192,5360,1,8,0:0:0:0:
256,192,5735,1,0,0:0:0:0:
256,192,5922,1,8,0:0:0:0:
256,192,6110,1,0,0:0:0:0:
256,192,6297,1,0,0:0:0:0:
256,192,6860,1,8,0:0:0:0:
256,192,7235,1,8,0:0:0:0:
256,192,7422,1,0,0:0:0:0:
256,192,7610,1,0,0:0:0:0:
256,192,7797,1,8,0:0:0:0:
256,192,8360,1,8,0:0:0:0:
256,192,8735,1,0,0:0:0:0:
256,192,8922,1,8,0:0:0:0:
256,192,9110,1,0,0:0:0:0:
256,192,9297,1,0,0:0:0:0:
256,192,9860,1,8,0:0:0:0:
256,192,10235,1,8,0:0:0:0:
256,192,10422,1,0,0:0:0:0:
256,192,10610,1,8,0:0:0:0:
256,192,11360,1,0,0:0:0:0:
256,192,11735,1,8,0:0:0:0:
256,192,11922,1,0,0:0:0:0:
256,192,12110,1,0,0:0:0:0:
256,192,12297,1,8,0:0:0:0:
256,192,12672,1,8,0:0:0:0:
256,192,12860,1,8,0:0:0:0:
256,192,13047,1,0,0:0:0:0:
256,192,13235,1,8,0:0:0:0:
256,192,13422,1,0,0:0:0:0:
256,192,13610,1,8,0:0:0:0:
256,192,13797,1,8,0:0:0:0:
256,192,13985,1,4,0:0:0:0:
256,192,14360,1,8,0:0:0:0:
256,192,14547,1,0,0:0:0:0:
256,192,14641,1,0,0:0:0:0:
256,192,14735,1,8,0:0:0:0:
256,192,14922,1,0,0:0:0:0:
256,192,15110,1,8,0:0:0:0:
256,192,15297,1,8,0:0:0:0:
256,192,15485,1,0,0:0:0:0:
256,192,15860,1,8,0:0:0:0:
256,192,16047,1,0,0:0:0:0:
256,192,16141,1,0,0:0:0:0:
256,192,16235,1,8,0:0:0:0:
256,192,16422,1,0,0:0:0:0:
256,192,16610,1,8,0:0:0:0:
256,192,16985,1,0,0:0:0:0:
256,192,17360,1,8,0:0:0:0:
256,192,17547,1,0,0:0:0:0:
256,192,17641,1,0,0:0:0:0:
256,192,17735,1,8,0:0:0:0:
256,192,17922,1,0,0:0:0:0:
256,192,18110,1,8,0:0:0:0:
256,192,18297,1,8,0:0:0:0:
256,192,18485,1,0,0:0:0:0:
256,192,18860,1,8,0:0:0:0:
256,192,19047,1,0,0:0:0:0:
256,192,19141,1,0,0:0:0:0:
256,192,19235,1,8,0:0:0:0:
256,192,19422,1,0,0:0:0:0:
256,192,19610,1,0,0:0:0:0:
256,192,19797,1,8,0:0:0:0:
256,192,19985,1,0,0:0:0:0:
256,192,20360,1,8,0:0:0:0:
256,192,20547,1,0,0:0:0:0:
256,192,20641,1,0,0:0:0:0:
256,192,20735,1,8,0:0:0:0:
256,192,21110,1,0,0:0:0:0:
256,192,21297,1,8,0:0:0:0:
256,192,21485,1,0,0:0:0:0:
256,192,21860,1,8,0:0:0:0:
256,192,22047,1,0,0:0:0:0:
256,192,22141,1,0,0:0:0:0:
256,192,22235,1,8,0:0:0:0:
256,192,22422,1,0,0:0:0:0:
256,192,22610,1,8,0:0:0:0:
256,192,22985,1,0,0:0:0:0:
256,192,23172,1,8,0:0:0:0:
256,192,23360,1,0,0:0:0:0:
256,192,23547,1,0,0:0:0:0:
256,192,23735,1,8,0:0:0:0:
256,192,23922,1,8,0:0:0:0:
256,192,24110,1,0,0:0:0:0:
256,192,24203,1,0,0:0:0:0:
256,192,24297,1,8,0:0:0:0:
256,192,24485,1,0,0:0:0:0:
256,192,24672,1,8,0:0:0:0:
256,192,24860,1,8,0:0:0:0:
256,192,25047,1,8,0:0:0:0:
256,192,25235,1,8,0:0:0:0:
256,192,25422,1,8,0:0:0:0:
256,192,25610,1,0,0:0:0:0:
256,192,25703,1,8,0:0:0:0:
256,192,25797,1,0,0:0:0:0:
256,192,25985,1,12,0:0:0:0:
256,192,26360,1,0,0:0:0:0:
256,192,26547,1,0,0:0:0:0:
256,192,26641,1,0,0:0:0:0:
256,192,26735,1,8,0:0:0:0:
256,192,27016,1,0,0:0:0:0:
256,192,27297,1,0,0:0:0:0:
256,192,27485,1,8,0:0:0:0:
256,192,27860,1,0,0:0:0:0:
256,192,28047,1,0,0:0:0:0:
256,192,28141,1,8,0:0:0:0:
256,192,28235,1,8,0:0:0:0:
256,192,28516,1,0,0:0:0:0:
256,192,28797,1,0,0:0:0:0:
256,192,28985,1,8,0:0:0:0:
256,192,29360,1,0,0:0:0:0:
256,192,29547,1,8,0:0:0:0:
256,192,29641,1,0,0:0:0:0:
256,192,29735,1,8,0:0:0:0:
256,192,30016,1,8,0:0:0:0:
256,192,30297,1,0,0:0:0:0:
256,192,30485,1,8,0:0:0:0:
256,192,30672,1,0,0:0:0:0:
256,192,30860,1,8,0:0:0:0:
256,192,31047,1,0,0:0:0:0:
256,192,31141,1,0,0:0:0:0:
256,192,31235,1,8,0:0:0:0:
256,192,31422,1,0,0:0:0:0:
256,192,31516,1,8,0:0:0:0:
256,192,31703,1,0,0:0:0:0:
256,192,31797,1,0,0:0:0:0:
256,192,31985,1,8,0:0:0:0:
256,192,32360,1,0,0:0:0:0:
256,192,32547,1,0,0:0:0:0:
256,192,32641,1,0,0:0:0:0:
256,192,32735,1,8,0:0:0:0:
256,192,33016,1,0,0:0:0:0:
256,192,33297,1,0,0:0:0:0:
256,192,33485,1,8,0:0:0:0:
256,192,33860,1,0,0:0:0:0:
256,192,34047,1,0,0:0:0:0:
256,192,34141,1,8,0:0:0:0:
256,192,34235,1,8,0:0:0:0:
256,192,34516,1,0,0:0:0:0:
256,192,34797,1,0,0:0:0:0:
256,192,34985,1,8,0:0:0:0:
256,192,35360,1,0,0:0:0:0:
256,192,35547,1,8,0:0:0:0:
256,192,35641,1,0,0:0:0:0:
256,192,35735,1,8,0:0:0:0:
256,192,36016,1,8,0:0:0:0:
256,192,36297,1,0,0:0:0:0:
256,192,36485,1,8,0:0:0:0:
256,192,36672,1,0,0:0:0:0:
256,192,36860,1,8,0:0:0:0:
256,192,37047,1,0,0:0:0:0:
256,192,37141,1,0,0:0:0:0:
256,192,37235,1,8,0:0:0:0:
256,192,37422,1,0,0:0:0:0:
256,192,37516,1,8,0:0:0:0:
256,192,37703,1,0,0:0:0:0:
256,192,37797,1,0,0:0:0:0:
256,192,37985,1,12,0:0:0:0:
256,192,38360,1,0,0:0:0:0:
256,192,38547,1,0,0:0:0:0:
256,192,38641,1,0,0:0:0:0:
256,192,38735,1,8,0:0:0:0:
256,192,38922,1,0,0:0:0:0:
256,192,39016,1,8,0:0:0:0:
256,192,39203,1,8,0:0:0:0:
256,192,39297,1,0,0:0:0:0:
256,192,39485,1,8,0:0:0:0:
256,192,39860,1,0,0:0:0:0:
256,192,40047,1,0,0:0:0:0:
256,192,40141,1,8,0:0:0:0:
256,192,40235,1,8,0:0:0:0:
256,192,40422,1,0,0:0:0:0:
256,192,40516,1,8,0:0:0:0:
256,192,40703,1,8,0:0:0:0:
256,192,40797,1,0,0:0:0:0:
256,192,40985,1,8,0:0:0:0:
256,192,41360,1,0,0:0:0:0:
256,192,41547,1,8,0:0:0:0:
256,192,41641,1,0,0:0:0:0:
256,192,41735,1,8,0:0:0:0:
256,192,41922,1,0,0:0:0:0:
256,192,42016,1,8,0:0:0:0:
256,192,42203,1,8,0:0:0:0:
256,192,42297,1,0,0:0:0:0:
256,192,42485,1,8,0:0:0:0:
256,192,42672,1,0,0:0:0:0:
256,192,42860,1,8,0:0:0:0:
256,192,43047,1,0,0:0:0:0:
256,192,43141,1,0,0:0:0:0:
256,192,43235,1,8,0:0:0:0:
256,192,43422,1,0,0:0:0:0:
256,192,43516,1,8,0:0:0:0:
256,192,43703,1,8,0:0:0:0:
256,192,43797,1,0,0:0:0:0:
256,192,43985,1,8,0:0:0:0:
256,192,44172,1,0,0:0:0:0:
256,192,44266,1,8,0:0:0:0:
256,192,44453,1,8,0:0:0:0:
256,192,44547,1,0,0:0:0:0:
256,192,44641,1,0,0:0:0:0:
256,192,44735,1,8,0:0:0:0:
256,192,44922,1,0,0:0:0:0:
256,192,45016,1,8,0:0:0:0:
256,192,45203,1,8,0:0:0:0:
256,192,45297,1,0,0:0:0:0:
256,192,45485,1,8,0:0:0:0:
256,192,45672,1,0,0:0:0:0:
256,192,45766,1,0,0:0:0:0:
256,192,45860,1,8,0:0:0:0:
256,192,46047,1,8,0:0:0:0:
256,192,46235,1,8,0:0:0:0:
256,192,46422,1,0,0:0:0:0:
256,192,46610,1,8,0:0:0:0:
256,192,46797,1,0,0:0:0:0:
256,192,46985,1,8,0:0:0:0:
256,192,47172,1,0,0:0:0:0:
256,192,47266,1,8,0:0:0:0:
256,192,47453,1,8,0:0:0:0:
256,192,47547,1,0,0:0:0:0:
256,192,47641,1,0,0:0:0:0:
256,192,47735,1,8,0:0:0:0:
256,192,47922,1,0,0:0:0:0:
256,192,48016,1,8,0:0:0:0:
256,192,48110,1,8,0:0:0:0:
256,192,48203,1,0,0:0:0:0:
256,192,48297,1,8,0:0:0:0:
256,192,48485,8,0,49610,0:0:0:0:
256,192,49985,5,12,0:0:0:0:
256,192,50360,1,0,0:0:0:0:
256,192,50735,1,0,0:0:0:0:
256,192,51110,1,0,0:0:0:0:
256,192,51297,1,8,0:0:0:0:
256,192,51485,1,8,0:0:0:0:
256,192,51860,1,0,0:0:0:0:
256,192,52235,1,0,0:0:0:0:
256,192,52610,1,8,0:0:0:0:
256,192,52797,1,0,0:0:0:0:
256,192,52985,1,8,0:0:0:0:
256,192,53360,1,0,0:0:0:0:
256,192,53735,1,0,0:0:0:0:
256,192,54110,1,0,0:0:0:0:
256,192,54297,1,8,0:0:0:0:
256,192,54485,1,8,0:0:0:0:
256,192,54860,1,0,0:0:0:0:
256,192,55235,1,8,0:0:0:0:
256,192,55422,1,0,0:0:0:0:
256,192,55610,1,8,0:0:0:0:
256,192,55985,1,0,0:0:0:0:
256,192,56031,1,0,0:0:0:0:
256,192,56078,1,0,0:0:0:0:
256,192,56172,1,8,0:0:0:0:
256,192,56360,1,0,0:0:0:0:
256,192,56453,1,8,0:0:0:0:
256,192,56641,1,8,0:0:0:0:
256,192,56735,1,0,0:0:0:0:
256,192,56922,1,0,0:0:0:0:
256,192,57016,1,8,0:0:0:0:
256,192,57203,1,0,0:0:0:0:
256,192,57297,1,8,0:0:0:0:
256,192,57391,1,8,0:0:0:0:
256,192,57485,1,0,0:0:0:0:
256,192,57531,1,0,0:0:0:0:
256,192,57578,1,0,0:0:0:0:
256,192,57672,1,8,0:0:0:0:
256,192,57860,1,0,0:0:0:0:
256,192,57953,1,8,0:0:0:0:
256,192,58141,1,8,0:0:0:0:
256,192,58235,1,0,0:0:0:0:
256,192,58422,1,8,0:0:0:0:
256,192,58516,1,8,0:0:0:0:
256,192,58703,1,0,0:0:0:0:
256,192,58797,1,8,0:0:0:0:
256,192,58891,1,8,0:0:0:0:
256,192,58985,1,0,0:0:0:0:
256,192,59031,1,0,0:0:0:0:
256,192,59078,1,0,0:0:0:0:
256,192,59172,1,8,0:0:0:0:
256,192,59266,1,0,0:0:0:0:
256,192,59360,1,8,0:0:0:0:
256,192,59453,1,8,0:0:0:0:
256,192,59547,1,0,0:0:0:0:
256,192,59641,1,8,0:0:0:0:
256,192,59735,1,0,0:0:0:0:
256,192,59781,1,0,0:0:0:0:
256,192,59828,1,0,0:0:0:0:
256,192,59922,1,8,0:0:0:0:
256,192,60016,1,0,0:0:0:0:
256,192,60110,1,8,0:0:0:0:
256,192,60203,1,8,0:0:0:0:
256,192,60297,1,8,0:0:0:0:
256,192,60391,1,8,0:0:0:0:
256,192,60485,1,0,0:0:0:0:
256,192,60860,1,8,0:0:0:0:
256,192,61235,1,0,0:0:0:0:
256,192,61422,1,8,0:0:0:0:
256,192,61485,1,8,0:0:0:0:
256,192,61547,1,0,0:0:0:0:
256,192,61610,1,8,0:0:0:0:
256,192,61797,1,8,0:0:0:0:
256,192,61985,1,0,0:0:0:0:
256,192,62078,1,0,0:0:0:0:
256,192,62172,1,8,0:0:0:0:
256,192,62266,1,8,0:0:0:0:
256,192,62360,1,0,0:0:0:0:
256,192,62453,1,8,0:0:0:0:
256,192,62547,1,8,0:0:0:0:
256,192,62641,1,8,0:0:0:0:
256,192,62735,1,0,0:0:0:0:
256,192,62828,1,8,0:0:0:0:
256,192,62922,1,8,0:0:0:0:
256,192,63016,1,8,0:0:0:0:
256,192,63110,1,0,0:0:0:0:
256,192,63203,1,8,0:0:0:0:
256,192,63297,1,0,0:0:0:0:
256,192,63391,1,0,0:0:0:0:
256,192,63485,1,8,0:0:0:0:
256,192,63578,1,0,0:0:0:0:
256,192,63672,1,0,0:0:0:0:
256,192,63766,1,8,0:0:0:0:
256,192,63860,1,8,0:0:0:0:
256,192,63953,1,0,0:0:0:0:
256,192,64047,1,0,0:0:0:0:
256,192,64141,1,8,0:0:0:0:
256,192,64235,1,8,0:0:0:0:
256,192,64328,1,0,0:0:0:0:
256,192,64422,1,0,0:0:0:0:
256,192,64516,1,0,0:0:0:0:
256,192,64610,1,8,0:0:0:0:
256,192,64703,1,0,0:0:0:0:
256,192,64797,1,8,0:0:0:0:
256,192,64891,1,8,0:0:0:0:
256,192,64985,1,8,0:0:0:0:
256,192,65078,1,0,0:0:0:0:
256,192,65172,1,0,0:0:0:0:
256,192,65266,1,8,0:0:0:0:
256,192,65360,1,8,0:0:0:0:
256,192,65453,1,0,0:0:0:0:
256,192,65547,1,0,0:0:0:0:
256,192,65641,1,0,0:0:0:0:
256,192,65735,1,8,0:0:0:0:
256,192,65828,1,8,0:0:0:0:
256,192,65922,1,0,0:0:0:0:
256,192,66016,1,0,0:0:0:0:
256,192,66110,1,8,0:0:0:0:
256,192,66203,1,0,0:0:0:0:
256,192,66297,1,8,0:0:0:0:
256,192,66391,1,8,0:0:0:0:
256,192,66485,1,0,0:0:0:0:
256,192,66672,1,0,0:0:0:0:
256,192,66860,1,8,0:0:0:0:
256,192,66922,1,0,0:0:0:0:
256,192,66985,1,0,0:0:0:0:
256,192,67047,1,8,0:0:0:0:
256,192,67141,1,0,0:0:0:0:
256,192,67235,1,8,0:0:0:0:
256,192,67328,1,8,0:0:0:0:
256,192,67422,1,0,0:0:0:0:
256,192,67516,1,0,0:0:0:0:
256,192,67610,1,8,0:0:0:0:
256,192,67672,1,8,0:0:0:0:
256,192,67735,1,8,0:0:0:0:
256,192,67797,1,0,0:0:0:0:
256,192,67985,1,0,0:0:0:0:
256,192,68078,1,8,0:0:0:0:
256,192,68172,1,8,0:0:0:0:
256,192,68266,1,8,0:0:0:0:
256,192,68360,1,0,0:0:0:0:
256,192,68453,1,0,0:0:0:0:
256,192,68547,1,8,0:0:0:0:
256,192,68641,1,8,0:0:0:0:
256,192,68735,1,0,0:0:0:0:
256,192,68828,1,8,0:0:0:0:
256,192,68922,1,0,0:0:0:0:
256,192,69016,1,0,0:0:0:0:
256,192,69110,1,8,0:0:0:0:
256,192,69203,1,0,0:0:0:0:
256,192,69297,1,8,0:0:0:0:
256,192,69391,1,8,0:0:0:0:
256,192,69485,1,0,0:0:0:0:
256,192,69578,1,8,0:0:0:0:
256,192,69672,1,8,0:0:0:0:
256,192,69766,1,8,0:0:0:0:
256,192,69860,1,0,0:0:0:0:
256,192,69953,1,0,0:0:0:0:
256,192,70047,1,8,0:0:0:0:
256,192,70141,1,8,0:0:0:0:
256,192,70235,1,0,0:0:0:0:
256,192,70422,1,8,0:0:0:0:
256,192,70610,1,0,0:0:0:0:
256,192,70703,1,8,0:0:0:0:
256,192,70797,1,0,0:0:0:0:
256,192,70891,1,0,0:0:0:0:
256,192,70985,1,8,0:0:0:0:
256,192,71078,1,8,0:0:0:0:
256,192,71172,1,0,0:0:0:0:
256,192,71219,1,0,0:0:0:0:
256,192,71266,1,0,0:0:0:0:
256,192,71360,1,8,0:0:0:0:
256,192,71641,1,0,0:0:0:0:
256,192,71735,1,8,0:0:0:0:
256,192,71922,1,8,0:0:0:0:
256,192,72016,1,0,0:0:0:0:
256,192,72297,1,0,0:0:0:0:
256,192,72485,1,8,0:0:0:0:
256,192,72766,1,0,0:0:0:0:
256,192,73047,1,8,0:0:0:0:
256,192,73328,1,8,0:0:0:0:
256,192,73610,1,0,0:0:0:0:
256,192,73797,1,8,0:0:0:0:
256,192,73985,1,0,0:0:0:0:
256,192,74172,1,0,0:0:0:0:
256,192,74360,1,8,0:0:0:0:
256,192,74453,1,0,0:0:0:0:
256,192,74547,1,8,0:0:0:0:
256,192,74641,1,8,0:0:0:0:
256,192,74735,1,0,0:0:0:0:
256,192,74828,1,8,0:0:0:0:
256,192,74922,1,8,0:0:0:0:
256,192,75016,1,8,0:0:0:0:
256,192,75110,1,0,0:0:0:0:
256,192,75203,1,8,0:0:0:0:
256,192,75297,1,8,0:0:0:0:
256,192,75391,1,8,0:0:0:0:
256,192,75485,1,0,0:0:0:0:
256,192,75578,1,8,0:0:0:0:
256,192,75672,1,0,0:0:0:0:
256,192,75766,1,0,0:0:0:0:
256,192,75860,1,8,0:0:0:0:
256,192,75953,1,0,0:0:0:0:
256,192,76047,1,0,0:0:0:0:
256,192,76141,1,8,0:0:0:0:
256,192,76235,1,8,0:0:0:0:
256,192,76328,1,0,0:0:0:0:
256,192,76422,1,0,0:0:0:0:
256,192,76516,1,0,0:0:0:0:
256,192,76610,1,8,0:0:0:0:
256,192,76797,1,0,0:0:0:0:
256,192,76985,1,0,0:0:0:0:
256,192,77078,1,8,0:0:0:0:
256,192,77266,1,8,0:0:0:0:
256,192,77360,1,0,0:0:0:0:
256,192,77547,1,8,0:0:0:0:
256,192,77735,1,0,0:0:0:0:
256,192,77828,1,8,0:0:0:0:
256,192,77922,1,8,0:0:0:0:
256,192,78016,1,0,0:0:0:0:
256,192,78110,1,0,0:0:0:0:
256,192,78203,1,8,0:0:0:0:
256,192,78297,1,0,0:0:0:0:
256,192,78391,1,0,0:0:0:0:
256,192,78485,1,8,0:0:0:0:
256,192,78578,1,0,0:0:0:0:
256,192,78672,1,8,0:0:0:0:
256,192,78766,1,8,0:0:0:0:
256,192,78860,1,0,0:0:0:0:
256,192,78922,1,0,0:0:0:0:
256,192,78985,1,0,0:0:0:0:
256,192,79047,1,8,0:0:0:0:
256,192,79141,1,0,0:0:0:0:
256,192,79235,1,8,0:0:0:0:
256,192,79297,1,0,0:0:0:0:
256,192,79360,1,0,0:0:0:0:
256,192,79422,1,8,0:0:0:0:
256,192,79516,1,0,0:0:0:0:
256,192,79610,1,8,0:0:0:0:
256,192,79672,1,8,0:0:0:0:
256,192,79735,1,8,0:0:0:0:
256,192,79797,1,0,0:0:0:0:
256,192,79985,1,0,0:0:0:0:
256,192,80078,1,0,0:0:0:0:
256,192,80172,1,8,0:0:0:0:
256,192,80360,1,0,0:0:0:0:
256,192,80453,1,8,0:0:0:0:
256,192,80547,1,8,0:0:0:0:
256,192,80641,1,8,0:0:0:0:
256,192,80735,1,0,0:0:0:0:
256,192,80828,1,8,0:0:0:0:
256,192,80922,1,0,0:0:0:0:
256,192,81016,1,0,0:0:0:0:
256,192,81110,1,8,0:0:0:0:
256,192,81156,1,8,0:0:0:0:
256,192,81297,1,8,0:0:0:0:
256,192,81344,1,8,0:0:0:0:
256,192,81485,1,0,0:0:0:0:
256,192,81547,1,0,0:0:0:0:
256,192,81610,1,0,0:0:0:0:
256,192,81672,1,0,0:0:0:0:
256,192,81735,1,0,0:0:0:0:
256,192,81797,1,0,0:0:0:0:
256,192,81860,1,8,0:0:0:0:
256,192,82047,1,0,0:0:0:0:
256,192,82141,1,0,0:0:0:0:
256,192,82235,1,8,0:0:0:0:
256,192,82328,1,0,0:0:0:0:
256,192,82422,1,8,0:0:0:0:
256,192,82516,1,8,0:0:0:0:
256,192,82610,1,0,0:0:0:0:
256,192,82985,1,8,0:0:0:0:
256,192,83172,1,8,0:0:0:0:
256,192,83453,1,8,0:0:0:0:
256,192,83547,1,8,0:0:0:0:
256,192,83735,1,8,0:0:0:0:
256,192,84016,1,8,0:0:0:0:
256,192,84110,1,8,0:0:0:0:
256,192,84297,1,8,0:0:0:0:
256,192,84485,1,0,0:0:0:0:
256,192,84860,1,0,0:0:0:0:
256,192,85235,1,0,0:0:0:0:
256,192,85610,1,8,0:0:0:0:
256,192,85985,1,0,0:0:0:0:
256,192,86078,1,0,0:0:0:0:
256,192,86172,1,0,0:0:0:0:
256,192,86266,1,8,0:0:0:0:
256,192,86360,1,0,0:0:0:0:
256,192,86453,1,8,0:0:0:0:
256,192,86547,1,8,0:0:0:0:
256,192,86641,1,8,0:0:0:0:
256,192,86735,1,0,0:0:0:0:
256,192,86828,1,0,0:0:0:0:
256,192,86922,1,8,0:0:0:0:
256,192,87110,1,0,0:0:0:0:
256,192,87203,1,0,0:0:0:0:
256,192,87297,1,8,0:0:0:0:
256,192,87391,1,8,0:0:0:0:
256,192,87485,1,0,0:0:0:0:
256,192,87578,1,0,0:0:0:0:
256,192,87672,1,0,0:0:0:0:
256,192,87766,1,8,0:0:0:0:
256,192,87860,1,0,0:0:0:0:
256,192,87953,1,8,0:0:0:0:
256,192,88047,1,8,0:0:0:0:
256,192,88141,1,8,0:0:0:0:
256,192,88235,1,0,0:0:0:0:
256,192,88328,1,0,0:0:0:0:
256,192,88422,1,8,0:0:0:0:
256,192,88610,1,0,0:0:0:0:
256,192,88703,1,0,0:0:0:0:
256,192,88797,1,8,0:0:0:0:
256,192,88891,1,8,0:0:0:0:
256,192,88985,1,0,0:0:0:0:
256,192,89078,1,8,0:0:0:0:
256,192,89172,1,0,0:0:0:0:
256,192,89266,1,0,0:0:0:0:
256,192,89360,1,0,0:0:0:0:
256,192,89453,1,8,0:0:0:0:
256,192,89547,1,8,0:0:0:0:
256,192,89641,1,8,0:0:0:0:
256,192,89735,1,0,0:0:0:0:
256,192,89828,1,0,0:0:0:0:
256,192,89922,1,8,0:0:0:0:
256,192,90110,1,0,0:0:0:0:
256,192,90203,1,8,0:0:0:0:
256,192,90297,1,8,0:0:0:0:
256,192,90391,1,8,0:0:0:0:
256,192,90485,1,0,0:0:0:0:
256,192,90578,1,8,0:0:0:0:
256,192,90672,1,0,0:0:0:0:
256,192,90766,1,0,0:0:0:0:
256,192,90860,1,0,0:0:0:0:
256,192,90953,1,8,0:0:0:0:
256,192,91047,1,8,0:0:0:0:
256,192,91141,1,8,0:0:0:0:
256,192,91235,1,0,0:0:0:0:
256,192,91328,1,0,0:0:0:0:
256,192,91422,1,8,0:0:0:0:
256,192,91610,1,0,0:0:0:0:
256,192,91797,1,0,0:0:0:0:
256,192,91985,1,12,0:0:0:0:
256,192,92172,1,0,0:0:0:0:
256,192,92266,1,8,0:0:0:0:
256,192,92360,1,0,0:0:0:0:
256,192,92453,1,8,0:0:0:0:
256,192,92547,1,8,0:0:0:0:
256,192,92641,1,8,0:0:0:0:
256,192,92735,1,0,0:0:0:0:
256,192,92828,1,0,0:0:0:0:
256,192,92922,1,8,0:0:0:0:
256,192,93110,1,0,0:0:0:0:
256,192,93203,1,8,0:0:0:0:
256,192,93297,1,8,0:0:0:0:
256,192,93391,1,8,0:0:0:0:
256,192,93485,1,0,0:0:0:0:
256,192,93578,1,0,0:0:0:0:
256,192,93672,1,0,0:0:0:0:
256,192,93766,1,8,0:0:0:0:
256,192,93860,1,0,0:0:0:0:
256,192,93953,1,8,0:0:0:0:
256,192,94047,1,8,0:0:0:0:
256,192,94141,1,8,0:0:0:0:
256,192,94235,1,0,0:0:0:0:
256,192,94516,1,0,0:0:0:0:
256,192,94610,1,0,0:0:0:0:
256,192,94797,1,0,0:0:0:0:
256,192,94985,1,12,0:0:0:0:
256,192,95172,1,0,0:0:0:0:
256,192,95266,1,0,0:0:0:0:
256,192,95360,1,0,0:0:0:0:
256,192,95453,1,0,0:0:0:0:
256,192,95547,1,0,0:0:0:0:
256,192,95641,1,0,0:0:0:0:
256,192,95735,1,0,0:0:0:0:
256,192,95828,1,0,0:0:0:0:
256,192,95922,1,0,0:0:0:0:
256,192,96016,1,0,0:0:0:0:
256,192,96110,1,0,0:0:0:0:
256,192,96203,1,0,0:0:0:0:
256,192,96297,1,0,0:0:0:0:
256,192,96391,1,0,0:0:0:0:
256,192,96485,1,12,0:0:0:0:
256,192,96766,1,4,0:0:0:0:
256,192,97047,1,12,0:0:0:0:
256,192,97328,1,12,0:0:0:0:
256,192,97610,1,0,0:0:0:0:
256,192,97985,1,12,0:0:0:0:
256,192,98172,1,0,0:0:0:0:
256,192,98266,1,8,0:0:0:0:
256,192,98360,1,0,0:0:0:0:
256,192,98453,1,8,0:0:0:0:
256,192,98547,1,8,0:0:0:0:
256,192,98641,1,8,0:0:0:0:
256,192,98735,1,0,0:0:0:0:
256,192,98828,1,0,0:0:0:0:
256,192,98922,1,0,0:0:0:0:
256,192,99016,1,8,0:0:0:0:
256,192,99110,1,0,0:0:0:0:
256,192,99203,1,8,0:0:0:0:
256,192,99297,1,8,0:0:0:0:
256,192,99391,1,8,0:0:0:0:
256,192,99485,1,0,0:0:0:0:
256,192,99578,1,0,0:0:0:0:
256,192,99672,1,8,0:0:0:0:
256,192,99766,1,8,0:0:0:0:
256,192,99860,1,0,0:0:0:0:
256,192,99953,1,8,0:0:0:0:
256,192,100047,1,8,0:0:0:0:
256,192,100141,1,8,0:0:0:0:
256,192,100235,1,0,0:0:0:0:
256,192,100328,1,8,0:0:0:0:
256,192,100422,1,0,0:0:0:0:
256,192,100516,1,0,0:0:0:0:
256,192,100610,1,8,0:0:0:0:
256,192,100985,1,0,0:0:0:0:
256,192,101078,1,0,0:0:0:0:
256,192,101266,1,0,0:0:0:0:
256,192,101360,1,0,0:0:0:0:
256,192,101547,1,8,0:0:0:0:
256,192,101641,1,8,0:0:0:0:
256,192,101735,1,0,0:0:0:0:
256,192,101828,1,8,0:0:0:0:
256,192,101922,1,0,0:0:0:0:
256,192,102016,1,0,0:0:0:0:
256,192,102110,1,8,0:0:0:0:
256,192,102203,1,0,0:0:0:0:
256,192,102297,1,8,0:0:0:0:
256,192,102391,1,8,0:0:0:0:
256,192,102485,1,0,0:0:0:0:
256,192,102766,1,0,0:0:0:0:
256,192,102860,1,0,0:0:0:0:
256,192,103047,1,0,0:0:0:0:
256,192,103141,1,0,0:0:0:0:
256,192,103235,1,8,0:0:0:0:
256,192,103422,1,0,0:0:0:0:
256,192,103610,1,0,0:0:0:0:
256,192,103797,1,8,0:0:0:0:
256,192,103985,1,0,0:0:0:0:
256,192,104031,1,0,0:0:0:0:
256,192,104078,1,0,0:0:0:0:
256,192,104172,1,8,0:0:0:0:
256,192,104360,1,0,0:0:0:0:
256,192,104453,1,8,0:0:0:0:
256,192,104641,1,8,0:0:0:0:
256,192,104735,1,0,0:0:0:0:
256,192,104922,1,0,0:0:0:0:
256,192,105016,1,8,0:0:0:0:
256,192,105203,1,8,0:0:0:0:
256,192,105297,1,8,0:0:0:0:
256,192,105391,1,8,0:0:0:0:
256,192,105485,1,0,0:0:0:0:
256,192,105531,1,0,0:0:0:0:
256,192,105578,1,0,0:0:0:0:
256,192,105672,1,8,0:0:0:0:
256,192,105860,1,0,0:0:0:0:
256,192,105953,1,8,0:0:0:0:
256,192,106141,1,8,0:0:0:0:
256,192,106235,1,0,0:0:0:0:
256,192,106422,1,8,0:0:0:0:
256,192,106516,1,8,0:0:0:0:
256,192,106703,1,0,0:0:0:0:
256,192,106797,1,0,0:0:0:0:
256,192,106891,1,8,0:0:0:0:
256,192,106985,1,0,0:0:0:0:
256,192,107031,1,0,0:0:0:0:
256,192,107078,1,0,0:0:0:0:
256,192,107172,1,8,0:0:0:0:
256,192,107266,1,0,0:0:0:0:
256,192,107360,1,8,0:0:0:0:
256,192,107453,1,8,0:0:0:0:
256,192,107547,1,0,0:0:0:0:
256,192,107641,1,8,0:0:0:0:
256,192,107735,1,0,0:0:0:0:
256,192,107781,1,0,0:0:0:0:
256,192,107828,1,0,0:0:0:0:
256,192,107922,1,8,0:0:0:0:
256,192,108016,1,0,0:0:0:0:
256,192,108110,1,8,0:0:0:0:
256,192,108203,1,8,0:0:0:0:
256,192,108297,1,8,0:0:0:0:
256,192,108391,1,8,0:0:0:0:
256,192,108485,1,4,0:0:0:0:
256,192,108766,1,12,0:0:0:0:
256,192,109047,1,12,0:0:0:0:
256,192,109235,1,0,0:0:0:0:
256,192,109985,1,12,0:0:0:0:
256,192,110360,1,0,0:0:0:0:
256,192,110922,1,0,0:0:0:0:
256,192,111297,1,8,0:0:0:0:
256,192,111485,1,8,0:0:0:0:
256,192,112047,1,8,0:0:0:0:
256,192,112610,1,0,0:0:0:0:
256,192,112985,1,8,0:0:0:0:
256,192,113360,1,0,0:0:0:0:
256,192,113922,1,0,0:0:0:0:
256,192,114297,1,8,0:0:0:0:
256,192,114485,1,0,0:0:0:0:
256,192,114860,1,8,0:0:0:0:
256,192,114922,1,8,0:0:0:0:
256,192,114985,1,8,0:0:0:0:
256,192,115047,1,8,0:0:0:0:
256,192,115110,1,8,0:0:0:0:
256,192,115172,1,8,0:0:0:0:
256,192,115235,1,0,0:0:0:0:
256,192,115422,1,8,0:0:0:0:
256,192,115485,1,0,0:0:0:0:
256,192,115547,1,0,0:0:0:0:
256,192,115610,1,8,0:0:0:0:
256,192,115703,1,0,0:0:0:0:
256,192,115797,1,8,0:0:0:0:
256,192,115891,1,8,0:0:0:0:
256,192,115985,1,0,0:0:0:0:
256,192,116031,1,0,0:0:0:0:
256,192,116078,1,0,0:0:0:0:
256,192,116172,1,8,0:0:0:0:
256,192,116360,1,0,0:0:0:0:
256,192,116453,1,8,0:0:0:0:
256,192,116641,1,8,0:0:0:0:
256,192,116735,1,0,0:0:0:0:
256,192,116922,1,0,0:0:0:0:
256,192,117016,1,8,0:0:0:0:
256,192,117203,1,0,0:0:0:0:
256,192,117297,1,8,0:0:0:0:
256,192,117391,1,8,0:0:0:0:
256,192,117485,1,0,0:0:0:0:
256,192,117531,1,0,0:0:0:0:
256,192,117578,1,0,0:0:0:0:
256,192,117672,1,8,0:0:0:0:
256,192,117860,1,0,0:0:0:0:
256,192,117953,1,8,0:0:0:0:
256,192,118141,1,8,0:0:0:0:
256,192,118235,1,0,0:0:0:0:
256,192,118422,1,8,0:0:0:0:
256,192,118516,1,8,0:0:0:0:
256,192,118703,1,0,0:0:0:0:
256,192,118797,1,8,0:0:0:0:
256,192,118891,1,8,0:0:0:0:
256,192,118985,1,0,0:0:0:0:
256,192,119031,1,0,0:0:0:0:
256,192,119078,1,0,0:0:0:0:
256,192,119172,1,8,0:0:0:0:
256,192,119266,1,0,0:0:0:0:
256,192,119360,1,8,0:0:0:0:
256,192,119453,1,8,0:0:0:0:
256,192,119547,1,0,0:0:0:0:
256,192,119641,1,8,0:0:0:0:
256,192,119735,1,0,0:0:0:0:
256,192,119781,1,0,0:0:0:0:
256,192,119828,1,0,0:0:0:0:
256,192,119922,1,8,0:0:0:0:
256,192,120016,1,0,0:0:0:0:
256,192,120110,1,8,0:0:0:0:
256,192,120203,1,8,0:0:0:0:
256,192,120297,1,8,0:0:0:0:
256,192,120391,1,8,0:0:0:0:
256,192,120485,1,0,0:0:0:0:
256,192,120860,1,8,0:0:0:0:
256,192,121235,1,0,0:0:0:0:
256,192,121422,1,8,0:0:0:0:
256,192,121485,1,8,0:0:0:0:
256,192,121547,1,0,0:0:0:0:
256,192,121610,1,8,0:0:0:0:
256,192,121985,1,4,0:0:0:0:
256,192,122360,1,8,0:0:0:0:
256,192,122547,1,8,0:0:0:0:
256,192,122735,1,8,0:0:0:0:
256,192,123110,1,0,0:0:0:0:
256,192,123203,1,0,0:0:0:0:
256,192,123297,1,8,0:0:0:0:
256,192,123391,1,0,0:0:0:0:
256,192,123485,1,8,0:0:0:0:
256,192,123578,1,8,0:0:0:0:
256,192,123672,1,0,0:0:0:0:
256,192,123766,1,8,0:0:0:0:
256,192,123860,1,0,0:0:0:0:
256,192,123953,1,8,0:0:0:0:
256,192,124047,1,8,0:0:0:0:
256,192,124141,1,8,0:0:0:0:
256,192,124235,1,0,0:0:0:0:
256,192,124328,1,8,0:0:0:0:
256,192,124422,1,0,0:0:0:0:
256,192,124516,1,0,0:0:0:0:
256,192,124610,1,8,0:0:0:0:
256,192,124672,1,8,0:0:0:0:
256,192,124735,1,8,0:0:0:0:
256,192,124797,1,0,0:0:0:0:
256,192,124985,1,8,0:0:0:0:
256,192,125172,1,8,0:0:0:0:
256,192,125266,1,0,0:0:0:0:
256,192,125360,1,8,0:0:0:0:
256,192,125453,1,0,0:0:0:0:
256,192,125547,1,8,0:0:0:0:
256,192,125641,1,0,0:0:0:0:
256,192,125735,1,8,0:0:0:0:
256,192,125922,1,0,0:0:0:0:
256,192,126110,1,0,0:0:0:0:
256,192,126203,1,8,0:0:0:0:
256,192,126297,1,8,0:0:0:0:
256,192,126391,1,0,0:0:0:0:
256,192,126485,1,8,0:0:0:0:
256,192,126578,1,8,0:0:0:0:
256,192,126672,1,0,0:0:0:0:
256,192,126766,1,8,0:0:0:0:
256,192,126860,1,0,0:0:0:0:
256,192,126953,1,8,0:0:0:0:
256,192,127047,1,8,0:0:0:0:
256,192,127141,1,8,0:0:0:0:
256,192,127235,1,0,0:0:0:0:
256,192,127422,1,8,0:0:0:0:
256,192,127469,1,8,0:0:0:0:
256,192,127610,1,8,0:0:0:0:
256,192,127656,1,8,0:0:0:0:
256,192,127797,1,8,0:0:0:0:
256,192,127891,1,8,0:0:0:0:
256,192,127985,1,4,0:0:0:0:
256,192,128360,1,8,0:0:0:0:
256,192,128547,1,8,0:0:0:0:
256,192,128735,1,8,0:0:0:0:
256,192,129110,1,0,0:0:0:0:
256,192,129203,1,0,0:0:0:0:
256,192,129297,1,8,0:0:0:0:
256,192,129391,1,0,0:0:0:0:
256,192,129485,1,8,0:0:0:0:
256,192,129578,1,8,0:0:0:0:
256,192,129672,1,0,0:0:0:0:
256,192,129766,1,8,0:0:0:0:
256,192,129860,1,0,0:0:0:0:
256,192,129953,1,8,0:0:0:0:
256,192,130047,1,8,0:0:0:0:
256,192,130141,1,8,0:0:0:0:
256,192,130235,1,0,0:0:0:0:
256,192,130328,1,8,0:0:0:0:
256,192,130422,1,8,0:0:0:0:
256,192,130516,1,0,0:0:0:0:
256,192,130610,1,8,0:0:0:0:
256,192,130672,1,8,0:0:0:0:
256,192,130735,1,8,0:0:0:0:
256,192,130797,1,0,0:0:0:0:
256,192,130985,1,0,0:0:0:0:
256,192,131266,1,8,0:0:0:0:
256,192,131453,1,8,0:0:0:0:
256,192,131641,1,0,0:0:0:0:
256,192,131735,1,8,0:0:0:0:
256,192,131922,1,0,0:0:0:0:
256,192,132110,1,0,0:0:0:0:
256,192,132391,1,0,0:0:0:0:
256,192,132485,1,0,0:0:0:0:
256,192,132672,1,8,0:0:0:0:
256,192,132766,1,0,0:0:0:0:
256,192,132860,1,8,0:0:0:0:
256,192,132953,1,8,0:0:0:0:
256,192,133047,1,0,0:0:0:0:
256,192,133235,1,0,0:0:0:0:
256,192,133328,1,8,0:0:0:0:
256,192,133422,1,0,0:0:0:0:
256,192,133516,1,0,0:0:0:0:
256,192,133610,1,8,0:0:0:0:
256,192,133797,1,8,0:0:0:0:
256,192,133891,1,8,0:0:0:0:
256,192,133985,1,4,0:0:0:0:
256,192,134360,1,8,0:0:0:0:
256,192,134547,1,8,0:0:0:0:
256,192,134735,1,8,0:0:0:0:
256,192,135110,1,0,0:0:0:0:
256,192,135203,1,8,0:0:0:0:
256,192,135297,1,8,0:0:0:0:
256,192,135391,1,0,0:0:0:0:
256,192,135485,1,8,0:0:0:0:
256,192,135578,1,0,0:0:0:0:
256,192,135672,1,8,0:0:0:0:
256,192,135766,1,8,0:0:0:0:
256,192,135860,1,0,0:0:0:0:
256,192,135953,1,8,0:0:0:0:
256,192,136047,1,8,0:0:0:0:
256,192,136141,1,8,0:0:0:0:
256,192,136235,1,0,0:0:0:0:
256,192,136328,1,8,0:0:0:0:
256,192,136422,1,0,0:0:0:0:
256,192,136516,1,0,0:0:0:0:
256,192,136610,1,8,0:0:0:0:
256,192,136672,1,8,0:0:0:0:
256,192,136735,1,8,0:0:0:0:
256,192,136797,1,0,0:0:0:0:
256,192,136985,1,8,0:0:0:0:
256,192,137172,1,8,0:0:0:0:
256,192,137266,1,0,0:0:0:0:
256,192,137360,1,8,0:0:0:0:
256,192,137453,1,0,0:0:0:0:
256,192,137547,1,8,0:0:0:0:
256,192,137641,1,0,0:0:0:0:
256,192,137735,1,8,0:0:0:0:
256,192,137922,1,0,0:0:0:0:
256,192,138110,1,0,0:0:0:0:
256,192,138203,1,8,0:0:0:0:
256,192,138297,1,8,0:0:0:0:
256,192,138391,1,0,0:0:0:0:
256,192,138485,1,8,0:0:0:0:
256,192,138578,1,8,0:0:0:0:
256,192,138672,1,0,0:0:0:0:
256,192,138766,1,8,0:0:0:0:
256,192,138860,1,0,0:0:0:0:
256,192,138953,1,8,0:0:0:0:
256,192,139047,1,8,0:0:0:0:
256,192,139141,1,8,0:0:0:0:
256,192,139235,1,0,0:0:0:0:
256,192,139422,1,8,0:0:0:0:
256,192,139469,1,8,0:0:0:0:
256,192,139610,1,8,0:0:0:0:
256,192,139656,1,8,0:0:0:0:
256,192,139985,1,8,0:0:0:0:
256,192,140078,1,4,0:0:0:0:
256,192,140735,1,8,0:0:0:0:
256,192,141110,1,0,0:0:0:0:
256,192,141203,1,8,0:0:0:0:
256,192,141297,1,8,0:0:0:0:
256,192,141391,1,0,0:0:0:0:
256,192,141485,1,8,0:0:0:0:
256,192,141578,1,0,0:0:0:0:
256,192,141672,1,8,0:0:0:0:
256,192,141766,1,8,0:0:0:0:
256,192,141860,1,0,0:0:0:0:
256,192,141953,1,8,0:0:0:0:
256,192,142047,1,8,0:0:0:0:
256,192,142141,1,8,0:0:0:0:
256,192,142235,1,0,0:0:0:0:
256,192,142328,1,8,0:0:0:0:
256,192,142422,1,8,0:0:0:0:
256,192,142516,1,0,0:0:0:0:
256,192,142610,1,8,0:0:0:0:
256,192,142672,1,8,0:0:0:0:
256,192,142735,1,8,0:0:0:0:
256,192,142797,1,0,0:0:0:0:
256,192,143360,1,0,0:0:0:0:
256,192,143735,1,8,0:0:0:0:
256,192,144297,1,0,0:0:0:0:
256,192,144860,1,0,0:0:0:0:
256,192,145235,8,0,145797,0:0:0:0:
256,192,145985,5,4,0:0:0:0:
256,192,149735,8,0,157797,0:0:0:0:
256,192,157985,5,4,0:0:0:0:
256,192,158360,1,8,0:0:0:0:
256,192,158735,1,0,0:0:0:0:
256,192,158922,1,8,0:0:0:0:
256,192,159110,1,0,0:0:0:0:
256,192,159297,1,0,0:0:0:0:
256,192,159485,1,8,0:0:0:0:
256,192,159860,1,0,0:0:0:0:
256,192,160047,1,8,0:0:0:0:
256,192,160235,1,0,0:0:0:0:
256,192,160610,1,8,0:0:0:0:
256,192,160985,1,0,0:0:0:0:
256,192,161360,1,8,0:0:0:0:
256,192,161735,1,0,0:0:0:0:
256,192,161922,1,8,0:0:0:0:
256,192,162110,1,0,0:0:0:0:
256,192,162297,1,0,0:0:0:0:
256,192,162485,1,8,0:0:0:0:
256,192,162860,1,0,0:0:0:0:
256,192,163047,1,8,0:0:0:0:
256,192,163235,1,0,0:0:0:0:
256,192,163610,1,8,0:0:0:0:
256,192,163797,1,8,0:0:0:0:
256,192,163985,1,0,0:0:0:0:
256,192,164360,1,8,0:0:0:0:
256,192,164735,1,0,0:0:0:0:
256,192,164922,1,8,0:0:0:0:
256,192,165110,1,0,0:0:0:0:
256,192,165297,1,0,0:0:0:0:
256,192,165485,1,8,0:0:0:0:
256,192,165860,1,0,0:0:0:0:
256,192,166047,1,8,0:0:0:0:
256,192,166235,1,8,0:0:0:0:
256,192,166422,1,0,0:0:0:0:
256,192,166610,1,8,0:0:0:0:
256,192,166985,1,0,0:0:0:0:
256,192,167360,1,8,0:0:0:0:
256,192,167735,1,0,0:0:0:0:
256,192,167922,1,8,0:0:0:0:
256,192,168110,1,0,0:0:0:0:
256,192,168297,1,0,0:0:0:0:
256,192,168485,1,8,0:0:0:0:
256,192,168672,1,8,0:0:0:0:
256,192,168860,1,8,0:0:0:0:
256,192,169047,1,0,0:0:0:0:
256,192,169235,1,8,0:0:0:0:
256,192,169422,1,0,0:0:0:0:
256,192,169610,1,8,0:0:0:0:
256,192,169797,1,8,0:0:0:0:
256,192,169985,1,4,0:0:0:0:
256,192,170360,1,8,0:0:0:0:
256,192,170547,1,0,0:0:0:0:
256,192,170641,1,0,0:0:0:0:
256,192,170735,1,8,0:0:0:0:
256,192,170922,1,0,0:0:0:0:
256,192,171110,1,8,0:0:0:0:
256,192,171297,1,8,0:0:0:0:
256,192,171485,1,0,0:0:0:0:
256,192,171860,1,8,0:0:0:0:
256,192,172047,1,0,0:0:0:0:
256,192,172141,1,0,0:0:0:0:
256,192,172235,1,8,0:0:0:0:
256,192,172422,1,0,0:0:0:0:
256,192,172610,1,8,0:0:0:0:
256,192,172985,1,0,0:0:0:0:
256,192,173360,1,8,0:0:0:0:
256,192,173547,1,0,0:0:0:0:
256,192,173641,1,0,0:0:0:0:
256,192,173735,1,8,0:0:0:0:
256,192,173922,1,0,0:0:0:0:
256,192,174110,1,8,0:0:0:0:
256,192,174297,1,8,0:0:0:0:
256,192,174485,1,0,0:0:0:0:
256,192,174860,1,8,0:0:0:0:
256,192,175047,1,0,0:0:0:0:
256,192,175141,1,0,0:0:0:0:
256,192,175235,1,8,0:0:0:0:
256,192,175422,1,0,0:0:0:0:
256,192,175610,1,0,0:0:0:0:
256,192,175797,1,8,0:0:0:0:
256,192,175985,1,0,0:0:0:0:
256,192,176360,1,8,0:0:0:0:
256,192,176547,1,0,0:0:0:0:
256,192,176641,1,0,0:0:0:0:
256,192,176735,1,8,0:0:0:0:
256,192,177110,1,0,0:0:0:0:
256,192,177297,1,8,0:0:0:0:
256,192,177485,1,0,0:0:0:0:
256,192,177860,1,8,0:0:0:0:
256,192,178047,1,0,0:0:0:0:
256,192,178141,1,0,0:0:0:0:
256,192,178235,1,8,0:0:0:0:
256,192,178422,1,0,0:0:0:0:
256,192,178610,1,8,0:0:0:0:
256,192,178985,1,0,0:0:0:0:
256,192,179172,1,8,0:0:0:0:
256,192,179360,1,0,0:0:0:0:
256,192,179547,1,0,0:0:0:0:
256,192,179735,1,8,0:0:0:0:
256,192,179922,1,8,0:0:0:0:
256,192,180110,1,0,0:0:0:0:
256,192,180203,1,0,0:0:0:0:
256,192,180297,1,8,0:0:0:0:
256,192,180485,1,0,0:0:0:0:
256,192,180672,1,8,0:0:0:0:
256,192,180860,1,8,0:0:0:0:
256,192,181047,1,8,0:0:0:0:
256,192,181235,1,8,0:0:0:0:
256,192,181422,1,8,0:0:0:0:
256,192,181610,1,0,0:0:0:0:
256,192,181703,1,0,0:0:0:0:
256,192,181797,1,8,0:0:0:0:
256,192,181985,1,4,0:0:0:0:
256,192,182172,1,8,0:0:0:0:
256,192,182266,1,8,0:0:0:0:
256,192,182360,1,0,0:0:0:0:
256,192,182453,1,8,0:0:0:0:
256,192,182547,1,0,0:0:0:0:
256,192,182641,1,0,0:0:0:0:
256,192,182735,1,8,0:0:0:0:
256,192,182922,1,0,0:0:0:0:
256,192,183016,1,8,0:0:0:0:
256,192,183203,1,0,0:0:0:0:
256,192,183297,1,8,0:0:0:0:
256,192,183391,1,8,0:0:0:0:
256,192,183485,1,0,0:0:0:0:
256,192,183672,1,8,0:0:0:0:
256,192,183766,1,8,0:0:0:0:
256,192,183860,1,0,0:0:0:0:
256,192,183953,1,8,0:0:0:0:
256,192,184047,1,0,0:0:0:0:
256,192,184141,1,0,0:0:0:0:
256,192,184235,1,8,0:0:0:0:
256,192,184422,1,0,0:0:0:0:
256,192,184516,1,8,0:0:0:0:
256,192,184703,1,0,0:0:0:0:
256,192,184797,1,0,0:0:0:0:
256,192,184891,1,8,0:0:0:0:
256,192,184985,1,8,0:0:0:0:
256,192,185172,1,8,0:0:0:0:
256,192,185266,1,0,0:0:0:0:
256,192,185453,1,8,0:0:0:0:
256,192,185547,1,0,0:0:0:0:
256,192,185641,1,0,0:0:0:0:
256,192,185735,1,8,0:0:0:0:
256,192,185922,1,0,0:0:0:0:
256,192,186016,1,8,0:0:0:0:
256,192,186203,1,0,0:0:0:0:
256,192,186297,1,0,0:0:0:0:
256,192,186391,1,0,0:0:0:0:
256,192,186485,1,8,0:0:0:0:
256,192,186578,1,0,0:0:0:0:
256,192,186672,1,8,0:0:0:0:
256,192,186766,1,8,0:0:0:0:
256,192,186860,1,0,0:0:0:0:
256,192,186953,1,8,0:0:0:0:
256,192,187141,1,0,0:0:0:0:
256,192,187235,1,8,0:0:0:0:
256,192,187328,1,0,0:0:0:0:
256,192,187422,1,0,0:0:0:0:
256,192,187516,1,8,0:0:0:0:
256,192,187703,1,0,0:0:0:0:
256,192,187797,1,8,0:0:0:0:
256,192,187891,1,8,0:0:0:0:
256,192,187985,1,0,0:0:0:0:
256,192,188172,1,8,0:0:0:0:
256,192,188266,1,8,0:0:0:0:
256,192,188360,1,0,0:0:0:0:
256,192,188453,1,8,0:0:0:0:
256,192,188547,1,0,0:0:0:0:
256,192,188641,1,0,0:0:0:0:
256,192,188735,1,8,0:0:0:0:
256,192,188922,1,0,0:0:0:0:
256,192,189016,1,8,0:0:0:0:
256,192,189203,1,0,0:0:0:0:
256,192,189297,1,8,0:0:0:0:
256,192,189391,1,8,0:0:0:0:
256,192,189485,1,0,0:0:0:0:
256,192,189672,1,8,0:0:0:0:
256,192,189766,1,8,0:0:0:0:
256,192,189860,1,0,0:0:0:0:
256,192,189953,1,8,0:0:0:0:
256,192,190047,1,0,0:0:0:0:
256,192,190141,1,0,0:0:0:0:
256,192,190235,1,8,0:0:0:0:
256,192,190422,1,0,0:0:0:0:
256,192,190516,1,8,0:0:0:0:
256,192,190703,1,0,0:0:0:0:
256,192,190797,1,0,0:0:0:0:
256,192,190891,1,8,0:0:0:0:
256,192,190985,1,8,0:0:0:0:
256,192,191172,1,8,0:0:0:0:
256,192,191266,1,0,0:0:0:0:
256,192,191453,1,8,0:0:0:0:
256,192,191641,1,8,0:0:0:0:
256,192,191735,1,8,0:0:0:0:
256,192,191828,1,0,0:0:0:0:
256,192,191922,1,0,0:0:0:0:
256,192,192016,1,8,0:0:0:0:
256,192,192203,1,0,0:0:0:0:
256,192,192297,1,8,0:0:0:0:
256,192,192391,1,0,0:0:0:0:
256,192,192485,1,8,0:0:0:0:
256,192,192672,1,0,0:0:0:0:
256,192,192766,1,8,0:0:0:0:
256,192,192953,1,0,0:0:0:0:
256,192,193047,1,8,0:0:0:0:
256,192,193141,1,8,0:0:0:0:
256,192,193328,1,8,0:0:0:0:
256,192,193516,1,8,0:0:0:0:
256,192,193610,1,0,0:0:0:0:
256,192,193703,1,0,0:0:0:0:
256,192,193797,1,8,0:0:0:0:
256,192,193985,1,4,0:0:0:0:
256,192,194172,1,8,0:0:0:0:
256,192,194266,1,8,0:0:0:0:
256,192,194360,1,0,0:0:0:0:
256,192,194453,1,8,0:0:0:0:
256,192,194547,1,0,0:0:0:0:
256,192,194641,1,0,0:0:0:0:
256,192,194735,1,8,0:0:0:0:
256,192,194922,1,0,0:0:0:0:
256,192,195016,1,8,0:0:0:0:
256,192,195203,1,0,0:0:0:0:
256,192,195297,1,8,0:0:0:0:
256,192,195391,1,8,0:0:0:0:
256,192,195485,1,0,0:0:0:0:
256,192,195672,1,8,0:0:0:0:
256,192,195766,1,8,0:0:0:0:
256,192,195860,1,0,0:0:0:0:
256,192,195953,1,8,0:0:0:0:
256,192,196047,1,0,0:0:0:0:
256,192,196141,1,0,0:0:0:0:
256,192,196235,1,8,0:0:0:0:
256,192,196422,1,0,0:0:0:0:
256,192,196516,1,8,0:0:0:0:
256,192,196703,1,0,0:0:0:0:
256,192,196797,1,0,0:0:0:0:
256,192,196891,1,8,0:0:0:0:
256,192,196985,1,8,0:0:0:0:
256,192,197172,1,8,0:0:0:0:
256,192,197266,1,0,0:0:0:0:
256,192,197453,1,8,0:0:0:0:
256,192,197547,1,0,0:0:0:0:
256,192,197641,1,0,0:0:0:0:
256,192,197735,1,8,0:0:0:0:
256,192,197922,1,0,0:0:0:0:
256,192,198016,1,8,0:0:0:0:
256,192,198203,1,0,0:0:0:0:
256,192,198297,1,0,0:0:0:0:
256,192,198391,1,0,0:0:0:0:
256,192,198485,1,8,0:0:0:0:
256,192,198578,1,0,0:0:0:0:
256,192,198672,1,8,0:0:0:0:
256,192,198766,1,8,0:0:0:0:
256,192,198860,1,0,0:0:0:0:
256,192,198953,1,8,0:0:0:0:
256,192,199141,1,0,0:0:0:0:
256,192,199235,1,8,0:0:0:0:
256,192,199328,1,0,0:0:0:0:
256,192,199422,1,0,0:0:0:0:
256,192,199516,1,8,0:0:0:0:
256,192,199703,1,0,0:0:0:0:
256,192,199797,1,8,0:0:0:0:
256,192,199891,1,8,0:0:0:0:
256,192,199985,1,0,0:0:0:0:
256,192,200172,1,0,0:0:0:0:
256,192,200266,1,8,0:0:0:0:
256,192,200453,1,0,0:0:0:0:
256,192,200547,1,8,0:0:0:0:
256,192,200641,1,8,0:0:0:0:
256,192,200735,1,0,0:0:0:0:
256,192,200828,1,8,0:0:0:0:
256,192,201016,1,0,0:0:0:0:
256,192,201110,1,8,0:0:0:0:
256,192,201203,1,0,0:0:0:0:
256,192,201297,1,8,0:0:0:0:
256,192,201391,1,8,0:0:0:0:
256,192,201485,1,0,0:0:0:0:
256,192,201672,1,0,0:0:0:0:
256,192,201766,1,8,0:0:0:0:
256,192,201953,1,8,0:0:0:0:
256,192,202047,1,0,0:0:0:0:
256,192,202141,1,0,0:0:0:0:
256,192,202235,1,8,0:0:0:0:
256,192,202328,1,0,0:0:0:0:
256,192,202422,1,8,0:0:0:0:
256,192,202516,1,8,0:0:0:0:
256,192,202610,1,0,0:0:0:0:
256,192,202703,1,0,0:0:0:0:
256,192,202797,1,8,0:0:0:0:
256,192,202891,1,8,0:0:0:0:
256,192,202985,1,0,0:0:0:0:
256,192,203172,1,8,0:0:0:0:
256,192,203266,1,0,0:0:0:0:
256,192,203453,1,8,0:0:0:0:
256,192,203547,1,8,0:0:0:0:
256,192,203641,1,8,0:0:0:0:
256,192,203735,1,0,0:0:0:0:
256,192,203828,1,8,0:0:0:0:
256,192,204016,1,0,0:0:0:0:
256,192,204110,1,0,0:0:0:0:
256,192,204297,1,0,0:0:0:0:
256,192,205985,1,12,0:0:0:0:
256,192,206172,1,0,0:0:0:0:
256,192,206360,1,0,0:0:0:0:
256,192,206547,1,0,0:0:0:0:
256,192,206735,1,0,0:0:0:0:
256,192,206922,1,0,0:0:0:0:
256,192,207110,1,0,0:0:0:0:
256,192,207297,1,0,0:0:0:0:
256,192,207485,1,8,0:0:0:0:
256,192,207672,1,0,0:0:0:0:
256,192,207860,1,0,0:0:0:0:
256,192,208047,1,0,0:0:0:0:
256,192,208235,1,0,0:0:0:0:
256,192,208422,1,0,0:0:0:0:
256,192,208610,1,8,0:0:0:0:
256,192,208703,1,8,0:0:0:0:
256,192,208797,1,0,0:0:0:0:
256,192,208891,1,0,0:0:0:0:
256,192,208985,1,8,0:0:0:0:
256,192,209172,1,0,0:0:0:0:
256,192,209360,1,0,0:0:0:0:
256,192,209547,1,0,0:0:0:0:
256,192,209735,1,0,0:0:0:0:
256,192,209922,1,0,0:0:0:0:
256,192,210110,1,0,0:0:0:0:
256,192,210297,1,8,0:0:0:0:
256,192,210485,1,0,0:0:0:0:
256,192,210860,1,8,0:0:0:0:
256,192,210953,1,8,0:0:0:0:
256,192,211047,1,0,0:0:0:0:
256,192,211141,1,0,0:0:0:0:
256,192,211235,1,8,0:0:0:0:
256,192,211422,1,0,0:0:0:0:
256,192,211516,1,8,0:0:0:0:
256,192,211703,1,8,0:0:0:0:
256,192,211797,1,8,0:0:0:0:
256,192,211985,1,0,0:0:0:0:
256,192,212047,1,0,0:0:0:0:
256,192,212110,1,0,0:0:0:0:
256,192,212172,1,8,0:0:0:0:
256,192,212266,1,0,0:0:0:0:
256,192,212360,1,8,0:0:0:0:
256,192,212422,1,0,0:0:0:0:
256,192,212485,1,0,0:0:0:0:
256,192,212547,1,8,0:0:0:0:
256,192,212641,1,0,0:0:0:0:
256,192,212735,1,8,0:0:0:0:
256,192,212797,1,8,0:0:0:0:
256,192,212860,1,8,0:0:0:0:
256,192,212922,1,0,0:0:0:0:
256,192,213016,1,8,0:0:0:0:
256,192,213110,1,0,0:0:0:0:
256,192,213297,1,0,0:0:0:0:
256,192,213485,1,0,0:0:0:0:
256,192,213547,1,0,0:0:0:0:
256,192,213610,1,0,0:0:0:0:
256,192,213672,1,8,0:0:0:0:
256,192,213766,1,0,0:0:0:0:
256,192,213860,1,8,0:0:0:0:
256,192,213922,1,0,0:0:0:0:
256,192,213985,1,0,0:0:0:0:
256,192,214047,1,8,0:0:0:0:
256,192,214141,1,0,0:0:0:0:
256,192,214235,1,8,0:0:0:0:
256,192,214297,1,8,0:0:0:0:
256,192,214360,1,8,0:0:0:0:
256,192,214422,1,0,0:0:0:0:
256,192,214516,1,8,0:0:0:0:
256,192,214610,1,0,0:0:0:0:
256,192,214797,1,0,0:0:0:0:
256,192,214985,1,0,0:0:0:0:
256,192,215047,1,0,0:0:0:0:
256,192,215110,1,0,0:0:0:0:
256,192,215172,1,8,0:0:0:0:
256,192,215266,1,0,0:0:0:0:
256,192,215360,1,8,0:0:0:0:
256,192,215453,1,8,0:0:0:0:
256,192,215547,1,0,0:0:0:0:
256,192,215641,1,8,0:0:0:0:
256,192,215735,1,0,0:0:0:0:
256,192,215828,1,0,0:0:0:0:
256,192,215922,1,8,0:0:0:0:
256,192,216016,1,8,0:0:0:0:
256,192,216110,1,0,0:0:0:0:
256,192,216203,1,8,0:0:0:0:
256,192,216297,1,8,0:0:0:0:
256,192,216391,1,8,0:0:0:0:
256,192,216485,1,0,0:0:0:0:
256,192,216860,1,8,0:0:0:0:
256,192,217235,1,0,0:0:0:0:
256,192,217422,1,8,0:0:0:0:
256,192,217516,1,8,0:0:0:0:
256,192,217610,1,0,0:0:0:0:
256,192,217703,1,8,0:0:0:0:
256,192,217797,1,8,0:0:0:0:
256,192,217891,1,8,0:0:0:0:
256,192,217985,1,4,0:0:0:0:
256,192,218172,1,8,0:0:0:0:
256,192,218266,1,8,0:0:0:0:
256,192,218360,1,0,0:0:0:0:
256,192,218453,1,8,0:0:0:0:
256,192,218547,1,0,0:0:0:0:
256,192,218641,1,0,0:0:0:0:
256,192,218735,1,8,0:0:0:0:
256,192,218828,1,8,0:0:0:0:
256,192,218922,1,0,0:0:0:0:
256,192,219016,1,8,0:0:0:0:
256,192,219204,1,0,0:0:0:0:
256,192,219298,1,8,0:0:0:0:
256,192,219392,1,8,0:0:0:0:
256,192,219485,1,0,0:0:0:0:
256,192,219672,1,8,0:0:0:0:
256,192,219766,1,8,0:0:0:0:
256,192,219860,1,0,0:0:0:0:
256,192,219953,1,8,0:0:0:0:
256,192,220047,1,0,0:0:0:0:
256,192,220141,1,0,0:0:0:0:
256,192,220235,1,8,0:0:0:0:
256,192,220328,1,0,0:0:0:0:
256,192,220422,1,8,0:0:0:0:
256,192,220516,1,8,0:0:0:0:
256,192,220703,1,0,0:0:0:0:
256,192,220797,1,0,0:0:0:0:
256,192,220891,1,8,0:0:0:0:
256,192,220985,1,8,0:0:0:0:
256,192,221172,1,8,0:0:0:0:
256,192,221266,1,0,0:0:0:0:
256,192,221453,1,8,0:0:0:0:
256,192,221547,1,0,0:0:0:0:
256,192,221641,1,0,0:0:0:0:
256,192,221735,1,8,0:0:0:0:
256,192,221828,1,8,0:0:0:0:
256,192,221922,1,0,0:0:0:0:
256,192,222016,1,8,0:0:0:0:
256,192,222203,1,0,0:0:0:0:
256,192,222297,1,0,0:0:0:0:
256,192,222391,1,0,0:0:0:0:
256,192,222485,1,8,0:0:0:0:
256,192,222672,1,8,0:0:0:0:
256,192,222766,1,0,0:0:0:0:
256,192,222860,1,0,0:0:0:0:
256,192,222953,1,8,0:0:0:0:
256,192,223047,1,0,0:0:0:0:
256,192,223141,1,0,0:0:0:0:
256,192,223235,1,8,0:0:0:0:
256,192,223328,1,8,0:0:0:0:
256,192,223422,1,0,0:0:0:0:
256,192,223516,1,8,0:0:0:0:
256,192,223703,1,0,0:0:0:0:
256,192,223797,1,8,0:0:0:0:
256,192,223891,1,8,0:0:0:0:
256,192,223985,1,0,0:0:0:0:
256,192,224172,1,8,0:0:0:0:
256,192,224266,1,8,0:0:0:0:
256,192,224360,1,0,0:0:0:0:
256,192,224453,1,8,0:0:0:0:
256,192,224547,1,0,0:0:0:0:
256,192,224641,1,0,0:0:0:0:
256,192,224735,1,8,0:0:0:0:
256,192,224828,1,8,0:0:0:0:
256,192,224922,1,0,0:0:0:0:
256,192,225016,1,8,0:0:0:0:
256,192,225203,1,0,0:0:0:0:
256,192,225297,1,8,0:0:0:0:
256,192,225391,1,8,0:0:0:0:
256,192,225485,1,0,0:0:0:0:
256,192,225672,1,8,0:0:0:0:
256,192,225766,1,8,0:0:0:0:
256,192,225860,1,0,0:0:0:0:
256,192,225953,1,8,0:0:0:0:
256,192,226047,1,0,0:0:0:0:
256,192,226141,1,0,0:0:0:0:
256,192,226235,1,8,0:0:0:0:
256,192,226328,1,0,0:0:0:0:
256,192,226422,1,8,0:0:0:0:
256,192,226516,1,8,0:0:0:0:
256,192,226703,1,0,0:0:0:0:
256,192,226797,1,0,0:0:0:0:
256,192,226891,1,8,0:0:0:0:
256,192,226985,1,8,0:0:0:0:
256,192,227172,1,8,0:0:0:0:
256,192,227266,1,8,0:0:0:0:
256,192,227360,1,0,0:0:0:0:
256,192,227453,1,8,0:0:0:0:
256,192,227547,1,0,0:0:0:0:
256,192,227641,1,0,0:0:0:0:
256,192,227735,1,8,0:0:0:0:
256,192,227922,1,0,0:0:0:0:
256,192,228016,1,8,0:0:0:0:
256,192,228203,1,0,0:0:0:0:
256,192,228297,1,8,0:0:0:0:
256,192,228391,1,0,0:0:0:0:
256,192,228485,1,8,0:0:0:0:
256,192,228672,1,0,0:0:0:0:
256,192,228766,1,8,0:0:0:0:
256,192,228953,1,8,0:0:0:0:
256,192,229047,1,0,0:0:0:0:
256,192,229141,1,8,0:0:0:0:
256,192,229328,1,8,0:0:0:0:
256,192,229422,1,0,0:0:0:0:
256,192,229610,1,8,0:0:0:0:
256,192,229703,1,0,0:0:0:0:
256,192,229797,1,8,0:0:0:0:
256,192,229891,1,8,0:0:0:0:
256,192,229985,1,0,0:0:0:0:
256,192,230172,1,0,0:0:0:0:
256,192,230360,1,12,0:0:0:0:
256,192,230547,1,0,0:0:0:0:
256,192,230641,1,0,0:0:0:0:
256,192,230735,1,8,0:0:0:0:
256,192,230828,1,8,0:0:0:0:
256,192,230922,1,0,0:0:0:0:
256,192,231016,1,8,0:0:0:0:
256,192,231203,1,0,0:0:0:0:
256,192,231297,1,8,0:0:0:0:
256,192,231391,1,8,0:0:0:0:
256,192,231485,1,0,0:0:0:0:
256,192,231672,1,8,0:0:0:0:
256,192,231766,1,8,0:0:0:0:
256,192,231860,1,0,0:0:0:0:
256,192,231953,1,8,0:0:0:0:
256,192,232047,1,0,0:0:0:0:
256,192,232141,1,0,0:0:0:0:
256,192,232235,1,8,0:0:0:0:
256,192,232328,1,0,0:0:0:0:
256,192,232422,1,8,0:0:0:0:
256,192,232516,1,8,0:0:0:0:
256,192,232703,1,0,0:0:0:0:
256,192,232797,1,0,0:0:0:0:
256,192,232891,1,8,0:0:0:0:
256,192,232985,1,8,0:0:0:0:
256,192,233172,1,8,0:0:0:0:
256,192,233266,1,0,0:0:0:0:
256,192,233453,1,8,0:0:0:0:
256,192,233547,1,0,0:0:0:0:
256,192,233641,1,0,0:0:0:0:
256,192,233735,1,8,0:0:0:0:
256,192,233828,1,8,0:0:0:0:
256,192,233922,1,0,0:0:0:0:
256,192,234016,1,8,0:0:0:0:
256,192,234203,1,0,0:0:0:0:
256,192,234297,1,0,0:0:0:0:
256,192,234391,1,0,0:0:0:0:
256,192,234485,1,8,0:0:0:0:
256,192,234672,1,0,0:0:0:0:
256,192,234719,1,0,0:0:0:0:
256,192,234766,1,0,0:0:0:0:
256,192,234860,1,8,0:0:0:0:
256,192,235047,1,0,0:0:0:0:
256,192,235094,1,0,0:0:0:0:
256,192,235141,1,0,0:0:0:0:
256,192,235235,1,8,0:0:0:0:
256,192,235422,1,0,0:0:0:0:
256,192,235516,1,8,0:0:0:0:
256,192,235610,1,0,0:0:0:0:
256,192,235703,1,0,0:0:0:0:
256,192,235797,1,8,0:0:0:0:
256,192,235891,1,8,0:0:0:0:
256,192,235985,1,0,0:0:0:0:
256,192,236031,1,0,0:0:0:0:
256,192,236078,1,0,0:0:0:0:
256,192,236172,1,8,0:0:0:0:
256,192,236360,1,0,0:0:0:0:
256,192,236453,1,0,0:0:0:0:
256,192,236547,1,8,0:0:0:0:
256,192,236641,1,8,0:0:0:0:
256,192,236735,1,0,0:0:0:0:
256,192,236922,1,0,0:0:0:0:
256,192,237016,1,8,0:0:0:0:
256,192,237203,1,0,0:0:0:0:
256,192,237297,1,8,0:0:0:0:
256,192,237391,1,8,0:0:0:0:
256,192,237485,1,0,0:0:0:0:
256,192,237531,1,0,0:0:0:0:
256,192,237578,1,0,0:0:0:0:
256,192,237672,1,8,0:0:0:0:
256,192,237860,1,0,0:0:0:0:
256,192,237953,1,8,0:0:0:0:
256,192,238141,1,8,0:0:0:0:
256,192,238235,1,0,0:0:0:0:
256,192,238422,1,8,0:0:0:0:
256,192,238516,1,8,0:0:0:0:
256,192,238703,1,0,0:0:0:0:
256,192,238797,1,8,0:0:0:0:
256,192,238891,1,8,0:0:0:0:
256,192,238985,1,0,0:0:0:0:
256,192,239031,1,0,0:0:0:0:
256,192,239078,1,0,0:0:0:0:
256,192,239172,1,8,0:0:0:0:
256,192,239266,1,0,0:0:0:0:
256,192,239360,1,8,0:0:0:0:
256,192,239453,1,8,0:0:0:0:
256,192,239547,1,0,0:0:0:0:
256,192,239641,1,8,0:0:0:0:
256,192,239735,1,0,0:0:0:0:
256,192,239828,1,0,0:0:0:0:
256,192,239922,1,8,0:0:0:0:
256,192,240016,1,0,0:0:0:0:
256,192,240110,1,8,0:0:0:0:
256,192,240203,1,8,0:0:0:0:
256,192,240297,1,0,0:0:0:0:
256,192,240485,1,8,0:0:0:0:
256,192,240672,1,0,0:0:0:0:
256,192,240766,1,0,0:0:0:0:
256,192,240860,1,8,0:0:0:0:
256,192,240953,1,0,0:0:0:0:
256,192,241047,1,8,0:0:0:0:
256,192,241235,1,0,0:0:0:0:
256,192,241328,1,8,0:0:0:0:
256,192,241516,1,0,0:0:0:0:
256,192,241610,1,8,0:0:0:0:
256,192,241703,1,8,0:0:0:0:
256,192,241985,1,4,0:0:0:0:
256,192,242172,1,8,0:0:0:0:
256,192,242266,1,8,0:0:0:0:
256,192,242360,1,0,0:0:0:0:
256,192,242453,1,8,0:0:0:0:
256,192,242547,1,0,0:0:0:0:
256,192,242641,1,0,0:0:0:0:
256,192,242735,1,8,0:0:0:0:
256,192,242828,1,8,0:0:0:0:
256,192,242922,1,0,0:0:0:0:
256,192,243016,1,8,0:0:0:0:
256,192,243110,1,0,0:0:0:0:
256,192,243203,1,0,0:0:0:0:
256,192,243297,1,8,0:0:0:0:
256,192,243391,1,8,0:0:0:0:
256,192,243485,1,0,0:0:0:0:
256,192,243672,1,8,0:0:0:0:
256,192,243766,1,8,0:0:0:0:
256,192,243860,1,0,0:0:0:0:
256,192,243953,1,8,0:0:0:0:
256,192,244047,1,0,0:0:0:0:
256,192,244141,1,0,0:0:0:0:
256,192,244235,1,8,0:0:0:0:
256,192,244422,1,0,0:0:0:0:
256,192,244516,1,8,0:0:0:0:
256,192,244610,1,0,0:0:0:0:
256,192,244985,1,0,0:0:0:0:
256,192,245078,1,0,0:0:0:0:
256,192,245172,1,0,0:0:0:0:
256,192,245266,1,0,0:0:0:0:
256,192,245360,1,12,0:0:0:0:
256,192,245547,1,0,0:0:0:0:
256,192,245641,1,8,0:0:0:0:
256,192,245735,1,8,0:0:0:0:
256,192,245828,1,0,0:0:0:0:
256,192,245922,1,0,0:0:0:0:
256,192,246016,1,8,0:0:0:0:
256,192,246110,1,0,0:0:0:0:
256,192,246203,1,8,0:0:0:0:
256,192,246297,1,8,0:0:0:0:
256,192,246391,1,8,0:0:0:0:
256,192,246485,1,0,0:0:0:0:
256,192,246672,1,8,0:0:0:0:
256,192,246766,1,0,0:0:0:0:
256,192,246860,1,8,0:0:0:0:
256,192,246953,1,8,0:0:0:0:
256,192,247047,1,0,0:0:0:0:
256,192,247328,1,0,0:0:0:0:
256,192,247422,1,0,0:0:0:0:
256,192,247610,1,0,0:0:0:0:
256,192,247797,1,8,0:0:0:0:
256,192,247891,1,8,0:0:0:0:
256,192,247985,1,4,0:0:0:0:
256,192,248172,1,8,0:0:0:0:
256,192,248266,1,8,0:0:0:0:
256,192,248360,1,0,0:0:0:0:
256,192,248453,1,8,0:0:0:0:
256,192,248547,1,0,0:0:0:0:
256,192,248641,1,0,0:0:0:0:
256,192,248735,1,8,0:0:0:0:
256,192,248828,1,0,0:0:0:0:
256,192,249016,1,0,0:0:0:0:
256,192,249110,1,0,0:0:0:0:
256,192,249297,1,0,0:0:0:0:
256,192,249485,1,0,0:0:0:0:
256,192,249672,1,8,0:0:0:0:
256,192,249860,1,8,0:0:0:0:
256,192,249953,1,8,0:0:0:0:
256,192,250047,1,0,0:0:0:0:
256,192,250141,1,0,0:0:0:0:
256,192,250235,1,8,0:0:0:0:
256,192,250328,1,8,0:0:0:0:
256,192,250422,1,0,0:0:0:0:
256,192,250516,1,0,0:0:0:0:
256,192,250610,1,8,0:0:0:0:
256,192,250797,1,0,0:0:0:0:
256,192,250891,1,8,0:0:0:0:
256,192,250985,1,0,0:0:0:0:
256,192,251172,1,0,0:0:0:0:
256,192,251360,1,12,0:0:0:0:
256,192,251735,1,0,0:0:0:0:
256,192,251922,1,0,0:0:0:0:
256,192,252110,1,12,0:0:0:0:
256,192,252485,1,0,0:0:0:0:
256,192,252578,1,0,0:0:0:0:
256,192,252672,1,0,0:0:0:0:
256,192,252766,1,0,0:0:0:0:
256,192,252860,1,12,0:0:0:0:
256,192,253047,1,0,0:0:0:0:
256,192,253141,1,0,0:0:0:0:
256,192,253235,1,8,0:0:0:0:
256,192,253422,1,0,0:0:0:0:
256,192,253516,1,0,0:0:0:0:
256,192,253703,1,0,0:0:0:0:
256,192,253797,1,8,0:0:0:0:
256,192,253985,1,4,0:0:0:0:
256,192,256985,1,4,0:0:0:0:
256,192,257172,1,4,0:0:0:0:
256,192,258485,1,4,0:0:0:0:
256,192,258672,1,8,0:0:0:0:
256,192,258766,1,0,0:0:0:0:
256,192,258953,1,0,0:0:0:0:
256,192,259047,1,0,0:0:0:0:
256,192,259235,1,8,0:0:0:0:
256,192,259328,1,0,0:0:0:0:
256,192,259422,1,0,0:0:0:0:
256,192,259516,1,8,0:0:0:0:
256,192,259610,1,8,0:0:0:0:
256,192,259797,1,8,0:0:0:0:
256,192,259985,1,0,0:0:0:0:
256,192,260078,1,0,0:0:0:0:
256,192,260172,1,0,0:0:0:0:
256,192,260266,1,0,0:0:0:0:
256,192,260360,1,8,0:0:0:0:
256,192,260453,1,8,0:0:0:0:
256,192,260547,1,8,0:0:0:0:
256,192,260641,1,8,0:0:0:0:
256,192,260735,1,0,0:0:0:0:
256,192,260828,1,0,0:0:0:0:
256,192,260922,1,8,0:0:0:0:
256,192,261016,1,8,0:0:0:0:
256,192,261110,1,0,0:0:0:0:
256,192,261485,1,0,0:0:0:0:
256,192,261578,1,0,0:0:0:0:
256,192,261672,1,0,0:0:0:0:
256,192,261766,1,0,0:0:0:0:
256,192,261860,1,8,0:0:0:0:
256,192,261953,1,8,0:0:0:0:
256,192,262047,1,8,0:0:0:0:
256,192,262141,1,8,0:0:0:0:
256,192,262235,1,0,0:0:0:0:
256,192,262328,1,8,0:0:0:0:
256,192,262422,1,8,0:0:0:0:
256,192,262516,1,8,0:0:0:0:
256,192,262610,1,0,0:0:0:0:
256,192,262985,1,8,0:0:0:0:
256,192,263047,1,8,0:0:0:0:
256,192,263110,1,8,0:0:0:0:
256,192,263172,1,0,0:0:0:0:
256,192,263266,1,0,0:0:0:0:
256,192,263360,1,8,0:0:0:0:
256,192,263422,1,8,0:0:0:0:
256,192,263485,1,8,0:0:0:0:
256,192,263547,1,0,0:0:0:0:
256,192,263641,1,0,0:0:0:0:
256,192,263735,1,8,0:0:0:0:
256,192,263797,1,0,0:0:0:0:
256,192,263860,1,0,0:0:0:0:
256,192,263922,1,8,0:0:0:0:
256,192,264016,1,0,0:0:0:0:
256,192,264110,1,8,0:0:0:0:
256,192,264172,1,8,0:0:0:0:
256,192,264235,1,8,0:0:0:0:
256,192,264297,1,8,0:0:0:0:
256,192,264360,1,8,0:0:0:0:
256,192,264422,1,8,0:0:0:0:
256,192,264485,1,0,0:0:0:0:
256,192,264860,1,8,0:0:0:0:
256,192,265235,1,0,0:0:0:0:
256,192,265422,1,0,0:0:0:0:
256,192,265610,1,8,0:0:0:0:
256,192,265985,1,0,0:0:0:0:
256,192,266078,1,0,0:0:0:0:
256,192,266172,1,8,0:0:0:0:
256,192,266266,1,8,0:0:0:0:
256,192,266360,1,0,0:0:0:0:
256,192,266453,1,8,0:0:0:0:
256,192,266547,1,8,0:0:0:0:
256,192,266641,1,8,0:0:0:0:
256,192,266735,1,0,0:0:0:0:
256,192,266828,1,8,0:0:0:0:
256,192,266922,1,8,0:0:0:0:
256,192,267016,1,8,0:0:0:0:
256,192,267110,1,0,0:0:0:0:
256,192,267203,1,0,0:0:0:0:
256,192,267297,1,8,0:0:0:0:
256,192,267391,1,8,0:0:0:0:
256,192,267485,1,0,0:0:0:0:
256,192,267672,1,0,0:0:0:0:
256,192,267766,1,8,0:0:0:0:
256,192,267860,1,0,0:0:0:0:
256,192,268047,1,0,0:0:0:0:
256,192,268235,1,8,0:0:0:0:
256,192,268328,1,0,0:0:0:0:
256,192,268422,1,0,0:0:0:0:
256,192,268516,1,8,0:0:0:0:
256,192,268610,1,0,0:0:0:0:
256,192,268703,1,0,0:0:0:0:
256,192,268797,1,8,0:0:0:0:
256,192,268985,1,4,0:0:0:0:
256,192,269360,1,12,0:0:0:0:
256,192,269735,1,4,0:0:0:0:
256,192,270110,1,12,0:0:0:0:
256,192,270485,1,0,0:0:0:0:
256,192,270672,1,0,0:0:0:0:
256,192,270860,1,8,0:0:0:0:
256,192,270922,1,0,0:0:0:0:
256,192,270985,1,0,0:0:0:0:
256,192,271047,1,8,0:0:0:0:
256,192,271141,1,0,0:0:0:0:
256,192,271235,1,8,0:0:0:0:
256,192,271328,1,8,0:0:0:0:
256,192,271422,1,0,0:0:0:0:
256,192,271516,1,0,0:0:0:0:
256,192,271610,1,8,0:0:0:0:
256,192,271672,1,8,0:0:0:0:
256,192,271735,1,8,0:0:0:0:
256,192,271797,1,0,0:0:0:0:
256,192,271985,1,0,0:0:0:0:
256,192,272110,1,0,0:0:0:0:
256,192,272235,1,0,0:0:0:0:
256,192,272360,1,8,0:0:0:0:
256,192,272485,1,8,0:0:0:0:
256,192,272610,1,8,0:0:0:0:
256,192,272735,1,0,0:0:0:0:
256,192,272860,1,8,0:0:0:0:
256,192,272985,1,8,0:0:0:0:
256,192,273110,1,0,0:0:0:0:
256,192,273235,1,8,0:0:0:0:
256,192,273360,1,8,0:0:0:0:
256,192,273485,1,0,0:0:0:0:
256,192,273610,1,0,0:0:0:0:
256,192,273735,1,0,0:0:0:0:
256,192,273860,1,8,0:0:0:0:
256,192,273985,1,8,0:0:0:0:
256,192,274110,1,8,0:0:0:0:
256,192,274235,1,0,0:0:0:0:
256,192,274422,1,8,0:0:0:0:
256,192,274985,1,12,0:0:0:0:
256,192,275172,1,12,0:0:0:0:
256,192,275453,1,12,0:0:0:0:
256,192,275735,1,4,0:0:0:0:
256,192,276016,1,12,0:0:0:0:
256,192,276297,1,12,0:0:0:0:
256,192,276485,1,0,0:0:0:0:
256,192,276766,1,0,0:0:0:0:
256,192,277047,1,8,0:0:0:0:
256,192,277328,1,8,0:0:0:0:
256,192,277610,1,0,0:0:0:0:
256,192,277985,1,0,0:0:0:0:
256,192,278172,1,0,0:0:0:0:
256,192,278360,1,8,0:0:0:0:
256,192,278485,1,8,0:0:0:0:
256,192,278610,1,8,0:0:0:0:
256,192,278735,1,8,0:0:0:0:
256,192,278828,1,8,0:0:0:0:
256,192,278922,1,8,0:0:0:0:
256,192,279016,1,8,0:0:0:0:
256,192,279110,1,0,0:0:0:0:
256,192,279172,1,0,0:0:0:0:
256,192,279235,1,0,0:0:0:0:
256,192,279297,1,0,0:0:0:0:
256,192,279360,1,0,0:0:0:0:
256,192,279422,1,0,0:0:0:0:
256,192,279485,1,8,0:0:0:0:
256,192,279672,1,0,0:0:0:0:
256,192,280047,1,8,0:0:0:0:
256,192,280141,1,8,0:0:0:0:
256,192,280235,1,0,0:0:0:0:
256,192,280328,1,0,0:0:0:0:
256,192,280516,1,8,0:0:0:0:
256,192,280797,1,8,0:0:0:0:
256,192,280985,1,0,0:0:0:0:
256,192,281078,1,8,0:0:0:0:
256,192,281172,1,8,0:0:0:0:
256,192,281266,1,8,0:0:0:0:
256,192,281360,1,0,0:0:0:0:
256,192,281453,1,0,0:0:0:0:
256,192,281547,1,8,0:0:0:0:
256,192,281641,1,8,0:0:0:0:
256,192,281735,1,0,0:0:0:0:
256,192,281828,1,8,0:0:0:0:
256,192,281922,1,0,0:0:0:0:
256,192,282016,1,0,0:0:0:0:
256,192,282110,1,8,0:0:0:0:
256,192,282203,1,0,0:0:0:0:
256,192,282297,1,8,0:0:0:0:
256,192,282391,1,8,0:0:0:0:
256,192,282485,1,0,0:0:0:0:
256,192,282578,1,8,0:0:0:0:
256,192,282672,1,8,0:0:0:0:
256,192,282766,1,8,0:0:0:0:
256,192,282860,1,0,0:0:0:0:
256,192,282953,1,0,0:0:0:0:
256,192,283047,1,8,0:0:0:0:
256,192,283141,1,8,0:0:0:0:
256,192,283235,1,0,0:0:0:0:
256,192,283516,1,0,0:0:0:0:
256,192,283610,1,8,0:0:0:0:
256,192,283985,1,0,0:0:0:0:
256,192,284110,1,0,0:0:0:0:
256,192,284235,1,8,0:0:0:0:
256,192,284485,1,0,0:0:0:0:
256,192,284610,1,0,0:0:0:0:
256,192,284735,1,8,0:0:0:0:
256,192,284985,1,0,0:0:0:0:
256,192,285110,1,0,0:0:0:0:
256,192,285235,1,8,0:0:0:0:
256,192,285485,1,0,0:0:0:0:
256,192,285610,1,0,0:0:0:0:
256,192,285735,1,8,0:0:0:0:
256,192,285985,1,0,0:0:0:0:
256,192,286110,1,0,0:0:0:0:
256,192,286235,1,8,0:0:0:0:
256,192,286485,1,0,0:0:0:0:
256,192,286797,1,0,0:0:0:0:
256,192,286985,1,12,0:0:0:0:
256,192,287172,1,0,0:0:0:0:
256,192,287219,1,0,0:0:0:0:
256,192,287266,1,0,0:0:0:0:
256,192,287360,1,8,0:0:0:0:
256,192,287547,1,0,0:0:0:0:
256,192,287594,1,0,0:0:0:0:
256,192,287641,1,0,0:0:0:0:
256,192,287735,1,8,0:0:0:0:
256,192,287922,1,0,0:0:0:0:
256,192,288016,1,8,0:0:0:0:
256,192,288203,1,0,0:0:0:0:
256,192,288297,1,8,0:0:0:0:
256,192,288391,1,8,0:0:0:0:
256,192,288485,1,0,0:0:0:0:
256,192,288766,1,0,0:0:0:0:
256,192,289047,1,8,0:0:0:0:
256,192,289328,1,8,0:0:0:0:
256,192,289610,1,8,0:0:0:0:
256,192,289985,1,4,0:0:0:0:
256,192,290360,1,8,0:0:0:0:
256,192,290735,1,0,0:0:0:0:
256,192,290922,1,8,0:0:0:0:
256,192,291110,1,0,0:0:0:0:
256,192,291297,1,0,0:0:0:0:
256,192,291860,1,8,0:0:0:0:
256,192,292235,1,8,0:0:0:0:
256,192,292422,1,0,0:0:0:0:
256,192,292610,1,8,0:0:0:0:
256,192,293360,1,8,0:0:0:0:
256,192,293735,1,0,0:0:0:0:
256,192,293922,1,8,0:0:0:0:
256,192,294110,1,0,0:0:0:0:
256,192,294297,1,0,0:0:0:0:
256,192,294860,1,8,0:0:0:0:
256,192,295235,1,8,0:0:0:0:
256,192,295422,1,0,0:0:0:0:
256,192,295610,1,0,0:0:0:0:
256,192,295797,1,8,0:0:0:0:
256,192,296360,1,8,0:0:0:0:
256,192,296735,1,0,0:0:0:0:
256,192,296922,1,8,0:0:0:0:
256,192,297110,1,0,0:0:0:0:
256,192,297297,1,0,0:0:0:0:
256,192,297860,1,8,0:0:0:0:
256,192,298235,1,8,0:0:0:0:
256,192,298422,1,0,0:0:0:0:
256,192,298610,1,8,0:0:0:0:
256,192,299360,1,0,0:0:0:0:
256,192,299735,1,8,0:0:0:0:
256,192,299922,1,0,0:0:0:0:
256,192,300110,1,0,0:0:0:0:
256,192,300297,1,8,0:0:0:0:
256,192,300672,1,8,0:0:0:0:
256,192,300860,1,8,0:0:0:0:
256,192,301047,1,0,0:0:0:0:
256,192,301235,1,8,0:0:0:0:
256,192,301422,1,0,0:0:0:0:
256,192,301610,1,8,0:0:0:0:
256,192,301797,1,8,0:0:0:0:
256,192,301985,1,4,0:0:0:0:
