osu file format v14

[General]
AudioFilename: audio.ogg
AudioLeadIn: 0
PreviewTime: 257678
Countdown: 0
SampleSet: Soft
StackLeniency: 0.7
Mode: 3
LetterboxInBreaks: 0
SpecialStyle: 0
WidescreenStoryboard: 1

[Editor]
Bookmarks: 18953,38153,76553,104153,105353,143753,220553,239753,278153,297353
DistanceSpacing: 2.1
BeatDivisor: 12
GridSize: 16
TimelineZoom: 3.100001

[Metadata]
Title:Reality Distortion
TitleUnicode:Reality Distortion
Artist:Camellia vs. Akira Complex
ArtistUnicode:かめりあ vs. Akira Complex
Creator:RiceSS
Version:Unreality Save /co. V1do & Nyasun
Source:
Tags:Cametek KamelCamellia かめるかめりあ S2TB Recording S2TB-0019 C91 Comic Market track 05 5 five instrumental Electronic 200step Dubstep Drumstep Melodic Hardcore LN Dump featured artist fa [GB]V1do [GB]nyasun rdc 2023.5 roasted duck cup cyberpunk hi-tech minijack tech technical collab collaboration finals tb tiebreaker
BeatmapID:4246911
BeatmapSetID:2036440

[Difficulty]
HPDrainRate:8.4
CircleSize:4
OverallDifficulty:7.2
ApproachRate:5
SliderMultiplier:1.4
SliderTickRate:1

[Events]
//Background and Video events
0,0,"bg.jpg",0,0
//Break Periods
//Storyboard Layer 0 (Background)
//Storyboard Layer 1 (Fail)
//Storyboard Layer 2 (Pass)
//Storyboard Layer 3 (Foreground)
//Storyboard Layer 4 (Overlay)
//Storyboard Sound Samples

[TimingPoints]
953,300,4,2,1,50,1,0
105353,-100,4,2,1,50,0,1
124553,-100,4,2,1,50,0,0
143753,-100,4,2,1,50,0,1
161753,-100,4,2,1,50,0,0
162953,-100,4,2,1,50,0,1
180953,-100,4,2,1,50,0,0
258953,-100,4,2,1,50,0,1
278153,-100,4,2,1,50,0,0
278453,-100,4,2,1,50,0,1
297353,-100,4,2,1,50,0,0

[HitObjects]
448,192,18953,128,0,20678:0:0:0:0:
320,192,18953,128,0,20678:0:0:0:0:
192,192,18953,128,0,21278:0:0:0:0:
64,192,19403,128,0,21278:0:0:0:0:
320,192,20753,128,0,23753:0:0:0:0:
448,192,20753,128,0,23753:0:0:0:0:
64,192,21353,128,0,23678:0:0:0:0:
192,192,21953,128,0,23678:0:0:0:0:
192,192,23978,1,0,0:0:0:0:
448,192,24053,1,0,0:0:0:0:
64,192,24353,1,0,0:0:0:0:
448,192,24653,1,0,0:0:0:0:
192,192,24803,1,0,0:0:0:0:
64,192,24953,1,0,0:0:0:0:
448,192,25103,1,0,0:0:0:0:
192,192,25253,1,0,0:0:0:0:
320,192,25403,1,0,0:0:0:0:
64,192,25553,1,0,0:0:0:0:
448,192,25703,1,0,0:0:0:0:
192,192,25853,1,0,0:0:0:0:
448,192,26153,1,0,0:0:0:0:
192,192,26453,1,0,0:0:0:0:
320,192,26753,1,0,0:0:0:0:
448,192,28253,1,0,0:0:0:0:
64,192,28403,1,0,0:0:0:0:
448,192,28553,128,0,30278:0:0:0:0:
320,192,28553,128,0,30278:0:0:0:0:
192,192,28553,128,0,30878:0:0:0:0:
64,192,29003,128,0,30878:0:0:0:0:
320,192,30353,128,0,32228:0:0:0:0:
448,192,30353,128,0,32228:0:0:0:0:
64,192,30953,128,0,32303:0:0:0:0:
192,192,31553,128,0,32303:0:0:0:0:
448,192,32303,1,0,0:0:0:0:
192,192,32453,1,0,0:0:0:0:
320,192,32603,1,0,0:0:0:0:
64,192,32903,1,0,0:0:0:0:
320,192,33053,1,0,0:0:0:0:
192,192,33203,1,0,0:0:0:0:
448,192,33653,1,0,0:0:0:0:
64,192,33953,1,0,0:0:0:0:
192,192,34403,1,0,0:0:0:0:
320,192,34553,1,0,0:0:0:0:
64,192,34853,1,0,0:0:0:0:
448,192,35003,1,0,0:0:0:0:
192,192,35153,1,0,0:0:0:0:
320,192,35303,1,0,0:0:0:0:
448,192,35453,1,0,0:0:0:0:
64,192,35603,1,0,0:0:0:0:
320,192,35753,1,0,0:0:0:0:
64,192,35903,1,0,0:0:0:0:
192,192,36053,1,0,0:0:0:0:
448,192,36203,1,0,0:0:0:0:
320,192,36353,1,0,0:0:0:0:
192,192,36503,128,0,37478:0:0:0:0:
64,192,36503,128,0,37478:0:0:0:0:
320,192,36953,128,0,37478:0:0:0:0:
448,192,37103,128,0,37478:0:0:0:0:
64,192,37553,1,0,0:0:0:0:
320,192,37553,1,0,0:0:0:0:
192,192,37628,1,0,0:0:0:0:
320,192,37703,1,0,0:0:0:0:
448,192,37703,1,0,0:0:0:0:
192,192,37778,1,0,0:0:0:0:
448,192,37853,1,0,0:0:0:0:
64,192,37853,1,0,0:0:0:0:
448,192,37928,1,0,0:0:0:0:
320,192,38003,1,0,0:0:0:0:
192,192,38003,1,0,0:0:0:0:
192,192,38078,1,0,0:0:0:0:
320,192,38153,1,0,0:0:0:0:
448,192,38153,1,0,0:0:0:0:
64,192,38153,128,0,38903:0:0:0:0:
448,192,38378,1,0,0:0:0:0:
448,192,38603,128,0,40253:0:0:0:0:
192,192,38753,1,0,0:0:0:0:
320,192,38903,1,0,0:0:0:0:
64,192,39053,1,0,0:0:0:0:
192,192,39203,1,0,0:0:0:0:
320,192,39353,1,0,0:0:0:0:
64,192,39653,1,0,0:0:0:0:
192,192,39953,128,0,40853:0:0:0:0:
320,192,40103,1,0,0:0:0:0:
64,192,40253,1,0,0:0:0:0:
448,192,40403,1,0,0:0:0:0:
64,192,40553,128,0,41453:0:0:0:0:
320,192,40853,1,0,0:0:0:0:
448,192,41153,128,0,42053:0:0:0:0:
320,192,41303,1,0,0:0:0:0:
192,192,41453,1,0,0:0:0:0:
64,192,41603,1,0,0:0:0:0:
320,192,41753,1,0,0:0:0:0:
64,192,42053,1,0,0:0:0:0:
320,192,42203,128,0,42803:0:0:0:0:
448,192,42353,1,0,0:0:0:0:
192,192,42503,128,0,43403:0:0:0:0:
64,192,42653,1,0,0:0:0:0:
448,192,42803,1,0,0:0:0:0:
64,192,42953,1,0,0:0:0:0:
448,192,43103,128,0,46553:0:0:0:0:
320,192,43253,1,0,0:0:0:0:
64,192,43553,1,0,0:0:0:0:
320,192,43703,1,0,0:0:0:0:
192,192,43853,1,0,0:0:0:0:
64,192,44003,1,0,0:0:0:0:
320,192,44153,1,0,0:0:0:0:
192,192,44453,1,0,0:0:0:0:
64,192,44753,1,0,0:0:0:0:
320,192,44903,1,0,0:0:0:0:
64,192,45053,1,0,0:0:0:0:
192,192,45203,1,0,0:0:0:0:
320,192,45353,1,0,0:0:0:0:
64,192,45653,1,0,0:0:0:0:
192,192,45953,1,0,0:0:0:0:
320,192,46103,1,0,0:0:0:0:
64,192,46253,1,0,0:0:0:0:
192,192,46403,1,0,0:0:0:0:
64,192,46553,128,0,47453:0:0:0:0:
448,192,46853,1,0,0:0:0:0:
320,192,47153,1,0,0:0:0:0:
448,192,47303,1,0,0:0:0:0:
192,192,47453,1,0,0:0:0:0:
320,192,47603,1,0,0:0:0:0:
64,192,47753,128,0,48503:0:0:0:0:
192,192,48053,1,0,0:0:0:0:
448,192,48203,128,0,49853:0:0:0:0:
320,192,48353,1,0,0:0:0:0:
192,192,48503,1,0,0:0:0:0:
64,192,48653,1,0,0:0:0:0:
320,192,48803,1,0,0:0:0:0:
192,192,48953,1,0,0:0:0:0:
64,192,49253,1,0,0:0:0:0:
192,192,49553,128,0,50453:0:0:0:0:
320,192,49703,1,0,0:0:0:0:
64,192,49853,1,0,0:0:0:0:
448,192,50003,1,0,0:0:0:0:
64,192,50153,128,0,51053:0:0:0:0:
320,192,50453,1,0,0:0:0:0:
448,192,50753,128,0,51653:0:0:0:0:
320,192,50903,1,0,0:0:0:0:
192,192,51053,1,0,0:0:0:0:
64,192,51203,1,0,0:0:0:0:
320,192,51353,1,0,0:0:0:0:
64,192,51653,1,0,0:0:0:0:
320,192,51803,128,0,52403:0:0:0:0:
448,192,51953,1,0,0:0:0:0:
192,192,52103,128,0,52403:0:0:0:0:
64,192,52253,1,0,0:0:0:0:
448,192,52403,1,0,0:0:0:0:
64,192,52553,1,0,0:0:0:0:
448,192,52703,128,0,54053:0:0:0:0:
320,192,52853,1,0,0:0:0:0:
64,192,53153,1,0,0:0:0:0:
320,192,53303,1,0,0:0:0:0:
192,192,53453,1,0,0:0:0:0:
64,192,53603,1,0,0:0:0:0:
192,192,53753,128,0,54803:0:0:0:0:
320,192,54053,1,0,0:0:0:0:
64,192,54353,1,0,0:0:0:0:
448,192,54503,128,0,55253:0:0:0:0:
64,192,54653,1,0,0:0:0:0:
320,192,54803,1,0,0:0:0:0:
64,192,54953,128,0,57203:0:0:0:0:
320,192,55253,1,0,0:0:0:0:
192,192,55553,1,0,0:0:0:0:
320,192,55703,1,0,0:0:0:0:
448,192,55853,1,0,0:0:0:0:
192,192,56003,1,0,0:0:0:0:
320,192,56153,1,0,0:0:0:0:
448,192,56453,1,0,0:0:0:0:
448,192,56753,1,0,0:0:0:0:
192,192,56903,1,0,0:0:0:0:
320,192,57053,1,0,0:0:0:0:
192,192,57203,1,0,0:0:0:0:
64,192,57353,128,0,58103:0:0:0:0:
448,192,57353,128,0,57428:0:0:0:0:
320,192,57503,128,0,57578:0:0:0:0:
192,192,57653,128,0,57728:0:0:0:0:
448,192,57803,128,0,59303:0:0:0:0:
320,192,57953,128,0,58028:0:0:0:0:
192,192,58103,128,0,58178:0:0:0:0:
64,192,58253,128,0,58403:0:0:0:0:
192,192,58403,128,0,58478:0:0:0:0:
320,192,58553,128,0,58628:0:0:0:0:
64,192,58703,128,0,58853:0:0:0:0:
320,192,58853,128,0,58928:0:0:0:0:
192,192,59003,128,0,60053:0:0:0:0:
64,192,59153,128,0,59303:0:0:0:0:
320,192,59303,128,0,59453:0:0:0:0:
448,192,59453,128,0,59603:0:0:0:0:
64,192,59753,128,0,60653:0:0:0:0:
448,192,59753,128,0,59828:0:0:0:0:
320,192,59903,128,0,59978:0:0:0:0:
448,192,60053,128,0,60203:0:0:0:0:
320,192,60203,128,0,60353:0:0:0:0:
192,192,60278,128,0,60353:0:0:0:0:
448,192,60353,128,0,61553:0:0:0:0:
320,192,60503,128,0,60578:0:0:0:0:
192,192,60653,128,0,60803:0:0:0:0:
320,192,60728,128,0,60803:0:0:0:0:
64,192,60803,128,0,60878:0:0:0:0:
192,192,60953,128,0,61028:0:0:0:0:
320,192,61103,128,0,61253:0:0:0:0:
192,192,61178,128,0,61253:0:0:0:0:
64,192,61253,128,0,61328:0:0:0:0:
320,192,61403,128,0,61853:0:0:0:0:
64,192,61553,128,0,61628:0:0:0:0:
192,192,61703,128,0,62153:0:0:0:0:
448,192,61853,128,0,62003:0:0:0:0:
64,192,61928,128,0,62003:0:0:0:0:
320,192,62153,128,0,62303:0:0:0:0:
448,192,62303,128,0,66053:0:0:0:0:
64,192,62303,128,0,62378:0:0:0:0:
320,192,62453,128,0,62528:0:0:0:0:
64,192,62603,128,0,62753:0:0:0:0:
320,192,62753,128,0,62828:0:0:0:0:
192,192,62903,128,0,62978:0:0:0:0:
64,192,63053,128,0,63128:0:0:0:0:
320,192,63203,128,0,63278:0:0:0:0:
192,192,63353,128,0,63503:0:0:0:0:
320,192,63503,128,0,63578:0:0:0:0:
64,192,63653,128,0,63803:0:0:0:0:
192,192,63803,128,0,63878:0:0:0:0:
64,192,63953,128,0,64253:0:0:0:0:
320,192,64103,128,0,64253:0:0:0:0:
192,192,64253,128,0,64403:0:0:0:0:
64,192,64403,128,0,64553:0:0:0:0:
320,192,64553,128,0,64853:0:0:0:0:
64,192,64703,128,0,64853:0:0:0:0:
192,192,64853,128,0,65003:0:0:0:0:
64,192,65003,128,0,65303:0:0:0:0:
192,192,65153,128,0,65303:0:0:0:0:
320,192,65303,128,0,65453:0:0:0:0:
64,192,65453,128,0,65603:0:0:0:0:
192,192,65603,128,0,65753:0:0:0:0:
64,192,65753,128,0,66653:0:0:0:0:
320,192,65903,128,0,66053:0:0:0:0:
192,192,66053,128,0,66203:0:0:0:0:
448,192,66203,128,0,66353:0:0:0:0:
320,192,66353,128,0,66503:0:0:0:0:
448,192,66503,128,0,66653:0:0:0:0:
192,192,66653,128,0,66953:0:0:0:0:
64,192,66803,1,0,0:0:0:0:
320,192,66878,128,0,67028:0:0:0:0:
448,192,66953,128,0,67253:0:0:0:0:
64,192,66953,128,0,67553:0:0:0:0:
192,192,67103,128,0,67253:0:0:0:0:
320,192,67253,128,0,67403:0:0:0:0:
192,192,67403,128,0,67703:0:0:0:0:
448,192,67403,128,0,68753:0:0:0:0:
320,192,67553,128,0,67703:0:0:0:0:
64,192,67703,128,0,67853:0:0:0:0:
320,192,67853,128,0,68153:0:0:0:0:
192,192,68003,128,0,68153:0:0:0:0:
64,192,68153,128,0,68303:0:0:0:0:
320,192,68303,128,0,68453:0:0:0:0:
64,192,68453,128,0,68603:0:0:0:0:
192,192,68603,128,0,69503:0:0:0:0:
64,192,68753,128,0,69053:0:0:0:0:
320,192,68903,128,0,69053:0:0:0:0:
448,192,69053,128,0,69353:0:0:0:0:
320,192,69203,128,0,69353:0:0:0:0:
64,192,69353,128,0,70103:0:0:0:0:
448,192,69503,128,0,69653:0:0:0:0:
320,192,69653,128,0,69803:0:0:0:0:
192,192,69803,128,0,70103:0:0:0:0:
448,192,69953,128,0,70853:0:0:0:0:
320,192,70103,128,0,70253:0:0:0:0:
64,192,70253,128,0,70553:0:0:0:0:
192,192,70403,128,0,70553:0:0:0:0:
320,192,70553,128,0,70853:0:0:0:0:
64,192,70703,128,0,70853:0:0:0:0:
192,192,70853,128,0,71153:0:0:0:0:
320,192,71003,128,0,71603:0:0:0:0:
448,192,71153,128,0,71453:0:0:0:0:
64,192,71303,128,0,71453:0:0:0:0:
192,192,71453,128,0,71903:0:0:0:0:
64,192,71603,128,0,71903:0:0:0:0:
448,192,71753,128,0,73103:0:0:0:0:
320,192,71903,128,0,72053:0:0:0:0:
64,192,72053,128,0,72353:0:0:0:0:
192,192,72203,128,0,72353:0:0:0:0:
320,192,72353,128,0,72653:0:0:0:0:
192,192,72503,128,0,72653:0:0:0:0:
64,192,72653,128,0,72803:0:0:0:0:
320,192,72803,128,0,72953:0:0:0:0:
192,192,72953,128,0,73703:0:0:0:0:
64,192,72953,128,0,73253:0:0:0:0:
320,192,73103,128,0,73403:0:0:0:0:
448,192,73253,128,0,73553:0:0:0:0:
64,192,73403,128,0,73553:0:0:0:0:
320,192,73553,128,0,74003:0:0:0:0:
64,192,73703,128,0,73853:0:0:0:0:
448,192,73703,128,0,74153:0:0:0:0:
192,192,73853,128,0,74003:0:0:0:0:
64,192,74003,128,0,74153:0:0:0:0:
320,192,74153,128,0,74528:0:0:0:0:
192,192,74153,128,0,74378:0:0:0:0:
64,192,74228,128,0,75953:0:0:0:0:
448,192,74303,128,0,75953:0:0:0:0:
192,192,74453,128,0,74678:0:0:0:0:
320,192,74603,128,0,74828:0:0:0:0:
192,192,74753,128,0,74978:0:0:0:0:
320,192,74903,128,0,75128:0:0:0:0:
192,192,75053,128,0,75278:0:0:0:0:
320,192,75203,128,0,75428:0:0:0:0:
192,192,75353,128,0,75578:0:0:0:0:
320,192,75503,128,0,75728:0:0:0:0:
192,192,75653,128,0,75878:0:0:0:0:
320,192,75803,128,0,75878:0:0:0:0:
192,192,75953,128,0,76028:0:0:0:0:
320,192,75953,128,0,76103:0:0:0:0:
448,192,76028,128,0,76178:0:0:0:0:
64,192,76103,128,0,76328:0:0:0:0:
192,192,76178,128,0,76253:0:0:0:0:
320,192,76253,128,0,76403:0:0:0:0:
448,192,76253,128,0,76328:0:0:0:0:
192,192,76328,128,0,76478:0:0:0:0:
64,192,76403,128,0,76478:0:0:0:0:
448,192,76478,1,0,0:0:0:0:
192,192,76553,1,0,0:0:0:0:
64,192,76553,1,0,0:0:0:0:
320,192,76553,1,0,0:0:0:0:
64,192,76703,128,0,77003:0:0:0:0:
448,192,77003,128,0,78353:0:0:0:0:
192,192,78353,128,0,78953:0:0:0:0:
64,192,78953,128,0,79403:0:0:0:0:
448,192,79403,128,0,80153:0:0:0:0:
320,192,80603,128,0,80903:0:0:0:0:
192,192,80903,128,0,81503:0:0:0:0:
448,192,81503,128,0,84953:0:0:0:0:
64,192,81503,128,0,81578:0:0:0:0:
192,192,81653,128,0,81728:0:0:0:0:
320,192,81803,128,0,81878:0:0:0:0:
64,192,81953,1,0,0:0:0:0:
192,192,81953,128,0,82028:0:0:0:0:
320,192,82103,128,0,82178:0:0:0:0:
192,192,82253,128,0,82328:0:0:0:0:
64,192,82403,128,0,82478:0:0:0:0:
320,192,82553,1,0,0:0:0:0:
192,192,82553,128,0,82628:0:0:0:0:
64,192,82703,128,0,82778:0:0:0:0:
192,192,82853,128,0,82928:0:0:0:0:
320,192,83003,128,0,83078:0:0:0:0:
64,192,83153,1,0,0:0:0:0:
192,192,83153,128,0,83228:0:0:0:0:
320,192,83303,128,0,83378:0:0:0:0:
192,192,83453,128,0,83528:0:0:0:0:
64,192,83603,128,0,83678:0:0:0:0:
320,192,83753,1,0,0:0:0:0:
192,192,83753,128,0,83828:0:0:0:0:
64,192,83903,128,0,83978:0:0:0:0:
320,192,84053,128,0,84128:0:0:0:0:
192,192,84203,128,0,84278:0:0:0:0:
320,192,84353,1,0,0:0:0:0:
64,192,84353,128,0,84428:0:0:0:0:
192,192,84503,128,0,84578:0:0:0:0:
64,192,84653,128,0,84728:0:0:0:0:
192,192,84803,128,0,84878:0:0:0:0:
320,192,84953,128,0,85028:0:0:0:0:
64,192,84953,128,0,85403:0:0:0:0:
192,192,85103,128,0,85178:0:0:0:0:
448,192,85253,128,0,85328:0:0:0:0:
320,192,85403,128,0,85478:0:0:0:0:
448,192,85553,1,0,0:0:0:0:
64,192,85553,128,0,85628:0:0:0:0:
192,192,85703,128,0,85778:0:0:0:0:
448,192,85853,128,0,86003:0:0:0:0:
64,192,86003,128,0,86228:0:0:0:0:
448,192,86153,1,0,0:0:0:0:
320,192,86153,128,0,86378:0:0:0:0:
192,192,86303,128,0,86528:0:0:0:0:
448,192,86453,128,0,86678:0:0:0:0:
64,192,86603,128,0,86828:0:0:0:0:
192,192,86753,1,0,0:0:0:0:
320,192,86753,128,0,86978:0:0:0:0:
448,192,86903,128,0,87128:0:0:0:0:
64,192,87053,128,0,87278:0:0:0:0:
192,192,87203,128,0,87428:0:0:0:0:
448,192,87353,1,0,0:0:0:0:
320,192,87353,128,0,87578:0:0:0:0:
64,192,87503,128,0,87728:0:0:0:0:
448,192,87653,128,0,87878:0:0:0:0:
192,192,87803,128,0,88028:0:0:0:0:
448,192,87953,1,0,0:0:0:0:
64,192,87953,128,0,88178:0:0:0:0:
192,192,88103,128,0,88328:0:0:0:0:
320,192,88253,128,0,88478:0:0:0:0:
448,192,88403,128,0,88628:0:0:0:0:
64,192,88553,1,0,0:0:0:0:
192,192,88553,128,0,88778:0:0:0:0:
320,192,88703,128,0,88928:0:0:0:0:
448,192,88853,128,0,89078:0:0:0:0:
64,192,89003,128,0,89228:0:0:0:0:
192,192,89153,1,0,0:0:0:0:
448,192,89153,128,0,89378:0:0:0:0:
320,192,89303,128,0,89528:0:0:0:0:
64,192,89453,128,0,89678:0:0:0:0:
192,192,89603,128,0,89828:0:0:0:0:
448,192,89753,1,0,0:0:0:0:
320,192,89753,128,0,89978:0:0:0:0:
64,192,89903,128,0,90053:0:0:0:0:
192,192,89978,128,0,90128:0:0:0:0:
448,192,90053,128,0,90278:0:0:0:0:
64,192,90203,128,0,90353:0:0:0:0:
192,192,90353,1,0,0:0:0:0:
320,192,90353,128,0,90653:0:0:0:0:
64,192,90503,128,0,90953:0:0:0:0:
448,192,90653,128,0,90803:0:0:0:0:
192,192,90803,128,0,91253:0:0:0:0:
448,192,90953,128,0,91103:0:0:0:0:
320,192,90953,128,0,91403:0:0:0:0:
64,192,91103,128,0,91703:0:0:0:0:
448,192,91253,128,0,91403:0:0:0:0:
192,192,91403,128,0,91553:0:0:0:0:
448,192,91553,1,0,0:0:0:0:
320,192,91553,128,0,92003:0:0:0:0:
192,192,91703,128,0,92003:0:0:0:0:
448,192,91778,128,0,91853:0:0:0:0:
64,192,91853,128,0,92153:0:0:0:0:
448,192,92003,128,0,92303:0:0:0:0:
320,192,92153,128,0,92453:0:0:0:0:
192,192,92153,128,0,92603:0:0:0:0:
64,192,92303,128,0,92603:0:0:0:0:
448,192,92453,128,0,92753:0:0:0:0:
320,192,92603,128,0,92678:0:0:0:0:
192,192,92678,128,0,92753:0:0:0:0:
64,192,92753,128,0,93203:0:0:0:0:
320,192,92753,128,0,92903:0:0:0:0:
448,192,92903,128,0,93203:0:0:0:0:
192,192,92903,128,0,92978:0:0:0:0:
320,192,92978,128,0,93053:0:0:0:0:
192,192,93053,128,0,93203:0:0:0:0:
320,192,93203,128,0,93278:0:0:0:0:
64,192,93278,128,0,93353:0:0:0:0:
448,192,93353,128,0,93428:0:0:0:0:
320,192,93353,128,0,93503:0:0:0:0:
64,192,93428,128,0,93578:0:0:0:0:
192,192,93503,128,0,93653:0:0:0:0:
320,192,93578,128,0,93728:0:0:0:0:
64,192,93653,128,0,93728:0:0:0:0:
448,192,93653,128,0,93803:0:0:0:0:
192,192,93728,128,0,93803:0:0:0:0:
64,192,93803,128,0,93878:0:0:0:0:
320,192,93803,128,0,93953:0:0:0:0:
448,192,93878,128,0,93953:0:0:0:0:
192,192,93953,128,0,94103:0:0:0:0:
64,192,93953,128,0,94178:0:0:0:0:
448,192,94028,128,0,94178:0:0:0:0:
320,192,94103,128,0,94253:0:0:0:0:
192,192,94178,128,0,94328:0:0:0:0:
64,192,94253,128,0,94403:0:0:0:0:
448,192,94253,128,0,94328:0:0:0:0:
320,192,94328,128,0,94403:0:0:0:0:
192,192,94403,128,0,94553:0:0:0:0:
448,192,94403,128,0,94478:0:0:0:0:
448,192,94553,128,0,94628:0:0:0:0:
64,192,94553,128,0,94603:0:0:0:0:
320,192,94590,128,0,94703:0:0:0:0:
192,192,94628,128,0,94778:0:0:0:0:
64,192,94665,128,0,94853:0:0:0:0:
448,192,94703,128,0,94778:0:0:0:0:
320,192,94778,128,0,94853:0:0:0:0:
192,192,94853,128,0,94928:0:0:0:0:
448,192,94890,128,0,95040:0:0:0:0:
64,192,94928,128,0,95078:0:0:0:0:
320,192,95003,128,0,95078:0:0:0:0:
192,192,95078,128,0,95153:0:0:0:0:
448,192,95153,1,0,0:0:0:0:
64,192,95153,1,0,0:0:0:0:
320,192,95153,1,0,0:0:0:0:
448,192,95228,1,0,0:0:0:0:
64,192,95303,1,0,0:0:0:0:
192,192,95303,1,0,0:0:0:0:
64,192,95378,1,0,0:0:0:0:
320,192,95378,1,0,0:0:0:0:
448,192,95453,1,0,0:0:0:0:
192,192,95453,1,0,0:0:0:0:
320,192,95503,1,0,0:0:0:0:
64,192,95553,1,0,0:0:0:0:
448,192,95603,1,0,0:0:0:0:
320,192,95653,1,0,0:0:0:0:
448,192,95753,5,0,0:0:0:0:
64,192,95753,1,0,0:0:0:0:
192,192,95753,1,0,0:0:0:0:
192,192,95903,128,0,96053:0:0:0:0:
320,192,96053,1,0,0:0:0:0:
448,192,96053,1,0,0:0:0:0:
64,192,96053,1,0,0:0:0:0:
320,192,96203,128,0,96353:0:0:0:0:
64,192,96353,1,0,0:0:0:0:
192,192,96353,1,0,0:0:0:0:
448,192,96353,1,0,0:0:0:0:
64,192,96503,128,0,96653:0:0:0:0:
192,192,96653,1,0,0:0:0:0:
320,192,96653,1,0,0:0:0:0:
448,192,96653,1,0,0:0:0:0:
320,192,96803,128,0,96953:0:0:0:0:
64,192,96953,1,0,0:0:0:0:
192,192,96953,1,0,0:0:0:0:
448,192,96953,128,0,97103:0:0:0:0:
64,192,97103,128,0,97253:0:0:0:0:
192,192,97253,1,0,0:0:0:0:
320,192,97253,1,0,0:0:0:0:
448,192,97253,128,0,97403:0:0:0:0:
320,192,97403,128,0,97553:0:0:0:0:
192,192,97553,1,0,0:0:0:0:
64,192,97553,1,0,0:0:0:0:
448,192,97553,128,0,97703:0:0:0:0:
192,192,97703,128,0,97853:0:0:0:0:
64,192,97853,1,0,0:0:0:0:
320,192,97853,1,0,0:0:0:0:
448,192,97853,128,0,98003:0:0:0:0:
64,192,98003,128,0,98153:0:0:0:0:
320,192,98153,1,0,0:0:0:0:
192,192,98153,1,0,0:0:0:0:
448,192,98153,128,0,98378:0:0:0:0:
320,192,98303,128,0,98378:0:0:0:0:
192,192,98453,1,0,0:0:0:0:
64,192,98453,1,0,0:0:0:0:
448,192,98453,128,0,98678:0:0:0:0:
192,192,98603,128,0,98678:0:0:0:0:
448,192,98753,1,0,0:0:0:0:
320,192,98753,1,0,0:0:0:0:
64,192,98753,128,0,98978:0:0:0:0:
448,192,98903,128,0,98978:0:0:0:0:
192,192,99053,1,0,0:0:0:0:
64,192,99053,1,0,0:0:0:0:
320,192,99053,128,0,99278:0:0:0:0:
192,192,99203,128,0,99278:0:0:0:0:
64,192,99353,1,0,0:0:0:0:
448,192,99353,128,0,99578:0:0:0:0:
320,192,99353,128,0,99428:0:0:0:0:
320,192,99503,128,0,99728:0:0:0:0:
192,192,99653,1,0,0:0:0:0:
64,192,99653,1,0,0:0:0:0:
448,192,99653,128,0,99878:0:0:0:0:
320,192,99803,128,0,99878:0:0:0:0:
448,192,99953,1,0,0:0:0:0:
192,192,99953,128,0,100028:0:0:0:0:
64,192,99953,128,0,100178:0:0:0:0:
192,192,100103,128,0,100328:0:0:0:0:
448,192,100253,1,0,0:0:0:0:
320,192,100253,1,0,0:0:0:0:
64,192,100253,128,0,100478:0:0:0:0:
192,192,100403,128,0,100478:0:0:0:0:
448,192,100553,1,0,0:0:0:0:
64,192,100553,128,0,100628:0:0:0:0:
192,192,100553,128,0,100628:0:0:0:0:
448,192,100703,1,0,0:0:0:0:
192,192,100703,128,0,100778:0:0:0:0:
320,192,100703,128,0,100778:0:0:0:0:
64,192,100853,1,0,0:0:0:0:
448,192,100853,128,0,100928:0:0:0:0:
320,192,100853,128,0,100928:0:0:0:0:
448,192,101003,1,0,0:0:0:0:
320,192,101003,128,0,101078:0:0:0:0:
192,192,101003,128,0,101078:0:0:0:0:
448,192,101153,1,0,0:0:0:0:
192,192,101153,128,0,101228:0:0:0:0:
64,192,101153,128,0,101228:0:0:0:0:
192,192,101303,128,0,101378:0:0:0:0:
320,192,101303,128,0,101378:0:0:0:0:
64,192,101303,1,0,0:0:0:0:
64,192,101453,1,0,0:0:0:0:
448,192,101453,128,0,101528:0:0:0:0:
320,192,101453,128,0,101528:0:0:0:0:
320,192,101603,128,0,101678:0:0:0:0:
192,192,101603,128,0,101678:0:0:0:0:
64,192,101603,1,0,0:0:0:0:
448,192,101753,1,0,0:0:0:0:
192,192,101753,128,0,101828:0:0:0:0:
64,192,101753,128,0,101828:0:0:0:0:
448,192,101903,1,0,0:0:0:0:
192,192,101903,128,0,101978:0:0:0:0:
320,192,101903,128,0,101978:0:0:0:0:
320,192,102053,128,0,102128:0:0:0:0:
448,192,102053,128,0,102128:0:0:0:0:
64,192,102053,1,0,0:0:0:0:
448,192,102203,1,0,0:0:0:0:
192,192,102203,128,0,102278:0:0:0:0:
320,192,102203,128,0,102278:0:0:0:0:
64,192,102353,128,0,102428:0:0:0:0:
192,192,102353,1,0,0:0:0:0:
192,192,102503,128,0,102578:0:0:0:0:
320,192,102503,1,0,0:0:0:0:
320,192,102653,128,0,102728:0:0:0:0:
448,192,102653,1,0,0:0:0:0:
192,192,102803,128,0,102878:0:0:0:0:
320,192,102803,1,0,0:0:0:0:
64,192,102953,128,0,103028:0:0:0:0:
448,192,103028,128,0,103103:0:0:0:0:
64,192,103103,128,0,103478:0:0:0:0:
448,192,103178,128,0,103553:0:0:0:0:
192,192,103253,128,0,103328:0:0:0:0:
320,192,103328,128,0,103403:0:0:0:0:
192,192,103403,128,0,103778:0:0:0:0:
320,192,103478,128,0,103853:0:0:0:0:
64,192,103553,128,0,103628:0:0:0:0:
448,192,103628,128,0,103703:0:0:0:0:
64,192,103703,128,0,104078:0:0:0:0:
448,192,103778,128,0,104153:0:0:0:0:
192,192,103853,128,0,103928:0:0:0:0:
320,192,103928,128,0,104003:0:0:0:0:
192,192,104003,128,0,104078:0:0:0:0:
320,192,104078,128,0,104153:0:0:0:0:
192,192,104153,1,0,0:0:0:0:
64,192,104153,128,0,105053:0:0:0:0:
320,192,105053,1,0,0:0:0:0:
320,192,105128,1,0,0:0:0:0:
192,192,105203,1,0,0:0:0:0:
192,192,105278,1,0,0:0:0:0:
320,192,105353,128,0,105428:0:0:0:0:
448,192,105353,128,0,105503:0:0:0:0:
64,192,105353,128,0,105578:0:0:0:0:
192,192,105428,128,0,105578:0:0:0:0:
320,192,105503,128,0,105653:0:0:0:0:
448,192,105578,128,0,105728:0:0:0:0:
64,192,105653,128,0,105878:0:0:0:0:
192,192,105690,128,0,105840:0:0:0:0:
320,192,105728,128,0,105803:0:0:0:0:
448,192,105803,128,0,105953:0:0:0:0:
320,192,105878,128,0,105953:0:0:0:0:
64,192,105953,1,0,0:0:0:0:
192,192,105953,1,0,0:0:0:0:
192,192,106028,1,0,0:0:0:0:
448,192,106103,1,0,0:0:0:0:
320,192,106178,1,0,0:0:0:0:
64,192,106253,1,0,0:0:0:0:
192,192,106253,1,0,0:0:0:0:
192,192,106403,1,0,0:0:0:0:
320,192,106478,1,0,0:0:0:0:
64,192,106553,1,0,0:0:0:0:
448,192,106553,1,0,0:0:0:0:
192,192,106628,1,0,0:0:0:0:
192,192,106703,1,0,0:0:0:0:
320,192,106853,1,0,0:0:0:0:
448,192,106853,1,0,0:0:0:0:
448,192,106928,1,0,0:0:0:0:
64,192,107003,1,0,0:0:0:0:
192,192,107078,1,0,0:0:0:0:
448,192,107153,128,0,107353:0:0:0:0:
320,192,107153,128,0,107228:0:0:0:0:
64,192,107153,128,0,107278:0:0:0:0:
320,192,107303,128,0,107528:0:0:0:0:
192,192,107328,128,0,107403:0:0:0:0:
448,192,107453,128,0,107503:0:0:0:0:
192,192,107478,128,0,107553:0:0:0:0:
64,192,107503,128,0,107653:0:0:0:0:
320,192,107603,128,0,107678:0:0:0:0:
448,192,107628,128,0,107753:0:0:0:0:
64,192,107753,128,0,107828:0:0:0:0:
192,192,107803,128,0,107878:0:0:0:0:
448,192,107853,128,0,107928:0:0:0:0:
320,192,107903,128,0,107978:0:0:0:0:
192,192,107953,128,0,108028:0:0:0:0:
448,192,108003,128,0,108078:0:0:0:0:
64,192,108053,128,0,108128:0:0:0:0:
192,192,108103,128,0,108178:0:0:0:0:
320,192,108153,128,0,108228:0:0:0:0:
64,192,108203,128,0,108278:0:0:0:0:
448,192,108253,128,0,108328:0:0:0:0:
320,192,108303,128,0,108378:0:0:0:0:
64,192,108353,1,0,0:0:0:0:
192,192,108353,1,0,0:0:0:0:
192,192,108428,1,0,0:0:0:0:
448,192,108503,1,0,0:0:0:0:
320,192,108578,1,0,0:0:0:0:
64,192,108653,1,0,0:0:0:0:
448,192,108653,1,0,0:0:0:0:
320,192,108803,1,0,0:0:0:0:
192,192,108878,1,0,0:0:0:0:
64,192,108953,1,0,0:0:0:0:
448,192,108953,1,0,0:0:0:0:
320,192,109028,1,0,0:0:0:0:
320,192,109103,1,0,0:0:0:0:
192,192,109253,1,0,0:0:0:0:
64,192,109253,1,0,0:0:0:0:
64,192,109328,1,0,0:0:0:0:
448,192,109403,1,0,0:0:0:0:
320,192,109478,1,0,0:0:0:0:
64,192,109553,128,0,109753:0:0:0:0:
448,192,109553,128,0,109653:0:0:0:0:
192,192,109553,128,0,109628:0:0:0:0:
192,192,109703,128,0,109778:0:0:0:0:
320,192,109728,128,0,109928:0:0:0:0:
448,192,109853,128,0,109903:0:0:0:0:
192,192,109878,128,0,109953:0:0:0:0:
64,192,109903,128,0,110053:0:0:0:0:
320,192,110003,128,0,110078:0:0:0:0:
448,192,110028,128,0,110153:0:0:0:0:
320,192,110152,128,0,110195:0:0:0:0:
64,192,110152,128,0,110281:0:0:0:0:
192,192,110195,128,0,110238:0:0:0:0:
448,192,110238,128,0,110324:0:0:0:0:
320,192,110281,128,0,110367:0:0:0:0:
192,192,110324,128,0,110410:0:0:0:0:
64,192,110367,128,0,110452:0:0:0:0:
448,192,110410,128,0,110495:0:0:0:0:
320,192,110452,128,0,110538:0:0:0:0:
192,192,110503,128,0,110578:0:0:0:0:
448,192,110553,128,0,110628:0:0:0:0:
64,192,110603,128,0,110678:0:0:0:0:
320,192,110678,128,0,110753:0:0:0:0:
192,192,110753,1,0,0:0:0:0:
64,192,110753,1,0,0:0:0:0:
192,192,110828,1,0,0:0:0:0:
448,192,110903,1,0,0:0:0:0:
320,192,110978,1,0,0:0:0:0:
64,192,111053,1,0,0:0:0:0:
192,192,111078,1,0,0:0:0:0:
448,192,111103,1,0,0:0:0:0:
64,192,111203,1,0,0:0:0:0:
320,192,111203,1,0,0:0:0:0:
448,192,111278,1,0,0:0:0:0:
192,192,111353,1,0,0:0:0:0:
64,192,111353,1,0,0:0:0:0:
192,192,111428,1,0,0:0:0:0:
448,192,111503,1,0,0:0:0:0:
320,192,111528,1,0,0:0:0:0:
64,192,111553,1,0,0:0:0:0:
448,192,111653,1,0,0:0:0:0:
192,192,111653,1,0,0:0:0:0:
448,192,111728,1,0,0:0:0:0:
192,192,111803,1,0,0:0:0:0:
64,192,111878,1,0,0:0:0:0:
192,192,111953,128,0,112053:0:0:0:0:
320,192,111953,128,0,112028:0:0:0:0:
448,192,111953,128,0,112103:0:0:0:0:
320,192,112103,128,0,112178:0:0:0:0:
64,192,112128,128,0,112303:0:0:0:0:
192,192,112253,128,0,112328:0:0:0:0:
320,192,112278,128,0,112453:0:0:0:0:
448,192,112303,128,0,112353:0:0:0:0:
192,192,112403,128,0,112478:0:0:0:0:
64,192,112428,128,0,112553:0:0:0:0:
320,192,112553,128,0,112628:0:0:0:0:
448,192,112553,1,0,0:0:0:0:
192,192,112603,128,0,112678:0:0:0:0:
64,192,112653,128,0,112728:0:0:0:0:
448,192,112703,128,0,112778:0:0:0:0:
192,192,112753,128,0,112828:0:0:0:0:
320,192,112803,128,0,112878:0:0:0:0:
64,192,112853,128,0,112928:0:0:0:0:
448,192,112878,128,0,112953:0:0:0:0:
192,192,112928,128,0,113003:0:0:0:0:
320,192,112978,128,0,113103:0:0:0:0:
64,192,113153,1,0,0:0:0:0:
192,192,113153,1,0,0:0:0:0:
448,192,113153,1,0,0:0:0:0:
448,192,113303,1,0,0:0:0:0:
448,192,113378,1,0,0:0:0:0:
64,192,113453,1,0,0:0:0:0:
192,192,113478,1,0,0:0:0:0:
320,192,113503,1,0,0:0:0:0:
64,192,113603,1,0,0:0:0:0:
192,192,113678,1,0,0:0:0:0:
448,192,113753,1,0,0:0:0:0:
64,192,113753,1,0,0:0:0:0:
320,192,113828,1,0,0:0:0:0:
320,192,113903,1,0,0:0:0:0:
192,192,113928,1,0,0:0:0:0:
448,192,113953,1,0,0:0:0:0:
64,192,114053,1,0,0:0:0:0:
64,192,114128,1,0,0:0:0:0:
320,192,114203,1,0,0:0:0:0:
448,192,114278,1,0,0:0:0:0:
320,192,114353,128,0,114428:0:0:0:0:
192,192,114378,128,0,114453:0:0:0:0:
64,192,114403,128,0,114478:0:0:0:0:
448,192,114453,128,0,114678:0:0:0:0:
320,192,114503,128,0,114578:0:0:0:0:
192,192,114528,128,0,114603:0:0:0:0:
64,192,114653,128,0,114728:0:0:0:0:
192,192,114678,128,0,114753:0:0:0:0:
320,192,114703,128,0,114878:0:0:0:0:
448,192,114778,128,0,114878:0:0:0:0:
64,192,114803,128,0,114878:0:0:0:0:
192,192,114953,128,0,115028:0:0:0:0:
64,192,114953,128,0,115103:0:0:0:0:
448,192,114953,128,0,115178:0:0:0:0:
320,192,115028,128,0,115178:0:0:0:0:
192,192,115103,128,0,115253:0:0:0:0:
64,192,115178,128,0,115328:0:0:0:0:
448,192,115253,128,0,115478:0:0:0:0:
320,192,115290,128,0,115440:0:0:0:0:
192,192,115328,128,0,115403:0:0:0:0:
64,192,115403,128,0,115553:0:0:0:0:
192,192,115478,128,0,115553:0:0:0:0:
320,192,115553,1,0,0:0:0:0:
448,192,115553,1,0,0:0:0:0:
320,192,115628,1,0,0:0:0:0:
64,192,115703,1,0,0:0:0:0:
192,192,115778,1,0,0:0:0:0:
320,192,115853,1,0,0:0:0:0:
448,192,115853,1,0,0:0:0:0:
320,192,116003,1,0,0:0:0:0:
192,192,116078,1,0,0:0:0:0:
64,192,116153,1,0,0:0:0:0:
448,192,116153,1,0,0:0:0:0:
320,192,116228,1,0,0:0:0:0:
320,192,116303,1,0,0:0:0:0:
64,192,116453,1,0,0:0:0:0:
192,192,116453,1,0,0:0:0:0:
64,192,116528,1,0,0:0:0:0:
448,192,116603,1,0,0:0:0:0:
320,192,116678,1,0,0:0:0:0:
192,192,116753,128,0,116828:0:0:0:0:
64,192,116753,128,0,116953:0:0:0:0:
448,192,116753,128,0,116853:0:0:0:0:
192,192,116903,128,0,117128:0:0:0:0:
320,192,116928,128,0,117003:0:0:0:0:
64,192,117053,128,0,117103:0:0:0:0:
320,192,117078,128,0,117153:0:0:0:0:
448,192,117103,128,0,117253:0:0:0:0:
192,192,117203,128,0,117278:0:0:0:0:
64,192,117228,128,0,117353:0:0:0:0:
448,192,117353,128,0,117428:0:0:0:0:
192,192,117353,1,0,0:0:0:0:
320,192,117403,128,0,117478:0:0:0:0:
64,192,117453,128,0,117528:0:0:0:0:
192,192,117503,128,0,117578:0:0:0:0:
320,192,117553,128,0,117628:0:0:0:0:
64,192,117603,128,0,117678:0:0:0:0:
448,192,117653,128,0,117728:0:0:0:0:
320,192,117703,128,0,117778:0:0:0:0:
192,192,117753,128,0,117828:0:0:0:0:
448,192,117803,128,0,117878:0:0:0:0:
64,192,117853,128,0,117928:0:0:0:0:
192,192,117903,128,0,117978:0:0:0:0:
320,192,117953,1,0,0:0:0:0:
448,192,117953,1,0,0:0:0:0:
320,192,118028,1,0,0:0:0:0:
64,192,118103,1,0,0:0:0:0:
192,192,118178,1,0,0:0:0:0:
320,192,118253,1,0,0:0:0:0:
64,192,118253,1,0,0:0:0:0:
448,192,118403,1,0,0:0:0:0:
320,192,118478,1,0,0:0:0:0:
64,192,118553,1,0,0:0:0:0:
448,192,118553,1,0,0:0:0:0:
192,192,118628,1,0,0:0:0:0:
192,192,118703,1,0,0:0:0:0:
64,192,118853,1,0,0:0:0:0:
448,192,118853,1,0,0:0:0:0:
64,192,118928,1,0,0:0:0:0:
320,192,119003,1,0,0:0:0:0:
192,192,119053,1,0,0:0:0:0:
320,192,119103,1,0,0:0:0:0:
64,192,119153,128,0,119228:0:0:0:0:
448,192,119153,128,0,119228:0:0:0:0:
192,192,119203,128,0,119278:0:0:0:0:
320,192,119253,128,0,119328:0:0:0:0:
448,192,119303,128,0,119378:0:0:0:0:
64,192,119353,128,0,119428:0:0:0:0:
320,192,119403,128,0,119478:0:0:0:0:
192,192,119453,128,0,119528:0:0:0:0:
64,192,119503,128,0,119578:0:0:0:0:
448,192,119553,128,0,119628:0:0:0:0:
320,192,119603,128,0,119678:0:0:0:0:
192,192,119653,128,0,119728:0:0:0:0:
64,192,119703,128,0,119778:0:0:0:0:
448,192,119753,128,0,119828:0:0:0:0:
192,192,119803,128,0,119878:0:0:0:0:
320,192,119853,128,0,119928:0:0:0:0:
64,192,119903,128,0,119978:0:0:0:0:
448,192,119953,1,0,0:0:0:0:
320,192,120003,1,0,0:0:0:0:
64,192,120053,1,0,0:0:0:0:
192,192,120053,128,0,120203:0:0:0:0:
320,192,120128,128,0,120240:0:0:0:0:
448,192,120203,128,0,120278:0:0:0:0:
64,192,120278,128,0,120578:0:0:0:0:
320,192,120353,128,0,120465:0:0:0:0:
448,192,120353,1,0,0:0:0:0:
192,192,120428,128,0,120615:0:0:0:0:
448,192,120503,128,0,120615:0:0:0:0:
320,192,120578,128,0,120653:0:0:0:0:
64,192,120653,1,0,0:0:0:0:
192,192,120678,1,0,0:0:0:0:
448,192,120703,1,0,0:0:0:0:
64,192,120803,1,0,0:0:0:0:
320,192,120803,1,0,0:0:0:0:
448,192,120878,1,0,0:0:0:0:
192,192,120953,1,0,0:0:0:0:
64,192,120953,1,0,0:0:0:0:
192,192,121028,1,0,0:0:0:0:
448,192,121103,1,0,0:0:0:0:
320,192,121128,1,0,0:0:0:0:
64,192,121153,1,0,0:0:0:0:
448,192,121253,1,0,0:0:0:0:
192,192,121253,1,0,0:0:0:0:
448,192,121328,1,0,0:0:0:0:
192,192,121403,1,0,0:0:0:0:
64,192,121478,1,0,0:0:0:0:
192,192,121553,128,0,121653:0:0:0:0:
320,192,121553,128,0,121628:0:0:0:0:
448,192,121553,128,0,121703:0:0:0:0:
320,192,121703,128,0,121778:0:0:0:0:
64,192,121728,128,0,121903:0:0:0:0:
192,192,121853,128,0,121928:0:0:0:0:
320,192,121878,128,0,122053:0:0:0:0:
448,192,121903,128,0,121953:0:0:0:0:
192,192,122003,128,0,122078:0:0:0:0:
64,192,122028,128,0,122153:0:0:0:0:
320,192,122153,128,0,122228:0:0:0:0:
448,192,122153,1,0,0:0:0:0:
192,192,122203,128,0,122378:0:0:0:0:
64,192,122253,128,0,122328:0:0:0:0:
448,192,122303,128,0,122378:0:0:0:0:
320,192,122353,128,0,122403:0:0:0:0:
64,192,122453,128,0,122678:0:0:0:0:
448,192,122453,128,0,122659:0:0:0:0:
192,192,122490,128,0,122546:0:0:0:0:
320,192,122603,128,0,122715:0:0:0:0:
192,192,122640,128,0,122696:0:0:0:0:
448,192,122753,128,0,122978:0:0:0:0:
64,192,122753,128,0,122959:0:0:0:0:
320,192,122790,128,0,122846:0:0:0:0:
192,192,122903,128,0,123015:0:0:0:0:
320,192,122940,128,0,122996:0:0:0:0:
448,192,123053,128,0,123259:0:0:0:0:
64,192,123053,128,0,123278:0:0:0:0:
192,192,123090,128,0,123146:0:0:0:0:
320,192,123203,128,0,123315:0:0:0:0:
192,192,123240,128,0,123296:0:0:0:0:
448,192,123353,128,0,123428:0:0:0:0:
64,192,123353,128,0,123559:0:0:0:0:
320,192,123390,128,0,123465:0:0:0:0:
192,192,123428,128,0,123578:0:0:0:0:
320,192,123521,128,0,123596:0:0:0:0:
448,192,123540,128,0,123709:0:0:0:0:
320,192,123653,128,0,123728:0:0:0:0:
192,192,123671,128,0,123896:0:0:0:0:
64,192,123690,128,0,123878:0:0:0:0:
448,192,123803,128,0,123953:0:0:0:0:
320,192,123840,128,0,123915:0:0:0:0:
64,192,123953,128,0,124028:0:0:0:0:
320,192,124003,128,0,124078:0:0:0:0:
448,192,124053,128,0,124128:0:0:0:0:
192,192,124103,128,0,124178:0:0:0:0:
320,192,124153,128,0,124228:0:0:0:0:
64,192,124203,128,0,124278:0:0:0:0:
192,192,124253,128,0,124328:0:0:0:0:
448,192,124303,128,0,124378:0:0:0:0:
320,192,124353,128,0,124428:0:0:0:0:
192,192,124403,128,0,124478:0:0:0:0:
64,192,124453,128,0,124503:0:0:0:0:
448,192,124503,1,0,0:0:0:0:
192,192,124553,128,0,124703:0:0:0:0:
320,192,124553,128,0,124778:0:0:0:0:
64,192,124703,1,0,0:0:0:0:
64,192,124853,1,0,0:0:0:0:
448,192,124853,1,0,0:0:0:0:
64,192,125003,1,0,0:0:0:0:
192,192,125003,1,0,0:0:0:0:
448,192,125153,1,0,0:0:0:0:
448,192,125303,1,0,0:0:0:0:
192,192,125303,1,0,0:0:0:0:
448,192,125453,1,0,0:0:0:0:
64,192,125453,1,0,0:0:0:0:
448,192,125603,1,0,0:0:0:0:
192,192,125603,1,0,0:0:0:0:
320,192,125753,1,0,0:0:0:0:
64,192,125753,1,0,0:0:0:0:
320,192,125903,1,0,0:0:0:0:
320,192,126053,1,0,0:0:0:0:
448,192,126053,1,0,0:0:0:0:
320,192,126203,1,0,0:0:0:0:
192,192,126203,1,0,0:0:0:0:
64,192,126353,1,0,0:0:0:0:
448,192,126353,1,0,0:0:0:0:
320,192,126428,1,0,0:0:0:0:
64,192,126503,1,0,0:0:0:0:
448,192,126503,1,0,0:0:0:0:
320,192,126578,1,0,0:0:0:0:
64,192,126653,1,0,0:0:0:0:
448,192,126690,1,0,0:0:0:0:
64,192,126803,1,0,0:0:0:0:
192,192,126840,1,0,0:0:0:0:
320,192,126953,1,0,0:0:0:0:
192,192,127103,1,0,0:0:0:0:
320,192,127253,1,0,0:0:0:0:
64,192,127253,1,0,0:0:0:0:
320,192,127403,1,0,0:0:0:0:
448,192,127440,1,0,0:0:0:0:
192,192,127553,1,0,0:0:0:0:
192,192,127703,1,0,0:0:0:0:
192,192,127853,1,0,0:0:0:0:
448,192,127853,1,0,0:0:0:0:
448,192,128003,1,0,0:0:0:0:
192,192,128003,1,0,0:0:0:0:
320,192,128153,1,0,0:0:0:0:
64,192,128153,1,0,0:0:0:0:
192,192,128228,1,0,0:0:0:0:
320,192,128303,1,0,0:0:0:0:
64,192,128303,1,0,0:0:0:0:
192,192,128378,1,0,0:0:0:0:
320,192,128453,1,0,0:0:0:0:
64,192,128490,1,0,0:0:0:0:
448,192,128603,1,0,0:0:0:0:
192,192,128640,1,0,0:0:0:0:
64,192,128753,1,0,0:0:0:0:
448,192,128753,1,0,0:0:0:0:
192,192,128803,1,0,0:0:0:0:
320,192,128853,1,0,0:0:0:0:
448,192,128903,1,0,0:0:0:0:
192,192,128953,1,0,0:0:0:0:
64,192,129003,1,0,0:0:0:0:
448,192,129053,1,0,0:0:0:0:
320,192,129053,1,0,0:0:0:0:
192,192,129203,1,0,0:0:0:0:
320,192,129240,1,0,0:0:0:0:
64,192,129353,128,0,129503:0:0:0:0:
448,192,129353,128,0,129603:0:0:0:0:
192,192,129428,128,0,129540:0:0:0:0:
320,192,129503,128,0,129578:0:0:0:0:
64,192,129653,1,0,0:0:0:0:
320,192,129653,1,0,0:0:0:0:
448,192,129803,128,0,130103:0:0:0:0:
64,192,129803,128,0,130215:0:0:0:0:
320,192,129878,128,0,130140:0:0:0:0:
192,192,129953,128,0,130178:0:0:0:0:
192,192,130253,1,0,0:0:0:0:
448,192,130253,1,0,0:0:0:0:
448,192,130403,1,0,0:0:0:0:
64,192,130403,1,0,0:0:0:0:
448,192,130553,1,0,0:0:0:0:
64,192,130628,1,0,0:0:0:0:
320,192,130703,1,0,0:0:0:0:
448,192,130703,1,0,0:0:0:0:
192,192,130803,1,0,0:0:0:0:
64,192,130853,1,0,0:0:0:0:
320,192,130890,1,0,0:0:0:0:
64,192,131003,1,0,0:0:0:0:
448,192,131003,1,0,0:0:0:0:
192,192,131053,1,0,0:0:0:0:
320,192,131103,1,0,0:0:0:0:
64,192,131153,1,0,0:0:0:0:
448,192,131228,1,0,0:0:0:0:
64,192,131303,1,0,0:0:0:0:
192,192,131303,1,0,0:0:0:0:
320,192,131403,1,0,0:0:0:0:
448,192,131453,1,0,0:0:0:0:
448,192,131603,1,0,0:0:0:0:
64,192,131603,1,0,0:0:0:0:
192,192,131678,1,0,0:0:0:0:
448,192,131753,1,0,0:0:0:0:
320,192,131753,1,0,0:0:0:0:
192,192,131853,1,0,0:0:0:0:
320,192,131903,1,0,0:0:0:0:
448,192,132053,1,0,0:0:0:0:
64,192,132090,1,0,0:0:0:0:
448,192,132203,1,0,0:0:0:0:
192,192,132253,1,0,0:0:0:0:
448,192,132353,1,0,0:0:0:0:
192,192,132403,1,0,0:0:0:0:
448,192,132503,1,0,0:0:0:0:
64,192,132540,1,0,0:0:0:0:
448,192,132653,1,0,0:0:0:0:
320,192,132690,1,0,0:0:0:0:
64,192,132803,1,0,0:0:0:0:
192,192,132803,1,0,0:0:0:0:
192,192,132953,1,0,0:0:0:0:
448,192,133003,1,0,0:0:0:0:
192,192,133103,5,0,0:0:0:0:
64,192,133153,1,0,0:0:0:0:
448,192,133253,1,0,0:0:0:0:
192,192,133253,1,0,0:0:0:0:
320,192,133303,1,0,0:0:0:0:
64,192,133353,1,0,0:0:0:0:
448,192,133403,1,0,0:0:0:0:
320,192,133453,1,0,0:0:0:0:
192,192,133503,1,0,0:0:0:0:
64,192,133553,1,0,0:0:0:0:
448,192,133553,1,0,0:0:0:0:
320,192,133703,1,0,0:0:0:0:
192,192,133778,1,0,0:0:0:0:
448,192,133853,1,0,0:0:0:0:
64,192,133853,1,0,0:0:0:0:
320,192,133853,1,0,0:0:0:0:
192,192,134003,1,0,0:0:0:0:
320,192,134078,1,0,0:0:0:0:
192,192,134153,128,0,134303:0:0:0:0:
448,192,134153,128,0,134228:0:0:0:0:
64,192,134190,128,0,134265:0:0:0:0:
320,192,134228,128,0,134340:0:0:0:0:
448,192,134303,128,0,134453:0:0:0:0:
64,192,134453,1,0,0:0:0:0:
192,192,134453,1,0,0:0:0:0:
320,192,134453,1,0,0:0:0:0:
320,192,134603,128,0,134753:0:0:0:0:
64,192,134753,1,0,0:0:0:0:
192,192,134753,1,0,0:0:0:0:
448,192,134753,1,0,0:0:0:0:
64,192,134903,128,0,135053:0:0:0:0:
192,192,135053,1,0,0:0:0:0:
320,192,135053,1,0,0:0:0:0:
448,192,135053,1,0,0:0:0:0:
320,192,135203,128,0,135353:0:0:0:0:
64,192,135353,128,0,135428:0:0:0:0:
448,192,135353,128,0,135540:0:0:0:0:
192,192,135390,128,0,135465:0:0:0:0:
320,192,135428,128,0,135503:0:0:0:0:
64,192,135503,128,0,135653:0:0:0:0:
320,192,135653,1,0,0:0:0:0:
192,192,135653,1,0,0:0:0:0:
448,192,135653,128,0,135803:0:0:0:0:
192,192,135803,128,0,135953:0:0:0:0:
64,192,135953,1,0,0:0:0:0:
320,192,135953,1,0,0:0:0:0:
448,192,135953,128,0,136103:0:0:0:0:
64,192,136103,128,0,136253:0:0:0:0:
320,192,136253,1,0,0:0:0:0:
192,192,136253,1,0,0:0:0:0:
448,192,136253,128,0,136403:0:0:0:0:
192,192,136403,128,0,136553:0:0:0:0:
320,192,136553,128,0,136703:0:0:0:0:
64,192,136553,128,0,136628:0:0:0:0:
448,192,136590,128,0,136665:0:0:0:0:
192,192,136628,128,0,136740:0:0:0:0:
64,192,136703,128,0,136853:0:0:0:0:
192,192,136853,1,0,0:0:0:0:
320,192,136853,1,0,0:0:0:0:
448,192,136853,128,0,137078:0:0:0:0:
192,192,137003,128,0,137078:0:0:0:0:
320,192,137153,1,0,0:0:0:0:
64,192,137153,1,0,0:0:0:0:
448,192,137153,128,0,137378:0:0:0:0:
64,192,137303,128,0,137378:0:0:0:0:
192,192,137453,1,0,0:0:0:0:
448,192,137453,1,0,0:0:0:0:
320,192,137453,128,0,137678:0:0:0:0:
192,192,137603,128,0,137678:0:0:0:0:
64,192,137753,128,0,137828:0:0:0:0:
448,192,137753,128,0,137865:0:0:0:0:
192,192,137790,128,0,137940:0:0:0:0:
320,192,137828,128,0,137903:0:0:0:0:
64,192,137903,128,0,137978:0:0:0:0:
448,192,138053,1,0,0:0:0:0:
192,192,138053,128,0,138128:0:0:0:0:
64,192,138053,128,0,138278:0:0:0:0:
192,192,138203,128,0,138278:0:0:0:0:
64,192,138353,1,0,0:0:0:0:
320,192,138353,128,0,138428:0:0:0:0:
448,192,138353,128,0,138578:0:0:0:0:
320,192,138503,128,0,138728:0:0:0:0:
64,192,138653,1,0,0:0:0:0:
192,192,138653,1,0,0:0:0:0:
448,192,138653,128,0,138878:0:0:0:0:
320,192,138803,128,0,138878:0:0:0:0:
64,192,138953,1,0,0:0:0:0:
448,192,138953,128,0,139028:0:0:0:0:
320,192,138953,128,0,139028:0:0:0:0:
64,192,139103,1,0,0:0:0:0:
320,192,139103,128,0,139178:0:0:0:0:
192,192,139103,128,0,139178:0:0:0:0:
448,192,139253,1,0,0:0:0:0:
192,192,139253,128,0,139328:0:0:0:0:
64,192,139253,128,0,139328:0:0:0:0:
64,192,139403,1,0,0:0:0:0:
320,192,139403,128,0,139478:0:0:0:0:
192,192,139403,128,0,139478:0:0:0:0:
64,192,139553,1,0,0:0:0:0:
320,192,139553,128,0,139628:0:0:0:0:
448,192,139553,128,0,139628:0:0:0:0:
448,192,139703,1,0,0:0:0:0:
320,192,139703,128,0,139778:0:0:0:0:
192,192,139703,128,0,139778:0:0:0:0:
64,192,139853,128,0,139928:0:0:0:0:
192,192,139853,128,0,139928:0:0:0:0:
448,192,139853,1,0,0:0:0:0:
448,192,140003,1,0,0:0:0:0:
320,192,140003,128,0,140078:0:0:0:0:
192,192,140003,128,0,140078:0:0:0:0:
64,192,140153,1,0,0:0:0:0:
320,192,140153,128,0,140228:0:0:0:0:
448,192,140171,128,0,140246:0:0:0:0:
64,192,140303,1,0,0:0:0:0:
192,192,140303,128,0,140378:0:0:0:0:
320,192,140321,128,0,140396:0:0:0:0:
64,192,140453,128,0,140528:0:0:0:0:
192,192,140471,128,0,140546:0:0:0:0:
448,192,140471,1,0,0:0:0:0:
320,192,140603,128,0,140678:0:0:0:0:
64,192,140603,1,0,0:0:0:0:
192,192,140621,128,0,140696:0:0:0:0:
320,192,140753,128,0,140828:0:0:0:0:
448,192,140771,128,0,140846:0:0:0:0:
192,192,140903,128,0,140978:0:0:0:0:
320,192,140921,128,0,140996:0:0:0:0:
64,192,141053,128,0,141128:0:0:0:0:
192,192,141071,128,0,141146:0:0:0:0:
320,192,141203,128,0,141278:0:0:0:0:
192,192,141221,128,0,141296:0:0:0:0:
448,192,141353,128,0,141428:0:0:0:0:
192,192,141390,128,0,141465:0:0:0:0:
64,192,141428,128,0,141540:0:0:0:0:
448,192,141503,128,0,141653:0:0:0:0:
192,192,141578,128,0,141653:0:0:0:0:
64,192,141615,128,0,141803:0:0:0:0:
320,192,141653,128,0,141765:0:0:0:0:
192,192,141728,128,0,141878:0:0:0:0:
448,192,141803,128,0,141878:0:0:0:0:
320,192,141840,128,0,142028:0:0:0:0:
64,192,141878,128,0,141990:0:0:0:0:
448,192,141953,128,0,142103:0:0:0:0:
192,192,142028,128,0,142103:0:0:0:0:
64,192,142065,128,0,142253:0:0:0:0:
320,192,142103,128,0,142215:0:0:0:0:
192,192,142178,128,0,142328:0:0:0:0:
448,192,142253,128,0,142328:0:0:0:0:
320,192,142290,128,0,142478:0:0:0:0:
64,192,142328,128,0,142403:0:0:0:0:
448,192,142403,128,0,142515:0:0:0:0:
192,192,142440,128,0,142553:0:0:0:0:
64,192,142478,128,0,142553:0:0:0:0:
320,192,142553,1,0,0:0:0:0:
448,192,142628,1,0,0:0:0:0:
64,192,142703,1,0,0:0:0:0:
192,192,142703,1,0,0:0:0:0:
448,192,142853,1,0,0:0:0:0:
64,192,142853,1,0,0:0:0:0:
320,192,142853,1,0,0:0:0:0:
192,192,143003,1,0,0:0:0:0:
320,192,143003,1,0,0:0:0:0:
192,192,143153,1,0,0:0:0:0:
64,192,143153,1,0,0:0:0:0:
320,192,143171,1,0,0:0:0:0:
64,192,143303,1,0,0:0:0:0:
192,192,143321,1,0,0:0:0:0:
448,192,143340,1,0,0:0:0:0:
448,192,143453,128,0,143640:0:0:0:0:
64,192,143453,128,0,143696:0:0:0:0:
320,192,143471,128,0,143678:0:0:0:0:
192,192,143490,128,0,143659:0:0:0:0:
192,192,143753,5,0,0:0:0:0:
448,192,143753,1,0,0:0:0:0:
64,192,143753,1,0,0:0:0:0:
320,192,143803,1,0,0:0:0:0:
64,192,143853,1,0,0:0:0:0:
448,192,143903,1,0,0:0:0:0:
192,192,143903,1,0,0:0:0:0:
320,192,143978,1,0,0:0:0:0:
64,192,144053,1,0,0:0:0:0:
448,192,144053,1,0,0:0:0:0:
320,192,144103,1,0,0:0:0:0:
192,192,144153,1,0,0:0:0:0:
64,192,144203,1,0,0:0:0:0:
192,192,144353,1,0,0:0:0:0:
192,192,144428,1,0,0:0:0:0:
64,192,144503,1,0,0:0:0:0:
448,192,144503,1,0,0:0:0:0:
320,192,144578,1,0,0:0:0:0:
64,192,144653,1,0,0:0:0:0:
448,192,144653,1,0,0:0:0:0:
192,192,144653,1,0,0:0:0:0:
320,192,144728,1,0,0:0:0:0:
192,192,144803,1,0,0:0:0:0:
192,192,144878,1,0,0:0:0:0:
448,192,144953,1,0,0:0:0:0:
448,192,145028,1,0,0:0:0:0:
64,192,145103,1,0,0:0:0:0:
192,192,145103,1,0,0:0:0:0:
320,192,145253,1,0,0:0:0:0:
448,192,145253,1,0,0:0:0:0:
64,192,145253,1,0,0:0:0:0:
448,192,145328,1,0,0:0:0:0:
192,192,145403,1,0,0:0:0:0:
192,192,145478,1,0,0:0:0:0:
320,192,145553,1,0,0:0:0:0:
192,192,145703,1,0,0:0:0:0:
64,192,145703,1,0,0:0:0:0:
192,192,145853,1,0,0:0:0:0:
64,192,145853,1,0,0:0:0:0:
448,192,145853,1,0,0:0:0:0:
320,192,145903,1,0,0:0:0:0:
320,192,146003,1,0,0:0:0:0:
192,192,146053,1,0,0:0:0:0:
192,192,146153,1,0,0:0:0:0:
320,192,146203,1,0,0:0:0:0:
64,192,146253,1,0,0:0:0:0:
448,192,146303,1,0,0:0:0:0:
192,192,146303,1,0,0:0:0:0:
448,192,146453,1,0,0:0:0:0:
320,192,146453,1,0,0:0:0:0:
64,192,146453,1,0,0:0:0:0:
192,192,146503,1,0,0:0:0:0:
448,192,146553,1,0,0:0:0:0:
320,192,146603,1,0,0:0:0:0:
192,192,146653,1,0,0:0:0:0:
64,192,146703,1,0,0:0:0:0:
320,192,146753,1,0,0:0:0:0:
320,192,146828,1,0,0:0:0:0:
448,192,146903,1,0,0:0:0:0:
64,192,146903,1,0,0:0:0:0:
192,192,146978,1,0,0:0:0:0:
448,192,147053,1,0,0:0:0:0:
64,192,147053,1,0,0:0:0:0:
320,192,147053,1,0,0:0:0:0:
320,192,147203,1,0,0:0:0:0:
320,192,147278,1,0,0:0:0:0:
64,192,147353,1,0,0:0:0:0:
64,192,147428,1,0,0:0:0:0:
320,192,147503,1,0,0:0:0:0:
448,192,147503,1,0,0:0:0:0:
64,192,147653,1,0,0:0:0:0:
448,192,147653,1,0,0:0:0:0:
192,192,147653,1,0,0:0:0:0:
64,192,147728,1,0,0:0:0:0:
320,192,147803,1,0,0:0:0:0:
320,192,147878,1,0,0:0:0:0:
64,192,147953,1,0,0:0:0:0:
192,192,148003,1,0,0:0:0:0:
320,192,148053,1,0,0:0:0:0:
448,192,148103,1,0,0:0:0:0:
64,192,148103,1,0,0:0:0:0:
192,192,148178,1,0,0:0:0:0:
448,192,148253,1,0,0:0:0:0:
64,192,148253,1,0,0:0:0:0:
320,192,148303,1,0,0:0:0:0:
192,192,148353,1,0,0:0:0:0:
448,192,148403,1,0,0:0:0:0:
64,192,148403,1,0,0:0:0:0:
320,192,148478,1,0,0:0:0:0:
64,192,148553,1,0,0:0:0:0:
448,192,148553,1,0,0:0:0:0:
192,192,148603,1,0,0:0:0:0:
320,192,148653,1,0,0:0:0:0:
448,192,148703,1,0,0:0:0:0:
192,192,148778,1,0,0:0:0:0:
448,192,148853,1,0,0:0:0:0:
64,192,148853,1,0,0:0:0:0:
320,192,148903,1,0,0:0:0:0:
192,192,148953,1,0,0:0:0:0:
320,192,149003,1,0,0:0:0:0:
64,192,149153,1,0,0:0:0:0:
64,192,149228,1,0,0:0:0:0:
448,192,149303,1,0,0:0:0:0:
320,192,149303,1,0,0:0:0:0:
192,192,149378,1,0,0:0:0:0:
448,192,149453,1,0,0:0:0:0:
64,192,149453,1,0,0:0:0:0:
320,192,149453,1,0,0:0:0:0:
320,192,149603,1,0,0:0:0:0:
320,192,149678,1,0,0:0:0:0:
192,192,149753,1,0,0:0:0:0:
192,192,149828,1,0,0:0:0:0:
320,192,149903,1,0,0:0:0:0:
448,192,149903,1,0,0:0:0:0:
64,192,149978,1,0,0:0:0:0:
448,192,150053,1,0,0:0:0:0:
320,192,150053,1,0,0:0:0:0:
192,192,150053,1,0,0:0:0:0:
320,192,150128,1,0,0:0:0:0:
64,192,150203,1,0,0:0:0:0:
64,192,150278,1,0,0:0:0:0:
320,192,150353,1,0,0:0:0:0:
448,192,150353,1,0,0:0:0:0:
64,192,150428,1,0,0:0:0:0:
448,192,150503,1,0,0:0:0:0:
192,192,150503,1,0,0:0:0:0:
320,192,150653,1,0,0:0:0:0:
448,192,150653,1,0,0:0:0:0:
64,192,150653,1,0,0:0:0:0:
192,192,150703,1,0,0:0:0:0:
448,192,150803,1,0,0:0:0:0:
320,192,150840,1,0,0:0:0:0:
192,192,150878,1,0,0:0:0:0:
64,192,150953,1,0,0:0:0:0:
320,192,151003,1,0,0:0:0:0:
192,192,151053,1,0,0:0:0:0:
448,192,151103,1,0,0:0:0:0:
64,192,151103,1,0,0:0:0:0:
448,192,151253,1,0,0:0:0:0:
320,192,151253,1,0,0:0:0:0:
192,192,151253,1,0,0:0:0:0:
64,192,151303,1,0,0:0:0:0:
448,192,151353,1,0,0:0:0:0:
192,192,151403,1,0,0:0:0:0:
448,192,151553,1,0,0:0:0:0:
320,192,151553,1,0,0:0:0:0:
64,192,151603,1,0,0:0:0:0:
448,192,151703,1,0,0:0:0:0:
320,192,151703,1,0,0:0:0:0:
192,192,151753,1,0,0:0:0:0:
64,192,151853,1,0,0:0:0:0:
320,192,151853,1,0,0:0:0:0:
448,192,151853,1,0,0:0:0:0:
192,192,151928,1,0,0:0:0:0:
448,192,152003,1,0,0:0:0:0:
320,192,152003,1,0,0:0:0:0:
64,192,152078,1,0,0:0:0:0:
448,192,152153,1,0,0:0:0:0:
320,192,152153,1,0,0:0:0:0:
64,192,152203,1,0,0:0:0:0:
448,192,152303,1,0,0:0:0:0:
320,192,152303,1,0,0:0:0:0:
192,192,152353,1,0,0:0:0:0:
448,192,152453,1,0,0:0:0:0:
320,192,152453,1,0,0:0:0:0:
64,192,152453,1,0,0:0:0:0:
192,192,152528,1,0,0:0:0:0:
320,192,152603,1,0,0:0:0:0:
448,192,152603,1,0,0:0:0:0:
64,192,152678,1,0,0:0:0:0:
320,192,152753,1,0,0:0:0:0:
448,192,152803,1,0,0:0:0:0:
64,192,152903,1,0,0:0:0:0:
192,192,152903,1,0,0:0:0:0:
320,192,152978,1,0,0:0:0:0:
64,192,153053,1,0,0:0:0:0:
448,192,153053,1,0,0:0:0:0:
192,192,153103,1,0,0:0:0:0:
320,192,153153,1,0,0:0:0:0:
64,192,153203,1,0,0:0:0:0:
448,192,153203,1,0,0:0:0:0:
448,192,153353,1,0,0:0:0:0:
64,192,153353,1,0,0:0:0:0:
320,192,153403,1,0,0:0:0:0:
64,192,153453,1,0,0:0:0:0:
448,192,153503,1,0,0:0:0:0:
192,192,153503,1,0,0:0:0:0:
320,192,153578,1,0,0:0:0:0:
64,192,153653,1,0,0:0:0:0:
448,192,153653,1,0,0:0:0:0:
320,192,153703,1,0,0:0:0:0:
192,192,153753,1,0,0:0:0:0:
64,192,153803,1,0,0:0:0:0:
192,192,153953,1,0,0:0:0:0:
192,192,154028,1,0,0:0:0:0:
64,192,154103,1,0,0:0:0:0:
448,192,154103,1,0,0:0:0:0:
320,192,154178,1,0,0:0:0:0:
64,192,154253,1,0,0:0:0:0:
448,192,154253,1,0,0:0:0:0:
192,192,154253,1,0,0:0:0:0:
320,192,154328,1,0,0:0:0:0:
192,192,154403,1,0,0:0:0:0:
192,192,154478,1,0,0:0:0:0:
448,192,154553,1,0,0:0:0:0:
448,192,154628,1,0,0:0:0:0:
64,192,154703,1,0,0:0:0:0:
192,192,154703,1,0,0:0:0:0:
320,192,154853,1,0,0:0:0:0:
448,192,154853,1,0,0:0:0:0:
64,192,154853,1,0,0:0:0:0:
448,192,154928,1,0,0:0:0:0:
192,192,155003,1,0,0:0:0:0:
192,192,155078,1,0,0:0:0:0:
320,192,155153,1,0,0:0:0:0:
192,192,155303,1,0,0:0:0:0:
64,192,155303,1,0,0:0:0:0:
192,192,155453,1,0,0:0:0:0:
448,192,155453,1,0,0:0:0:0:
64,192,155453,1,0,0:0:0:0:
320,192,155503,1,0,0:0:0:0:
320,192,155603,1,0,0:0:0:0:
192,192,155653,1,0,0:0:0:0:
192,192,155753,1,0,0:0:0:0:
320,192,155803,1,0,0:0:0:0:
64,192,155853,1,0,0:0:0:0:
192,192,155903,1,0,0:0:0:0:
448,192,155903,1,0,0:0:0:0:
320,192,156003,1,0,0:0:0:0:
448,192,156053,1,0,0:0:0:0:
64,192,156053,1,0,0:0:0:0:
192,192,156103,1,0,0:0:0:0:
192,192,156203,1,0,0:0:0:0:
320,192,156253,1,0,0:0:0:0:
448,192,156303,1,0,0:0:0:0:
64,192,156353,1,0,0:0:0:0:
192,192,156353,1,0,0:0:0:0:
448,192,156503,1,0,0:0:0:0:
192,192,156503,1,0,0:0:0:0:
64,192,156653,1,0,0:0:0:0:
448,192,156653,1,0,0:0:0:0:
320,192,156653,1,0,0:0:0:0:
192,192,156728,1,0,0:0:0:0:
64,192,156803,1,0,0:0:0:0:
320,192,156853,1,0,0:0:0:0:
320,192,156953,1,0,0:0:0:0:
64,192,157003,1,0,0:0:0:0:
448,192,157103,1,0,0:0:0:0:
64,192,157103,1,0,0:0:0:0:
448,192,157253,1,0,0:0:0:0:
320,192,157253,1,0,0:0:0:0:
192,192,157303,1,0,0:0:0:0:
192,192,157403,1,0,0:0:0:0:
64,192,157453,1,0,0:0:0:0:
64,192,157553,1,0,0:0:0:0:
448,192,157603,1,0,0:0:0:0:
448,192,157703,1,0,0:0:0:0:
192,192,157703,1,0,0:0:0:0:
320,192,157803,1,0,0:0:0:0:
448,192,157853,1,0,0:0:0:0:
64,192,157853,1,0,0:0:0:0:
192,192,157853,1,0,0:0:0:0:
320,192,157928,1,0,0:0:0:0:
64,192,158003,1,0,0:0:0:0:
448,192,158003,1,0,0:0:0:0:
192,192,158153,5,0,0:0:0:0:
448,192,158153,1,0,0:0:0:0:
64,192,158153,1,0,0:0:0:0:
320,192,158203,1,0,0:0:0:0:
448,192,158253,1,0,0:0:0:0:
192,192,158303,1,0,0:0:0:0:
320,192,158378,1,0,0:0:0:0:
64,192,158453,1,0,0:0:0:0:
448,192,158453,1,0,0:0:0:0:
192,192,158453,1,0,0:0:0:0:
64,192,158553,1,0,0:0:0:0:
448,192,158603,1,0,0:0:0:0:
320,192,158603,1,0,0:0:0:0:
192,192,158678,1,0,0:0:0:0:
320,192,158753,1,0,0:0:0:0:
448,192,158753,1,0,0:0:0:0:
64,192,158753,1,0,0:0:0:0:
192,192,158803,1,0,0:0:0:0:
448,192,158903,1,0,0:0:0:0:
192,192,158953,1,0,0:0:0:0:
64,192,159053,1,0,0:0:0:0:
320,192,159053,1,0,0:0:0:0:
448,192,159053,1,0,0:0:0:0:
192,192,159103,1,0,0:0:0:0:
448,192,159203,1,0,0:0:0:0:
320,192,159203,1,0,0:0:0:0:
64,192,159278,1,0,0:0:0:0:
192,192,159353,1,0,0:0:0:0:
448,192,159353,1,0,0:0:0:0:
320,192,159353,1,0,0:0:0:0:
64,192,159403,1,0,0:0:0:0:
320,192,159503,1,0,0:0:0:0:
192,192,159528,1,0,0:0:0:0:
448,192,159578,1,0,0:0:0:0:
320,192,159653,1,0,0:0:0:0:
192,192,159653,1,0,0:0:0:0:
64,192,159653,1,0,0:0:0:0:
448,192,159703,1,0,0:0:0:0:
64,192,159803,1,0,0:0:0:0:
192,192,159803,1,0,0:0:0:0:
320,192,159878,1,0,0:0:0:0:
192,192,159953,1,0,0:0:0:0:
64,192,159953,1,0,0:0:0:0:
448,192,159953,1,0,0:0:0:0:
320,192,160003,1,0,0:0:0:0:
64,192,160103,1,0,0:0:0:0:
192,192,160178,1,0,0:0:0:0:
320,192,160253,1,0,0:0:0:0:
448,192,160253,1,0,0:0:0:0:
64,192,160253,1,0,0:0:0:0:
192,192,160303,1,0,0:0:0:0:
320,192,160403,1,0,0:0:0:0:
448,192,160403,1,0,0:0:0:0:
192,192,160478,1,0,0:0:0:0:
64,192,160553,1,0,0:0:0:0:
320,192,160553,1,0,0:0:0:0:
448,192,160553,1,0,0:0:0:0:
192,192,160603,1,0,0:0:0:0:
64,192,160703,1,0,0:0:0:0:
448,192,160703,1,0,0:0:0:0:
320,192,160778,1,0,0:0:0:0:
192,192,160853,1,0,0:0:0:0:
64,192,160853,1,0,0:0:0:0:
448,192,160853,1,0,0:0:0:0:
320,192,160903,1,0,0:0:0:0:
192,192,161003,1,0,0:0:0:0:
64,192,161003,1,0,0:0:0:0:
320,192,161078,1,0,0:0:0:0:
448,192,161153,1,0,0:0:0:0:
192,192,161153,1,0,0:0:0:0:
64,192,161153,1,0,0:0:0:0:
320,192,161228,1,0,0:0:0:0:
448,192,161303,1,0,0:0:0:0:
192,192,161303,1,0,0:0:0:0:
64,192,161378,1,0,0:0:0:0:
320,192,161453,1,0,0:0:0:0:
448,192,161453,1,0,0:0:0:0:
192,192,161528,1,0,0:0:0:0:
64,192,161528,1,0,0:0:0:0:
320,192,161603,1,0,0:0:0:0:
448,192,161603,1,0,0:0:0:0:
192,192,161678,1,0,0:0:0:0:
64,192,161753,128,0,162015:0:0:0:0:
320,192,161753,128,0,161903:0:0:0:0:
448,192,161753,128,0,161865:0:0:0:0:
192,192,161978,128,0,162053:0:0:0:0:
448,192,161978,128,0,162128:0:0:0:0:
320,192,162015,128,0,162090:0:0:0:0:
320,192,162203,128,0,162315:0:0:0:0:
448,192,162203,128,0,162353:0:0:0:0:
64,192,162203,128,0,162465:0:0:0:0:
192,192,162428,128,0,162503:0:0:0:0:
320,192,162428,128,0,162540:0:0:0:0:
448,192,162465,128,0,162578:0:0:0:0:
64,192,162653,128,0,162878:0:0:0:0:
448,192,162653,128,0,162878:0:0:0:0:
320,192,162653,128,0,162878:0:0:0:0:
448,192,162953,1,0,0:0:0:0:
64,192,162953,128,0,163028:0:0:0:0:
192,192,162990,128,0,163103:0:0:0:0:
320,192,163028,128,0,163178:0:0:0:0:
448,192,163103,128,0,163253:0:0:0:0:
64,192,163178,1,0,0:0:0:0:
192,192,163253,1,0,0:0:0:0:
64,192,163290,1,0,0:0:0:0:
192,192,163403,1,0,0:0:0:0:
320,192,163440,1,0,0:0:0:0:
448,192,163553,1,0,0:0:0:0:
64,192,163590,1,0,0:0:0:0:
192,192,163628,1,0,0:0:0:0:
320,192,163653,1,0,0:0:0:0:
448,192,163703,1,0,0:0:0:0:
320,192,163778,1,0,0:0:0:0:
192,192,163853,1,0,0:0:0:0:
64,192,163853,1,0,0:0:0:0:
448,192,163903,1,0,0:0:0:0:
448,192,164003,1,0,0:0:0:0:
320,192,164040,1,0,0:0:0:0:
192,192,164078,1,0,0:0:0:0:
64,192,164153,1,0,0:0:0:0:
192,192,164228,1,0,0:0:0:0:
64,192,164303,1,0,0:0:0:0:
320,192,164303,1,0,0:0:0:0:
320,192,164378,1,0,0:0:0:0:
448,192,164453,1,0,0:0:0:0:
64,192,164453,1,0,0:0:0:0:
192,192,164490,1,0,0:0:0:0:
320,192,164503,1,0,0:0:0:0:
320,192,164603,1,0,0:0:0:0:
192,192,164653,1,0,0:0:0:0:
64,192,164678,1,0,0:0:0:0:
448,192,164753,1,0,0:0:0:0:
192,192,164753,1,0,0:0:0:0:
64,192,164828,1,0,0:0:0:0:
448,192,164903,1,0,0:0:0:0:
320,192,164903,1,0,0:0:0:0:
448,192,165053,1,0,0:0:0:0:
64,192,165053,1,0,0:0:0:0:
320,192,165095,1,0,0:0:0:0:
192,192,165138,1,0,0:0:0:0:
64,192,165181,1,0,0:0:0:0:
448,192,165224,1,0,0:0:0:0:
192,192,165267,1,0,0:0:0:0:
64,192,165310,1,0,0:0:0:0:
448,192,165353,1,0,0:0:0:0:
320,192,165403,1,0,0:0:0:0:
192,192,165453,1,0,0:0:0:0:
64,192,165503,1,0,0:0:0:0:
320,192,165503,1,0,0:0:0:0:
448,192,165653,1,0,0:0:0:0:
192,192,165653,1,0,0:0:0:0:
320,192,165690,1,0,0:0:0:0:
64,192,165728,1,0,0:0:0:0:
448,192,165803,1,0,0:0:0:0:
320,192,165840,1,0,0:0:0:0:
64,192,165953,1,0,0:0:0:0:
448,192,165953,1,0,0:0:0:0:
192,192,165990,1,0,0:0:0:0:
320,192,166028,1,0,0:0:0:0:
448,192,166103,1,0,0:0:0:0:
64,192,166103,1,0,0:0:0:0:
64,192,166203,1,0,0:0:0:0:
448,192,166253,1,0,0:0:0:0:
320,192,166253,1,0,0:0:0:0:
192,192,166303,1,0,0:0:0:0:
320,192,166353,1,0,0:0:0:0:
64,192,166403,1,0,0:0:0:0:
192,192,166453,1,0,0:0:0:0:
320,192,166503,1,0,0:0:0:0:
448,192,166553,1,0,0:0:0:0:
192,192,166628,1,0,0:0:0:0:
448,192,166703,1,0,0:0:0:0:
64,192,166703,1,0,0:0:0:0:
448,192,166778,1,0,0:0:0:0:
192,192,166853,1,0,0:0:0:0:
64,192,166853,1,0,0:0:0:0:
320,192,166890,1,0,0:0:0:0:
448,192,166928,1,0,0:0:0:0:
320,192,167003,1,0,0:0:0:0:
192,192,167028,1,0,0:0:0:0:
64,192,167053,1,0,0:0:0:0:
448,192,167103,1,0,0:0:0:0:
64,192,167153,1,0,0:0:0:0:
320,192,167190,1,0,0:0:0:0:
448,192,167228,1,0,0:0:0:0:
192,192,167303,1,0,0:0:0:0:
320,192,167340,1,0,0:0:0:0:
64,192,167453,1,0,0:0:0:0:
192,192,167453,1,0,0:0:0:0:
448,192,167490,1,0,0:0:0:0:
320,192,167603,1,0,0:0:0:0:
192,192,167640,1,0,0:0:0:0:
64,192,167753,1,0,0:0:0:0:
448,192,167753,128,0,167828:0:0:0:0:
320,192,167790,128,0,167903:0:0:0:0:
192,192,167828,128,0,167978:0:0:0:0:
64,192,167903,128,0,168053:0:0:0:0:
448,192,167978,1,0,0:0:0:0:
320,192,168053,1,0,0:0:0:0:
192,192,168103,1,0,0:0:0:0:
320,192,168165,1,0,0:0:0:0:
64,192,168203,1,0,0:0:0:0:
192,192,168278,1,0,0:0:0:0:
448,192,168315,1,0,0:0:0:0:
320,192,168353,1,0,0:0:0:0:
64,192,168403,1,0,0:0:0:0:
448,192,168453,1,0,0:0:0:0:
192,192,168503,1,0,0:0:0:0:
64,192,168503,1,0,0:0:0:0:
320,192,168578,1,0,0:0:0:0:
448,192,168653,1,0,0:0:0:0:
192,192,168690,1,0,0:0:0:0:
64,192,168753,1,0,0:0:0:0:
320,192,168803,1,0,0:0:0:0:
192,192,168840,1,0,0:0:0:0:
320,192,168903,1,0,0:0:0:0:
64,192,168953,1,0,0:0:0:0:
448,192,169028,1,0,0:0:0:0:
320,192,169103,1,0,0:0:0:0:
192,192,169103,1,0,0:0:0:0:
192,192,169178,1,0,0:0:0:0:
64,192,169253,1,0,0:0:0:0:
448,192,169253,1,0,0:0:0:0:
320,192,169303,1,0,0:0:0:0:
64,192,169353,1,0,0:0:0:0:
448,192,169403,1,0,0:0:0:0:
320,192,169478,1,0,0:0:0:0:
64,192,169553,1,0,0:0:0:0:
192,192,169603,1,0,0:0:0:0:
64,192,169653,1,0,0:0:0:0:
448,192,169703,1,0,0:0:0:0:
192,192,169740,1,0,0:0:0:0:
320,192,169778,1,0,0:0:0:0:
64,192,169853,1,0,0:0:0:0:
448,192,169853,1,0,0:0:0:0:
320,192,169895,1,0,0:0:0:0:
192,192,169938,1,0,0:0:0:0:
64,192,169981,1,0,0:0:0:0:
320,192,170024,1,0,0:0:0:0:
448,192,170067,1,0,0:0:0:0:
64,192,170110,1,0,0:0:0:0:
192,192,170153,1,0,0:0:0:0:
320,192,170203,1,0,0:0:0:0:
64,192,170303,1,0,0:0:0:0:
192,192,170340,1,0,0:0:0:0:
320,192,170378,1,0,0:0:0:0:
448,192,170453,1,0,0:0:0:0:
64,192,170453,1,0,0:0:0:0:
192,192,170503,1,0,0:0:0:0:
448,192,170603,1,0,0:0:0:0:
320,192,170653,1,0,0:0:0:0:
448,192,170753,1,0,0:0:0:0:
192,192,170790,1,0,0:0:0:0:
64,192,170828,1,0,0:0:0:0:
320,192,170903,1,0,0:0:0:0:
192,192,170903,1,0,0:0:0:0:
64,192,170978,1,0,0:0:0:0:
448,192,171053,1,0,0:0:0:0:
320,192,171053,1,0,0:0:0:0:
192,192,171103,1,0,0:0:0:0:
448,192,171153,1,0,0:0:0:0:
64,192,171203,1,0,0:0:0:0:
192,192,171253,1,0,0:0:0:0:
448,192,171353,1,0,0:0:0:0:
64,192,171378,1,0,0:0:0:0:
320,192,171503,1,0,0:0:0:0:
192,192,171528,1,0,0:0:0:0:
64,192,171653,1,0,0:0:0:0:
320,192,171678,1,0,0:0:0:0:
192,192,171803,1,0,0:0:0:0:
448,192,171828,1,0,0:0:0:0:
320,192,171878,1,0,0:0:0:0:
64,192,171953,1,0,0:0:0:0:
192,192,171978,1,0,0:0:0:0:
448,192,172103,1,0,0:0:0:0:
320,192,172128,1,0,0:0:0:0:
448,192,172253,1,0,0:0:0:0:
192,192,172278,1,0,0:0:0:0:
320,192,172403,1,0,0:0:0:0:
64,192,172428,1,0,0:0:0:0:
320,192,172553,1,0,0:0:0:0:
192,192,172578,1,0,0:0:0:0:
64,192,172603,1,0,0:0:0:0:
448,192,172628,1,0,0:0:0:0:
64,192,172703,1,0,0:0:0:0:
320,192,172778,1,0,0:0:0:0:
64,192,172853,128,0,172928:0:0:0:0:
448,192,172853,1,0,0:0:0:0:
192,192,172890,128,0,173003:0:0:0:0:
320,192,172928,128,0,173078:0:0:0:0:
448,192,173003,128,0,173153:0:0:0:0:
64,192,173078,1,0,0:0:0:0:
192,192,173153,1,0,0:0:0:0:
320,192,173228,1,0,0:0:0:0:
64,192,173303,1,0,0:0:0:0:
448,192,173303,1,0,0:0:0:0:
192,192,173353,1,0,0:0:0:0:
192,192,173453,1,0,0:0:0:0:
64,192,173453,1,0,0:0:0:0:
448,192,173503,1,0,0:0:0:0:
320,192,173553,1,0,0:0:0:0:
64,192,173603,1,0,0:0:0:0:
192,192,173628,1,0,0:0:0:0:
320,192,173678,1,0,0:0:0:0:
64,192,173753,1,0,0:0:0:0:
448,192,173753,1,0,0:0:0:0:
192,192,173828,1,0,0:0:0:0:
320,192,173903,1,0,0:0:0:0:
448,192,173903,1,0,0:0:0:0:
320,192,173978,1,0,0:0:0:0:
64,192,174053,1,0,0:0:0:0:
192,192,174053,1,0,0:0:0:0:
448,192,174103,1,0,0:0:0:0:
448,192,174203,1,0,0:0:0:0:
64,192,174253,1,0,0:0:0:0:
192,192,174278,1,0,0:0:0:0:
320,192,174353,1,0,0:0:0:0:
448,192,174403,1,0,0:0:0:0:
192,192,174453,1,0,0:0:0:0:
320,192,174503,1,0,0:0:0:0:
64,192,174503,1,0,0:0:0:0:
448,192,174603,1,0,0:0:0:0:
192,192,174653,1,0,0:0:0:0:
64,192,174690,1,0,0:0:0:0:
320,192,174728,1,0,0:0:0:0:
192,192,174803,1,0,0:0:0:0:
320,192,174840,1,0,0:0:0:0:
448,192,174878,1,0,0:0:0:0:
192,192,174953,1,0,0:0:0:0:
64,192,175003,1,0,0:0:0:0:
64,192,175103,1,0,0:0:0:0:
320,192,175103,1,0,0:0:0:0:
192,192,175253,1,0,0:0:0:0:
448,192,175253,1,0,0:0:0:0:
320,192,175278,1,0,0:0:0:0:
64,192,175328,1,0,0:0:0:0:
192,192,175403,1,0,0:0:0:0:
448,192,175428,1,0,0:0:0:0:
320,192,175478,1,0,0:0:0:0:
64,192,175553,1,0,0:0:0:0:
448,192,175590,1,0,0:0:0:0:
192,192,175628,1,0,0:0:0:0:
320,192,175703,1,0,0:0:0:0:
64,192,175703,1,0,0:0:0:0:
448,192,175778,1,0,0:0:0:0:
64,192,175853,1,0,0:0:0:0:
192,192,175853,1,0,0:0:0:0:
192,192,175953,1,0,0:0:0:0:
320,192,176003,1,0,0:0:0:0:
320,192,176103,1,0,0:0:0:0:
64,192,176153,1,0,0:0:0:0:
192,192,176228,1,0,0:0:0:0:
192,192,176303,1,0,0:0:0:0:
448,192,176303,1,0,0:0:0:0:
320,192,176378,1,0,0:0:0:0:
448,192,176453,1,0,0:0:0:0:
64,192,176453,1,0,0:0:0:0:
192,192,176503,1,0,0:0:0:0:
320,192,176553,1,0,0:0:0:0:
448,192,176603,1,0,0:0:0:0:
64,192,176640,1,0,0:0:0:0:
192,192,176678,1,0,0:0:0:0:
448,192,176715,1,0,0:0:0:0:
320,192,176753,1,0,0:0:0:0:
192,192,176803,1,0,0:0:0:0:
64,192,176853,1,0,0:0:0:0:
320,192,176903,1,0,0:0:0:0:
448,192,176903,1,0,0:0:0:0:
320,192,177053,1,0,0:0:0:0:
64,192,177053,1,0,0:0:0:0:
448,192,177203,1,0,0:0:0:0:
192,192,177203,1,0,0:0:0:0:
192,192,177353,1,0,0:0:0:0:
320,192,177353,1,0,0:0:0:0:
448,192,177353,1,0,0:0:0:0:
64,192,177428,1,0,0:0:0:0:
192,192,177465,1,0,0:0:0:0:
320,192,177503,1,0,0:0:0:0:
448,192,177578,1,0,0:0:0:0:
64,192,177578,1,0,0:0:0:0:
320,192,177653,1,0,0:0:0:0:
192,192,177728,1,0,0:0:0:0:
64,192,177765,1,0,0:0:0:0:
320,192,177803,1,0,0:0:0:0:
448,192,177803,1,0,0:0:0:0:
64,192,177878,1,0,0:0:0:0:
448,192,177953,1,0,0:0:0:0:
320,192,177990,1,0,0:0:0:0:
64,192,178028,1,0,0:0:0:0:
192,192,178028,1,0,0:0:0:0:
448,192,178103,1,0,0:0:0:0:
320,192,178140,1,0,0:0:0:0:
64,192,178178,1,0,0:0:0:0:
192,192,178215,1,0,0:0:0:0:
320,192,178253,1,0,0:0:0:0:
448,192,178253,1,0,0:0:0:0:
64,192,178328,1,0,0:0:0:0:
448,192,178403,1,0,0:0:0:0:
192,192,178440,1,0,0:0:0:0:
64,192,178478,1,0,0:0:0:0:
448,192,178553,1,0,0:0:0:0:
320,192,178553,1,0,0:0:0:0:
192,192,178628,1,0,0:0:0:0:
64,192,178665,1,0,0:0:0:0:
320,192,178703,1,0,0:0:0:0:
64,192,178778,1,0,0:0:0:0:
448,192,178778,1,0,0:0:0:0:
192,192,178853,1,0,0:0:0:0:
320,192,178890,1,0,0:0:0:0:
448,192,178928,1,0,0:0:0:0:
64,192,179003,1,0,0:0:0:0:
192,192,179003,1,0,0:0:0:0:
320,192,179078,1,0,0:0:0:0:
64,192,179153,1,0,0:0:0:0:
192,192,179190,1,0,0:0:0:0:
320,192,179228,1,0,0:0:0:0:
448,192,179228,1,0,0:0:0:0:
64,192,179303,1,0,0:0:0:0:
448,192,179340,1,0,0:0:0:0:
320,192,179378,1,0,0:0:0:0:
192,192,179415,1,0,0:0:0:0:
448,192,179453,1,0,0:0:0:0:
64,192,179453,1,0,0:0:0:0:
320,192,179528,1,0,0:0:0:0:
192,192,179603,1,0,0:0:0:0:
64,192,179640,1,0,0:0:0:0:
448,192,179678,1,0,0:0:0:0:
320,192,179753,1,0,0:0:0:0:
64,192,179753,1,0,0:0:0:0:
192,192,179828,1,0,0:0:0:0:
320,192,179865,1,0,0:0:0:0:
448,192,179903,1,0,0:0:0:0:
192,192,179978,1,0,0:0:0:0:
64,192,179978,1,0,0:0:0:0:
448,192,180053,1,0,0:0:0:0:
64,192,180090,1,0,0:0:0:0:
192,192,180128,1,0,0:0:0:0:
448,192,180203,1,0,0:0:0:0:
320,192,180203,1,0,0:0:0:0:
64,192,180278,1,0,0:0:0:0:
320,192,180353,1,0,0:0:0:0:
64,192,180428,1,0,0:0:0:0:
192,192,180428,1,0,0:0:0:0:
448,192,180503,1,0,0:0:0:0:
320,192,180540,1,0,0:0:0:0:
192,192,180578,1,0,0:0:0:0:
64,192,180653,1,0,0:0:0:0:
448,192,180653,1,0,0:0:0:0:
64,192,180728,1,0,0:0:0:0:
320,192,180728,1,0,0:0:0:0:
448,192,180803,1,0,0:0:0:0:
192,192,180803,1,0,0:0:0:0:
448,192,180878,1,0,0:0:0:0:
320,192,180878,1,0,0:0:0:0:
64,192,180953,1,0,0:0:0:0:
192,192,180953,128,0,182003:0:0:0:0:
448,192,182003,1,0,0:0:0:0:
448,192,182153,1,0,0:0:0:0:
64,192,182153,128,0,182678:0:0:0:0:
320,192,182153,1,0,0:0:0:0:
64,192,182753,128,0,183203:0:0:0:0:
320,192,183203,128,0,185903:0:0:0:0:
64,192,185903,128,0,186353:0:0:0:0:
320,192,186353,128,0,186653:0:0:0:0:
448,192,186653,128,0,186953:0:0:0:0:
64,192,186953,1,0,0:0:0:0:
320,192,186953,128,0,187403:0:0:0:0:
64,192,187403,1,0,0:0:0:0:
192,192,187403,128,0,188903:0:0:0:0:
448,192,187853,1,0,0:0:0:0:
448,192,188303,1,0,0:0:0:0:
448,192,188753,1,0,0:0:0:0:
320,192,188903,128,0,189428:0:0:0:0:
448,192,189053,1,0,0:0:0:0:
64,192,189353,1,0,0:0:0:0:
320,192,189503,128,0,190103:0:0:0:0:
192,192,189803,1,0,0:0:0:0:
64,192,190103,128,0,191903:0:0:0:0:
448,192,190253,1,0,0:0:0:0:
448,192,190703,1,0,0:0:0:0:
448,192,191153,1,0,0:0:0:0:
448,192,191453,1,0,0:0:0:0:
320,192,191753,1,0,0:0:0:0:
64,192,192053,128,0,192653:0:0:0:0:
320,192,192203,1,0,0:0:0:0:
448,192,192653,1,0,0:0:0:0:
320,192,192653,128,0,195428:0:0:0:0:
448,192,193103,1,0,0:0:0:0:
192,192,193553,1,0,0:0:0:0:
192,192,193853,1,0,0:0:0:0:
448,192,194153,1,0,0:0:0:0:
448,192,194603,1,0,0:0:0:0:
448,192,195053,1,0,0:0:0:0:
320,192,195503,128,0,195803:0:0:0:0:
192,192,195503,1,0,0:0:0:0:
448,192,195803,128,0,196103:0:0:0:0:
64,192,195953,1,0,0:0:0:0:
192,192,196103,128,0,196553:0:0:0:0:
448,192,196253,1,0,0:0:0:0:
320,192,196553,128,0,197003:0:0:0:0:
64,192,196553,1,0,0:0:0:0:
64,192,197003,128,0,198053:0:0:0:0:
448,192,197003,1,0,0:0:0:0:
320,192,197453,1,0,0:0:0:0:
192,192,197903,1,0,0:0:0:0:
320,192,198053,128,0,198578:0:0:0:0:
64,192,198353,1,0,0:0:0:0:
320,192,198653,128,0,199403:0:0:0:0:
192,192,198653,1,0,0:0:0:0:
448,192,198953,1,0,0:0:0:0:
64,192,199403,128,0,200603:0:0:0:0:
192,192,199403,1,0,0:0:0:0:
320,192,199853,1,0,0:0:0:0:
192,192,200303,1,0,0:0:0:0:
448,192,200603,128,0,201353:0:0:0:0:
320,192,200753,1,0,0:0:0:0:
192,192,201053,1,0,0:0:0:0:
64,192,201353,128,0,202103:0:0:0:0:
320,192,201353,128,0,201653:0:0:0:0:
448,192,201803,128,0,202103:0:0:0:0:
320,192,202103,128,0,202628:0:0:0:0:
64,192,202253,128,0,202553:0:0:0:0:
320,192,202703,128,0,205253:0:0:0:0:
192,192,202703,128,0,203003:0:0:0:0:
448,192,203153,128,0,203453:0:0:0:0:
64,192,203453,128,0,203753:0:0:0:0:
448,192,203753,128,0,204053:0:0:0:0:
192,192,204203,128,0,204503:0:0:0:0:
64,192,204653,128,0,204953:0:0:0:0:
192,192,205103,128,0,205403:0:0:0:0:
448,192,205253,128,0,205853:0:0:0:0:
64,192,205553,128,0,205853:0:0:0:0:
192,192,205853,128,0,206153:0:0:0:0:
320,192,205853,128,0,206153:0:0:0:0:
448,192,206153,128,0,206603:0:0:0:0:
64,192,206153,128,0,206453:0:0:0:0:
64,192,206603,128,0,208253:0:0:0:0:
320,192,206603,128,0,206903:0:0:0:0:
448,192,207053,128,0,207353:0:0:0:0:
320,192,207503,128,0,207803:0:0:0:0:
192,192,207953,128,0,208253:0:0:0:0:
448,192,208253,128,0,208553:0:0:0:0:
320,192,208403,128,0,208853:0:0:0:0:
64,192,208553,128,0,208853:0:0:0:0:
448,192,208853,128,0,209453:0:0:0:0:
192,192,209003,128,0,209453:0:0:0:0:
64,192,209453,128,0,210953:0:0:0:0:
320,192,209453,128,0,209753:0:0:0:0:
448,192,209903,128,0,210203:0:0:0:0:
192,192,210353,128,0,210653:0:0:0:0:
448,192,210653,128,0,211553:0:0:0:0:
320,192,210953,128,0,211553:0:0:0:0:
192,192,210953,128,0,211253:0:0:0:0:
64,192,211253,128,0,212453:0:0:0:0:
192,192,211403,128,0,212003:0:0:0:0:
320,192,211853,128,0,213653:0:0:0:0:
448,192,211853,128,0,213053:0:0:0:0:
192,192,212303,128,0,212753:0:0:0:0:
64,192,212753,128,0,213203:0:0:0:0:
192,192,213053,128,0,214103:0:0:0:0:
448,192,213353,128,0,214103:0:0:0:0:
64,192,213353,128,0,213503:0:0:0:0:
64,192,213653,128,0,214553:0:0:0:0:
320,192,213803,128,0,215003:0:0:0:0:
192,192,214253,128,0,215303:0:0:0:0:
448,192,214253,128,0,217028:0:0:0:0:
64,192,214703,128,0,216503:0:0:0:0:
320,192,215153,128,0,215603:0:0:0:0:
192,192,215453,128,0,216053:0:0:0:0:
320,192,215753,128,0,216503:0:0:0:0:
192,192,216203,128,0,217778:0:0:0:0:
64,192,216653,128,0,220478:0:0:0:0:
320,192,216653,128,0,217478:0:0:0:0:
448,192,217103,128,0,218078:0:0:0:0:
320,192,217553,128,0,218528:0:0:0:0:
192,192,217853,128,0,218528:0:0:0:0:
448,192,218153,128,0,218978:0:0:0:0:
192,192,218603,128,0,219803:0:0:0:0:
320,192,218603,128,0,219503:0:0:0:0:
448,192,219053,128,0,219428:0:0:0:0:
448,192,219503,128,0,219578:0:0:0:0:
320,192,219578,128,0,219728:0:0:0:0:
448,192,219653,128,0,219803:0:0:0:0:
320,192,219803,128,0,219878:0:0:0:0:
192,192,219878,128,0,219953:0:0:0:0:
448,192,219953,128,0,220103:0:0:0:0:
320,192,220028,128,0,220103:0:0:0:0:
192,192,220103,128,0,220253:0:0:0:0:
448,192,220178,128,0,220253:0:0:0:0:
320,192,220253,128,0,220403:0:0:0:0:
192,192,220328,128,0,220403:0:0:0:0:
448,192,220403,128,0,220553:0:0:0:0:
192,192,220478,128,0,220553:0:0:0:0:
64,192,220553,128,0,221003:0:0:0:0:
320,192,220553,128,0,220628:0:0:0:0:
448,192,221003,128,0,222203:0:0:0:0:
192,192,221153,128,0,221228:0:0:0:0:
320,192,222203,128,0,222803:0:0:0:0:
192,192,222503,128,0,222578:0:0:0:0:
64,192,222653,128,0,222728:0:0:0:0:
448,192,222803,128,0,222878:0:0:0:0:
192,192,222953,128,0,223403:0:0:0:0:
320,192,223253,128,0,223403:0:0:0:0:
64,192,223403,128,0,224603:0:0:0:0:
192,192,223553,128,0,223703:0:0:0:0:
320,192,223703,128,0,223853:0:0:0:0:
448,192,223853,128,0,224003:0:0:0:0:
320,192,224453,128,0,224753:0:0:0:0:
448,192,224603,128,0,225053:0:0:0:0:
192,192,225053,128,0,225353:0:0:0:0:
448,192,225353,128,0,228578:0:0:0:0:
320,192,225653,128,0,225953:0:0:0:0:
64,192,225728,1,0,0:0:0:0:
192,192,225803,128,0,225953:0:0:0:0:
64,192,225953,128,0,226253:0:0:0:0:
320,192,226103,128,0,226253:0:0:0:0:
192,192,226253,128,0,226403:0:0:0:0:
320,192,226403,128,0,226778:0:0:0:0:
64,192,226478,128,0,226553:0:0:0:0:
192,192,226553,128,0,226703:0:0:0:0:
64,192,226703,128,0,226853:0:0:0:0:
192,192,226853,128,0,227153:0:0:0:0:
320,192,226928,128,0,227003:0:0:0:0:
64,192,227003,128,0,227303:0:0:0:0:
320,192,227153,128,0,227603:0:0:0:0:
192,192,227303,128,0,227453:0:0:0:0:
64,192,227453,128,0,227753:0:0:0:0:
192,192,227603,128,0,228053:0:0:0:0:
320,192,227753,128,0,227903:0:0:0:0:
64,192,227903,128,0,228203:0:0:0:0:
320,192,228053,128,0,228503:0:0:0:0:
192,192,228203,128,0,228428:0:0:0:0:
64,192,228353,1,0,0:0:0:0:
64,192,228503,128,0,228803:0:0:0:0:
192,192,228578,128,0,228728:0:0:0:0:
320,192,228653,1,0,0:0:0:0:
448,192,228728,128,0,228878:0:0:0:0:
320,192,228803,128,0,228953:0:0:0:0:
192,192,228878,128,0,229028:0:0:0:0:
64,192,228953,128,0,229215:0:0:0:0:
448,192,229028,128,0,229103:0:0:0:0:
192,192,229103,128,0,229253:0:0:0:0:
320,192,229178,128,0,229290:0:0:0:0:
448,192,229253,128,0,229328:0:0:0:0:
64,192,229328,128,0,229403:0:0:0:0:
192,192,229403,128,0,229553:0:0:0:0:
320,192,229553,128,0,229703:0:0:0:0:
448,192,229703,128,0,229853:0:0:0:0:
64,192,229703,128,0,229853:0:0:0:0:
192,192,229778,128,0,229928:0:0:0:0:
320,192,229853,128,0,230003:0:0:0:0:
64,192,229928,128,0,230078:0:0:0:0:
192,192,230003,128,0,230153:0:0:0:0:
448,192,230078,128,0,230228:0:0:0:0:
320,192,230153,128,0,230678:0:0:0:0:
64,192,230153,128,0,230453:0:0:0:0:
192,192,230453,128,0,230678:0:0:0:0:
448,192,230490,1,0,0:0:0:0:
64,192,230603,128,0,230753:0:0:0:0:
448,192,230753,128,0,230903:0:0:0:0:
320,192,230790,1,0,0:0:0:0:
64,192,230828,128,0,230978:0:0:0:0:
192,192,230903,128,0,231053:0:0:0:0:
320,192,230978,128,0,231128:0:0:0:0:
448,192,231053,128,0,231278:0:0:0:0:
64,192,231128,128,0,231203:0:0:0:0:
320,192,231203,128,0,231353:0:0:0:0:
192,192,231278,128,0,231428:0:0:0:0:
64,192,231353,128,0,231503:0:0:0:0:
448,192,231428,128,0,231653:0:0:0:0:
192,192,231503,128,0,231728:0:0:0:0:
320,192,231578,128,0,231690:0:0:0:0:
64,192,231653,128,0,231765:0:0:0:0:
448,192,231803,128,0,232553:0:0:0:0:
320,192,231803,128,0,232403:0:0:0:0:
64,192,231953,128,0,232403:0:0:0:0:
192,192,232253,128,0,232553:0:0:0:0:
320,192,232553,128,0,233153:0:0:0:0:
64,192,232553,128,0,232628:0:0:0:0:
192,192,232628,128,0,232703:0:0:0:0:
64,192,232703,128,0,232853:0:0:0:0:
448,192,232778,128,0,232853:0:0:0:0:
192,192,232853,128,0,233003:0:0:0:0:
64,192,233003,128,0,234203:0:0:0:0:
448,192,233003,128,0,233303:0:0:0:0:
192,192,233153,128,0,233603:0:0:0:0:
320,192,233303,128,0,233453:0:0:0:0:
448,192,233453,128,0,234053:0:0:0:0:
320,192,233603,128,0,233753:0:0:0:0:
192,192,233753,128,0,234503:0:0:0:0:
320,192,233903,128,0,234053:0:0:0:0:
448,192,234203,128,0,234803:0:0:0:0:
320,192,234203,128,0,234503:0:0:0:0:
64,192,234353,128,0,235103:0:0:0:0:
192,192,234653,128,0,235253:0:0:0:0:
320,192,234653,128,0,234803:0:0:0:0:
448,192,234953,128,0,236003:0:0:0:0:
320,192,234953,128,0,235403:0:0:0:0:
64,192,235253,128,0,235703:0:0:0:0:
192,192,235403,128,0,235928:0:0:0:0:
320,192,235553,128,0,235853:0:0:0:0:
64,192,235853,128,0,236453:0:0:0:0:
320,192,236003,1,0,0:0:0:0:
192,192,236078,128,0,236453:0:0:0:0:
320,192,236153,128,0,237203:0:0:0:0:
448,192,236153,128,0,236903:0:0:0:0:
64,192,236603,128,0,237503:0:0:0:0:
192,192,236603,128,0,236903:0:0:0:0:
448,192,237053,128,0,237540:0:0:0:0:
192,192,237053,128,0,237203:0:0:0:0:
192,192,237353,128,0,239078:0:0:0:0:
320,192,237353,128,0,237878:0:0:0:0:
64,192,237653,128,0,239078:0:0:0:0:
448,192,237690,1,0,0:0:0:0:
448,192,237953,128,0,239078:0:0:0:0:
320,192,237990,128,0,239078:0:0:0:0:
192,192,239153,5,0,0:0:0:0:
448,192,239153,1,0,0:0:0:0:
320,192,239228,1,0,0:0:0:0:
64,192,239303,1,0,0:0:0:0:
192,192,239303,1,0,0:0:0:0:
320,192,239378,1,0,0:0:0:0:
64,192,239453,1,0,0:0:0:0:
448,192,239453,1,0,0:0:0:0:
64,192,239528,1,0,0:0:0:0:
192,192,239603,1,0,0:0:0:0:
320,192,239603,1,0,0:0:0:0:
320,192,239678,1,0,0:0:0:0:
448,192,239753,128,0,239903:0:0:0:0:
64,192,239753,128,0,239903:0:0:0:0:
192,192,239753,1,0,0:0:0:0:
320,192,239903,1,0,0:0:0:0:
192,192,239978,1,0,0:0:0:0:
64,192,239978,1,0,0:0:0:0:
448,192,240053,1,0,0:0:0:0:
320,192,240053,128,0,240203:0:0:0:0:
192,192,240203,128,0,240353:0:0:0:0:
64,192,240278,1,0,0:0:0:0:
320,192,240353,1,0,0:0:0:0:
448,192,240353,1,0,0:0:0:0:
64,192,240428,128,0,240578:0:0:0:0:
448,192,240503,1,0,0:0:0:0:
320,192,240578,1,0,0:0:0:0:
64,192,240653,1,0,0:0:0:0:
192,192,240653,128,0,240728:0:0:0:0:
448,192,240728,128,0,240803:0:0:0:0:
320,192,240803,128,0,240878:0:0:0:0:
64,192,240803,1,0,0:0:0:0:
192,192,240878,128,0,240953:0:0:0:0:
448,192,240953,128,0,241103:0:0:0:0:
64,192,240953,128,0,241103:0:0:0:0:
320,192,241103,1,0,0:0:0:0:
192,192,241178,1,0,0:0:0:0:
64,192,241178,1,0,0:0:0:0:
448,192,241253,1,0,0:0:0:0:
320,192,241253,128,0,241403:0:0:0:0:
192,192,241403,128,0,241553:0:0:0:0:
64,192,241478,1,0,0:0:0:0:
320,192,241553,1,0,0:0:0:0:
448,192,241553,1,0,0:0:0:0:
64,192,241628,128,0,241778:0:0:0:0:
448,192,241703,1,0,0:0:0:0:
320,192,241778,1,0,0:0:0:0:
64,192,241853,1,0,0:0:0:0:
192,192,241853,128,0,241928:0:0:0:0:
320,192,241928,128,0,242003:0:0:0:0:
448,192,242003,128,0,242078:0:0:0:0:
64,192,242003,1,0,0:0:0:0:
192,192,242078,128,0,242153:0:0:0:0:
448,192,242153,128,0,242303:0:0:0:0:
64,192,242153,128,0,242303:0:0:0:0:
192,192,242303,1,0,0:0:0:0:
320,192,242378,1,0,0:0:0:0:
448,192,242378,1,0,0:0:0:0:
192,192,242453,1,0,0:0:0:0:
64,192,242453,128,0,242603:0:0:0:0:
320,192,242603,128,0,242753:0:0:0:0:
192,192,242678,1,0,0:0:0:0:
448,192,242753,1,0,0:0:0:0:
64,192,242753,1,0,0:0:0:0:
192,192,242828,128,0,242978:0:0:0:0:
448,192,242903,1,0,0:0:0:0:
320,192,242978,1,0,0:0:0:0:
64,192,243053,1,0,0:0:0:0:
192,192,243053,128,0,243128:0:0:0:0:
448,192,243128,128,0,243203:0:0:0:0:
64,192,243203,1,0,0:0:0:0:
320,192,243203,128,0,243278:0:0:0:0:
192,192,243278,128,0,243353:0:0:0:0:
448,192,243353,128,0,243503:0:0:0:0:
64,192,243353,128,0,243503:0:0:0:0:
192,192,243503,1,0,0:0:0:0:
320,192,243578,128,0,243728:0:0:0:0:
64,192,243653,1,0,0:0:0:0:
448,192,243653,1,0,0:0:0:0:
192,192,243803,128,0,243953:0:0:0:0:
448,192,243878,1,0,0:0:0:0:
64,192,243953,1,0,0:0:0:0:
320,192,243953,1,0,0:0:0:0:
448,192,244028,128,0,244178:0:0:0:0:
320,192,244103,1,0,0:0:0:0:
192,192,244178,1,0,0:0:0:0:
64,192,244253,1,0,0:0:0:0:
448,192,244253,128,0,244328:0:0:0:0:
320,192,244328,128,0,244403:0:0:0:0:
192,192,244403,128,0,244478:0:0:0:0:
320,192,244478,128,0,244553:0:0:0:0:
64,192,244553,128,0,244703:0:0:0:0:
448,192,244553,128,0,244703:0:0:0:0:
320,192,244703,1,0,0:0:0:0:
192,192,244778,1,0,0:0:0:0:
64,192,244778,1,0,0:0:0:0:
448,192,244853,1,0,0:0:0:0:
320,192,244853,128,0,245003:0:0:0:0:
192,192,245003,128,0,245153:0:0:0:0:
64,192,245003,1,0,0:0:0:0:
448,192,245078,1,0,0:0:0:0:
320,192,245153,1,0,0:0:0:0:
64,192,245228,128,0,245378:0:0:0:0:
448,192,245303,1,0,0:0:0:0:
320,192,245378,1,0,0:0:0:0:
64,192,245453,1,0,0:0:0:0:
192,192,245453,128,0,245528:0:0:0:0:
448,192,245528,128,0,245603:0:0:0:0:
320,192,245603,128,0,245678:0:0:0:0:
64,192,245603,1,0,0:0:0:0:
192,192,245678,128,0,245753:0:0:0:0:
448,192,245753,128,0,245903:0:0:0:0:
64,192,245753,128,0,245903:0:0:0:0:
320,192,245903,1,0,0:0:0:0:
192,192,245978,1,0,0:0:0:0:
64,192,245978,1,0,0:0:0:0:
448,192,246053,1,0,0:0:0:0:
320,192,246053,128,0,246203:0:0:0:0:
192,192,246203,128,0,246353:0:0:0:0:
64,192,246278,1,0,0:0:0:0:
320,192,246353,1,0,0:0:0:0:
448,192,246353,1,0,0:0:0:0:
64,192,246428,128,0,246578:0:0:0:0:
448,192,246503,1,0,0:0:0:0:
320,192,246578,1,0,0:0:0:0:
64,192,246653,1,0,0:0:0:0:
192,192,246653,128,0,246728:0:0:0:0:
320,192,246728,128,0,246803:0:0:0:0:
448,192,246803,128,0,246878:0:0:0:0:
64,192,246803,1,0,0:0:0:0:
192,192,246878,128,0,246953:0:0:0:0:
448,192,246953,128,0,247103:0:0:0:0:
64,192,246953,128,0,247103:0:0:0:0:
192,192,247103,1,0,0:0:0:0:
320,192,247178,1,0,0:0:0:0:
448,192,247178,128,0,247328:0:0:0:0:
192,192,247253,1,0,0:0:0:0:
64,192,247253,1,0,0:0:0:0:
320,192,247403,128,0,247553:0:0:0:0:
448,192,247403,1,0,0:0:0:0:
192,192,247478,1,0,0:0:0:0:
448,192,247553,1,0,0:0:0:0:
64,192,247553,1,0,0:0:0:0:
192,192,247628,128,0,247778:0:0:0:0:
448,192,247703,1,0,0:0:0:0:
320,192,247778,1,0,0:0:0:0:
64,192,247853,1,0,0:0:0:0:
192,192,247853,128,0,247928:0:0:0:0:
448,192,247928,128,0,248003:0:0:0:0:
64,192,248003,1,0,0:0:0:0:
320,192,248003,128,0,248078:0:0:0:0:
192,192,248078,128,0,248153:0:0:0:0:
448,192,248153,128,0,248303:0:0:0:0:
64,192,248153,128,0,248303:0:0:0:0:
192,192,248303,1,0,0:0:0:0:
320,192,248378,128,0,248528:0:0:0:0:
64,192,248453,1,0,0:0:0:0:
448,192,248453,1,0,0:0:0:0:
192,192,248603,128,0,248753:0:0:0:0:
320,192,248678,1,0,0:0:0:0:
448,192,248753,128,0,248903:0:0:0:0:
64,192,248753,1,0,0:0:0:0:
192,192,248828,1,0,0:0:0:0:
64,192,248903,1,0,0:0:0:0:
320,192,248903,1,0,0:0:0:0:
320,192,248978,1,0,0:0:0:0:
448,192,249053,128,0,249128:0:0:0:0:
192,192,249053,1,0,0:0:0:0:
64,192,249053,128,0,249278:0:0:0:0:
320,192,249128,128,0,249203:0:0:0:0:
192,192,249203,128,0,249278:0:0:0:0:
320,192,249278,128,0,249353:0:0:0:0:
64,192,249353,128,0,249503:0:0:0:0:
448,192,249353,128,0,249503:0:0:0:0:
320,192,249503,128,0,249578:0:0:0:0:
64,192,249578,1,0,0:0:0:0:
192,192,249578,128,0,249653:0:0:0:0:
320,192,249653,128,0,249803:0:0:0:0:
448,192,249653,128,0,249728:0:0:0:0:
192,192,249803,128,0,249953:0:0:0:0:
64,192,249878,128,0,249953:0:0:0:0:
448,192,249953,128,0,250028:0:0:0:0:
320,192,249953,128,0,250103:0:0:0:0:
64,192,250028,128,0,250178:0:0:0:0:
448,192,250103,128,0,250178:0:0:0:0:
320,192,250178,128,0,250253:0:0:0:0:
192,192,250253,128,0,250328:0:0:0:0:
64,192,250253,128,0,250328:0:0:0:0:
448,192,250328,128,0,250403:0:0:0:0:
320,192,250403,128,0,250478:0:0:0:0:
64,192,250403,128,0,250478:0:0:0:0:
192,192,250478,128,0,250553:0:0:0:0:
64,192,250553,128,0,250703:0:0:0:0:
448,192,250553,128,0,250703:0:0:0:0:
320,192,250703,128,0,250778:0:0:0:0:
64,192,250778,1,0,0:0:0:0:
192,192,250778,128,0,250853:0:0:0:0:
320,192,250853,128,0,251003:0:0:0:0:
448,192,250853,128,0,250928:0:0:0:0:
192,192,251003,128,0,251153:0:0:0:0:
64,192,251078,128,0,251153:0:0:0:0:
320,192,251153,128,0,251303:0:0:0:0:
448,192,251153,128,0,251228:0:0:0:0:
64,192,251228,128,0,251378:0:0:0:0:
448,192,251303,128,0,251378:0:0:0:0:
320,192,251378,128,0,251453:0:0:0:0:
192,192,251453,128,0,251528:0:0:0:0:
64,192,251453,128,0,251528:0:0:0:0:
320,192,251528,128,0,251603:0:0:0:0:
448,192,251603,128,0,251678:0:0:0:0:
64,192,251603,128,0,251678:0:0:0:0:
192,192,251678,128,0,251753:0:0:0:0:
64,192,251753,128,0,251903:0:0:0:0:
448,192,251753,128,0,251903:0:0:0:0:
192,192,251903,128,0,251978:0:0:0:0:
448,192,251978,1,0,0:0:0:0:
320,192,251978,128,0,252053:0:0:0:0:
64,192,252053,128,0,252203:0:0:0:0:
192,192,252053,128,0,252128:0:0:0:0:
320,192,252203,128,0,252353:0:0:0:0:
192,192,252278,128,0,252353:0:0:0:0:
448,192,252353,128,0,252428:0:0:0:0:
64,192,252353,128,0,252503:0:0:0:0:
192,192,252428,128,0,252578:0:0:0:0:
448,192,252503,128,0,252578:0:0:0:0:
320,192,252578,128,0,252653:0:0:0:0:
192,192,252653,128,0,252728:0:0:0:0:
64,192,252653,128,0,252728:0:0:0:0:
448,192,252728,128,0,252803:0:0:0:0:
320,192,252803,128,0,252878:0:0:0:0:
64,192,252803,128,0,252878:0:0:0:0:
192,192,252878,128,0,252953:0:0:0:0:
64,192,252953,128,0,253103:0:0:0:0:
448,192,252953,128,0,253103:0:0:0:0:
192,192,253103,128,0,253178:0:0:0:0:
320,192,253178,128,0,253328:0:0:0:0:
448,192,253253,1,0,0:0:0:0:
64,192,253253,128,0,253328:0:0:0:0:
192,192,253403,128,0,253553:0:0:0:0:
448,192,253478,128,0,253553:0:0:0:0:
64,192,253553,128,0,253628:0:0:0:0:
320,192,253553,128,0,253628:0:0:0:0:
448,192,253628,128,0,253778:0:0:0:0:
320,192,253703,128,0,253778:0:0:0:0:
192,192,253778,128,0,253853:0:0:0:0:
448,192,253853,128,0,253928:0:0:0:0:
64,192,253853,128,0,253928:0:0:0:0:
320,192,253928,128,0,254003:0:0:0:0:
192,192,254003,128,0,254078:0:0:0:0:
320,192,254078,128,0,254153:0:0:0:0:
64,192,254153,128,0,254303:0:0:0:0:
192,192,254153,128,0,254303:0:0:0:0:
448,192,254153,128,0,254228:0:0:0:0:
320,192,254378,128,0,254453:0:0:0:0:
192,192,254378,128,0,254528:0:0:0:0:
64,192,254378,128,0,254528:0:0:0:0:
192,192,254603,128,0,254678:0:0:0:0:
320,192,254603,128,0,254753:0:0:0:0:
448,192,254603,128,0,254753:0:0:0:0:
64,192,254828,128,0,254903:0:0:0:0:
192,192,254828,128,0,254978:0:0:0:0:
320,192,254828,128,0,254978:0:0:0:0:
64,192,255053,128,0,255128:0:0:0:0:
320,192,255053,128,0,255203:0:0:0:0:
448,192,255053,128,0,255278:0:0:0:0:
192,192,255203,1,0,0:0:0:0:
64,192,255203,1,0,0:0:0:0:
320,192,255278,1,0,0:0:0:0:
64,192,255353,128,0,255503:0:0:0:0:
192,192,255353,128,0,255503:0:0:0:0:
448,192,255353,128,0,255428:0:0:0:0:
320,192,255578,128,0,255653:0:0:0:0:
192,192,255578,128,0,255728:0:0:0:0:
64,192,255578,128,0,255728:0:0:0:0:
192,192,255803,128,0,255878:0:0:0:0:
320,192,255803,128,0,255953:0:0:0:0:
448,192,255803,128,0,255953:0:0:0:0:
64,192,256028,128,0,256103:0:0:0:0:
192,192,256028,128,0,256178:0:0:0:0:
320,192,256028,128,0,256178:0:0:0:0:
64,192,256253,128,0,256328:0:0:0:0:
320,192,256253,128,0,256403:0:0:0:0:
448,192,256253,128,0,256478:0:0:0:0:
64,192,256403,1,0,0:0:0:0:
192,192,256478,1,0,0:0:0:0:
448,192,256553,1,0,0:0:0:0:
64,192,256553,1,0,0:0:0:0:
320,192,256553,128,0,256703:0:0:0:0:
192,192,256628,128,0,256778:0:0:0:0:
448,192,256703,1,0,0:0:0:0:
64,192,256703,128,0,256853:0:0:0:0:
320,192,256778,128,0,256928:0:0:0:0:
192,192,256853,1,0,0:0:0:0:
448,192,256853,128,0,257003:0:0:0:0:
64,192,256928,128,0,257078:0:0:0:0:
192,192,257003,1,0,0:0:0:0:
320,192,257003,128,0,257153:0:0:0:0:
448,192,257078,128,0,257228:0:0:0:0:
192,192,257153,128,0,257303:0:0:0:0:
64,192,257153,128,0,257228:0:0:0:0:
320,192,257228,128,0,257378:0:0:0:0:
448,192,257303,128,0,257378:0:0:0:0:
64,192,257303,128,0,257453:0:0:0:0:
192,192,257378,128,0,257528:0:0:0:0:
320,192,257453,128,0,257603:0:0:0:0:
448,192,257453,128,0,257528:0:0:0:0:
64,192,257528,128,0,257678:0:0:0:0:
448,192,257603,128,0,257678:0:0:0:0:
192,192,257603,128,0,257678:0:0:0:0:
320,192,257678,128,0,258503:0:0:0:0:
64,192,257753,128,0,258653:0:0:0:0:
192,192,257753,128,0,258578:0:0:0:0:
448,192,257753,128,0,258653:0:0:0:0:
320,192,258653,1,0,0:0:0:0:
192,192,258728,1,0,0:0:0:0:
448,192,258803,1,0,0:0:0:0:
192,192,258878,1,0,0:0:0:0:
320,192,258953,128,0,259178:0:0:0:0:
448,192,258953,128,0,259103:0:0:0:0:
64,192,258953,128,0,259028:0:0:0:0:
192,192,259103,128,0,259253:0:0:0:0:
64,192,259178,128,0,259328:0:0:0:0:
448,192,259253,128,0,259553:0:0:0:0:
320,192,259253,128,0,259328:0:0:0:0:
320,192,259403,128,0,259553:0:0:0:0:
192,192,259403,128,0,259478:0:0:0:0:
192,192,259553,128,0,259703:0:0:0:0:
64,192,259553,128,0,259628:0:0:0:0:
320,192,259628,128,0,259778:0:0:0:0:
448,192,259703,128,0,259778:0:0:0:0:
64,192,259703,128,0,259928:0:0:0:0:
448,192,259853,128,0,259928:0:0:0:0:
320,192,259853,128,0,260003:0:0:0:0:
192,192,259928,128,0,260078:0:0:0:0:
64,192,260003,128,0,260078:0:0:0:0:
448,192,260003,128,0,260078:0:0:0:0:
320,192,260078,128,0,260228:0:0:0:0:
192,192,260153,128,0,260378:0:0:0:0:
64,192,260153,128,0,260303:0:0:0:0:
448,192,260153,128,0,260228:0:0:0:0:
320,192,260303,128,0,260453:0:0:0:0:
448,192,260378,128,0,260528:0:0:0:0:
64,192,260453,128,0,260753:0:0:0:0:
192,192,260453,128,0,260528:0:0:0:0:
192,192,260603,128,0,260753:0:0:0:0:
320,192,260603,128,0,260678:0:0:0:0:
320,192,260753,128,0,260903:0:0:0:0:
448,192,260753,128,0,260828:0:0:0:0:
192,192,260828,128,0,260978:0:0:0:0:
64,192,260903,128,0,260978:0:0:0:0:
448,192,260903,128,0,261128:0:0:0:0:
64,192,261053,128,0,261128:0:0:0:0:
192,192,261053,128,0,261203:0:0:0:0:
320,192,261128,128,0,261278:0:0:0:0:
448,192,261203,128,0,261278:0:0:0:0:
64,192,261203,128,0,261278:0:0:0:0:
192,192,261278,128,0,261428:0:0:0:0:
320,192,261353,128,0,261503:0:0:0:0:
448,192,261353,128,0,261578:0:0:0:0:
64,192,261353,128,0,261503:0:0:0:0:
192,192,261503,128,0,261653:0:0:0:0:
64,192,261578,128,0,261728:0:0:0:0:
448,192,261653,128,0,261953:0:0:0:0:
320,192,261653,128,0,261728:0:0:0:0:
64,192,261803,128,0,261953:0:0:0:0:
192,192,261803,128,0,261878:0:0:0:0:
192,192,261953,128,0,262028:0:0:0:0:
320,192,261953,128,0,262028:0:0:0:0:
448,192,262028,128,0,262178:0:0:0:0:
64,192,262028,128,0,262178:0:0:0:0:
320,192,262103,128,0,262178:0:0:0:0:
192,192,262103,128,0,262253:0:0:0:0:
64,192,262253,128,0,262328:0:0:0:0:
448,192,262253,128,0,262403:0:0:0:0:
192,192,262328,128,0,262478:0:0:0:0:
320,192,262328,128,0,262403:0:0:0:0:
64,192,262403,128,0,262478:0:0:0:0:
320,192,262478,128,0,262778:0:0:0:0:
448,192,262478,128,0,262703:0:0:0:0:
192,192,262553,128,0,262778:0:0:0:0:
64,192,262553,128,0,262628:0:0:0:0:
64,192,262703,128,0,262778:0:0:0:0:
448,192,262778,128,0,262928:0:0:0:0:
64,192,262853,128,0,263153:0:0:0:0:
192,192,262853,128,0,263003:0:0:0:0:
320,192,262853,128,0,262928:0:0:0:0:
320,192,263003,128,0,263153:0:0:0:0:
448,192,263003,128,0,263078:0:0:0:0:
448,192,263153,128,0,263228:0:0:0:0:
192,192,263153,128,0,263228:0:0:0:0:
320,192,263228,128,0,263378:0:0:0:0:
64,192,263228,128,0,263378:0:0:0:0:
448,192,263303,128,0,263453:0:0:0:0:
192,192,263303,128,0,263378:0:0:0:0:
64,192,263453,128,0,263528:0:0:0:0:
320,192,263453,128,0,263528:0:0:0:0:
192,192,263528,128,0,263603:0:0:0:0:
448,192,263528,128,0,263678:0:0:0:0:
320,192,263603,128,0,263678:0:0:0:0:
64,192,263603,128,0,263678:0:0:0:0:
192,192,263678,128,0,263753:0:0:0:0:
320,192,263753,128,0,263978:0:0:0:0:
448,192,263753,128,0,263903:0:0:0:0:
64,192,263753,128,0,263828:0:0:0:0:
192,192,263903,128,0,264053:0:0:0:0:
64,192,263978,128,0,264128:0:0:0:0:
448,192,264053,128,0,264353:0:0:0:0:
320,192,264053,128,0,264128:0:0:0:0:
320,192,264203,128,0,264353:0:0:0:0:
192,192,264203,128,0,264278:0:0:0:0:
192,192,264353,128,0,264503:0:0:0:0:
64,192,264353,128,0,264428:0:0:0:0:
320,192,264428,128,0,264578:0:0:0:0:
448,192,264503,128,0,264578:0:0:0:0:
64,192,264503,128,0,264728:0:0:0:0:
448,192,264653,128,0,264728:0:0:0:0:
320,192,264653,128,0,264803:0:0:0:0:
192,192,264728,128,0,264878:0:0:0:0:
64,192,264803,128,0,264878:0:0:0:0:
448,192,264803,128,0,264878:0:0:0:0:
320,192,264878,128,0,265028:0:0:0:0:
192,192,264953,128,0,265178:0:0:0:0:
64,192,264953,128,0,265103:0:0:0:0:
448,192,264953,128,0,265028:0:0:0:0:
320,192,265103,128,0,265253:0:0:0:0:
448,192,265178,128,0,265328:0:0:0:0:
64,192,265253,128,0,265553:0:0:0:0:
192,192,265253,128,0,265328:0:0:0:0:
192,192,265403,128,0,265553:0:0:0:0:
320,192,265403,128,0,265478:0:0:0:0:
320,192,265553,128,0,265703:0:0:0:0:
448,192,265553,128,0,265628:0:0:0:0:
192,192,265628,128,0,265778:0:0:0:0:
64,192,265703,128,0,265778:0:0:0:0:
448,192,265703,128,0,265928:0:0:0:0:
64,192,265853,128,0,265928:0:0:0:0:
192,192,265853,128,0,266003:0:0:0:0:
320,192,265928,128,0,266078:0:0:0:0:
448,192,266003,128,0,266078:0:0:0:0:
64,192,266003,128,0,266078:0:0:0:0:
192,192,266078,128,0,266228:0:0:0:0:
320,192,266153,128,0,266303:0:0:0:0:
448,192,266153,128,0,266378:0:0:0:0:
64,192,266153,128,0,266303:0:0:0:0:
192,192,266303,128,0,266453:0:0:0:0:
64,192,266378,128,0,266528:0:0:0:0:
448,192,266453,128,0,266753:0:0:0:0:
320,192,266453,128,0,266603:0:0:0:0:
192,192,266528,128,0,266678:0:0:0:0:
64,192,266603,128,0,266753:0:0:0:0:
192,192,266753,128,0,266828:0:0:0:0:
320,192,266753,128,0,266828:0:0:0:0:
448,192,266828,128,0,266978:0:0:0:0:
64,192,266828,128,0,266978:0:0:0:0:
320,192,266903,128,0,266978:0:0:0:0:
192,192,266903,128,0,267053:0:0:0:0:
64,192,267053,128,0,267128:0:0:0:0:
448,192,267053,128,0,267203:0:0:0:0:
192,192,267128,128,0,267278:0:0:0:0:
320,192,267128,128,0,267203:0:0:0:0:
64,192,267203,128,0,267278:0:0:0:0:
320,192,267278,128,0,267353:0:0:0:0:
64,192,267353,128,0,267453:0:0:0:0:
448,192,267353,128,0,267453:0:0:0:0:
192,192,267428,128,0,267503:0:0:0:0:
320,192,267503,128,0,267578:0:0:0:0:
448,192,267578,128,0,267678:0:0:0:0:
64,192,267578,128,0,267678:0:0:0:0:
320,192,267653,128,0,267728:0:0:0:0:
192,192,267728,128,0,267803:0:0:0:0:
64,192,267803,128,0,267903:0:0:0:0:
448,192,267803,128,0,267903:0:0:0:0:
320,192,267878,128,0,267953:0:0:0:0:
64,192,267953,128,0,268053:0:0:0:0:
448,192,267953,128,0,268053:0:0:0:0:
192,192,268028,128,0,268103:0:0:0:0:
320,192,268103,128,0,268178:0:0:0:0:
64,192,268178,128,0,268278:0:0:0:0:
448,192,268178,128,0,268278:0:0:0:0:
320,192,268253,128,0,268328:0:0:0:0:
192,192,268328,128,0,268403:0:0:0:0:
64,192,268403,128,0,268503:0:0:0:0:
448,192,268403,128,0,268503:0:0:0:0:
320,192,268478,128,0,268553:0:0:0:0:
448,192,268553,128,0,268628:0:0:0:0:
64,192,268553,128,0,268703:0:0:0:0:
192,192,268553,128,0,268778:0:0:0:0:
320,192,268703,128,0,268853:0:0:0:0:
448,192,268778,128,0,268928:0:0:0:0:
192,192,268853,128,0,268928:0:0:0:0:
64,192,268853,128,0,269153:0:0:0:0:
320,192,269003,128,0,269078:0:0:0:0:
192,192,269003,128,0,269115:0:0:0:0:
448,192,269153,128,0,269228:0:0:0:0:
320,192,269153,128,0,269228:0:0:0:0:
192,192,269190,128,0,269303:0:0:0:0:
64,192,269228,128,0,269378:0:0:0:0:
448,192,269303,128,0,269528:0:0:0:0:
320,192,269303,128,0,269415:0:0:0:0:
192,192,269453,128,0,269603:0:0:0:0:
64,192,269453,128,0,269528:0:0:0:0:
320,192,269528,128,0,269678:0:0:0:0:
64,192,269603,128,0,269678:0:0:0:0:
448,192,269603,128,0,269678:0:0:0:0:
192,192,269678,128,0,269828:0:0:0:0:
64,192,269753,128,0,269828:0:0:0:0:
448,192,269753,128,0,269903:0:0:0:0:
320,192,269753,128,0,269978:0:0:0:0:
192,192,269903,128,0,270053:0:0:0:0:
64,192,269978,128,0,270128:0:0:0:0:
320,192,270053,128,0,270128:0:0:0:0:
448,192,270053,128,0,270353:0:0:0:0:
192,192,270203,128,0,270278:0:0:0:0:
320,192,270203,128,0,270315:0:0:0:0:
64,192,270353,128,0,270428:0:0:0:0:
192,192,270353,128,0,270428:0:0:0:0:
320,192,270390,128,0,270503:0:0:0:0:
448,192,270428,128,0,270578:0:0:0:0:
64,192,270503,128,0,270728:0:0:0:0:
192,192,270503,128,0,270615:0:0:0:0:
320,192,270653,128,0,270803:0:0:0:0:
448,192,270653,128,0,270728:0:0:0:0:
192,192,270728,128,0,270878:0:0:0:0:
448,192,270803,128,0,270878:0:0:0:0:
64,192,270803,128,0,270878:0:0:0:0:
320,192,270878,128,0,271028:0:0:0:0:
448,192,270953,128,0,271103:0:0:0:0:
64,192,270953,128,0,271178:0:0:0:0:
192,192,270953,128,0,271103:0:0:0:0:
320,192,271103,128,0,271253:0:0:0:0:
448,192,271178,128,0,271328:0:0:0:0:
192,192,271253,128,0,271328:0:0:0:0:
64,192,271253,128,0,271553:0:0:0:0:
320,192,271403,128,0,271478:0:0:0:0:
448,192,271403,128,0,271515:0:0:0:0:
192,192,271553,128,0,271628:0:0:0:0:
320,192,271553,128,0,271628:0:0:0:0:
448,192,271590,128,0,271703:0:0:0:0:
64,192,271628,128,0,271778:0:0:0:0:
320,192,271703,128,0,271853:0:0:0:0:
192,192,271703,128,0,271815:0:0:0:0:
64,192,271853,128,0,272003:0:0:0:0:
448,192,271853,128,0,271928:0:0:0:0:
192,192,271890,128,0,272003:0:0:0:0:
320,192,271928,128,0,272078:0:0:0:0:
448,192,272003,128,0,272078:0:0:0:0:
64,192,272078,128,0,272303:0:0:0:0:
192,192,272078,128,0,272378:0:0:0:0:
448,192,272153,128,0,272228:0:0:0:0:
320,192,272153,128,0,272378:0:0:0:0:
448,192,272303,128,0,272378:0:0:0:0:
64,192,272378,128,0,272528:0:0:0:0:
192,192,272453,128,0,272528:0:0:0:0:
320,192,272453,128,0,272603:0:0:0:0:
448,192,272453,128,0,272753:0:0:0:0:
64,192,272603,128,0,272678:0:0:0:0:
192,192,272603,128,0,272715:0:0:0:0:
320,192,272753,128,0,272828:0:0:0:0:
64,192,272753,128,0,272828:0:0:0:0:
192,192,272790,128,0,272903:0:0:0:0:
448,192,272828,128,0,272978:0:0:0:0:
320,192,272903,128,0,273015:0:0:0:0:
64,192,272903,128,0,273053:0:0:0:0:
192,192,273053,128,0,273128:0:0:0:0:
448,192,273053,128,0,273128:0:0:0:0:
64,192,273128,128,0,273278:0:0:0:0:
320,192,273128,128,0,273203:0:0:0:0:
448,192,273203,128,0,273278:0:0:0:0:
192,192,273203,128,0,273278:0:0:0:0:
320,192,273278,128,0,273353:0:0:0:0:
448,192,273353,128,0,273853:0:0:0:0:
192,192,273353,128,0,273703:0:0:0:0:
320,192,273503,128,0,273653:0:0:0:0:
64,192,273503,128,0,274003:0:0:0:0:
320,192,273803,128,0,273915:0:0:0:0:
192,192,273853,128,0,273953:0:0:0:0:
448,192,273953,128,0,274103:0:0:0:0:
320,192,274003,128,0,274153:0:0:0:0:
192,192,274053,128,0,274203:0:0:0:0:
64,192,274103,128,0,274553:0:0:0:0:
192,192,274403,128,0,274453:0:0:0:0:
320,192,274453,128,0,274553:0:0:0:0:
192,192,274553,128,0,274928:0:0:0:0:
448,192,274553,128,0,275053:0:0:0:0:
320,192,274703,128,0,274928:0:0:0:0:
64,192,274703,128,0,275203:0:0:0:0:
320,192,275003,128,0,275103:0:0:0:0:
192,192,275003,128,0,275153:0:0:0:0:
448,192,275153,128,0,275303:0:0:0:0:
320,192,275203,128,0,275353:0:0:0:0:
192,192,275253,128,0,275403:0:0:0:0:
64,192,275303,128,0,275678:0:0:0:0:
320,192,275453,128,0,275603:0:0:0:0:
448,192,275528,128,0,275603:0:0:0:0:
192,192,275603,128,0,275753:0:0:0:0:
320,192,275678,128,0,275753:0:0:0:0:
64,192,275753,128,0,275903:0:0:0:0:
448,192,275753,128,0,275865:0:0:0:0:
192,192,275828,128,0,275940:0:0:0:0:
320,192,275903,128,0,275978:0:0:0:0:
64,192,275978,128,0,276071:0:0:0:0:
448,192,275978,128,0,276103:0:0:0:0:
192,192,276053,128,0,276146:0:0:0:0:
320,192,276128,128,0,276221:0:0:0:0:
448,192,276203,128,0,276296:0:0:0:0:
64,192,276203,128,0,276278:0:0:0:0:
192,192,276278,128,0,276353:0:0:0:0:
320,192,276278,128,0,276428:0:0:0:0:
64,192,276353,128,0,276521:0:0:0:0:
448,192,276353,128,0,276503:0:0:0:0:
192,192,276428,128,0,276596:0:0:0:0:
320,192,276503,128,0,276653:0:0:0:0:
448,192,276578,128,0,276728:0:0:0:0:
64,192,276578,128,0,276728:0:0:0:0:
192,192,276653,128,0,276803:0:0:0:0:
320,192,276728,128,0,276803:0:0:0:0:
64,192,276803,128,0,276896:0:0:0:0:
448,192,276803,128,0,276896:0:0:0:0:
192,192,276878,128,0,277009:0:0:0:0:
320,192,276878,128,0,276971:0:0:0:0:
64,192,276953,128,0,277103:0:0:0:0:
448,192,276953,128,0,277128:0:0:0:0:
320,192,277028,128,0,277203:0:0:0:0:
192,192,277103,128,0,277278:0:0:0:0:
64,192,277178,128,0,277353:0:0:0:0:
448,192,277178,128,0,277353:0:0:0:0:
320,192,277253,128,0,277428:0:0:0:0:
192,192,277328,128,0,277428:0:0:0:0:
64,192,277403,128,0,277503:0:0:0:0:
448,192,277403,128,0,277503:0:0:0:0:
320,192,277478,128,0,277553:0:0:0:0:
192,192,277478,128,0,277609:0:0:0:0:
448,192,277553,128,0,277703:0:0:0:0:
64,192,277553,128,0,277703:0:0:0:0:
320,192,277628,128,0,277778:0:0:0:0:
192,192,277703,128,0,277853:0:0:0:0:
64,192,277778,128,0,277928:0:0:0:0:
320,192,277853,128,0,277928:0:0:0:0:
448,192,277853,128,0,278003:0:0:0:0:
192,192,277928,128,0,278003:0:0:0:0:
64,192,278003,128,0,278378:0:0:0:0:
320,192,278078,128,0,278378:0:0:0:0:
448,192,278153,128,0,278378:0:0:0:0:
192,192,278153,128,0,278378:0:0:0:0:
448,192,278453,5,0,0:0:0:0:
64,192,278453,1,0,0:0:0:0:
320,192,278503,1,0,0:0:0:0:
192,192,278553,1,0,0:0:0:0:
448,192,278603,1,0,0:0:0:0:
320,192,278603,1,0,0:0:0:0:
64,192,278678,1,0,0:0:0:0:
448,192,278753,1,0,0:0:0:0:
320,192,278753,1,0,0:0:0:0:
192,192,278803,1,0,0:0:0:0:
64,192,278853,1,0,0:0:0:0:
320,192,278903,1,0,0:0:0:0:
192,192,278953,1,0,0:0:0:0:
64,192,279003,1,0,0:0:0:0:
320,192,279053,1,0,0:0:0:0:
448,192,279053,1,0,0:0:0:0:
192,192,279128,1,0,0:0:0:0:
64,192,279203,1,0,0:0:0:0:
320,192,279203,1,0,0:0:0:0:
448,192,279278,1,0,0:0:0:0:
192,192,279353,1,0,0:0:0:0:
64,192,279353,1,0,0:0:0:0:
448,192,279403,1,0,0:0:0:0:
320,192,279453,1,0,0:0:0:0:
192,192,279503,1,0,0:0:0:0:
448,192,279578,1,0,0:0:0:0:
64,192,279578,1,0,0:0:0:0:
320,192,279653,1,0,0:0:0:0:
192,192,279653,1,0,0:0:0:0:
64,192,279728,1,0,0:0:0:0:
448,192,279803,1,0,0:0:0:0:
320,192,279853,1,0,0:0:0:0:
192,192,279903,1,0,0:0:0:0:
64,192,279953,1,0,0:0:0:0:
448,192,279953,1,0,0:0:0:0:
320,192,280003,1,0,0:0:0:0:
192,192,280053,1,0,0:0:0:0:
448,192,280103,1,0,0:0:0:0:
64,192,280153,1,0,0:0:0:0:
192,192,280203,1,0,0:0:0:0:
320,192,280253,1,0,0:0:0:0:
448,192,280253,1,0,0:0:0:0:
64,192,280328,1,0,0:0:0:0:
192,192,280403,1,0,0:0:0:0:
320,192,280403,1,0,0:0:0:0:
448,192,280478,1,0,0:0:0:0:
192,192,280553,1,0,0:0:0:0:
64,192,280553,1,0,0:0:0:0:
448,192,280603,1,0,0:0:0:0:
320,192,280653,1,0,0:0:0:0:
192,192,280703,1,0,0:0:0:0:
448,192,280778,1,0,0:0:0:0:
320,192,280778,1,0,0:0:0:0:
192,192,280853,1,0,0:0:0:0:
64,192,280853,1,0,0:0:0:0:
320,192,280928,1,0,0:0:0:0:
448,192,281003,1,0,0:0:0:0:
64,192,281003,1,0,0:0:0:0:
320,192,281053,1,0,0:0:0:0:
192,192,281103,1,0,0:0:0:0:
64,192,281153,1,0,0:0:0:0:
448,192,281153,1,0,0:0:0:0:
320,192,281203,1,0,0:0:0:0:
192,192,281253,1,0,0:0:0:0:
448,192,281303,1,0,0:0:0:0:
64,192,281353,1,0,0:0:0:0:
192,192,281403,1,0,0:0:0:0:
448,192,281453,1,0,0:0:0:0:
320,192,281453,1,0,0:0:0:0:
64,192,281528,1,0,0:0:0:0:
192,192,281603,1,0,0:0:0:0:
320,192,281603,1,0,0:0:0:0:
448,192,281678,1,0,0:0:0:0:
192,192,281753,1,0,0:0:0:0:
64,192,281753,1,0,0:0:0:0:
320,192,281803,1,0,0:0:0:0:
448,192,281853,1,0,0:0:0:0:
192,192,281903,1,0,0:0:0:0:
320,192,281978,1,0,0:0:0:0:
448,192,281978,1,0,0:0:0:0:
64,192,282028,1,0,0:0:0:0:
192,192,282078,1,0,0:0:0:0:
320,192,282128,1,0,0:0:0:0:
448,192,282203,1,0,0:0:0:0:
64,192,282203,1,0,0:0:0:0:
320,192,282253,1,0,0:0:0:0:
192,192,282303,1,0,0:0:0:0:
64,192,282353,1,0,0:0:0:0:
448,192,282353,1,0,0:0:0:0:
320,192,282403,1,0,0:0:0:0:
192,192,282453,1,0,0:0:0:0:
448,192,282503,1,0,0:0:0:0:
320,192,282578,1,0,0:0:0:0:
192,192,282653,1,0,0:0:0:0:
64,192,282653,1,0,0:0:0:0:
448,192,282728,1,0,0:0:0:0:
320,192,282803,1,0,0:0:0:0:
192,192,282803,1,0,0:0:0:0:
64,192,282878,1,0,0:0:0:0:
320,192,282953,1,0,0:0:0:0:
448,192,282953,1,0,0:0:0:0:
192,192,283003,1,0,0:0:0:0:
64,192,283053,1,0,0:0:0:0:
320,192,283103,1,0,0:0:0:0:
192,192,283178,1,0,0:0:0:0:
64,192,283178,1,0,0:0:0:0:
320,192,283228,1,0,0:0:0:0:
448,192,283278,1,0,0:0:0:0:
192,192,283328,1,0,0:0:0:0:
64,192,283403,1,0,0:0:0:0:
448,192,283403,1,0,0:0:0:0:
192,192,283453,1,0,0:0:0:0:
320,192,283503,1,0,0:0:0:0:
64,192,283553,1,0,0:0:0:0:
448,192,283553,1,0,0:0:0:0:
192,192,283603,1,0,0:0:0:0:
320,192,283653,1,0,0:0:0:0:
64,192,283703,1,0,0:0:0:0:
192,192,283778,1,0,0:0:0:0:
320,192,283853,1,0,0:0:0:0:
448,192,283853,1,0,0:0:0:0:
64,192,283928,1,0,0:0:0:0:
192,192,284003,1,0,0:0:0:0:
320,192,284003,1,0,0:0:0:0:
448,192,284078,1,0,0:0:0:0:
192,192,284153,1,0,0:0:0:0:
64,192,284153,1,0,0:0:0:0:
320,192,284203,1,0,0:0:0:0:
448,192,284253,1,0,0:0:0:0:
64,192,284303,1,0,0:0:0:0:
320,192,284378,1,0,0:0:0:0:
448,192,284378,1,0,0:0:0:0:
192,192,284428,1,0,0:0:0:0:
64,192,284478,1,0,0:0:0:0:
320,192,284528,1,0,0:0:0:0:
448,192,284603,1,0,0:0:0:0:
64,192,284603,1,0,0:0:0:0:
192,192,284653,1,0,0:0:0:0:
320,192,284703,1,0,0:0:0:0:
64,192,284753,1,0,0:0:0:0:
448,192,284753,1,0,0:0:0:0:
192,192,284803,1,0,0:0:0:0:
320,192,284853,1,0,0:0:0:0:
64,192,284903,1,0,0:0:0:0:
192,192,284978,1,0,0:0:0:0:
320,192,285053,1,0,0:0:0:0:
448,192,285053,1,0,0:0:0:0:
64,192,285128,1,0,0:0:0:0:
192,192,285203,1,0,0:0:0:0:
320,192,285203,1,0,0:0:0:0:
448,192,285278,1,0,0:0:0:0:
192,192,285353,1,0,0:0:0:0:
64,192,285353,1,0,0:0:0:0:
320,192,285403,1,0,0:0:0:0:
448,192,285453,1,0,0:0:0:0:
64,192,285503,1,0,0:0:0:0:
320,192,285578,1,0,0:0:0:0:
448,192,285578,1,0,0:0:0:0:
64,192,285628,1,0,0:0:0:0:
192,192,285678,1,0,0:0:0:0:
320,192,285728,1,0,0:0:0:0:
64,192,285803,1,0,0:0:0:0:
448,192,285803,1,0,0:0:0:0:
320,192,285853,1,0,0:0:0:0:
192,192,285903,1,0,0:0:0:0:
448,192,285953,1,0,0:0:0:0:
64,192,285953,1,0,0:0:0:0:
320,192,286028,1,0,0:0:0:0:
192,192,286028,1,0,0:0:0:0:
64,192,286103,1,0,0:0:0:0:
448,192,286153,1,0,0:0:0:0:
320,192,286203,1,0,0:0:0:0:
192,192,286253,1,0,0:0:0:0:
64,192,286253,1,0,0:0:0:0:
320,192,286328,1,0,0:0:0:0:
448,192,286328,1,0,0:0:0:0:
192,192,286403,1,0,0:0:0:0:
320,192,286478,1,0,0:0:0:0:
64,192,286553,1,0,0:0:0:0:
448,192,286553,1,0,0:0:0:0:
192,192,286553,1,0,0:0:0:0:
320,192,286628,1,0,0:0:0:0:
448,192,286703,1,0,0:0:0:0:
64,192,286703,1,0,0:0:0:0:
192,192,286778,1,0,0:0:0:0:
320,192,286778,1,0,0:0:0:0:
448,192,286853,1,0,0:0:0:0:
192,192,286928,1,0,0:0:0:0:
64,192,286928,1,0,0:0:0:0:
448,192,287003,1,0,0:0:0:0:
320,192,287003,1,0,0:0:0:0:
64,192,287078,1,0,0:0:0:0:
192,192,287153,1,0,0:0:0:0:
448,192,287153,1,0,0:0:0:0:
320,192,287153,1,0,0:0:0:0:
64,192,287228,1,0,0:0:0:0:
320,192,287303,1,0,0:0:0:0:
192,192,287303,1,0,0:0:0:0:
64,192,287378,1,0,0:0:0:0:
448,192,287378,1,0,0:0:0:0:
192,192,287453,1,0,0:0:0:0:
320,192,287528,1,0,0:0:0:0:
448,192,287528,1,0,0:0:0:0:
192,192,287603,1,0,0:0:0:0:
64,192,287603,1,0,0:0:0:0:
320,192,287678,1,0,0:0:0:0:
448,192,287753,1,0,0:0:0:0:
64,192,287753,1,0,0:0:0:0:
192,192,287803,1,0,0:0:0:0:
320,192,287853,1,0,0:0:0:0:
448,192,287903,1,0,0:0:0:0:
192,192,287978,1,0,0:0:0:0:
64,192,287978,1,0,0:0:0:0:
320,192,288028,1,0,0:0:0:0:
448,192,288078,1,0,0:0:0:0:
64,192,288128,1,0,0:0:0:0:
448,192,288203,1,0,0:0:0:0:
320,192,288203,1,0,0:0:0:0:
192,192,288253,1,0,0:0:0:0:
64,192,288303,1,0,0:0:0:0:
320,192,288353,1,0,0:0:0:0:
448,192,288353,1,0,0:0:0:0:
192,192,288403,1,0,0:0:0:0:
64,192,288453,1,0,0:0:0:0:
448,192,288503,1,0,0:0:0:0:
320,192,288578,1,0,0:0:0:0:
64,192,288653,1,0,0:0:0:0:
192,192,288653,1,0,0:0:0:0:
448,192,288728,1,0,0:0:0:0:
192,192,288803,1,0,0:0:0:0:
320,192,288803,1,0,0:0:0:0:
64,192,288878,1,0,0:0:0:0:
320,192,288953,1,0,0:0:0:0:
448,192,288953,1,0,0:0:0:0:
64,192,289003,1,0,0:0:0:0:
192,192,289053,1,0,0:0:0:0:
320,192,289103,1,0,0:0:0:0:
64,192,289178,1,0,0:0:0:0:
448,192,289178,1,0,0:0:0:0:
192,192,289253,1,0,0:0:0:0:
320,192,289253,1,0,0:0:0:0:
448,192,289328,1,0,0:0:0:0:
64,192,289403,1,0,0:0:0:0:
192,192,289453,1,0,0:0:0:0:
320,192,289503,1,0,0:0:0:0:
448,192,289553,1,0,0:0:0:0:
64,192,289553,1,0,0:0:0:0:
192,192,289603,1,0,0:0:0:0:
320,192,289653,1,0,0:0:0:0:
64,192,289703,1,0,0:0:0:0:
448,192,289753,1,0,0:0:0:0:
320,192,289803,1,0,0:0:0:0:
192,192,289853,1,0,0:0:0:0:
64,192,289853,1,0,0:0:0:0:
448,192,289928,1,0,0:0:0:0:
320,192,290003,1,0,0:0:0:0:
192,192,290003,1,0,0:0:0:0:
64,192,290078,1,0,0:0:0:0:
320,192,290153,1,0,0:0:0:0:
448,192,290153,1,0,0:0:0:0:
64,192,290203,1,0,0:0:0:0:
448,192,290253,1,0,0:0:0:0:
320,192,290303,1,0,0:0:0:0:
64,192,290378,1,0,0:0:0:0:
192,192,290378,1,0,0:0:0:0:
320,192,290453,1,0,0:0:0:0:
448,192,290453,1,0,0:0:0:0:
192,192,290528,1,0,0:0:0:0:
64,192,290603,1,0,0:0:0:0:
448,192,290603,1,0,0:0:0:0:
192,192,290653,1,0,0:0:0:0:
320,192,290703,1,0,0:0:0:0:
448,192,290753,1,0,0:0:0:0:
64,192,290753,1,0,0:0:0:0:
192,192,290803,1,0,0:0:0:0:
320,192,290853,1,0,0:0:0:0:
64,192,290903,1,0,0:0:0:0:
448,192,290953,1,0,0:0:0:0:
320,192,291003,1,0,0:0:0:0:
64,192,291053,1,0,0:0:0:0:
192,192,291053,1,0,0:0:0:0:
448,192,291128,1,0,0:0:0:0:
320,192,291203,1,0,0:0:0:0:
192,192,291203,1,0,0:0:0:0:
64,192,291278,1,0,0:0:0:0:
320,192,291353,1,0,0:0:0:0:
448,192,291353,1,0,0:0:0:0:
192,192,291403,1,0,0:0:0:0:
64,192,291453,1,0,0:0:0:0:
320,192,291503,1,0,0:0:0:0:
192,192,291578,1,0,0:0:0:0:
64,192,291578,1,0,0:0:0:0:
448,192,291628,1,0,0:0:0:0:
320,192,291678,1,0,0:0:0:0:
192,192,291728,1,0,0:0:0:0:
64,192,291803,1,0,0:0:0:0:
448,192,291803,1,0,0:0:0:0:
192,192,291853,1,0,0:0:0:0:
320,192,291903,1,0,0:0:0:0:
448,192,291953,1,0,0:0:0:0:
64,192,291953,1,0,0:0:0:0:
192,192,292003,1,0,0:0:0:0:
320,192,292053,1,0,0:0:0:0:
64,192,292103,1,0,0:0:0:0:
192,192,292178,1,0,0:0:0:0:
448,192,292253,1,0,0:0:0:0:
320,192,292328,1,0,0:0:0:0:
192,192,292403,1,0,0:0:0:0:
64,192,292478,1,0,0:0:0:0:
192,192,292553,1,0,0:0:0:0:
448,192,292553,1,0,0:0:0:0:
320,192,292553,1,0,0:0:0:0:
64,192,292628,1,0,0:0:0:0:
320,192,292703,1,0,0:0:0:0:
192,192,292778,1,0,0:0:0:0:
448,192,292778,1,0,0:0:0:0:
64,192,292778,1,0,0:0:0:0:
320,192,292853,1,0,0:0:0:0:
192,192,292928,1,0,0:0:0:0:
64,192,293003,1,0,0:0:0:0:
320,192,293003,1,0,0:0:0:0:
448,192,293003,1,0,0:0:0:0:
192,192,293078,1,0,0:0:0:0:
448,192,293153,1,0,0:0:0:0:
64,192,293228,1,0,0:0:0:0:
320,192,293228,1,0,0:0:0:0:
192,192,293228,1,0,0:0:0:0:
448,192,293303,1,0,0:0:0:0:
64,192,293378,1,0,0:0:0:0:
192,192,293453,1,0,0:0:0:0:
320,192,293453,1,0,0:0:0:0:
448,192,293528,1,0,0:0:0:0:
192,192,293603,1,0,0:0:0:0:
64,192,293603,1,0,0:0:0:0:
320,192,293678,1,0,0:0:0:0:
448,192,293753,1,0,0:0:0:0:
192,192,293753,1,0,0:0:0:0:
64,192,293753,1,0,0:0:0:0:
320,192,293828,1,0,0:0:0:0:
64,192,293903,1,0,0:0:0:0:
192,192,293978,1,0,0:0:0:0:
320,192,293978,1,0,0:0:0:0:
448,192,293978,1,0,0:0:0:0:
64,192,294053,1,0,0:0:0:0:
448,192,294128,1,0,0:0:0:0:
192,192,294203,1,0,0:0:0:0:
64,192,294203,1,0,0:0:0:0:
320,192,294203,1,0,0:0:0:0:
448,192,294278,1,0,0:0:0:0:
192,192,294353,1,0,0:0:0:0:
320,192,294428,1,0,0:0:0:0:
64,192,294428,1,0,0:0:0:0:
448,192,294428,1,0,0:0:0:0:
192,192,294503,1,0,0:0:0:0:
320,192,294578,1,0,0:0:0:0:
448,192,294653,1,0,0:0:0:0:
64,192,294653,1,0,0:0:0:0:
192,192,294728,1,0,0:0:0:0:
320,192,294803,1,0,0:0:0:0:
448,192,294803,1,0,0:0:0:0:
64,192,294878,1,0,0:0:0:0:
320,192,294953,1,0,0:0:0:0:
448,192,294953,1,0,0:0:0:0:
192,192,295028,1,0,0:0:0:0:
64,192,295028,1,0,0:0:0:0:
320,192,295103,1,0,0:0:0:0:
448,192,295103,1,0,0:0:0:0:
192,192,295178,1,0,0:0:0:0:
64,192,295178,1,0,0:0:0:0:
320,192,295253,1,0,0:0:0:0:
448,192,295253,1,0,0:0:0:0:
192,192,295328,1,0,0:0:0:0:
64,192,295328,1,0,0:0:0:0:
448,192,295403,1,0,0:0:0:0:
320,192,295403,1,0,0:0:0:0:
192,192,295478,1,0,0:0:0:0:
64,192,295478,1,0,0:0:0:0:
320,192,295553,1,0,0:0:0:0:
448,192,295553,1,0,0:0:0:0:
192,192,295628,1,0,0:0:0:0:
64,192,295628,1,0,0:0:0:0:
320,192,295703,1,0,0:0:0:0:
448,192,295703,1,0,0:0:0:0:
192,192,295778,1,0,0:0:0:0:
64,192,295778,1,0,0:0:0:0:
320,192,295853,1,0,0:0:0:0:
448,192,295853,1,0,0:0:0:0:
192,192,295928,1,0,0:0:0:0:
64,192,295928,1,0,0:0:0:0:
320,192,296003,1,0,0:0:0:0:
448,192,296003,1,0,0:0:0:0:
64,192,296078,1,0,0:0:0:0:
192,192,296078,1,0,0:0:0:0:
448,192,296153,128,0,296203:0:0:0:0:
192,192,296228,128,0,296278:0:0:0:0:
320,192,296303,128,0,296353:0:0:0:0:
64,192,296378,128,0,296428:0:0:0:0:
192,192,296453,128,0,296528:0:0:0:0:
320,192,296528,128,0,296603:0:0:0:0:
448,192,296603,128,0,296678:0:0:0:0:
64,192,296678,128,0,296753:0:0:0:0:
320,192,296753,128,0,296853:0:0:0:0:
192,192,296828,128,0,296928:0:0:0:0:
64,192,296903,1,0,0:0:0:0:
448,192,296903,128,0,297003:0:0:0:0:
320,192,296978,128,0,297078:0:0:0:0:
64,192,297053,128,0,297278:0:0:0:0:
192,192,297053,128,0,297203:0:0:0:0:
448,192,297128,128,0,297278:0:0:0:0:
320,192,297203,128,0,297278:0:0:0:0:
192,192,297278,128,0,297353:0:0:0:0:
64,192,297353,1,0,0:0:0:0:
320,192,297353,1,0,0:0:0:0:
448,192,297353,1,0,0:0:0:0:
