osu file format v14

[General]
AudioFilename: audio.mp3
AudioLeadIn: 0
PreviewTime: 257908
Countdown: 0
SampleSet: Soft
StackLeniency: 0.7
Mode: 2
LetterboxInBreaks: 0
WidescreenStoryboard: 1

[Editor]
DistanceSpacing: 2.6
BeatDivisor: 4
GridSize: 32
TimelineZoom: 1.9

[Metadata]
Title:Reality Distortion
TitleUnicode:Reality Distortion
Artist:Camellia vs. Akira Complex
ArtistUnicode:かめりあ vs. Akira Complex
Creator:BIG H ZONDA KIT
Version:Materiality
Source:
Tags:c91 s2tb かめるかめりあ S2TB-0019 200step track 5 track_5 recording cametek kamelcamellia dubstep drumstep Melodic Hardcore featured artist fa mappers' guild mpg mg tribute electronic instrumental marathon bighzonda bigh zonda 050 BIG_H_ZONDA_KIT midorijeon
BeatmapID:4198693
BeatmapSetID:2016764

[Difficulty]
HPDrainRate:7.2
CircleSize:5
OverallDifficulty:9.4
ApproachRate:9.4
SliderMultiplier:1.4
SliderTickRate:2

[Events]
//Background and Video events
0,0,"gianpaolo-la-paglia-bWI4Vd4vI3w-unsplash.jpg",0,0
//Break Periods
2,24208,28168
2,33658,34768
2,76908,85768
2,125158,128968
2,130708,133768
2,191508,200908
2,319108,323368
//Storyboard Layer 0 (Background)
//Storyboard Layer 1 (Fail)
//Storyboard Layer 2 (Pass)
//Storyboard Layer 3 (Foreground)
//Storyboard Layer 4 (Overlay)
//Storyboard Sound Samples

[TimingPoints]
1108,300,4,2,1,20,1,0
1108,-333.333333333333,4,2,1,20,0,0
19108,-133.333333333333,4,2,1,40,0,0
37708,-100,4,2,1,50,0,0
37858,-100,4,2,2,50,0,0
38008,-100,4,2,1,50,0,0
38158,-100,4,2,2,50,0,0
38308,-100,4,2,2,60,0,0
76708,-100,4,2,2,50,0,0
86308,-100,4,2,2,60,0,0
95608,-100,4,2,1,60,0,0
95908,-71.4285714285714,4,2,2,70,0,0
96058,-71.4285714285714,4,2,3,70,0,0
96208,-71.4285714285714,4,2,2,70,0,0
96358,-71.4285714285714,4,2,1,70,0,0
96508,-71.4285714285714,4,2,2,70,0,0
96658,-71.4285714285714,4,2,3,70,0,0
96808,-71.4285714285714,4,2,2,70,0,0
96958,-71.4285714285714,4,2,3,70,0,0
97108,-71.4285714285714,4,2,2,70,0,0
97258,-71.4285714285714,4,2,3,70,0,0
97408,-71.4285714285714,4,2,2,70,0,0
97558,-71.4285714285714,4,2,3,70,0,0
97708,-71.4285714285714,4,2,2,70,0,0
97858,-71.4285714285714,4,2,3,70,0,0
98008,-71.4285714285714,4,2,2,70,0,0
98158,-71.4285714285714,4,2,1,70,0,0
98308,-71.4285714285714,4,2,2,70,0,0
98458,-71.4285714285714,4,2,3,70,0,0
98608,-71.4285714285714,4,2,2,70,0,0
98758,-71.4285714285714,4,2,1,70,0,0
98908,-71.4285714285714,4,2,2,70,0,0
99058,-71.4285714285714,4,2,3,70,0,0
99208,-71.4285714285714,4,2,2,70,0,0
99358,-71.4285714285714,4,2,3,70,0,0
99508,-71.4285714285714,4,2,2,70,0,0
99658,-71.4285714285714,4,2,3,70,0,0
99808,-71.4285714285714,4,2,2,70,0,0
99958,-71.4285714285714,4,2,3,70,0,0
100108,-71.4285714285714,4,2,2,70,0,0
100258,-71.4285714285714,4,2,3,70,0,0
100408,-71.4285714285714,4,2,2,70,0,0
100558,-71.4285714285714,4,2,1,70,0,0
100708,-71.4285714285714,4,2,2,70,0,0
100858,-71.4285714285714,4,2,2,68,0,0
101008,-71.4285714285714,4,2,2,67,0,0
101158,-71.4285714285714,4,2,2,65,0,0
101308,-71.4285714285714,4,2,2,63,0,0
101458,-71.4285714285714,4,2,2,61,0,0
101608,-71.4285714285714,4,2,2,60,0,0
101758,-71.4285714285714,4,2,2,58,0,0
101908,-71.4285714285714,4,2,2,56,0,0
102058,-71.4285714285714,4,2,2,54,0,0
102208,-71.4285714285714,4,2,2,53,0,0
102358,-71.4285714285714,4,2,2,51,0,0
102508,-71.4285714285714,4,2,2,49,0,0
102658,-71.4285714285714,4,2,2,47,0,0
102808,-71.4285714285714,4,2,2,46,0,0
102958,-71.4285714285714,4,2,2,44,0,0
103108,-71.4285714285714,4,2,1,42,0,0
103183,-71.4285714285714,4,2,1,41,0,0
103258,-71.4285714285714,4,2,1,40,0,0
103408,-71.4285714285714,4,2,1,39,0,0
103483,-71.4285714285714,4,2,1,38,0,0
103558,-71.4285714285714,4,2,1,37,0,0
103633,-71.4285714285714,4,2,1,36,0,0
103708,-71.4285714285714,4,2,1,35,0,0
103783,-71.4285714285714,4,2,1,34,0,0
103858,-71.4285714285714,4,2,1,33,0,0
104008,-71.4285714285714,4,2,1,32,0,0
104083,-71.4285714285714,4,2,1,31,0,0
104158,-71.4285714285714,4,2,1,30,0,0
104308,-71.4285714285714,4,2,2,50,0,0
105208,-100,4,2,1,50,0,0
105508,-27.7777777777778,4,2,3,80,0,0
106108,-55.5555555555556,4,2,4,80,0,0
107458,-27.7777777777778,4,2,4,80,0,0
108508,-55.5555555555556,4,2,4,80,0,0
109708,-27.7777777777778,4,2,4,80,0,0
110308,-27.7777777777778,4,2,5,80,0,0
110908,-55.5555555555556,4,2,4,80,0,0
112408,-33.3333333333333,4,2,4,80,0,0
112708,-27.7777777777778,4,2,4,80,0,0
113308,-55.5555555555556,4,2,4,80,0,0
114508,-27.7777777777778,4,2,4,80,0,0
115108,-27.7777777777778,4,2,5,80,0,0
115708,-55.5555555555556,4,2,4,80,0,0
116908,-27.7777777777778,4,2,4,80,0,0
118033,-55.5555555555556,4,2,4,80,0,0
119308,-27.7777777777778,4,2,4,80,0,0
120508,-27.7777777777778,4,2,6,80,0,0
120583,-100,4,2,4,80,0,0
120808,-55.5555555555556,4,2,4,70,0,0
121708,-27.7777777777778,4,2,4,70,0,0
122308,-55.5555555555556,4,2,4,70,0,0
124108,-27.7777777777778,4,2,3,80,0,0
124258,-100,4,2,2,80,0,0
124408,-100,4,2,1,80,0,0
124558,-100,4,2,2,80,0,0
124708,-100,4,2,7,60,0,0
129508,-33.3333333333333,4,2,4,60,0,0
129808,-100,4,2,2,60,0,0
129958,-100,4,2,11,60,0,0
130108,-100,4,2,4,60,0,0
130408,-100,4,2,5,60,0,0
134308,-71.4285714285714,4,2,5,70,0,0
134458,-71.4285714285714,4,2,1,70,0,0
134608,-71.4285714285714,4,2,2,70,0,0
134758,-71.4285714285714,4,2,1,70,0,0
134908,-71.4285714285714,4,2,2,70,0,0
135058,-71.4285714285714,4,2,1,70,0,0
135208,-71.4285714285714,4,2,2,70,0,0
135358,-71.4285714285714,4,2,1,70,0,0
135508,-71.4285714285714,4,2,5,70,0,0
135658,-71.4285714285714,4,2,1,70,0,0
135808,-71.4285714285714,4,2,2,70,0,0
135958,-71.4285714285714,4,2,1,70,0,0
136108,-71.4285714285714,4,2,6,70,0,0
136558,-71.4285714285714,4,2,1,70,0,0
136708,-71.4285714285714,4,2,5,70,0,0
136858,-71.4285714285714,4,2,1,70,0,0
137008,-71.4285714285714,4,2,2,70,0,0
137158,-71.4285714285714,4,2,1,70,0,0
137308,-71.4285714285714,4,2,2,70,0,0
137458,-71.4285714285714,4,2,1,70,0,0
137608,-71.4285714285714,4,2,2,70,0,0
137758,-71.4285714285714,4,2,1,70,0,0
137908,-71.4285714285714,4,2,5,70,0,0
138058,-71.4285714285714,4,2,1,70,0,0
138208,-71.4285714285714,4,2,2,70,0,0
138358,-71.4285714285714,4,2,1,70,0,0
138508,-71.4285714285714,4,2,2,70,0,0
138658,-71.4285714285714,4,2,1,70,0,0
138808,-71.4285714285714,4,2,2,70,0,0
138958,-71.4285714285714,4,2,1,70,0,0
139108,-71.4285714285714,4,2,5,70,0,0
139258,-71.4285714285714,4,2,5,68,0,0
139408,-71.4285714285714,4,2,5,67,0,0
139558,-71.4285714285714,4,2,5,65,0,0
139708,-71.4285714285714,4,2,5,63,0,0
139858,-71.4285714285714,4,2,5,61,0,0
140008,-71.4285714285714,4,2,5,60,0,0
140158,-71.4285714285714,4,2,5,58,0,0
140308,-71.4285714285714,4,2,5,56,0,0
140458,-71.4285714285714,4,2,5,54,0,0
140608,-71.4285714285714,4,2,5,53,0,0
140758,-71.4285714285714,4,2,5,51,0,0
140908,-71.4285714285714,4,2,5,49,0,0
141058,-71.4285714285714,4,2,5,47,0,0
141208,-71.4285714285714,4,2,5,46,0,0
141358,-71.4285714285714,4,2,5,44,0,0
141508,-71.4285714285714,4,2,4,42,0,0
141583,-71.4285714285714,4,2,4,41,0,0
141658,-71.4285714285714,4,2,4,40,0,0
141808,-71.4285714285714,4,2,4,39,0,0
141883,-71.4285714285714,4,2,4,38,0,0
141958,-71.4285714285714,4,2,4,37,0,0
142033,-71.4285714285714,4,2,4,36,0,0
142108,-71.4285714285714,4,2,4,35,0,0
142183,-71.4285714285714,4,2,4,34,0,0
142258,-71.4285714285714,4,2,4,33,0,0
142408,-71.4285714285714,4,2,4,32,0,0
142483,-71.4285714285714,4,2,4,31,0,0
142558,-71.4285714285714,4,2,4,30,0,0
142708,-71.4285714285714,4,2,4,60,0,0
142858,-71.4285714285714,4,2,3,60,0,0
143158,-71.4285714285714,4,2,2,60,0,0
143458,-71.4285714285714,4,2,4,60,0,0
143608,-50,4,2,4,80,0,0
143908,-27.7777777777778,4,2,3,80,0,0
144508,-55.5555555555556,4,2,4,80,0,0
146008,-27.7777777777778,4,2,4,80,0,0
146608,-45.045045045045,4,2,4,80,0,0
146908,-55.5555555555556,4,2,4,80,0,0
148408,-33.3333333333333,4,2,4,80,0,0
148708,-27.7777777777778,4,2,5,80,0,0
149008,-100,4,2,4,80,0,0
149308,-55.5555555555556,4,2,4,80,0,0
150808,-20.8333333333333,4,2,4,80,0,0
151108,-55.5555555555556,4,2,4,80,0,0
151408,-33.3333333333333,4,2,4,80,0,0
151708,-55.5555555555556,4,2,4,80,0,0
152908,-27.7777777777778,4,2,4,80,0,0
153508,-27.7777777777778,4,2,5,80,0,0
153808,-100,4,2,4,80,0,0
154108,-55.5555555555556,4,2,4,80,0,0
155608,-27.7777777777778,4,2,4,80,0,0
155908,-55.5555555555556,4,2,4,80,0,0
156208,-33.3333333333333,4,2,4,80,0,0
156508,-55.5555555555556,4,2,4,80,0,0
158008,-33.3333333333333,4,2,4,80,0,0
158308,-27.7777777777778,4,2,5,80,0,0
158608,-55.5555555555556,4,2,4,80,0,0
161908,-33.3333333333333,4,2,4,80,0,0
163108,-27.7777777777778,4,2,3,80,0,0
163408,-55.5555555555556,4,2,4,80,0,0
164908,-33.3333333333333,4,2,4,80,0,0
165508,-55.5555555555556,4,2,4,80,0,0
167608,-27.7777777777778,4,2,4,80,0,0
167908,-27.7777777777778,4,2,5,80,0,0
168208,-55.5555555555556,4,2,4,80,0,0
169708,-33.3333333333333,4,2,4,80,0,0
170158,-55.5555555555556,4,2,4,80,0,0
171508,-33.3333333333333,4,2,4,80,0,0
173008,-27.7777777777778,4,2,6,80,0,0
173308,-55.5555555555556,4,2,4,80,0,0
174508,-33.3333333333333,4,2,4,80,0,0
174808,-55.5555555555556,4,2,4,80,0,0
176608,-45.045045045045,4,2,4,80,0,0
177208,-33.3333333333333,4,2,4,80,0,0
177508,-27.7777777777778,4,2,8,80,0,0
177733,-55.5555555555556,4,2,4,80,0,0
178708,-27.7777777777778,4,2,8,80,0,0
178933,-55.5555555555556,4,2,4,80,0,0
179908,-27.7777777777778,4,2,8,80,0,0
180133,-55.5555555555556,4,2,4,80,0,0
181108,-27.7777777777778,4,2,4,65,0,0
182308,-100,4,2,3,65,0,0
182758,-100,4,2,2,30,0,0
220708,-100,4,2,2,40,0,0
239308,-100,4,2,4,50,0,0
239383,-100,4,2,1,50,0,0
239458,-100,4,2,5,50,0,0
239533,-100,4,2,1,50,0,0
239608,-100,4,2,4,50,0,0
239683,-100,4,2,1,50,0,0
239758,-100,4,2,5,50,0,0
239833,-100,4,2,1,50,0,0
239908,-71.4285714285714,4,2,3,60,0,0
240133,-71.4285714285714,4,2,2,60,0,0
249208,-71.4285714285714,4,2,1,60,0,0
249508,-71.4285714285714,4,2,2,70,0,0
249658,-71.4285714285714,4,2,1,70,0,0
249808,-71.4285714285714,4,2,2,70,0,0
249958,-71.4285714285714,4,2,3,70,0,0
250108,-71.4285714285714,4,2,2,70,0,0
250258,-71.4285714285714,4,2,1,70,0,0
250408,-71.4285714285714,4,2,2,70,0,0
250558,-71.4285714285714,4,2,3,70,0,0
250633,-71.4285714285714,4,2,2,70,0,0
250858,-71.4285714285714,4,2,1,70,0,0
251008,-71.4285714285714,4,2,2,70,0,0
251158,-71.4285714285714,4,2,3,70,0,0
251308,-71.4285714285714,4,2,2,70,0,0
251458,-71.4285714285714,4,2,1,70,0,0
251608,-71.4285714285714,4,2,2,70,0,0
251758,-71.4285714285714,4,2,3,70,0,0
251833,-71.4285714285714,4,2,2,70,0,0
252058,-71.4285714285714,4,2,1,70,0,0
252208,-71.4285714285714,4,2,2,70,0,0
252358,-71.4285714285714,4,2,3,70,0,0
252508,-71.4285714285714,4,2,2,70,0,0
252658,-71.4285714285714,4,2,1,70,0,0
252808,-71.4285714285714,4,2,2,70,0,0
252958,-71.4285714285714,4,2,3,70,0,0
253033,-71.4285714285714,4,2,2,70,0,0
253258,-71.4285714285714,4,2,1,70,0,0
253408,-71.4285714285714,4,2,2,70,0,0
253558,-71.4285714285714,4,2,3,70,0,0
253708,-71.4285714285714,4,2,2,70,0,0
253858,-71.4285714285714,4,2,1,70,0,0
254008,-71.4285714285714,4,2,2,70,0,0
254158,-71.4285714285714,4,2,3,70,0,0
254233,-71.4285714285714,4,2,2,70,0,0
256708,-71.4285714285714,4,2,1,70,0,0
256783,-71.4285714285714,4,2,1,67,0,0
256858,-71.4285714285714,4,2,1,64,0,0
256933,-71.4285714285714,4,2,1,61,0,0
257008,-71.4285714285714,4,2,1,59,0,0
257083,-71.4285714285714,4,2,1,56,0,0
257158,-71.4285714285714,4,2,1,53,0,0
257233,-71.4285714285714,4,2,1,50,0,0
257308,-71.4285714285714,4,2,1,47,0,0
257383,-71.4285714285714,4,2,1,44,0,0
257458,-71.4285714285714,4,2,1,41,0,0
257533,-71.4285714285714,4,2,1,39,0,0
257608,-71.4285714285714,4,2,1,36,0,0
257683,-71.4285714285714,4,2,1,33,0,0
257758,-71.4285714285714,4,2,1,30,0,0
257908,-71.4285714285714,4,2,1,50,0,0
258808,-71.4285714285714,4,2,4,50,0,0
259108,-50,4,2,7,80,0,1
259258,-50,4,2,6,80,0,1
259333,-50,4,2,4,80,0,1
259558,-50,4,2,7,80,0,1
259783,-50,4,2,4,80,0,1
259858,-50,4,2,6,80,0,1
260008,-50,4,2,4,80,0,1
260158,-50,4,2,7,80,0,1
260233,-50,4,2,4,80,0,1
260458,-50,4,2,6,80,0,1
260533,-50,4,2,4,80,0,1
260758,-50,4,2,7,80,0,1
260983,-50,4,2,4,80,0,1
261058,-50,4,2,6,80,0,1
261208,-50,4,2,4,80,0,1
261358,-50,4,2,7,80,0,1
261433,-50,4,2,4,80,0,1
261508,-33.3333333333333,4,2,4,80,0,1
261658,-50,4,2,6,80,0,1
261733,-50,4,2,4,80,0,1
261958,-50,4,2,7,80,0,1
262183,-50,4,2,4,80,0,1
262258,-50,4,2,6,80,0,1
262408,-50,4,2,4,80,0,1
262558,-50,4,2,7,80,0,1
262633,-50,4,2,4,80,0,1
262708,-33.3333333333333,4,2,4,80,0,1
262858,-50,4,2,6,80,0,1
262933,-50,4,2,4,80,0,1
263158,-50,4,2,7,80,0,1
263383,-50,4,2,4,80,0,1
263458,-50,4,2,6,80,0,1
263608,-50,4,2,4,80,0,1
263758,-50,4,2,7,80,0,1
263833,-50,4,2,4,80,0,1
264058,-50,4,2,6,80,0,1
264133,-50,4,2,4,80,0,1
264358,-50,4,2,7,80,0,1
264583,-50,4,2,4,80,0,1
264658,-50,4,2,6,80,0,1
264808,-50,4,2,4,80,0,1
264958,-50,4,2,7,80,0,1
265033,-50,4,2,4,80,0,1
265258,-50,4,2,6,80,0,1
265333,-50,4,2,4,80,0,1
265558,-50,4,2,7,80,0,1
265783,-50,4,2,4,80,0,1
265858,-50,4,2,6,80,0,1
266008,-50,4,2,4,80,0,1
266158,-50,4,2,7,80,0,1
266233,-50,4,2,4,80,0,1
266458,-50,4,2,6,80,0,1
266533,-50,4,2,4,80,0,1
266608,-50,4,2,66,80,0,1
266683,-50,4,2,4,80,0,1
266758,-50,4,2,7,80,0,1
266983,-50,4,2,4,80,0,1
267058,-50,4,2,6,80,0,1
267208,-50,4,2,4,80,0,1
267358,-50,4,2,7,80,0,1
267433,-50,4,2,5,80,0,1
267508,-30.03003003003,4,2,5,80,0,1
268708,-50,4,2,8,80,0,1
268858,-50,4,2,6,80,0,1
268933,-50,4,2,4,80,0,1
269158,-50,4,2,7,80,0,1
269383,-50,4,2,4,80,0,1
269458,-50,4,2,6,80,0,1
269608,-50,4,2,4,80,0,1
269758,-50,4,2,7,80,0,1
269833,-50,4,2,4,80,0,1
270058,-50,4,2,6,80,0,1
270133,-50,4,2,4,80,0,1
270358,-50,4,2,7,80,0,1
270583,-50,4,2,4,80,0,1
270658,-50,4,2,6,80,0,1
270808,-50,4,2,4,80,0,1
270958,-50,4,2,7,80,0,1
271033,-50,4,2,4,80,0,1
271108,-33.3333333333333,4,2,4,80,0,1
271258,-50,4,2,6,80,0,1
271333,-50,4,2,4,80,0,1
271408,-50,4,2,4,80,0,1
271558,-50,4,2,7,80,0,1
271783,-50,4,2,4,80,0,1
271858,-50,4,2,6,80,0,1
272008,-50,4,2,4,80,0,1
272158,-50,4,2,7,80,0,1
272233,-50,4,2,4,80,0,1
272458,-50,4,2,6,80,0,1
272533,-50,4,2,4,80,0,1
272758,-50,4,2,7,80,0,1
272983,-50,4,2,4,80,0,1
273058,-50,4,2,6,80,0,1
273208,-50,4,2,4,80,0,1
273358,-50,4,2,7,80,0,1
273433,-50,4,2,4,80,0,1
273508,-33.3333333333333,4,2,9,80,0,1
273658,-33.3333333333333,4,2,6,80,0,1
273958,-33.3333333333333,4,2,7,80,0,1
274108,-33.3333333333333,4,2,4,80,0,1
274258,-33.3333333333333,4,2,6,80,0,1
274708,-33.3333333333333,4,2,9,80,0,1
274858,-33.3333333333333,4,2,6,80,0,1
275158,-33.3333333333333,4,2,7,80,0,1
275308,-33.3333333333333,4,2,4,80,0,1
275458,-33.3333333333333,4,2,6,80,0,1
275758,-33.3333333333333,4,2,7,80,0,1
275908,-50,4,2,8,80,0,1
276058,-50,4,2,6,80,0,1
276133,-50,4,2,5,80,0,1
276358,-50,4,2,7,80,0,1
276508,-50,4,2,5,80,0,1
276658,-50,4,2,6,80,0,1
276733,-50,4,2,5,80,0,1
276958,-50,4,2,7,80,0,1
277108,-50,4,2,5,80,0,1
277258,-50,4,2,6,80,0,1
277333,-50,4,2,5,80,0,1
277558,-50,4,2,7,80,0,1
277708,-50,4,2,3,80,0,1
277783,-50,4,2,4,80,0,1
277858,-50,4,2,2,80,0,1
277933,-50,4,2,4,80,0,1
278008,-50,4,2,3,80,0,1
278083,-50,4,2,4,80,0,1
278158,-50,4,2,2,80,0,1
278233,-50,4,2,4,80,0,1
278308,-33.3333333333333,4,2,4,80,0,0
278608,-50,4,2,2,80,0,1
278758,-50,4,2,7,80,0,1
278983,-50,4,2,4,80,0,1
279058,-50,4,2,6,80,0,1
279208,-50,4,2,4,80,0,1
279358,-50,4,2,7,80,0,1
279433,-50,4,2,4,80,0,1
279658,-50,4,2,6,80,0,1
279733,-50,4,2,4,80,0,1
279958,-50,4,2,7,80,0,1
280183,-50,4,2,4,80,0,1
280258,-50,4,2,6,80,0,1
280408,-50,4,2,4,80,0,1
280558,-50,4,2,7,80,0,1
280633,-50,4,2,4,80,0,1
280708,-33.3333333333333,4,2,4,80,0,1
280858,-50,4,2,6,80,0,1
280933,-50,4,2,4,80,0,1
281158,-50,4,2,7,80,0,1
281383,-50,4,2,4,80,0,1
281458,-50,4,2,6,80,0,1
281608,-50,4,2,4,80,0,1
281758,-50,4,2,7,80,0,1
281833,-50,4,2,4,80,0,1
281908,-33.3333333333333,4,2,4,80,0,1
282058,-50,4,2,6,80,0,1
282133,-50,4,2,4,80,0,1
282358,-50,4,2,7,80,0,1
282583,-50,4,2,4,80,0,1
282658,-50,4,2,6,80,0,1
282808,-50,4,2,4,80,0,1
282958,-50,4,2,7,80,0,1
283033,-50,4,2,4,80,0,1
283258,-50,4,2,6,80,0,1
283333,-50,4,2,4,80,0,1
283558,-50,4,2,7,80,0,1
283783,-50,4,2,4,80,0,1
283858,-50,4,2,6,80,0,1
284008,-50,4,2,4,80,0,1
284158,-50,4,2,7,80,0,1
284233,-50,4,2,4,80,0,1
284458,-50,4,2,6,80,0,1
284533,-50,4,2,4,80,0,1
284758,-50,4,2,7,80,0,1
284983,-50,4,2,4,80,0,1
285058,-50,4,2,6,80,0,1
285208,-50,4,2,4,80,0,1
285358,-50,4,2,7,80,0,1
285433,-50,4,2,4,80,0,1
285658,-50,4,2,6,80,0,1
285733,-50,4,2,4,80,0,1
285808,-50,4,2,66,80,0,1
285883,-50,4,2,4,80,0,1
285958,-50,4,2,7,80,0,1
286183,-50,4,2,4,80,0,1
286258,-50,4,2,6,80,0,1
286408,-50,4,2,4,80,0,1
286558,-50,4,2,7,80,0,1
286633,-50,4,2,5,80,0,1
286708,-30.03003003003,4,2,5,80,0,1
287908,-50,4,2,9,80,0,1
288058,-50,4,2,6,80,0,1
288133,-50,4,2,4,80,0,1
288358,-50,4,2,7,80,0,1
288508,-50,4,2,4,80,0,1
288658,-50,4,2,6,80,0,1
288808,-50,4,2,4,80,0,1
288958,-50,4,2,7,80,0,1
289033,-50,4,2,4,80,0,1
289258,-50,4,2,6,80,0,1
289333,-50,4,2,4,80,0,1
289558,-50,4,2,7,80,0,1
289708,-50,4,2,4,80,0,1
289858,-50,4,2,6,80,0,1
290008,-50,4,2,4,80,0,1
290158,-50,4,2,7,80,0,1
290233,-50,4,2,4,80,0,1
290458,-50,4,2,6,80,0,1
290533,-50,4,2,4,80,0,1
290758,-50,4,2,7,80,0,1
290908,-50,4,2,4,80,0,1
291058,-50,4,2,6,80,0,1
291208,-50,4,2,4,80,0,1
291358,-50,4,2,7,80,0,1
291433,-50,4,2,4,80,0,1
291658,-50,4,2,6,80,0,1
291733,-50,4,2,4,80,0,1
291958,-50,4,2,7,80,0,1
292108,-50,4,2,4,80,0,1
292708,-33.3333333333333,4,2,8,80,0,1
293608,-28.5714285714286,4,2,8,80,0,1
293758,-33.3333333333333,4,2,8,80,0,1
295108,-50,4,2,8,80,0,1
295183,-50,4,2,8,77,0,1
295258,-50,4,2,8,74,0,1
295333,-50,4,2,8,71,0,1
295408,-50,4,2,8,69,0,1
295483,-50,4,2,8,66,0,1
295558,-50,4,2,8,63,0,1
295633,-50,4,2,8,60,0,1
295708,-50,4,2,8,57,0,1
295783,-50,4,2,8,54,0,1
295858,-50,4,2,8,51,0,1
295933,-50,4,2,8,49,0,1
296008,-50,4,2,8,46,0,1
296083,-50,4,2,8,43,0,1
296158,-50,4,2,8,40,0,1
296308,-50,4,2,4,35,0,1
296383,-50,4,2,4,39,0,1
296458,-50,4,2,4,42,0,1
296533,-50,4,2,4,46,0,1
296608,-50,4,2,4,49,0,1
296683,-50,4,2,4,53,0,1
296758,-50,4,2,4,56,0,1
296833,-50,4,2,4,60,0,1
296908,-50,4,2,4,63,0,1
296983,-50,4,2,4,67,0,1
297058,-50,4,2,4,70,0,1
297508,-100,4,2,10,50,0,0
297958,-100,4,2,1,50,0,0
314308,-200,4,2,1,70,0,0
328708,-200,4,2,1,40,0,0
329908,-200,4,2,1,35,0,0
331108,-200,4,2,1,30,0,0
332308,-200,4,2,1,25,0,0
333508,-200,4,2,1,20,0,0
334708,-200,4,2,1,15,0,0
335908,-200,4,2,1,10,0,0
337108,-200,4,2,1,5,0,0

[Colours]
Combo1 : 168,189,196
Combo2 : 237,186,135
Combo3 : 239,218,199
Combo4 : 183,193,170

[HitObjects]
260,100,1108,6,0,B|274:122|297:126|297:126|235:134|235:134|317:139|317:139|216:151|216:151|336:156|336:156|193:168|193:168|259:177|361:178|361:178|258:191|169:183|169:183|257:206|381:204|381:204|255:228|142:202|142:202|254:246|398:222|398:222|254:273|124:227,1,1910.99994168091
256,192,15058,12,0,18958,0:0:0:0:
58,228,19108,6,0,B|109:251|185:250|279:195|319:104|313:55|258:34|109:34|84:74|105:120|152:150|152:150|170:160|200:168|247:165|293:162|333:174|367:205|390:242|388:304|388:304|384:254|349:217|295:149|213:220|213:220|197:152|240:60|329:23|454:160|469:277,1,1522.50005807877,6|0,1:2|0:0,0:0:0:0:
226,25,28708,6,0,B|198:49|174:97|202:153|245:168|305:163|321:155|321:155|304:127|265:122|224:136|186:161|181:188|181:233|208:259|246:286|234:322|188:354|134:366|93:360|47:340|23:320|-3:243|19:191|63:180|111:201|120:243|125:259|125:259|120:243|111:201|63:180|19:191|-3:243|23:320|47:340|93:360|134:366|188:354|234:322|246:286|208:259|181:233|181:188|186:161|224:136|265:122|304:127|321:155|321:155|305:163|245:168|202:153|174:97|198:49|226:25,1,1627.5000620842,6|0,1:2|0:0,0:0:0:0:
256,192,35308,12,0,37558,0:0:0:0:
102,108,37708,5,8,2:3:0:0:
238,135,37858,1,8,2:3:0:0:
329,95,38008,1,4,2:3:0:0:
238,135,38158,1,4,2:3:0:0:
447,302,38308,6,0,P|476:219|38:305,1,980,6|0,1:1|0:0,0:0:0:0:
313,191,40708,6,0,B|314:113|267:44|121:34|81:133|99:232|153:293|270:309|361:281|402:240|384:184|365:127,1,630,2|0,2:2|0:0,0:0:0:0:
224,69,42358,2,0,P|270:46|444:87,1,210,2|0,2:2|0:0,0:0:0:0:
173,178,43108,6,0,B|129:178|86:186|40:222|9:290|9:290|27:252|54:225|84:211|141:199|185:227|213:254|219:285|216:341|201:372|201:372|201:372|224:343|254:312|300:294|350:288|376:314|409:341|423:393|423:393|409:341|376:314|350:288|300:294|254:312|224:343|201:372,1,1120,2|2,2:2|2:2,0:0:0:0:
473,167,46708,2,0,B|432:136|385:125|314:133|314:133|375:160|439:194|450:276|428:331|382:341,1,420,2|0,2:2|0:0,0:0:0:0:
9,52,47908,6,0,B|54:24|110:24|234:42|311:80|331:163|311:247|224:266|224:266|183:227|184:161|212:95|278:40|344:28|388:41|388:41|344:17|301:19|256:38|234:72,1,980,2|0,2:2|0:0,0:0:0:0:
478,293,50308,6,0,B|492:230|497:177|493:140|485:92|474:43|457:7|457:7|320:118|320:118|372:143|430:136,1,560,2|0,2:2|0:0,0:0:0:0:
204,113,51958,2,0,L|56:173,1,140,2|2,2:2|2:2,0:0:0:0:
339,271,52708,6,0,P|276:162|77:300,1,420,2|0,2:2|0:0,0:0:0:0:
339,271,53908,2,0,P|276:162|115:179,2,280,2|2|2,2:2|2:2|2:2,0:0:0:0:
256,192,55258,12,0,57358,0:0:0:0:
381,65,57508,6,0,L|402:211,1,140,6|0,1:2|0:0,0:0:0:0:
258,294,57958,2,0,B|182:275|137:182|234:88|315:98|339:139|339:139|277:180|163:131,1,490,2|0,2:2|0:0,0:0:0:0:
38,49,59158,2,0,P|167:250|181:249,1,280,2|0,2:2|0:0,0:0:0:0:
313,333,59908,6,0,P|322:262|262:222,1,140,2|0,2:2|0:0,0:0:0:0:
137,195,60358,2,0,P|84:163|259:151,1,560,2|2,2:2|2:2,0:0:0:0:
137,195,61858,2,0,P|108:216|50:221,1,70,2|0,2:2|0:0,0:0:0:0:
428,322,62308,6,0,B|456:263|454:212|416:133|286:97|236:112|236:112|328:162|425:164|516:140|536:123|536:123|481:105|378:121|325:171|302:227|304:299|337:323|337:323|380:285|380:285|380:240|380:240,1,1120,2|2,2:2|2:2,0:0:0:0:
151,108,65908,2,0,B|108:125|108:169|108:169|137:151|179:145|249:174|253:219|243:257|216:277|167:298|167:298|179:245|130:220,1,420,2|0,2:2|0:0,0:0:0:0:
413,309,67108,6,0,P|424:235|427:151,1,140,2|0,2:2|0:0,0:0:0:0:
284,134,67558,2,0,B|200:116|200:116|236:88|337:81|391:104|391:104|351:125|262:190|299:295,1,490,2|0,2:2|0:0,0:0:0:0:
151,292,68758,2,0,P|105:217|193:279,1,280,2|0,2:2|0:0,0:0:0:0:
57,316,69508,6,0,L|40:157,1,140,2|0,2:2|0:0,0:0:0:0:
198,131,69958,2,0,P|252:122|185:139,1,560,2|2,2:2|2:2,0:0:0:0:
328,93,71458,2,0,L|403:89,1,70,2|0,2:2|0:0,0:0:0:0:
48,94,71908,6,0,B|35:156|48:210|82:251|87:253|109:231|122:203|132:163|159:140|191:143|230:169|266:200|342:219|389:216|417:186|426:102,2,560,2|2|2,2:2|2:2|2:2,0:0:0:0:
256,192,74458,12,6,76708,1:2:0:0:
69,299,86308,6,0,L|56:138,1,140,0|0,1:1|0:0,0:0:0:0:
129,146,86758,1,2,2:2:0:0:
201,137,86908,2,0,L|215:58,1,70,0|0,1:1|0:0,0:0:0:0:
355,59,87358,1,0,0:0:0:0:
210,289,87508,6,0,L|204:217,1,70,0|0,1:1|0:0,0:0:0:0:
274,201,87808,2,0,L|280:129,1,70,0|0,0:0|0:0,0:0:0:0:
206,138,88108,1,2,1:2:0:0:
279,131,88258,2,0,L|285:59,1,70,0|0,0:0|0:0,0:0:0:0:
360,51,88558,1,0,0:0:0:0:
146,291,88708,6,0,L|133:130,1,140,2|0,1:2|0:0,0:0:0:0:
206,138,89158,1,2,2:2:0:0:
278,129,89308,2,0,L|292:50,1,70,0|0,1:1|0:0,0:0:0:0:
432,51,89758,1,0,0:0:0:0:
287,281,89908,6,0,L|281:209,1,70,0|0,1:1|0:0,0:0:0:0:
351,193,90208,2,0,L|357:121,1,70,0|2,0:0|2:2,0:0:0:0:
283,130,90508,1,0,1:1:0:0:
356,123,90658,2,0,L|362:51,1,70,2|0,2:2|0:0,0:0:0:0:
437,43,90958,1,0,0:0:0:0:
225,67,91108,6,0,P|228:206|233:67,1,420,2|0,1:2|0:0,0:0:0:0:
6,70,92308,1,2,1:2:0:0:
407,82,92908,1,2,1:2:0:0:
8,237,93508,6,0,P|180:288|444:34,1,560,2|2,1:2|1:2,0:0:0:0:
232,183,95308,2,0,L|192:166,1,35,2|2,1:2|2:2,0:0:0:0:
293,121,95458,2,0,L|333:104,1,35,2|2,1:2|1:2,0:0:0:0:
135,84,95608,1,10,2:2:0:0:
294,37,95833,1,0,0:0:0:0:
147,25,95908,6,0,L|27:32,1,97.9999970092774,14|2,1:2|2:2,0:0:0:0:
206,115,96208,2,0,L|86:122,1,97.9999970092774,10|2,1:2|2:3,0:0:0:0:
265,205,96508,2,0,L|145:212,1,97.9999970092774,10|2,1:2|2:2,0:0:0:0:
325,296,96808,2,0,L|205:303,1,97.9999970092774,8|2,1:2|2:2,0:0:0:0:
385,345,97108,6,0,L|398:232,1,97.9999970092774,8|2,1:2|2:2,0:0:0:0:
296,218,97408,2,0,L|309:105,1,97.9999970092774,8|2,1:2|2:2,0:0:0:0:
213,100,97708,2,0,L|226:-13,1,97.9999970092774,8|2,1:2|2:2,0:0:0:0:
125,201,98008,2,0,L|138:88,1,97.9999970092774,10|2,1:2|2:3,0:0:0:0:
293,50,98308,6,0,L|162:39,1,97.9999970092774,10|2,1:2|2:2,0:0:0:0:
28,130,98608,2,0,L|159:119,1,97.9999970092774,10|2,1:2|2:3,0:0:0:0:
293,204,98908,2,0,L|162:193,1,97.9999970092774,10|2,1:2|2:2,0:0:0:0:
28,284,99208,2,0,L|159:273,1,97.9999970092774,8|2,1:2|2:2,0:0:0:0:
283,307,99508,6,0,L|266:197,1,97.9999970092774,8|2,1:2|2:2,0:0:0:0:
169,248,99808,2,0,L|152:138,1,97.9999970092774,8|2,1:2|2:2,0:0:0:0:
55,197,100108,2,0,L|72:87,1,97.9999970092774,8|2,1:2|2:2,0:0:0:0:
169,113,100408,2,0,L|186:3,1,97.9999970092774,10|2,1:2|2:3,0:0:0:0:
15,176,100708,5,10,1:2:0:0:
152,242,100858,1,10,1:2:0:0:
289,306,101008,1,10,1:2:0:0:
151,358,101158,1,8,1:2:0:0:
382,24,101308,5,10,1:2:0:0:
245,90,101458,1,10,1:2:0:0:
108,154,101608,1,8,1:2:0:0:
246,206,101758,1,10,1:2:0:0:
473,361,101908,5,8,1:2:0:0:
324,270,102058,1,10,1:2:0:0:
466,296,102208,1,8,1:2:0:0:
329,206,102358,1,10,1:2:0:0:
461,229,102508,1,8,1:2:0:0:
334,144,102658,1,10,1:2:0:0:
457,163,102808,1,10,1:2:0:0:
339,82,102958,1,8,1:2:0:0:
74,327,103108,5,2,3:2:0:0:
129,347,103183,1,0,3:3:0:0:
189,349,103258,1,2,3:2:0:0:
245,327,103333,1,0,3:3:0:0:
291,287,103408,1,2,3:2:0:0:
318,234,103483,1,0,3:3:0:0:
324,174,103558,1,2,3:2:0:0:
309,116,103633,1,0,3:3:0:0:
273,68,103708,1,2,3:2:0:0:
223,34,103783,1,0,3:3:0:0:
165,22,103858,1,2,3:2:0:0:
104,31,103933,1,0,3:3:0:0:
37,80,104008,1,2,3:2:0:0:
122,100,104083,1,0,3:3:0:0:
207,120,104158,1,2,3:2:0:0:
292,139,104233,1,0,3:3:0:0:
416,306,104308,6,0,B|439:147|392:137|419:0,2,293.999991027832,2|2|2,1:2|2:2|3:2,0:0:0:0:
366,304,105283,1,0,3:3:0:0:
416,306,105358,1,0,3:3:0:0:
366,304,105433,1,0,3:3:0:0:
187,266,105508,6,0,B|440:254|440:254|497:138|487:4,2,503.999984619141,6|0|10,1:1|0:0|2:2,0:0:0:0:
99,266,106183,1,2,2:2:0:0:
187,266,106258,2,0,L|237:195,2,62.9999980773926,2|2|2,2:2|2:2|2:2,0:0:0:0:
35,130,106558,2,0,L|115:123,1,62.9999980773926,2|2,2:2|2:2,0:0:0:0:
254,112,106708,6,0,L|204:41,2,62.9999980773926,2|2|2,1:2|2:2|2:2,0:0:0:0:
398,130,107008,2,0,L|318:123,1,62.9999980773926,2|2,2:2|2:2,0:0:0:0:
185,162,107158,2,0,L|105:155,1,62.9999980773926,2|2,2:2|2:2,0:0:0:0:
288,46,107308,1,10,2:2:0:0:
88,71,107458,6,0,B|150:315|150:315|382:220|382:220|413:120|413:120|321:148,1,629.999980773926,2|0,2:1|0:0,0:0:0:0:
135,170,107908,6,0,B|253:153|524:219|418:194|249:177|142:111|142:111|127:41|66:139|94:285|94:285|88:296|88:296|94:285|94:285|217:302|217:302|348:285,1,1007.99996923828,2|10,1:1|2:2,0:0:0:0:
365,238,108583,1,2,2:2:0:0:
283,248,108658,1,2,2:2:0:0:
201,261,108733,1,2,2:2:0:0:
163,305,108808,1,2,2:2:0:0:
315,328,108958,2,0,L|234:333,1,62.9999980773926,2|2,2:2|2:2,0:0:0:0:
97,222,109108,5,2,1:2:0:0:
178,207,109183,1,2,2:2:0:0:
213,164,109258,1,2,2:2:0:0:
364,80,109408,2,0,L|277:75,1,62.9999980773926,2|2,2:2|2:2,0:0:0:0:
152,45,109558,2,0,L|239:40,1,62.9999980773926,2|2,2:2|2:2,0:0:0:0:
359,147,109708,6,0,B|324:203|245:218|216:265|196:337|206:339|206:339|332:348|453:299|453:299|332:303|332:303|210:270|210:270|172:132,1,881.999973083497,10|0,2:2|0:0,0:0:0:0:
358,38,110308,6,0,B|96:50|96:50|62:313,2,503.999984619141,6|0|10,1:1|0:0|2:2,0:0:0:0:
393,78,110983,1,2,2:2:0:0:
245,157,111058,1,2,2:2:0:0:
184,159,111133,1,2,2:2:0:0:
324,246,111208,1,2,2:2:0:0:
4,118,111358,2,0,L|89:112,1,62.9999980773926,2|2,2:2|2:2,0:0:0:0:
214,107,111508,6,0,L|232:179,1,62.9999980773926,2|2,1:2|2:2,0:0:0:0:
371,170,111658,1,2,2:2:0:0:
512,236,111808,2,0,L|427:230,1,62.9999980773926,2|2,2:2|2:2,0:0:0:0:
305,323,111958,2,0,L|298:254,1,62.9999980773926,2|2,2:2|2:2,0:0:0:0:
151,249,112108,5,10,2:2:0:0:
285,204,112258,1,2,2:1:0:0:
70,148,112408,2,0,L|330:122,1,210.000008010865,2|2,2:1|2:1,0:0:0:0:
20,239,112708,6,0,B|273:218|273:218|317:133|317:133|377:275|377:275|3:309|3:309|36:166,1,1007.99996923828,2|10,1:1|2:2,0:0:0:0:
105,170,113383,1,2,2:2:0:0:
177,164,113458,1,2,2:2:0:0:
105,170,113533,1,2,2:2:0:0:
31,183,113608,1,2,2:2:0:0:
177,164,113758,2,0,L|256:153,1,62.9999980773926,2|2,2:2|2:2,0:0:0:0:
409,45,113908,5,2,1:2:0:0:
333,51,113983,1,2,2:2:0:0:
255,65,114058,1,2,2:2:0:0:
400,127,114208,2,0,L|479:116,1,62.9999980773926,2|2,2:2|2:2,0:0:0:0:
305,240,114358,2,0,L|226:229,1,62.9999980773926,2|2,2:2|2:2,0:0:0:0:
78,106,114508,6,0,B|10:175|64:230|64:230|47:121|47:121|182:-49|483:213|483:213|466:315|371:319,1,881.999973083497,10|0,2:2|0:0,0:0:0:0:
192,356,115108,6,0,B|444:339|444:339|475:221|480:83,2,503.999984619141,6|0|10,1:1|0:0|2:2,0:0:0:0:
101,359,115783,1,2,2:2:0:0:
192,356,115858,2,0,L|210:280,2,62.9999980773926,2|2|2,2:2|2:2|2:2,0:0:0:0:
37,244,116158,2,0,L|134:233,1,62.9999980773926,2|2,2:2|2:2,0:0:0:0:
251,172,116308,6,0,L|233:96,2,62.9999980773926,2|2|2,1:2|2:2|2:2,0:0:0:0:
406,249,116608,2,0,L|309:238,1,62.9999980773926,2|2,2:2|2:2,0:0:0:0:
185,317,116758,2,0,L|282:306,1,62.9999980773926,2|2,2:2|2:2,0:0:0:0:
418,167,116908,6,0,B|404:137|404:137|381:299|381:299|368:242|368:242|298:206|116:228|116:228|353:156|353:156|374:30,1,881.999973083497,10|0,2:2|0:0,0:0:0:0:
189,50,117508,6,0,B|438:87|438:87|363:328|363:328|124:254|124:254|134:177|134:177|142:143|142:143|176:136,1,881.999973083497,2|0,1:1|0:0,0:0:0:0:
355,134,118108,2,0,L|441:128,1,62.9999980773926,10|2,2:2|2:2,0:0:0:0:
278,72,118258,2,0,L|192:66,1,62.9999980773926,2|2,2:2|2:2,0:0:0:0:
352,30,118408,1,2,2:2:0:0:
227,191,118558,2,0,L|297:197,1,62.9999980773926,2|2,2:2|2:2,0:0:0:0:
129,254,118708,6,0,L|43:248,2,62.9999980773926,2|2|2,1:2|2:2|2:2,0:0:0:0:
270,332,119008,2,0,L|226:254,3,62.9999980773926,2|2|2|2,2:2|2:2|2:2|2:2,0:0:0:0:
429,358,119308,6,0,B|174:390|174:390|-9:352|79:195|3:4|147:-3|147:-3|464:21,1,1007.99996923828,10|2,2:2|1:1,0:0:0:0:
495,130,120208,2,0,L|207:144,1,251.999992309571,0|0,0:0|0:0,0:0:0:0:
9,216,120508,6,0,L|515:192,1,503.999984619141,14|2,2:1|2:2,0:0:0:0:
361,116,120958,2,0,L|281:111,1,62.9999980773926,2|2,2:2|2:2,0:0:0:0:
142,97,121108,2,0,L|61:91,1,62.9999980773926,2|2,1:2|2:2,0:0:0:0:
66,35,121258,1,2,2:2:0:0:
218,215,121408,2,0,L|298:210,1,62.9999980773926,2|2,2:2|2:2,0:0:0:0:
437,196,121558,2,0,L|518:190,1,62.9999980773926,2|2,2:2|2:2,0:0:0:0:
341,104,121708,6,0,B|89:120|89:120|241:320|241:320|-4:333|-4:333|88:205,1,881.999973083497,10|0,2:2|0:0,0:0:0:0:
266,196,122308,6,0,P|336:195|455:109,1,188.999994232178,2|0,1:1|0:0,0:0:0:0:
251,77,122608,2,0,L|398:70,1,125.999996154785,10|0,2:2|0:0,0:0:0:0:
213,156,122908,2,0,L|360:149,1,125.999996154785,2|2,1:2|2:2,0:0:0:0:
66,258,123208,2,0,L|213:251,1,125.999996154785,10|2,2:2|2:2,0:0:0:0:
441,331,123508,6,0,L|294:324,1,125.999996154785,2|2,1:2|2:2,0:0:0:0:
174,178,123808,2,0,L|321:171,1,125.999996154785,10|2,2:2|2:2,0:0:0:0:
507,71,124108,2,0,B|254:68|254:68|241:322|241:322|494:322|494:322|241:322|241:322|248:207,1,1007.99996923828,10|6,1:3|1:1,0:0:0:0:
107,133,129508,6,0,B|316:105|316:105|340:62|329:2|329:2|320:112|320:112|118:100|118:100|323:144|323:144|296:208|296:208|306:241|326:356,1,1050.00004005432,6|0,1:1|0:0,0:0:0:0:
333,24,134308,6,0,L|453:31,1,97.9999970092774,14|2,1:2|2:3,0:0:0:0:
275,115,134608,2,0,L|395:122,1,97.9999970092774,8|2,1:2|2:3,0:0:0:0:
216,205,134908,2,0,L|336:212,1,97.9999970092774,8|2,1:2|2:3,0:0:0:0:
157,294,135208,2,0,L|277:301,1,97.9999970092774,8|2,1:2|2:3,0:0:0:0:
102,348,135508,6,0,L|89:235,1,97.9999970092774,14|2,1:2|2:3,0:0:0:0:
191,221,135808,2,0,L|178:108,1,97.9999970092774,8|2,1:2|2:3,0:0:0:0:
274,103,136108,2,0,L|261:-10,1,97.9999970092774,10|0,1:2|0:0,0:0:0:0:
362,204,136408,2,0,L|349:91,1,97.9999970092774,8|2,1:2|2:3,0:0:0:0:
194,52,136708,6,0,L|325:41,1,97.9999970092774,14|2,1:2|2:3,0:0:0:0:
445,131,137008,2,0,L|314:120,1,97.9999970092774,8|2,1:2|2:3,0:0:0:0:
194,206,137308,2,0,L|325:195,1,97.9999970092774,8|2,1:2|2:3,0:0:0:0:
445,285,137608,2,0,L|314:274,1,97.9999970092774,8|2,1:2|2:3,0:0:0:0:
198,308,137908,6,0,L|215:198,1,97.9999970092774,14|2,1:2|2:3,0:0:0:0:
312,249,138208,2,0,L|329:139,1,97.9999970092774,8|2,1:2|2:3,0:0:0:0:
426,198,138508,2,0,L|409:88,1,97.9999970092774,8|2,1:2|2:3,0:0:0:0:
312,114,138808,2,0,L|295:4,1,97.9999970092774,8|2,1:2|2:3,0:0:0:0:
497,176,139108,5,10,1:2:0:0:
360,242,139258,1,8,1:2:0:0:
223,306,139408,1,10,1:2:0:0:
361,358,139558,1,8,1:2:0:0:
130,24,139708,5,10,1:2:0:0:
267,90,139858,1,8,1:2:0:0:
404,154,140008,1,10,1:2:0:0:
266,206,140158,1,8,1:2:0:0:
39,361,140308,5,10,1:2:0:0:
188,270,140458,1,8,1:2:0:0:
46,296,140608,1,10,1:2:0:0:
183,206,140758,1,8,1:2:0:0:
51,229,140908,1,10,1:2:0:0:
178,144,141058,1,8,1:2:0:0:
55,163,141208,1,10,1:2:0:0:
173,82,141358,1,8,1:2:0:0:
438,327,141508,5,2,3:2:0:0:
383,347,141583,1,0,3:3:0:0:
323,349,141658,1,2,3:2:0:0:
267,327,141733,1,0,3:3:0:0:
221,287,141808,1,2,3:2:0:0:
194,234,141883,1,0,3:3:0:0:
188,174,141958,1,2,3:2:0:0:
203,116,142033,1,0,3:3:0:0:
239,68,142108,1,2,3:2:0:0:
289,34,142183,1,0,3:3:0:0:
347,22,142258,1,2,3:2:0:0:
408,31,142333,1,0,3:3:0:0:
475,80,142408,1,2,3:2:0:0:
390,100,142483,1,0,3:3:0:0:
305,120,142558,1,2,3:2:0:0:
220,139,142633,1,0,3:3:0:0:
52,192,142708,6,0,L|42:110,1,48.9999985046387,8|8,1:3|2:3,0:0:0:0:
184,255,142858,2,0,L|262:241,1,48.9999985046387,10|0,2:3|0:0,0:0:0:0:
157,317,143008,2,0,L|143:208,1,97.9999970092774,10|8,2:3|2:3,0:0:0:0:
244,180,143308,2,0,L|230:71,1,97.9999970092774,10|4,2:3|2:3,0:0:0:0:
444,44,143608,6,0,L|218:45,1,210,10|0,2:2|0:0,0:0:0:0:
434,164,143908,6,0,B|183:164|183:164|131:351|131:351|118:285|118:285|368:284|368:284|418:27,1,1007.99996923828,6|2,1:1|2:2,0:0:0:0:
327,38,144583,1,2,2:2:0:0:
414,42,144658,1,2,1:2:0:0:
327,38,144733,1,2,2:2:0:0:
414,42,144808,1,10,2:2:0:0:
414,42,144958,1,2,2:2:0:0:
414,42,145033,1,2,2:2:0:0:
327,38,145108,5,2,2:2:0:0:
414,42,145183,1,2,2:2:0:0:
327,38,145408,1,10,2:2:0:0:
414,34,145483,1,2,2:2:0:0:
327,38,145558,1,2,2:2:0:0:
414,34,145633,1,2,2:2:0:0:
327,38,145708,5,2,2:2:0:0:
414,34,145858,1,2,1:2:0:0:
185,342,146008,2,0,B|281:361|349:350|440:300|440:300|358:331|287:334|226:314|202:295|202:295|159:180|274:154|235:62,1,755.999976928712,10|0,2:2|1:1,0:0:0:0:
443,204,146608,6,0,L|264:242,1,155.400003793945,10|0,2:2|0:0,0:0:0:0:
12,42,146908,1,2,2:2:0:0:
99,38,146983,1,2,2:2:0:0:
12,42,147058,1,2,1:2:0:0:
99,38,147133,1,2,2:2:0:0:
12,42,147208,1,10,2:2:0:0:
12,42,147358,1,2,2:2:0:0:
12,42,147433,1,2,2:2:0:0:
99,38,147508,5,2,2:2:0:0:
12,42,147583,1,2,2:2:0:0:
12,42,147658,1,2,1:2:0:0:
99,38,147808,1,10,2:2:0:0:
12,34,147883,1,2,2:2:0:0:
99,38,147958,1,2,2:2:0:0:
12,34,148033,1,2,2:2:0:0:
99,38,148108,5,2,2:2:0:0:
12,34,148258,1,2,1:2:0:0:
334,260,148408,2,0,L|31:246,1,210.000008010865,10|2,2:2|1:2,0:0:0:0:
471,159,148708,6,0,B|339:114|213:141|213:141|218:289|166:385,2,503.999984619141,6|8|2,1:1|2:2|2:2,0:0:0:0:
381,219,149383,1,2,2:2:0:0:
210,231,149458,1,2,1:2:0:0:
471,159,149608,1,10,2:2:0:0:
215,144,149758,2,0,L|128:140,1,62.9999980773926,2|2,2:2|2:2,0:0:0:0:
303,67,149908,6,0,L|219:64,1,62.9999980773926,2|2,2:2|2:2,0:0:0:0:
93,62,150058,1,2,1:2:0:0:
348,292,150208,2,0,L|435:288,1,62.9999980773926,10|2,2:2|2:2,0:0:0:0:
260,215,150358,2,0,L|344:212,1,62.9999980773926,2|2,2:2|2:2,0:0:0:0:
470,211,150508,2,0,L|481:58,1,125.999996154785,2|2,2:2|1:2,0:0:0:0:
151,61,150808,6,0,L|486:53,1,335.999989746094,10|2,2:2|2:2,0:0:0:0:
58,257,151108,2,0,L|52:108,1,125.999996154785,2|0,2:2|1:1,0:0:0:0:
346,220,151408,2,0,B|246:244|139:226|139:226|243:185|346:215,1,420.000016021729,10|0,2:2|0:0,0:0:0:0:
118,109,151858,1,2,1:2:0:0:
263,112,152008,2,0,L|254:262,1,125.999996154785,10|2,2:2|2:2,0:0:0:0:
401,243,152308,5,2,2:2:0:0:
255,237,152458,1,2,1:2:0:0:
464,72,152608,2,0,L|311:68,1,125.999996154785,10|2,2:2|2:2,0:0:0:0:
195,53,152908,2,0,B|170:88|170:88|178:99|178:99|149:141|120:152|120:152|133:201|111:240|111:240|104:280|104:280|128:302|128:302|150:361|150:361|199:319|199:319|219:285|228:234|228:234|369:285|508:185,1,755.999976928712,2|0,2:2|0:0,0:0:0:0:
195,53,153508,6,0,B|323:58|323:58|335:45|335:45|464:54|464:54|477:158|456:257|456:257|479:287|479:287|472:318,2,503.999984619141,6|8|2,1:1|2:2|2:2,0:0:0:0:
108,57,154183,1,2,2:2:0:0:
195,61,154258,1,2,1:2:0:0:
108,57,154333,1,2,2:2:0:0:
195,61,154408,1,10,2:2:0:0:
195,61,154558,1,2,2:2:0:0:
195,61,154633,1,2,2:2:0:0:
108,57,154708,5,2,2:2:0:0:
195,61,154783,1,2,2:2:0:0:
108,57,155008,1,10,2:2:0:0:
195,53,155083,1,2,2:2:0:0:
108,57,155158,1,2,2:2:0:0:
195,53,155233,1,2,2:2:0:0:
108,57,155308,5,2,2:2:0:0:
108,57,155458,1,2,1:2:0:0:
364,62,155608,2,0,B|252:122|106:121|106:121|246:129|337:188|337:188|362:73|390:53|390:53|351:120|357:174,1,755.999976928712,10|0,2:2|1:1,0:0:0:0:
47,271,156208,6,0,P|187:307|410:268,1,315.000012016297,10|0,2:2|0:0,0:0:0:0:
171,335,156508,2,0,P|166:236|176:135,1,188.999994232178,0|0,0:0|0:0,0:0:0:0:
344,105,156808,1,10,2:2:0:0:
193,78,156958,1,2,2:2:0:0:
438,321,157108,6,0,P|443:222|433:121,1,188.999994232178,2|0,2:2|0:0,0:0:0:0:
265,91,157408,1,10,2:2:0:0:
415,63,157558,1,2,2:2:0:0:
268,161,157708,1,2,2:2:0:0:
418,133,157858,1,2,1:2:0:0:
213,247,158008,2,0,L|514:217,1,210.000008010865,10|2,2:2|1:2,0:0:0:0:
103,118,158308,6,0,B|354:102|354:102|374:302,1,377.999988464356,6|0,1:1|0:0,0:0:0:0:
216,271,158608,2,0,L|73:280,1,125.999996154785,8|0,2:2|1:1,0:0:0:0:
256,337,158908,2,0,L|279:67,1,251.999992309571,10|8,2:2|2:2,0:0:0:0:
403,85,159358,1,0,1:1:0:0:
161,140,159508,6,0,L|18:122,1,125.999996154785,10|0,2:2|0:0,0:0:0:0:
205,236,159808,2,0,L|348:218,1,125.999996154785,8|0,2:2|1:1,0:0:0:0:
61,63,160108,2,0,L|204:45,1,125.999996154785,10|0,2:2|1:1,0:0:0:0:
349,59,160408,1,8,2:2:0:0:
181,97,160558,1,0,1:1:0:0:
439,205,160708,6,0,L|261:221,1,125.999996154785,10|0,2:2|1:1,0:0:0:0:
159,302,161008,2,0,L|337:318,1,125.999996154785,10|0,2:2|1:1,0:0:0:0:
439,205,161308,2,0,L|261:221,1,125.999996154785,10|0,2:2|1:1,0:0:0:0:
52,142,161608,2,0,L|150:133,1,62.9999980773926,10|8,2:2|2:2,0:0:0:0:
252,151,161758,2,0,L|350:142,1,62.9999980773926,0|0,1:1|1:1,0:0:0:0:
78,35,161908,6,0,B|215:23|328:44|328:44|375:85|404:190|404:190|252:112|179:138,2,630.000024032594,2|2|2,1:1|1:1|1:1,0:0:0:0:
508,320,163108,6,0,B|11:238|11:238,1,503.999984619141,6|10,1:1|2:2,0:0:0:0:
40,148,163558,1,0,0:0:0:0:
295,16,163708,2,0,P|353:64|263:141,1,188.999994232178,2|0,2:2|0:0,0:0:0:0:
236,154,164008,1,10,2:2:0:0:
400,256,164158,6,0,L|110:243,1,251.999992309571,2|2,2:2|1:2,0:0:0:0:
203,316,164533,1,0,0:0:0:0:
68,329,164608,2,0,L|51:177,1,125.999996154785,10|2,2:2|2:2,0:0:0:0:
208,117,164908,2,0,L|-3:85,3,210.000008010865,2|2|10|2,2:2|1:2|2:2|2:2,0:0:0:0:
254,200,165658,5,0,1:1:0:0:
38,262,165808,2,0,L|26:106,1,125.999996154785,10|0,2:2|0:0,0:0:0:0:
256,79,166108,2,0,P|256:169|143:198,1,188.999994232178,2|0,2:2|0:0,0:0:0:0:
112,209,166408,1,10,2:2:0:0:
276,274,166558,2,0,L|435:258,1,125.999996154785,2|0,2:2|0:0,0:0:0:0:
337,216,166783,5,0,0:0:0:0:
401,261,166858,1,2,1:2:0:0:
337,216,166933,1,0,0:0:0:0:
499,157,167008,2,0,L|345:118,3,125.999996154785,10|2|2|2,2:2|2:2|2:2|1:2,0:0:0:0:
214,16,167608,2,0,L|491:80,1,251.999992309571,10|2,2:2|1:2,0:0:0:0:
150,222,167908,6,0,B|399:258|399:258|342:283|328:324|328:324|190:316|125:215|142:50|209:-21,1,755.999976928712,6|0,1:1|0:0,0:0:0:0:
384,108,168508,2,0,L|233:104,1,125.999996154785,2|2,2:2|1:2,0:0:0:0:
421,37,168808,1,10,2:2:0:0:
256,32,168958,6,0,L|227:323,1,251.999992309571,2|2,2:2|1:2,0:0:0:0:
165,276,169333,1,0,0:0:0:0:
322,232,169408,2,0,L|338:100,1,125.999996154785,10|2,2:2|2:2,0:0:0:0:
203,55,169708,2,0,L|429:40,3,210.000008010865,2|2|10|2,2:2|1:2|2:2|2:2,0:0:0:0:
104,188,170458,5,0,1:1:0:0:
329,229,170608,2,0,L|346:77,1,125.999996154785,10|0,2:2|0:0,0:0:0:0:
114,71,170908,2,0,L|258:62,1,125.999996154785,2|2,2:2|1:2,0:0:0:0:
441,165,171208,2,0,L|297:156,1,125.999996154785,10|2,2:2|2:2,0:0:0:0:
473,284,171508,6,0,B|499:198|499:198|475:80|475:80|266:63|266:63|473:105|473:105|265:116|265:116|244:173|372:285|372:285|200:162|200:162|220:376|220:376,1,1470.00005607605
311,174,172858,5,0,1:1:0:0:
41,113,173008,2,0,B|191:49|281:112|281:112|304:241|143:195,1,377.999988464356,14|0,2:1|0:0,0:0:0:0:
58,205,173308,2,0,P|65:285|202:298,1,188.999994232178,2|0,2:2|0:0,0:0:0:0:
221,313,173608,1,10,2:2:0:0:
367,191,173758,6,0,P|360:111|223:98,1,188.999994232178,2|0,2:2|0:0,0:0:0:0:
204,83,174058,1,2,1:2:0:0:
268,72,174133,1,0,0:0:0:0:
432,50,174208,2,0,L|414:194,1,125.999996154785,10|2,2:2|2:2,0:0:0:0:
276,243,174508,2,0,L|499:235,3,210.000008010865,2|2|10|2,2:2|1:2|2:2|2:2,0:0:0:0:
221,134,175258,5,0,1:1:0:0:
441,168,175408,2,0,P|445:90|398:14,1,125.999996154785,10|0,2:2|0:0,0:0:0:0:
198,226,175708,2,0,P|288:253|392:210,1,188.999994232178,2|0,2:2|0:0,0:0:0:0:
441,168,176008,1,10,2:2:0:0:
272,141,176158,2,0,P|273:71|381:10,1,188.999994232178,2|0,2:2|0:0,0:0:0:0:
428,12,176458,1,2,1:2:0:0:
364,8,176533,1,0,0:0:0:0:
189,126,176608,6,0,P|104:141|25:135,3,155.400003793945,10|2|2|2,2:2|2:2|2:2|1:2,0:0:0:0:
291,175,177208,2,0,P|156:214|49:223,1,210.000008010865,10|2,2:2|1:2,0:0:0:0:
383,228,177508,6,0,P|263:283|59:314,1,251.999992309571,6|0,1:1|0:0,0:0:0:0:
14,309,177733,2,0,L|48:153,1,125.999996154785,10|0,2:2|0:0,0:0:0:0:
132,153,177958,2,0,L|289:137,1,125.999996154785,6|0,1:2|0:0,0:0:0:0:
166,71,178183,2,0,L|9:55,1,125.999996154785,6|0,1:2|0:0,0:0:0:0:
241,34,178408,2,0,L|312:231,1,188.999994232178,10|0,2:2|0:0,0:0:0:0:
129,228,178708,6,0,P|249:283|453:314,1,251.999992309571,6|0,1:1|0:0,0:0:0:0:
498,309,178933,2,0,L|464:153,1,125.999996154785,10|0,2:2|0:0,0:0:0:0:
380,153,179158,2,0,L|223:137,1,125.999996154785,6|0,1:2|0:0,0:0:0:0:
346,71,179383,2,0,L|503:55,1,125.999996154785,6|0,1:2|0:0,0:0:0:0:
271,34,179608,2,0,P|270:157|323:214,1,188.999994232178,10|0,2:2|0:0,0:0:0:0:
129,228,179908,6,0,P|249:283|453:314,1,251.999992309571,6|0,1:1|0:0,0:0:0:0:
498,309,180133,2,0,L|464:153,1,125.999996154785,10|0,2:2|0:0,0:0:0:0:
335,157,180358,2,0,L|178:141,1,125.999996154785,6|0,1:2|0:0,0:0:0:0:
341,75,180583,2,0,L|184:59,1,125.999996154785,6|0,1:2|0:0,0:0:0:0:
50,150,180808,2,0,L|140:146,1,62.9999980773926,10|8,2:2|2:2,0:0:0:0:
259,237,180958,2,0,L|349:233,1,62.9999980773926,2|0,1:2|1:1,0:0:0:0:
120,297,181108,6,0,B|73:202|73:52|73:52|60:304|60:304|136:61|136:61|47:292|47:292|191:84|191:84|32:280|32:280|173:61|173:61|489:201,1,2015.99993847656,2|4,1:2|1:1,0:0:0:0:
256,192,182458,12,2,191308,2:2:0:0:
32,256,201508,5,2,2:2:0:0:
32,256,201958,1,2,2:2:0:0:
128,192,202408,1,2,2:2:0:0:
128,192,202858,1,2,2:2:0:0:
224,256,203308,1,2,2:2:0:0:
224,256,203608,1,2,2:2:0:0:
32,256,203908,5,2,2:2:0:0:
32,256,204358,1,2,2:2:0:0:
128,192,204808,1,2,2:2:0:0:
128,192,205258,1,2,2:2:0:0:
224,256,205708,1,2,2:2:0:0:
224,256,206008,1,2,2:2:0:0:
480,128,206308,5,2,2:2:0:0:
480,128,206758,1,2,2:2:0:0:
384,192,207208,1,2,2:2:0:0:
384,192,207658,1,2,2:2:0:0:
288,128,208108,1,2,2:2:0:0:
288,128,208408,1,2,2:2:0:0:
480,128,208708,5,2,2:2:0:0:
480,128,209158,1,2,2:2:0:0:
384,192,209608,1,2,2:2:0:0:
384,192,210058,1,2,2:2:0:0:
288,128,210508,1,2,2:2:0:0:
288,128,210808,1,2,2:2:0:0:
32,128,211108,5,2,2:2:0:0:
32,128,211558,1,2,2:2:0:0:
128,192,212008,1,2,2:2:0:0:
128,192,212458,1,2,2:2:0:0:
224,128,212908,1,2,2:2:0:0:
224,128,213208,1,2,2:2:0:0:
32,128,213508,5,2,2:2:0:0:
32,128,213958,1,2,2:2:0:0:
128,192,214408,1,2,2:2:0:0:
128,192,214858,1,2,2:2:0:0:
224,128,215308,1,2,2:2:0:0:
224,128,215608,1,2,2:2:0:0:
480,256,215908,5,2,2:2:0:0:
480,256,216358,1,2,2:2:0:0:
384,192,216808,1,2,2:2:0:0:
384,192,217258,1,2,2:2:0:0:
288,256,217708,1,2,2:2:0:0:
288,256,218008,1,2,2:2:0:0:
480,256,218308,5,2,2:2:0:0:
480,256,218758,1,2,2:2:0:0:
384,192,219208,1,2,2:2:0:0:
384,192,219658,1,2,2:2:0:0:
288,256,220108,1,2,2:2:0:0:
288,256,220183,1,0,0:0:0:0:
288,256,220258,1,0,0:0:0:0:
288,256,220333,1,0,0:0:0:0:
384,192,220408,1,2,2:2:0:0:
384,192,220483,1,0,0:0:0:0:
384,192,220558,1,0,0:0:0:0:
384,192,220633,1,0,0:0:0:0:
256,192,220708,6,0,B|10:195|10:195|494:-4|494:-4|355:162|442:340|442:340|463:152|463:152|4:-7|4:-7|-60:43|-2:75|158:21|146:174|146:174|90:160|42:91|42:91|513:380|513:380|234:326|234:326|523:268|287:22|287:22|29:127|29:127,1,3780,6|2,1:2|2:2,0:0:0:0:
13,156,229708,2,0,L|24:123,3,35,2|2|2|2,2:2|2:2|2:2|2:2,0:0:0:0:
13,156,230008,2,0,L|49:154,3,35,2|2|2|2,2:2|2:2|2:2|2:2,0:0:0:0:
140,269,230308,6,0,B|351:251|351:251|371:228|354:184|354:184|128:205|128:205|50:193|50:193|2:155|0:25|0:25|90:-1|195:10|198:259|198:259|14:274|14:274|503:323|503:323|508:252|508:252|364:101|364:101|416:24|416:24|441:62|441:62|247:-80|20:335|20:335|169:196|169:196|31:43|31:43|187:43|187:43|-155:175|196:376|312:375,1,3920,2|2,2:2|2:2,0:0:0:0:
410,108,239308,5,10,2:3:0:0:
274,135,239458,1,10,2:3:0:0:
183,95,239608,1,6,2:3:0:0:
274,135,239758,1,6,2:3:0:0:
69,232,239908,6,0,L|247:206,2,146.999995513916,6|2|2,1:1|2:2|2:2,0:0:0:0:
231,312,240508,2,0,P|262:239|254:105,1,195.999994018555,0|2,1:1|1:2,0:0:0:0:
210,113,240883,1,2,2:2:0:0:
188,60,240958,1,2,2:2:0:0:
210,113,241033,1,2,2:2:0:0:
305,243,241108,6,0,L|127:217,2,146.999995513916,2|2|2,1:2|2:2|2:2,0:0:0:0:
143,323,241708,2,0,P|112:250|120:116,1,195.999994018555,0|2,1:1|1:2,0:0:0:0:
164,124,242083,1,2,2:2:0:0:
186,71,242158,1,2,2:2:0:0:
164,124,242233,1,2,2:2:0:0:
317,122,242308,6,0,L|469:134,2,146.999995513916,2|2|2,1:2|2:2|2:2,0:0:0:0:
180,296,242908,2,0,P|167:199|194:81,1,195.999994018555,0|2,1:1|1:2,0:0:0:0:
236,95,243283,1,2,2:2:0:0:
287,89,243358,1,2,2:2:0:0:
339,85,243433,1,2,2:2:0:0:
244,198,243508,6,0,L|92:210,2,146.999995513916,2|2|2,1:2|2:2|2:2,0:0:0:0:
380,258,244108,2,0,P|387:175|307:89,1,195.999994018555,0|2,1:1|1:2,0:0:0:0:
262,84,244483,1,2,2:2:0:0:
235,46,244558,1,2,2:2:0:0:
262,84,244633,1,2,2:2:0:0:
417,281,244708,6,0,L|422:103,2,146.999995513916,2|2|2,1:2|2:2|2:2,0:0:0:0:
417,281,245308,2,0,L|423:77,1,195.999994018555,0|2,1:1|1:2,0:0:0:0:
422,85,245683,1,2,2:2:0:0:
422,85,245758,1,2,2:2:0:0:
422,85,245833,1,2,2:2:0:0:
325,256,245908,6,0,L|330:78,2,146.999995513916,2|2|2,1:2|2:2|2:2,0:0:0:0:
325,256,246508,2,0,L|331:52,1,195.999994018555,0|2,1:1|1:2,0:0:0:0:
330,60,246883,1,2,2:2:0:0:
330,60,246958,1,2,2:2:0:0:
330,60,247033,1,2,2:2:0:0:
222,270,247108,6,0,L|70:262,2,146.999995513916,2|2|2,1:2|2:2|2:2,0:0:0:0:
222,270,247708,2,0,L|423:275,1,195.999994018555,0|2,1:1|1:2,0:0:0:0:
389,209,248083,1,2,2:2:0:0:
332,186,248158,1,2,2:2:0:0:
389,209,248233,1,2,2:2:0:0:
279,90,248308,6,0,L|430:82,2,146.999995513916,2|2|2,1:2|2:2|2:2,0:0:0:0:
129,93,248908,2,0,L|111:157,1,48.9999985046387,0|2,1:1|2:2,0:0:0:0:
203,145,249058,2,0,L|221:209,1,48.9999985046387,0|0,1:1|1:1,0:0:0:0:
71,232,249208,1,10,2:2:0:0:
308,222,249358,1,0,0:0:0:0:
358,219,249433,1,2,2:2:0:0:
147,25,249508,6,0,L|27:32,1,97.9999970092774,14|2,1:2|2:3,0:0:0:0:
216,115,249808,2,0,L|96:122,1,97.9999970092774,8|2,1:2|2:2,0:0:0:0:
286,204,250108,2,0,L|166:211,1,97.9999970092774,8|2,1:2|2:3,0:0:0:0:
355,294,250408,2,0,L|235:301,1,97.9999970092774,10|2,1:2|2:2,0:0:0:0:
428,349,250708,6,0,L|441:236,1,97.9999970092774,10|2,1:2|2:3,0:0:0:0:
339,222,251008,2,0,L|352:109,1,97.9999970092774,8|2,1:2|2:2,0:0:0:0:
256,104,251308,2,0,L|269:-9,1,97.9999970092774,8|2,1:2|2:3,0:0:0:0:
168,205,251608,2,0,L|181:92,1,97.9999970092774,10|2,1:2|2:2,0:0:0:0:
346,54,251908,6,0,L|215:43,1,97.9999970092774,10|2,1:2|2:3,0:0:0:0:
81,134,252208,2,0,L|212:123,1,97.9999970092774,8|2,1:2|2:2,0:0:0:0:
346,208,252508,2,0,L|215:197,1,97.9999970092774,8|2,1:2|2:3,0:0:0:0:
81,288,252808,2,0,L|212:277,1,97.9999970092774,10|2,1:2|2:2,0:0:0:0:
345,303,253108,6,0,L|328:193,1,97.9999970092774,10|2,1:2|2:3,0:0:0:0:
231,244,253408,2,0,L|214:134,1,97.9999970092774,8|2,1:2|2:2,0:0:0:0:
117,193,253708,2,0,L|134:83,1,97.9999970092774,8|2,1:2|2:3,0:0:0:0:
231,109,254008,2,0,L|248:-1,1,97.9999970092774,10|2,1:2|2:2,0:0:0:0:
15,176,254308,5,10,1:2:0:0:
208,239,254533,1,10,1:2:0:0:
15,176,254758,1,10,1:2:0:0:
303,82,254983,1,10,1:2:0:0:
108,154,255208,1,10,1:2:0:0:
246,206,255358,1,10,1:2:0:0:
314,224,255433,1,10,1:2:0:0:
473,361,255508,5,10,1:2:0:0:
277,268,255733,1,10,1:2:0:0:
466,296,255958,1,10,1:2:0:0:
172,189,256183,1,10,1:2:0:0:
361,160,256408,1,10,1:2:0:0:
225,112,256558,1,10,1:2:0:0:
159,120,256633,1,10,1:2:0:0:
356,336,256708,6,0,L|270:325,1,48.9999985046387,2|2,3:2|3:2,0:0:0:0:
218,243,256858,2,0,L|132:232,1,48.9999985046387,2|2,3:2|3:2,0:0:0:0:
259,175,257008,2,0,L|173:164,1,48.9999985046387,2|2,3:2|3:2,0:0:0:0:
121,97,257158,2,0,L|35:86,1,48.9999985046387,2|2,3:2|3:2,0:0:0:0:
163,37,257308,1,2,3:2:0:0:
226,44,257383,1,2,3:2:0:0:
289,52,257458,1,2,3:2:0:0:
352,59,257533,1,2,3:2:0:0:
415,67,257608,1,2,3:2:0:0:
352,82,257683,1,2,3:2:0:0:
288,89,257758,1,2,3:2:0:0:
225,97,257833,1,2,3:2:0:0:
56,157,257908,6,0,P|187:199|320:316,2,293.999991027832,2|2|2,2:2|2:2|2:2,0:0:0:0:
32,102,258883,1,2,2:2:0:0:
56,157,258958,1,2,2:2:0:0:
117,156,259033,1,2,2:2:0:0:
343,152,259108,6,0,L|527:145,1,140,6|2,1:1|2:3,0:0:0:0:
407,85,259333,1,2,2:2:0:0:
261,242,259408,2,0,L|399:342,1,140,8|2,1:2|2:2,0:0:0:0:
169,152,259708,1,0,1:1:0:0:
313,67,259783,2,0,P|226:59|186:140,1,140,2|0,2:2|0:0,0:0:0:0:
336,186,260008,2,0,L|417:173,1,70,10|2,1:2|2:2,0:0:0:0:
319,127,260158,2,0,L|278:59,1,70,2|2,2:2|2:2,0:0:0:0:
445,83,260308,6,0,L|293:-4,1,140,2|2,1:2|2:3,0:0:0:0:
394,128,260533,1,2,2:2:0:0:
226,140,260608,2,0,L|71:129,1,140,8|2,1:2|2:2,0:0:0:0:
315,245,260908,1,0,1:1:0:0:
171,224,260983,2,0,B|188:176|276:164|276:164|285:183|319:210,1,140,2|0,2:2|0:0,0:0:0:0:
457,187,261208,2,0,L|437:110,1,70,10|2,1:2|2:2,0:0:0:0:
290,129,261358,2,0,L|270:52,1,70,2|2,2:2|2:2,0:0:0:0:
107,207,261508,6,0,B|316:194|316:194|370:64,1,315.000012016297,2|2,1:2|2:2,0:0:0:0:
213,283,261808,2,0,L|44:296,2,140,8|2|0,1:2|2:2|1:1,0:0:0:0:
107,207,262183,2,0,P|39:160|91:74,1,140,2|0,2:2|0:0,0:0:0:0:
225,92,262408,2,0,L|307:48,1,70,10|2,1:2|2:2,0:0:0:0:
197,158,262558,2,0,L|143:85,1,70,2|2,2:2|2:2,0:0:0:0:
314,209,262708,6,0,B|105:196|105:196|51:66,1,315.000012016297,2|2,1:2|2:2,0:0:0:0:
205,292,263008,2,0,L|376:300,2,140,8|2|0,1:2|2:2|1:1,0:0:0:0:
314,209,263383,2,0,P|351:154|312:95,1,140,2|0,2:2|0:0,0:0:0:0:
155,73,263608,2,0,L|268:62,1,70,10|2,1:2|2:2,0:0:0:0:
371,121,263758,2,0,L|484:110,1,70,2|2,2:2|2:2,0:0:0:0:
299,304,263908,6,0,P|229:264|197:208,1,140,2|2,1:2|2:3,0:0:0:0:
277,199,264133,1,2,2:2:0:0:
131,126,264208,2,0,L|276:35,1,140,8|2,1:2|2:2,0:0:0:0:
39,222,264508,1,0,1:1:0:0:
193,297,264583,2,0,P|271:330|367:330,1,140,2|0,2:2|0:0,0:0:0:0:
469,234,264808,2,0,L|393:196,1,70,10|2,1:2|2:2,0:0:0:0:
343,155,264958,2,0,L|407:94,1,70,2|2,2:2|2:2,0:0:0:0:
245,20,265108,6,0,P|305:59|348:125,1,140,2|2,1:2|2:3,0:0:0:0:
271,132,265333,1,2,2:2:0:0:
133,169,265408,2,0,P|234:223|267:180,1,140,8|2,1:2|2:2,0:0:0:0:
18,295,265708,1,0,1:1:0:0:
164,285,265783,2,0,P|110:204|18:191,1,140,2|0,2:2|0:0,0:0:0:0:
220,141,266008,2,0,L|310:131,1,70,10|2,1:2|2:2,0:0:0:0:
452,218,266158,2,0,L|362:208,1,70,2|2,2:2|2:2,0:0:0:0:
225,61,266308,6,0,L|456:51,2,210,2|2|2,1:2|2:2|2:2,0:0:0:0:
18,287,266908,2,0,P|26:205|149:102,1,210,0|0,1:1|0:0,0:0:0:0:
272,100,267208,2,0,L|372:115,1,70,10|2,1:2|2:2,0:0:0:0:
194,202,267358,2,0,L|168:282,1,70,2|2,2:2|2:2,0:0:0:0:
335,285,267508,6,0,B|104:319|104:319|35:177,2,349.650008536377,6|6|6,1:2|1:2|1:2,0:0:0:0:
125,101,268108,2,0,B|356:67|356:67|425:209,2,349.650008536377,6|6|6,1:2|1:2|1:2,0:0:0:0:
390,237,268708,6,0,P|300:216|271:146,1,140,6|2,1:2|2:3,0:0:0:0:
354,160,268933,1,2,2:2:0:0:
209,129,269008,2,0,L|49:115,1,140,8|2,1:2|2:2,0:0:0:0:
304,55,269308,1,0,1:1:0:0:
450,100,269383,2,0,P|466:168|413:244,1,140,2|0,2:2|0:0,0:0:0:0:
283,236,269608,2,0,L|191:239,1,70,10|2,1:2|2:2,0:0:0:0:
301,178,269758,2,0,L|338:91,1,70,2|2,2:2|2:2,0:0:0:0:
168,154,269908,6,0,P|115:216|136:294,1,140,2|2,1:2|2:3,0:0:0:0:
190,276,270133,1,2,2:2:0:0:
42,96,270208,2,0,L|164:8,1,140,8|2,1:2|2:2,0:0:0:0:
371,185,270508,1,0,1:1:0:0:
219,255,270583,2,0,P|158:203|238:166,1,140,2|0,2:2|0:0,0:0:0:0:
340,90,270808,2,0,L|412:55,1,70,10|2,1:2|2:2,0:0:0:0:
250,87,270958,2,0,L|178:122,1,70,2|2,2:2|2:2,0:0:0:0:
25,233,271108,6,0,B|171:197|171:197|323:123,1,315.000012016297,2|2,1:2|2:2,0:0:0:0:
483,202,271408,1,8,1:2:0:0:
253,125,271558,2,0,L|461:105,1,140,2|0,2:2|1:1,0:0:0:0:
242,55,271783,2,0,P|110:72|76:95,1,140,2|0,2:2|0:0,0:0:0:0:
257,221,272008,2,0,L|326:216,1,70,10|2,1:2|2:2,0:0:0:0:
248,281,272158,2,0,L|254:211,1,70,2|2,2:2|2:2,0:0:0:0:
415,150,272308,6,0,P|394:85|334:52,1,140,2|2,1:2|2:3,0:0:0:0:
264,56,272533,1,2,2:2:0:0:
107,78,272608,1,8,1:2:0:0:
326,260,272758,2,0,P|342:169|295:76,1,140,2|0,2:2|1:1,0:0:0:0:
186,260,272983,2,0,P|170:169|217:76,1,140,2|0,2:2|0:0,0:0:0:0:
334,52,273208,2,0,P|394:85|415:150,1,140,10|2,1:2|2:2,0:0:0:0:
101,348,273508,6,0,B|311:334|311:334|30:406|70:233|58:73|61:55,1,630.000024032594,6|2,1:1|2:2,0:0:0:0:
321,33,274108,2,0,B|113:63|113:63|12:149|65:336|115:382|236:361,1,630.000024032594,10|2,2:2|2:3,0:0:0:0:
485,163,274708,6,0,B|66:214|66:214|30:10,1,630.000024032594,6|2,1:1|2:2,0:0:0:0:
276,16,275308,2,0,B|71:77|71:77|185:378|185:378|238:229|238:229,1,630.000024032594,10|2,2:2|2:2,0:0:0:0:
460,170,275908,5,14,1:2:0:0:
335,132,276133,1,10,2:2:0:0:
460,170,276358,1,10,2:2:0:0:
222,254,276508,5,10,2:2:0:0:
390,203,276733,1,10,2:2:0:0:
222,254,276958,1,10,2:2:0:0:
16,180,277108,5,10,2:2:0:0:
227,147,277333,1,10,2:2:0:0:
16,180,277558,1,10,2:2:0:0:
226,282,277708,5,10,1:3:0:0:
294,273,277783,1,2,2:2:0:0:
353,236,277858,1,10,2:3:0:0:
390,177,277933,1,2,2:2:0:0:
398,108,278008,1,6,2:3:0:0:
330,98,278083,1,2,2:2:0:0:
398,108,278158,1,6,2:3:0:0:
330,98,278233,1,2,2:2:0:0:
481,260,278308,6,0,B|485:50|485:50|212:51,1,420.000016021729,2|12,1:2|1:1,0:0:0:0:
203,50,278683,1,0,0:0:0:0:
130,52,278758,1,2,2:2:0:0:
349,192,278908,2,0,L|159:187,1,140,0|2,1:1|2:3,0:0:0:0:
435,120,279208,2,0,L|509:114,1,70,10|2,1:2|2:2,0:0:0:0:
409,70,279358,2,0,L|388:-3,1,70,2|2,2:2|2:2,0:0:0:0:
241,84,279508,6,0,P|156:119|132:200,1,140,2|2,1:2|2:3,0:0:0:0:
210,181,279733,1,2,2:2:0:0:
57,226,279808,2,0,P|79:303|153:331,1,140,8|2,1:2|2:2,0:0:0:0:
356,251,280108,1,0,1:1:0:0:
206,239,280183,2,0,P|203:165|261:86,1,140,2|0,2:2|0:0,0:0:0:0:
385,96,280408,2,0,L|354:18,1,70,10|2,1:2|2:2,0:0:0:0:
204,169,280558,2,0,L|173:91,1,70,2|2,2:2|2:2,0:0:0:0:
374,196,280708,6,0,B|163:184|163:184|120:81,1,315.000012016297,2|2,1:2|2:2,0:0:0:0:
280,286,281008,2,0,L|449:299,2,140,8|2|0,1:2|2:2|1:1,0:0:0:0:
379,231,281383,2,0,P|412:171|359:118,1,140,2|0,2:2|0:0,0:0:0:0:
218,94,281608,2,0,L|136:50,1,70,10|2,1:2|2:2,0:0:0:0:
246,160,281758,2,0,L|300:87,1,70,2|2,2:2|2:2,0:0:0:0:
129,211,281908,6,0,B|339:198|339:198|372:97,1,315.000012016297,2|2,1:2|2:2,0:0:0:0:
229,290,282208,2,0,L|58:298,2,140,8|2|0,1:2|2:2|1:1,0:0:0:0:
136,219,282583,2,0,P|94:156|142:104,1,140,2|0,2:2|0:0,0:0:0:0:
288,75,282808,2,0,L|175:64,1,70,10|2,1:2|2:2,0:0:0:0:
72,123,282958,2,0,L|-41:112,1,70,2|2,2:2|2:2,0:0:0:0:
153,206,283108,6,0,P|246:203|317:136,1,140,2|2,1:2|2:3,0:0:0:0:
213,133,283333,1,2,2:2:0:0:
352,100,283408,2,0,P|376:79|484:60,1,140,8|2,1:2|2:2,0:0:0:0:
253,83,283708,1,0,1:1:0:0:
108,86,283783,2,0,P|209:177|257:194,1,140,2|0,2:2|0:0,0:0:0:0:
369,200,284008,2,0,L|433:159,1,70,10|2,1:2|2:2,0:0:0:0:
333,135,284158,2,0,L|311:53,1,70,2|2,2:2|2:2,0:0:0:0:
475,305,284308,6,0,P|466:225|374:170,1,140,2|2,1:2|2:3,0:0:0:0:
355,170,284533,1,2,2:2:0:0:
208,112,284608,2,0,L|359:27,1,140,8|2,1:2|2:2,0:0:0:0:
111,81,284908,2,0,L|102:244,1,140,0|2,1:1|2:3,0:0:0:0:
328,268,285208,2,0,L|243:277,1,70,10|2,1:2|2:2,0:0:0:0:
92,329,285358,2,0,L|7:338,1,70,2|2,2:2|2:2,0:0:0:0:
179,183,285508,6,0,L|406:159,2,210,2|2|2,1:2|2:2|2:2,0:0:0:0:
471,253,286108,2,0,P|446:137|304:74,1,280,0|10,1:1|1:2,0:0:0:0:
239,65,286483,1,2,2:2:0:0:
168,57,286558,1,2,2:2:0:0:
239,65,286633,1,2,2:2:0:0:
395,150,286708,6,0,B|164:116|164:116|95:258,2,349.650008536377,6|6|6,1:2|1:2|1:2,0:0:0:0:
185,334,287308,2,0,B|416:368|416:368|485:226,2,349.650008536377,6|6|6,1:2|1:2|1:2,0:0:0:0:
450,156,287908,6,0,L|289:121,1,140,14|2,1:2|2:3,0:0:0:0:
166,241,288208,2,0,L|327:206,1,140,8|2,1:2|2:2,0:0:0:0:
71,153,288508,2,0,L|47:12,1,140,8|2,1:2|2:3,0:0:0:0:
195,328,288808,2,0,L|31:305,1,140,10|2,1:2|2:2,0:0:0:0:
287,115,289108,6,0,L|-21:85,1,280,10|8,1:2|1:2,0:0:0:0:
148,178,289558,1,2,2:2:0:0:
9,241,289708,2,0,L|317:271,1,280,8|10,1:2|1:2,0:0:0:0:
148,178,290158,1,2,2:2:0:0:
370,336,290308,6,0,L|339:189,1,140,10|2,1:2|2:3,0:0:0:0:
191,282,290608,2,0,L|211:130,1,140,8|2,1:2|2:2,0:0:0:0:
430,171,290908,2,0,L|410:19,1,140,8|2,1:2|2:3,0:0:0:0:
261,292,291208,2,0,L|281:140,1,140,10|2,1:2|2:2,0:0:0:0:
490,254,291508,6,0,L|330:245,1,140,10|2,1:2|2:3,0:0:0:0:
194,166,291733,2,0,L|289:161,1,70,2|8,1:2|2:2,0:0:0:0:
495,152,291958,1,2,1:2:0:0:
224,332,292108,6,0,P|63:293|116:39,1,420,2|2,1:2|2:2,0:0:0:0:
373,122,292708,6,0,L|131:132,1,210.000008010865,14|0,1:2|0:0,0:0:0:0:
88,138,292933,2,0,P|55:259|126:336,1,210.000008010865,10|0,1:2|0:0,0:0:0:0:
185,323,293158,2,0,L|425:307,1,210.000008010865,10|0,1:2|0:0,0:0:0:0:
308,238,293383,2,0,L|68:222,1,210.000008010865,10|0,1:2|0:0,0:0:0:0:
12,153,293608,2,0,L|279:163,1,245.000002336502,10|10,1:2|1:2,0:0:0:0:
391,171,293833,1,10,1:2:0:0:
141,53,293908,6,0,L|383:63,1,210.000008010865,14|0,1:2|0:0,0:0:0:0:
361,133,294133,2,0,L|147:125,1,210.000008010865,10|0,1:2|0:0,0:0:0:0:
140,194,294358,2,0,L|269:12,1,210.000008010865,10|0,1:2|0:0,0:0:0:0:
272,32,294583,2,0,L|144:215,1,210.000008010865,10|0,1:2|0:0,0:0:0:0:
201,48,294808,1,10,1:2:0:0:
491,50,294958,1,10,1:2:0:0:
408,51,295033,1,10,1:2:0:0:
239,136,295108,6,0,L|151:180,1,70,2|0,1:2|1:1,0:0:0:0:
348,215,295258,2,0,L|260:259,1,70,0|2,1:1|1:2,0:0:0:0:
115,268,295408,2,0,L|27:312,1,70,0|0,1:1|1:1,0:0:0:0:
224,347,295558,2,0,L|136:391,1,70,2|0,1:2|1:1,0:0:0:0:
333,44,295708,6,0,L|421:88,1,70,0|2,1:1|1:2,0:0:0:0:
223,82,295858,2,0,L|311:126,1,70,0|0,1:1|1:1,0:0:0:0:
236,171,296008,2,0,L|322:210,1,70,2|0,1:2|1:1,0:0:0:0:
129,253,296158,2,0,L|228:252,1,70,2|0,1:2|1:1,0:0:0:0:
362,308,296308,5,2,2:2:0:0:
382,241,296383,1,2,2:2:0:0:
365,174,296458,1,2,2:2:0:0:
316,125,296533,1,2,2:2:0:0:
223,229,296608,1,2,2:2:0:0:
181,171,296683,1,2,2:2:0:0:
168,102,296758,1,2,2:2:0:0:
190,35,296833,1,2,2:2:0:0:
299,54,296908,2,0,L|347:104,1,70,2|2,2:2|2:2,0:0:0:0:
184,293,297058,2,0,L|263:289,1,70,2|2,1:2|1:2,0:0:0:0:
89,196,297208,2,0,L|-21:201,3,70,10|2|2|2,2:2|2:2|2:2|2:2,0:0:0:0:
242,323,297508,6,0,B|24:274|24:274|283:261|481:-4|481:-4|485:72|485:72|387:28|219:40|219:40|321:230|321:230|248:166|108:114|54:121|14:141|-5:170|-6:232|4:298|37:339|90:356|90:356|233:384|233:384|90:357|90:357|37:339|4:298|24:274|24:274|505:142|505:142|24:58|24:58|12:38|12:38|-1:79|-1:79|500:161|500:161,1,3850,6|2,1:1|2:2,0:0:0:0:
171,330,306958,6,0,B|120:224|130:142|151:101|182:57|196:51|196:51|392:-18|536:134|464:363|464:363|291:244|142:237|142:237|91:31|91:31|482:196|482:196|512:62|512:62|375:66|375:66|449:255|449:255|322:364|66:306|22:45|22:45|-12:190|0:334|0:334|75:299|183:370,1,3360,2|0,2:2|0:0,0:0:0:0:
394,155,314308,6,0,B|448:130|501:142|501:142|452:99|446:79|437:39|461:21|461:21|493:35|505:59|512:105|493:153|471:176|423:218|366:230|366:230|334:184|334:184|285:214|285:214|255:171|255:171|202:204|202:204|268:295|268:295|315:270|315:270|383:365|383:365,1,1050,6|0,1:2|0:0,0:0:0:0:
256,192,323908,12,0,338308,0:0:0:0:
