osu file format v14

[General]
AudioFilename: audio.mp3
AudioLeadIn: 0
PreviewTime: -1
Countdown: 1
SampleSet: None
StackLeniency: 0.2
Mode: 0
LetterboxInBreaks: 0
WidescreenStoryboard: 0

[Editor]
Bookmarks: 63281
DistanceSpacing: 2.1
BeatDivisor: 8
GridSize: 32
TimelineZoom: 2.1

[Metadata]
Title:Railgun Roulette
TitleUnicode:Railgun Roulette
Artist:Camellia vs. Akira Complex
ArtistUnicode:Camellia vs. Akira Complex
Creator:Lokidoki
Version:danganronpa
Source:
Tags:
BeatmapID:1506210
BeatmapSetID:712579

[Difficulty]
HPDrainRate:6.5
CircleSize:2
OverallDifficulty:8.6
ApproachRate:9.3
SliderMultiplier:2.8
SliderTickRate:1

[Events]
//Background and Video events
0,0,"63060434_p0.jpg",0,0
//Break Periods
//Storyboard Layer 0 (Background)
//Storyboard Layer 1 (Fail)
//Storyboard Layer 2 (Pass)
//Storyboard Layer 3 (Foreground)
//Storyboard Sound Samples

[TimingPoints]
0,468.75,4,1,0,100,1,0
29414,-250,4,1,0,10,0,0
30000,-133.333333333333,4,1,0,10,0,0
45351,-100,4,1,0,10,0,0
45703,-133.333333333333,4,1,0,10,0,0
52031,-100,4,1,0,10,0,0
52500,-133.333333333333,4,1,0,10,0,0
54375,-100,4,1,0,10,0,0
61875,-250,4,1,0,10,0,0
62343,-100,4,1,0,10,0,0
67031,-250,4,1,0,10,0,0
67500,-100,4,1,0,10,0,0
69375,-250,4,1,0,10,0,0
69843,-100,4,1,0,10,0,0
71250,-250,4,1,0,10,0,0
71601,-100,4,1,0,10,0,0
73125,-250,4,1,0,10,0,0
73593,-100,4,1,0,10,0,0
75000,-250,4,1,0,10,0,0
75351,-100,4,1,0,10,0,0
76875,-250,4,1,0,10,0,0
77343,-100,4,1,0,10,0,0
78750,-250,4,1,0,10,0,0
79160,-100,4,1,0,10,0,0
82500,-250,4,1,0,10,0,0
82851,-100,4,1,0,10,0,0
84375,-250,4,1,0,10,0,0
84843,-100,4,1,0,10,0,0
86250,-250,4,1,0,10,0,0
86601,-100,4,1,0,10,0,0
90000,-250,4,1,0,10,0,0

[HitObjects]
256,192,26250,12,0,29062,0:0:0:0:
194,157,29414,6,0,L|192:136,2,14
149,251,29648,1,0,0:0:0:0:
258,239,29765,1,0,0:0:0:0:
252,252,29882,1,0,0:0:0:0:
186,56,30000,6,0,B|201:85|201:85|193:164,1,105.000004005432
54,230,30351,1,0,0:0:0:0:
54,230,30468,2,0,L|62:175,1,52.5000020027161
141,302,30703,1,0,0:0:0:0:
141,302,30820,2,0,L|149:247,1,52.5000020027161
260,200,31054,1,0,0:0:0:0:
260,200,31171,2,0,L|250:264,1,52.5000020027161
351,267,31406,2,0,L|343:321,3,52.5000020027161
458,154,31875,5,0,0:0:0:0:
458,154,31992,2,0,L|450:209,1,52.5000020027161
371,82,32227,1,0,0:0:0:0:
371,82,32344,2,0,L|363:137,1,52.5000020027161
252,184,32578,1,0,0:0:0:0:
252,184,32695,2,0,L|262:120,1,52.5000020027161
162,115,32930,2,0,L|170:61,2,52.5000020027161
64,97,33281,2,0,L|55:150,3,52.5000020027161
3,243,33750,6,0,B|60:228|99:263|99:263|150:311|219:303|259:258|259:258|312:202|378:217,1,367.500014019013
390,302,34687,2,0,B|452:325|452:325|461:95|461:95|389:126,1,367.500014019013
304,54,35625,5,0,0:0:0:0:
304,54,35742,2,0,L|241:56,1,52.5000020027161
248,156,35976,1,0,0:0:0:0:
248,156,36093,2,0,L|185:158,1,52.5000020027161
135,255,36328,1,0,0:0:0:0:
135,255,36445,2,0,L|194:252,1,52.5000020027161
192,352,36679,2,0,L|244:347,2,52.5000020027161
291,248,37031,2,0,L|350:246,3,52.5000020027161
463,283,37500,6,0,B|443:243|462:207|462:207|484:173|504:98|445:53|445:53|351:93|393:156|393:156,1,367.500014019013
301,203,38437,2,0,B|263:122|314:26|314:26|263:79|135:63,1,367.500014019013
32,42,39375,6,0,L|36:95,2,52.5000020027161
108,177,39726,1,0,0:0:0:0:
108,177,39843,2,0,L|114:241,1,52.5000020027161
219,284,40078,1,0,0:0:0:0:
219,284,40195,2,0,L|215:228,1,52.5000020027161
325,341,40429,1,0,0:0:0:0:
325,341,40546,2,0,L|322:279,1,52.5000020027161
428,281,40781,2,0,L|426:229,3,52.5000020027161
437,203,41250,6,0,B|414:244|414:244|278:237|278:237|248:182|248:182|284:132|284:132|355:137,1,367.500014019013
458,57,42187,2,0,B|240:35|240:35|145:154,1,367.500014019013
25,223,43125,2,0,P|89:140|96:293,1,367.500014019013
48,333,44062,6,0,L|169:324,1,105.000004005432
263,353,44414,1,0,0:0:0:0:
263,353,44531,2,0,B|246:311|246:311|263:257|263:257|245:191,1,157.500006008148
280,101,45000,5,0,0:0:0:0:
299,98,45117,1,0,0:0:0:0:
321,94,45234,2,0,L|336:155,1,52.5000020027161
421,256,45351,6,0,B|356:238|356:238|292:292,1,140
224,363,45703,5,0,0:0:0:0:
197,340,45820,2,0,L|134:344,1,52.5000020027161
294,258,46054,5,0,0:0:0:0:
267,235,46171,2,0,L|204:239,1,52.5000020027161
434,119,46406,1,0,0:0:0:0:
381,122,46523,1,0,0:0:0:0:
329,125,46640,1,0,0:0:0:0:
276,128,46757,1,0,0:0:0:0:
126,70,46875,5,0,0:0:0:0:
146,94,46992,2,0,B|163:121|163:121|139:155,1,52.5000020027161
75,230,47226,5,0,0:0:0:0:
55,254,47343,2,0,B|38:281|38:281|62:315,1,52.5000020027161
149,359,47578,5,0,0:0:0:0:
169,335,47695,2,0,B|186:308|186:308|162:274,1,52.5000020027161
75,230,47929,5,0,0:0:0:0:
55,254,48046,2,0,B|38:281|38:281|62:315,1,52.5000020027161
204,133,48281,1,0,0:0:0:0:
151,137,48398,1,0,0:0:0:0:
99,141,48515,1,0,0:0:0:0:
46,145,48632,1,0,0:0:0:0:
87,25,48750,5,0,0:0:0:0:
112,31,48867,2,0,L|177:39,1,52.5000020027161
204,133,49101,5,0,0:0:0:0:
229,127,49218,2,0,L|294:119,1,52.5000020027161
382,84,49453,2,0,B|399:113|399:113|374:157,2,52.5000020027161
327,207,49804,2,0,B|310:236|310:236|335:280,2,52.5000020027161
423,343,50156,1,0,0:0:0:0:
370,347,50273,1,0,0:0:0:0:
318,352,50390,1,0,0:0:0:0:
266,356,50507,1,0,0:0:0:0:
146,256,50625,5,0,0:0:0:0:
217,197,50742,2,0,B|239:226|239:226|233:290,1,52.5000020027161
223,78,50976,5,0,0:0:0:0:
314,86,51093,2,0,B|309:122|309:122|259:163,1,52.5000020027161
131,65,51328,1,0,0:0:0:0:
223,78,51445,1,0,0:0:0:0:
131,65,51562,2,0,L|78:70,1,52.5000020027161
217,197,51796,2,0,L|164:192,1,52.5000020027161
80,330,52031,1,0,0:0:0:0:
105,307,52148,2,0,P|174:286|236:351,1,140
340,369,52500,6,0,L|333:293,3,52.5000020027161
435,241,52968,6,0,L|442:165,3,52.5000020027161
495,71,53437,5,0,0:0:0:0:
442,76,53554,1,0,0:0:0:0:
390,81,53671,1,0,0:0:0:0:
338,86,53788,1,0,0:0:0:0:
286,201,53906,5,0,0:0:0:0:
199,188,54023,1,0,0:0:0:0:
112,176,54140,1,0,0:0:0:0:
26,164,54257,1,0,0:0:0:0:
83,92,54375,6,0,L|79:18,3,70
199,188,54843,6,0,L|202:261,3,70
291,237,55312,5,0,0:0:0:0:
334,313,55429,1,0,0:0:0:0:
278,380,55546,1,0,0:0:0:0:
196,351,55663,1,0,0:0:0:0:
201,257,55781,5,0,0:0:0:0:
230,175,55898,1,0,0:0:0:0:
163,119,56015,1,0,0:0:0:0:
87,162,56132,1,0,0:0:0:0:
105,254,56250,6,0,L|108:289,4,35
230,175,56601,6,0,L|227:210,4,35
346,243,56953,6,0,L|349:278,4,35
478,173,57304,6,0,L|475:208,4,35
375,79,57656,6,0,L|372:44,4,35
400,276,58007,5,0,0:0:0:0:
366,282,59296,5,0,0:0:0:0:
297,343,59413,1,0,0:0:0:0:
319,358,59531,5,0,0:0:0:0:
267,229,59648,2,0,L|170:239,1,70
307,131,59882,1,0,0:0:0:0:
393,221,60000,6,0,B|405:258|405:258|400:308,1,70
280,129,60234,1,0,0:0:0:0:
424,132,60351,1,0,0:0:0:0:
257,106,60468,6,0,L|169:103,1,70
295,251,60703,1,0,0:0:0:0:
407,112,60820,1,0,0:0:0:0:
274,221,60937,2,0,L|192:217,1,70
120,309,61171,1,0,0:0:0:0:
120,309,61289,2,0,L|49:314,1,70
85,157,61523,1,0,0:0:0:0:
154,159,61640,1,0,0:0:0:0:
224,161,61757,1,0,0:0:0:0:
324,167,61875,6,0,L|320:207,1,28
435,136,62109,2,0,L|431:176,1,28
309,312,62343,5,0,0:0:0:0:
426,269,62460,1,0,0:0:0:0:
296,338,62578,2,0,L|213:337,1,70
321,194,62812,1,0,0:0:0:0:
445,254,62929,2,0,L|442:341,1,70
299,180,63164,1,0,0:0:0:0:
451,128,63281,2,0,L|448:215,1,70
361,68,63515,2,0,L|358:32,2,35
281,165,63750,6,0,B|217:197|217:197|137:160,1,140
212,81,64101,1,0,0:0:0:0:
212,81,64160,1,0,0:0:0:0:
212,81,64218,2,0,L|209:6,1,70
303,152,64453,1,0,0:0:0:0:
223,258,64570,2,0,L|126:261,1,70
72,122,64804,1,0,0:0:0:0:
72,122,64921,2,0,L|146:127,1,70
229,294,65156,2,0,L|154:298,1,70
303,152,65390,5,0,0:0:0:0:
306,181,65507,1,0,0:0:0:0:
213,104,65625,6,0,B|198:70|198:70|208:38,1,70
396,35,65859,1,0,0:0:0:0:
396,35,65976,2,0,B|406:67|406:67|391:101,1,70
303,152,66210,1,0,0:0:0:0:
303,126,66328,1,0,0:0:0:0:
341,259,66445,2,0,L|238:259,1,70
233,152,66679,1,0,0:0:0:0:
233,152,66796,2,0,L|304:152,1,70
133,198,67031,6,0,B|118:158|118:158|133:105,1,84
145,92,67441,5,0,0:0:0:0:
145,91,67500,2,0,L|142:238,1,140
218,330,67851,1,0,0:0:0:0:
269,208,67968,1,0,0:0:0:0:
269,208,68085,1,0,0:0:0:0:
119,326,68203,5,0,0:0:0:0:
311,294,68320,1,0,0:0:0:0:
311,294,68437,1,0,0:0:0:0:
311,294,68554,1,0,0:0:0:0:
146,188,68671,2,0,L|76:193,1,70
235,99,68906,1,0,0:0:0:0:
318,191,69023,2,0,L|352:189,1,35
366,211,69140,2,0,L|400:209,1,35
398,231,69257,2,0,L|432:229,1,35
489,328,69375,6,0,B|459:345|459:345|403:321,1,84
292,245,69843,5,0,0:0:0:0:
292,245,69960,2,0,L|295:324,1,70
198,191,70195,1,0,0:0:0:0:
235,99,70312,1,0,0:0:0:0:
196,286,70429,1,0,0:0:0:0:
196,286,70546,1,0,0:0:0:0:
108,237,70664,1,0,0:0:0:0:
115,138,70781,1,0,0:0:0:0:
201,96,70898,1,0,0:0:0:0:
290,145,71015,2,0,L|332:143,2,35
285,240,71250,6,0,L|376:235,1,84
461,286,71660,5,0,0:0:0:0:
461,286,71718,2,0,B|485:218|485:218|435:143,1,140
365,80,72070,2,0,L|285:86,1,70
261,253,72304,1,0,0:0:0:0:
382,234,72421,1,0,0:0:0:0:
382,234,72539,2,0,L|310:245,1,70
211,116,72773,1,0,0:0:0:0:
211,116,72832,1,0,0:0:0:0:
211,116,72890,2,0,L|255:124,2,35
100,281,73125,6,0,B|142:268|142:268|183:282,1,84
142,372,73593,1,0,0:0:0:0:
38,203,73710,2,0,L|111:180,1,70
227,296,73945,2,0,B|288:308|288:308|443:283,1,210
464,309,74355,1,0,0:0:0:0:
464,309,74414,2,0,B|488:156|488:156|343:166,1,280
254,52,75000,6,0,L|322:48,1,56
217,156,75351,1,0,0:0:0:0:
133,75,75468,1,0,0:0:0:0:
213,184,75585,2,0,L|287:181,1,70
142,281,75820,1,0,0:0:0:0:
217,156,75937,1,0,0:0:0:0:
295,288,76054,2,0,B|308:321|308:321|289:365,1,70
150,265,76289,1,0,0:0:0:0:
334,180,76406,1,0,0:0:0:0:
254,52,76523,1,0,0:0:0:0:
184,58,76640,1,0,0:0:0:0:
114,64,76757,1,0,0:0:0:0:
12,103,76875,6,0,L|14:63,1,28
94,190,77109,2,0,L|96:150,1,28
30,284,77343,5,0,0:0:0:0:
170,271,77460,1,0,0:0:0:0:
30,284,77578,2,0,L|33:361,1,70
185,240,77812,1,0,0:0:0:0:
30,284,77929,2,0,L|27:213,1,70
23,76,78164,1,0,0:0:0:0:
23,76,78281,2,0,B|59:85|59:85|113:75,1,70
201,47,78515,2,0,L|197:8,2,35
177,158,78750,6,0,B|213:153|213:153|250:160,1,70
279,181,79101,1,0,0:0:0:0:
279,181,79160,2,0,P|220:200|201:312,1,175
378,215,79570,2,0,B|391:184|391:184|375:133,1,70
303,321,79804,1,0,0:0:0:0:
303,321,79921,1,0,0:0:0:0:
423,372,80039,2,0,L|493:369,1,70
370,130,80273,2,0,L|440:133,1,70
512,137,80507,1,0,0:0:0:0:
328,218,80625,6,0,B|284:206|261:228|261:228|218:248|166:222,1,140
108,304,80976,1,0,0:0:0:0:
149,180,81093,2,0,P|171:198|195:237,1,70
71,121,81328,1,0,0:0:0:0:
165,69,81445,2,0,L|248:61,2,70
316,133,81796,1,0,0:0:0:0:
334,23,81914,1,0,0:0:0:0:
359,165,82031,6,0,L|361:249,1,70
498,111,82265,1,0,0:0:0:0:
498,111,82324,1,0,0:0:0:0:
498,111,82382,1,0,0:0:0:0:
498,111,82441,1,0,0:0:0:0:
498,111,82500,6,0,B|492:82|492:82|500:54,1,56
508,235,82851,6,0,L|427:240,1,70
339,316,83085,1,0,0:0:0:0:
377,152,83203,1,0,0:0:0:0:
404,342,83320,2,0,L|309:345,1,70
377,152,83554,1,0,0:0:0:0:
420,246,83671,1,0,0:0:0:0:
268,205,83789,1,0,0:0:0:0:
251,213,83906,6,0,L|253:287,1,70
160,152,84140,2,0,L|159:115,2,35
53,280,84375,6,0,L|51:197,1,84
157,70,84843,5,0,0:0:0:0:
162,240,84960,1,0,0:0:0:0:
309,162,85078,1,0,0:0:0:0:
309,162,85195,1,0,0:0:0:0:
217,145,85312,5,0,0:0:0:0:
248,314,85429,1,0,0:0:0:0:
388,192,85546,2,0,L|293:201,1,70
231,51,85781,2,0,L|305:55,1,70
388,192,86015,2,0,L|427:187,2,35
253,294,86250,6,0,L|244:230,1,56
256,202,86542,1,0,0:0:0:0:
256,202,86601,2,0,L|277:358,1,140
398,256,86953,1,0,0:0:0:0:
251,161,87070,2,0,B|220:189|164:173|164:173|190:198|190:198|94:211|27:170,1,280
14,59,87656,5,0,0:0:0:0:
117,80,87773,1,0,0:0:0:0:
117,80,87832,1,0,0:0:0:0:
117,80,87890,1,0,0:0:0:0:
204,29,88007,1,0,0:0:0:0:
117,80,88125,6,0,L|112:165,1,70
257,213,88359,2,0,L|248:144,1,70
188,225,88593,2,0,L|287:207,1,70
343,134,88828,2,0,L|355:202,1,70
321,299,89062,1,0,0:0:0:0:
321,299,89179,1,0,0:0:0:0:
321,299,89296,1,0,0:0:0:0:
236,338,89414,1,0,0:0:0:0:
165,285,89531,1,0,0:0:0:0:
75,336,89648,1,0,0:0:0:0:
22,242,89765,1,0,0:0:0:0:
22,242,89824,1,0,0:0:0:0:
22,242,89882,2,0,L|18:199,1,35
12,153,90000,6,0,B|42:163|42:163|69:147|69:147|138:169|173:126|147:89,1,196
