osu file format v14

[General]
AudioFilename: audio.mp3
AudioLeadIn: 0
PreviewTime: 56295
Countdown: 0
SampleSet: Soft
StackLeniency: 0.4
Mode: 0
LetterboxInBreaks: 0
WidescreenStoryboard: 1

[Editor]
Bookmarks: 30045,35670,37545,38599,43170,45045,47740,52545,58170,60045,75045,90045,105045,120045,131295
DistanceSpacing: 1.2
BeatDivisor: 4
GridSize: 32
TimelineZoom: 1.6

[Metadata]
Title:Railgun Roulette
TitleUnicode:Railgun Roulette
Artist:Camellia vs. Akira Complex
ArtistUnicode:かめりあ vs. Akira Complex
Creator:ErunamoJAZZ
Version:Yoari's Insane
Source:
Tags:dubstep experimental S2TB c91 Reality Distortion TANO*C Sebastian343 Rugakot Yoari
BeatmapID:2200762
BeatmapSetID:567069

[Difficulty]
HPDrainRate:4.4
CircleSize:4
OverallDifficulty:6.5
ApproachRate:9.2
SliderMultiplier:1.8
SliderTickRate:1

[Events]
//Background and Video events
0,0,"1485900451117.png",0,0
//Break Periods
//Storyboard Layer 0 (Background)
//Storyboard Layer 1 (Fail)
//Storyboard Layer 2 (Pass)
//Storyboard Layer 3 (Foreground)
//Storyboard Layer 4 (Overlay)
//Storyboard Sound Samples

[TimingPoints]
45,468.75,4,2,0,70,1,0
52545,-100,4,2,0,60,0,0
53482,-100,4,2,0,50,0,0
54420,-100,4,2,0,40,0,0
55357,-100,4,2,0,30,0,0
56295,-100,4,2,0,70,0,0
58170,-100,4,2,0,70,0,0
59107,-100,4,2,0,70,0,0
59576,-83.3333333333333,4,2,0,70,0,0
59810,-76.9230769230769,4,2,0,70,0,0
60045,-58.8235294117647,4,2,0,70,0,1
60513,-100,4,2,0,70,0,1
61920,-66.6666666666667,4,2,0,70,0,1
62388,-100,4,2,0,70,0,1
63795,-58.8235294117647,4,2,0,70,0,1
64263,-100,4,2,0,70,0,1
65084,-58.8235294117647,4,2,0,70,0,1
65670,-66.6666666666667,4,2,0,70,0,1
66021,-100,4,2,0,70,0,1
67076,-58.8235294117647,4,2,0,70,0,1
67545,-66.6666666666667,4,2,0,70,0,1
68013,-100,4,2,0,70,0,1
69420,-58.8235294117647,4,2,0,70,0,1
69888,-100,4,2,0,70,0,1
71295,-58.8235294117647,4,2,0,70,0,1
71763,-100,4,2,0,70,0,1
72115,-76.9230769230769,4,2,0,70,0,1
72466,-100,4,2,0,70,0,1
73170,-76.9230769230769,4,2,0,70,0,1
73638,-100,4,2,0,70,0,1
73990,-66.6666666666667,4,2,0,30,0,0
75045,-55.5555555555556,4,2,0,70,0,1
75513,-100,4,2,0,70,0,1
76920,-76.9230769230769,4,2,0,70,0,1
77388,-100,4,2,0,70,0,1
78795,-76.9230769230769,4,2,0,70,0,1
79263,-100,4,2,0,70,0,1
80084,-58.8235294117647,4,2,0,70,0,1
80670,-66.6666666666667,4,2,0,70,0,1
81021,-100,4,2,0,70,0,1
82076,-58.8235294117647,4,2,0,70,0,1
82545,-66.6666666666667,4,2,0,70,0,1
83013,-100,4,2,0,70,0,1
84420,-58.8235294117647,4,2,0,70,0,1
84888,-100,4,2,0,70,0,1
86295,-58.8235294117647,4,2,0,70,0,1
86763,-100,4,2,0,70,0,1
87115,-58.8235294117647,4,2,0,70,0,1
88170,-76.9230769230769,4,2,0,70,0,1
88404,-100,4,2,0,70,0,0
89810,-66.6666666666667,4,2,0,70,0,0
90045,-58.8235294117647,4,2,0,70,0,0
90982,-50,4,2,0,70,0,0
91920,-58.8235294117647,4,2,0,70,0,0
92857,-58.8235294117647,4,2,0,70,0,0
93267,-58.8235294117647,4,2,0,70,0,0
93326,-58.8235294117647,4,2,0,70,0,0
93736,-58.8235294117647,4,2,0,70,0,0
93795,-66.6666666666667,4,2,0,70,0,0
94732,-100,4,2,0,70,0,0
95201,-100,4,2,0,70,0,0
96021,-66.6666666666667,4,2,0,70,0,0
96490,-100,4,2,0,70,0,0
97545,-58.8235294117647,4,2,0,70,0,0
98482,-50,4,2,0,70,0,0
99420,-58.8235294117647,4,2,0,70,0,0
101763,-66.6666666666667,4,2,0,70,0,0
105045,-58.8235294117647,4,2,0,70,0,0
105162,-58.8235294117647,4,2,0,50,0,0
105279,-58.8235294117647,4,2,0,30,0,0
105982,-100,4,2,0,70,0,0
106920,-58.8235294117647,4,2,0,70,0,0
108267,-58.8235294117647,4,2,0,70,0,0
108326,-58.8235294117647,4,2,0,70,0,0
108736,-58.8235294117647,4,2,0,70,0,0
108795,-66.6666666666667,4,2,0,70,0,0
109029,-58.8235294117647,4,2,0,70,0,0
109263,-66.6666666666667,4,2,0,70,0,0
110084,-58.8235294117647,4,2,0,70,0,0
111138,-66.6666666666667,4,2,0,70,0,0
112545,-58.8235294117647,4,2,0,70,0,0
113013,-66.6666666666667,4,2,0,70,0,0
113482,-100,4,2,0,70,0,0
114420,-58.8235294117647,4,2,0,70,0,0
115357,-66.6666666666667,4,2,0,70,0,0
116295,-58.8235294117647,4,2,0,70,0,0
119107,-100,4,2,0,70,0,0
120982,-100,4,2,0,65,0,0
121920,-100,4,2,0,60,0,0
122857,-100,4,2,0,55,0,0
123795,-100,4,2,0,50,0,0
124732,-100,4,2,0,45,0,0
125670,-100,4,2,0,40,0,0
126607,-100,4,2,0,35,0,0
127545,-100,4,2,0,30,0,0

[Colours]
Combo1 : 0,255,0
Combo2 : 0,255,255
Combo3 : 255,0,128
Combo4 : 219,219,219
Combo5 : 255,255,0
Combo6 : 77,77,77

[HitObjects]
52,302,29459,6,0,L|12:296,2,22.5,8|8|8,0:3|0:3|0:3,0:0:0:0:
96,305,29693,1,8,0:3:0:0:
147,277,29810,1,8,0:3:0:0:
166,207,29927,1,8,0:3:0:0:
112,139,30045,6,0,L|103:84,2,45,6|2|0,0:2|0:0|0:0,0:0:0:0:
192,31,30396,1,2,0:0:0:0:
192,31,30513,2,0,L|185:75,1,45,2|0,0:0|0:0,0:0:0:0:
271,137,30748,1,2,0:0:0:0:
271,137,30865,2,0,L|278:93,1,45,2|0,0:0|0:0,0:0:0:0:
363,30,31099,1,2,0:0:0:0:
363,30,31216,2,0,L|370:75,1,45,2|0,0:0|0:0,0:0:0:0:
446,186,31451,5,2,0:0:0:0:
420,177,31568,1,2,0:0:0:0:
393,176,31685,1,0,0:0:0:0:
368,185,31802,1,0,0:0:0:0:
408,261,31920,5,2,0:0:0:0:
382,269,32037,2,0,P|352:270|330:261,1,45,2|0,0:0|0:0,0:0:0:0:
285,345,32271,1,2,0:0:0:0:
265,326,32388,2,0,P|249:300|245:276,1,45,2|0,0:0|0:0,0:0:0:0:
150,279,32623,1,2,0:0:0:0:
157,253,32740,2,0,P|171:226|189:211,1,45,2|0,0:0|0:0,0:0:0:0:
140,129,32974,1,2,0:0:0:0:
166,122,33091,2,0,P|195:121|217:130,1,45,2|0,0:0|0:0,0:0:0:0:
368,138,33326,37,2,0:2:0:0:
331,129,33443,1,2,0:2:0:0:
323,166,33560,1,0,0:0:0:0:
359,174,33677,1,0,0:0:0:0:
454,129,33795,6,0,L|447:64,2,45,2|2|0,0:0|0:0|0:0,0:0:0:0:
454,255,34146,2,0,L|447:320,2,45,2|2|0,0:0|0:0|0:0,0:0:0:0:
365,113,34498,2,0,L|358:48,2,45,2|2|0,0:0|0:0|0:0,0:0:0:0:
365,271,34849,2,0,L|358:336,2,45,2|2|0,0:0|0:0|0:0,0:0:0:0:
216,213,35201,5,2,0:0:0:0:
205,236,35318,1,2,0:0:0:0:
203,263,35435,1,0,0:0:0:0:
211,289,35552,1,0,0:0:0:0:
115,340,35670,5,2,0:0:0:0:
123,318,35787,2,0,P|127:280|109:248,1,45,2|0,0:0|0:0,0:0:0:0:
77,169,36021,1,2,0:0:0:0:
99,169,36138,2,0,P|135:161|160:135,1,45,2|0,0:0|0:0,0:0:0:0:
227,79,36373,1,2,0:0:0:0:
234,101,36490,2,0,P|252:133|285:149,1,45,2|0,0:0|0:0,0:0:0:0:
359,194,36724,1,2,0:0:0:0:
340,207,36841,2,0,P|314:234|309:270,1,45,2|0,0:0|0:0,0:0:0:0:
290,355,37076,1,2,0:0:0:0:
272,342,37193,2,0,P|237:326|202:333,2,45,2|0|0,0:0|0:0|0:0,0:0:0:0:
20,290,37545,37,2,0:0:0:0:
55,283,37662,2,0,L|101:274,1,45,2|0,0:0|0:0,0:0:0:0:
204,217,37896,1,2,0:0:0:0:
169,210,38013,2,0,L|122:201,1,45,2|0,0:0|0:0,0:0:0:0:
20,144,38248,1,2,0:0:0:0:
55,137,38365,2,0,L|101:128,1,45,2|0,0:0|0:0,0:0:0:0:
204,71,38599,1,2,0:0:0:0:
169,64,38716,2,0,L|122:55,1,45,2|0,0:0|0:0,0:0:0:0:
251,151,38951,5,2,0:2:0:0:
282,119,39068,1,2,0:2:0:0:
295,76,39185,1,0,0:0:0:0:
288,32,39302,1,0,0:0:0:0:
251,151,39420,6,0,L|259:197,2,45,2|2|0,0:0|0:0|0:0,0:0:0:0:
278,325,39771,2,0,L|285:280,2,45,2|2|0,0:0|0:0|0:0,0:0:0:0:
333,155,40123,2,0,L|341:201,2,45,2|2|0,0:0|0:0|0:0,0:0:0:0:
360,329,40474,2,0,L|367:284,2,45,2|2|0,0:0|0:0|0:0,0:0:0:0:
415,159,40826,2,0,L|423:205,3,45,2|0|0|0,0:0|0:0|0:0|0:0,0:0:0:0:
442,333,41295,5,2,0:0:0:0:
442,333,41412,2,0,L|449:288,1,45,2|0,0:0|0:0,0:0:0:0:
512,240,41646,1,2,0:0:0:0:
512,240,41763,2,0,L|477:211,1,45,2|0,0:0|0:0,0:0:0:0:
466,132,41998,1,2,0:0:0:0:
466,132,42115,2,0,L|423:147,1,45,2|0,0:0|0:0,0:0:0:0:
349,118,42349,1,2,0:0:0:0:
349,118,42466,2,0,L|341:162,1,45,2|0,0:0|0:0,0:0:0:0:
278,212,42701,1,2,0:0:0:0:
278,212,42818,2,0,L|312:240,2,45,2|0|0,0:0|0:0|0:0,0:0:0:0:
249,313,43170,37,2,0:0:0:0:
225,299,43287,1,2,0:0:0:0:
199,294,43404,1,0,0:0:0:0:
150,325,43521,5,2,0:0:0:0:
124,315,43638,1,2,0:0:0:0:
97,315,43755,1,0,0:0:0:0:
49,342,43873,5,2,0:0:0:0:
45,315,43990,1,2,0:0:0:0:
41,288,44107,1,0,0:0:0:0:
66,241,44224,5,2,0:0:0:0:
69,214,44341,1,2,0:0:0:0:
73,187,44458,1,0,0:0:0:0:
76,160,44576,2,0,L|83:108,3,45,2|2|0|0,0:0|0:0|0:0|0:0,0:0:0:0:
152,255,45045,38,0,P|202:234|266:261,1,90,2|0,3:3|3:0,0:0:0:0:
326,277,45396,1,0,3:0:0:0:
326,277,45513,2,0,L|306:162,1,90,8|0,1:2|0:0,0:0:0:0:
255,106,45865,2,0,L|268:27,2,45,2|0|0,3:3|0:0|0:0,0:0:0:0:
181,169,46216,5,2,3:3:0:0:
204,190,46334,1,0,0:0:0:0:
172,200,46451,2,0,B|125:210|125:210|76:189,1,90,8|0,1:2|0:0,0:0:0:0:
46,55,46920,2,0,P|111:109|113:150,1,90,2|0,3:3|0:0,0:0:0:0:
86,193,47271,1,0,0:0:0:0:
86,193,47388,2,0,L|71:281,1,90,8|0,1:2|0:0,0:0:0:0:
169,218,47740,6,0,L|176:262,4,45,2|0|2|2|0,3:3|0:0|0:3|0:3|0:0,0:0:0:0:
209,63,48326,1,8,0:0:0:0:
204,88,48443,2,0,L|197:133,1,45,2|0,1:2|3:3,0:0:0:0:
369,44,48795,6,0,P|356:105|389:155,1,90,2|0,3:3|0:0,0:0:0:0:
436,175,49146,1,0,3:0:0:0:
436,175,49263,2,0,P|389:133|329:136,1,90,8|0,1:2|0:0,0:0:0:0:
313,268,49615,2,0,L|265:277,4,45,2|0|0|2|0,3:3|3:0|0:0|0:3|0:0,0:0:0:0:
387,319,50201,2,0,L|431:327,2,45,8|0|0,1:2|0:0|0:0,0:0:0:0:
512,163,50670,38,0,L|413:180,1,90,2|0,3:3|0:0,0:0:0:0:
360,110,51021,1,0,0:0:0:0:
360,110,51138,2,0,P|278:139|268:157,1,90,8|0,1:2|0:0,0:0:0:0:
192,197,51490,2,0,B|199:152|199:152|170:93,1,90,2|0,3:3|0:0,0:0:0:0:
95,60,51841,2,0,B|88:105|88:105|117:164,1,90,2|8,0:3|1:2,0:0:0:0:
116,162,52193,1,2,0:3:0:0:
0,316,52545,5,0,1:0:0:0:
22,312,52662,1,0,1:0:0:0:
44,309,52779,1,0,1:0:0:0:
66,305,52896,1,0,1:0:0:0:
133,341,53013,5,0,1:0:0:0:
139,319,53130,1,0,1:0:0:0:
140,297,53247,1,0,1:0:0:0:
134,275,53364,1,0,1:0:0:0:
83,220,53482,5,0,1:3:0:0:
73,194,53599,1,0,1:0:0:0:
71,168,53716,1,0,1:0:0:0:
76,141,53833,1,0,1:0:0:0:
34,76,53951,37,0,1:0:0:0:
58,66,54068,1,0,1:0:0:0:
85,65,54185,1,0,1:0:0:0:
111,73,54302,1,0,1:0:0:0:
163,130,54420,5,0,1:0:0:0:
189,125,54537,1,0,1:0:0:0:
216,120,54654,1,0,1:0:0:0:
242,116,54771,1,0,1:0:0:0:
295,61,54888,5,0,1:0:0:0:
326,66,55005,1,0,1:0:0:0:
357,71,55122,1,0,1:0:0:0:
388,77,55239,1,0,1:0:0:0:
446,29,55357,5,0,1:0:0:0:
460,57,55474,1,0,1:0:0:0:
462,88,55591,1,0,1:0:0:0:
451,118,55708,1,0,1:0:0:0:
387,154,55826,37,0,1:0:0:0:
393,194,55943,1,0,1:0:0:0:
400,235,56060,1,0,1:0:0:0:
407,276,56177,1,0,1:0:0:0:
414,317,56295,6,0,L|420:350,7,22.5,0|0|0|0|0|0|0|0,3:0|3:0|3:0|3:0|3:0|3:0|3:0|3:0,0:0:0:0:
341,345,56763,6,0,L|315:366,7,22.5,0|0|0|0|0|0|0|0,3:0|3:0|3:0|3:0|3:0|3:0|3:0|3:0,0:0:0:0:
280,295,57232,6,0,L|248:283,7,22.5,0|0|0|0|0|0|0|0,3:0|3:0|3:0|3:0|3:0|3:0|3:0|3:0,0:0:0:0:
292,217,57701,38,0,L|286:184,7,22.5,0|0|0|0|0|0|0|0,3:0|3:0|3:0|3:0|3:0|3:0|3:0|3:0,0:0:0:0:
365,188,58170,5,4,3:0:0:0:
341,345,58404,2,0,B|300:362|300:362|223:351,2,90,2|2|0,0:2|0:2|0:2,0:0:0:0:
117,296,59107,2,0,L|177:288,1,45,2|0,0:2|0:0,0:0:0:0:
234,222,59341,5,0,0:2:0:0:
278,216,59458,1,0,0:2:0:0:
251,181,59576,2,0,L|239:91,1,53.9999983520508,2|0,0:2|0:2,0:0:0:0:
277,39,59810,2,0,P|231:33|199:49,1,58.4999973220826,2|0,0:3|0:2,0:0:0:0:
156,295,60045,38,0,B|103:325|103:325|114:255|114:255|108:258|108:258|119:105,1,229.500004377365,0|0,1:0|0:0,0:0:0:0:
279,324,60513,2,0,L|269:253,1,45,2|2,1:2|0:2,0:0:0:0:
261,189,60748,1,0,0:2:0:0:
257,162,60865,1,2,1:2:0:0:
253,135,60982,2,0,L|243:64,1,45,2|0,0:2|0:2,0:0:0:0:
439,35,61216,5,2,0:2:0:0:
422,75,61333,1,2,0:2:0:0:
470,142,61451,5,0,1:2:0:0:
432,118,61568,1,2,0:2:0:0:
388,110,61685,1,2,0:2:0:0:
344,120,61802,1,0,0:2:0:0:
322,198,61920,6,0,B|291:212|291:212|230:203,1,67.5000025749208,2|0,0:3|0:3,0:0:0:0:
126,146,62154,2,0,B|157:132|157:132|218:141,1,67.5000025749208,2|0,0:3|0:3,0:0:0:0:
395,306,62388,6,0,L|324:296,1,45,0|2,1:2|0:2,0:0:0:0:
260,288,62623,1,2,0:2:0:0:
233,283,62740,1,0,1:2:0:0:
206,280,62857,2,0,L|135:270,1,45,2|2,0:2|0:2,0:0:0:0:
76,281,63091,5,0,0:2:0:0:
91,324,63208,1,2,0:2:0:0:
161,273,63326,5,2,1:2:0:0:
183,233,63443,1,8,0:3:0:0:
181,174,63560,1,2,3:0:0:0:
135,118,63677,1,2,3:0:0:0:
52,112,63795,6,0,B|38:147|61:202|61:202|47:231|47:231|72:293|34:338,1,229.500004377365,4|0,0:3|3:3,0:0:0:0:
44,337,64205,1,0,3:3:0:0:
48,343,64263,2,0,L|113:353,1,45,0|2,1:3|0:3,0:0:0:0:
322,275,64498,5,0,3:3:0:0:
247,264,64615,1,0,3:3:0:0:
172,253,64732,5,0,3:3:0:0:
172,264,64849,1,0,0:0:0:0:
174,275,64966,1,0,0:0:0:0:
123,186,65084,6,0,B|113:152|113:152|125:63,1,76.5000014591217,2|0,0:3|1:3,0:0:0:0:
246,115,65318,2,0,P|191:150|257:160,1,153.000002918243,2|0,0:3|0:3,0:0:0:0:
309,14,65670,2,0,B|309:61|339:100|339:100|323:121|332:157,1,135.000005149842,0|0,1:0|3:0,0:0:0:0:
430,251,66021,5,0,3:0:0:0:
502,223,66138,1,0,3:0:0:0:
442,173,66255,2,0,L|433:101,1,45,2|0,0:3|0:0,0:0:0:0:
435,257,66490,5,0,1:0:0:0:
354,245,66607,1,0,3:0:0:0:
274,233,66724,1,0,3:0:0:0:
194,221,66841,2,0,B|188:198|188:198|209:150,1,45,0|2,3:0|0:3,0:0:0:0:
254,318,67076,2,0,B|217:305|217:305|180:313,1,76.5000014591217,0|2,1:0|3:3,0:0:0:0:
79,338,67310,2,0,B|42:346,3,38.2500007295609,2|0|0|0,3:0|3:0|3:0|3:0,0:0:0:0:
3,236,67545,38,0,B|91:247|91:247|84:252|84:252|208:233,1,202.500007724762,4|0,0:1|0:0,0:0:0:0:
168,68,68013,5,2,1:2:0:0:
140,82,68130,1,2,0:2:0:0:
109,90,68247,1,0,0:2:0:0:
78,91,68364,1,2,1:2:0:0:
57,18,68482,5,2,0:2:0:0:
19,41,68599,1,0,0:2:0:0:
1,81,68716,1,2,0:2:0:0:
8,125,68833,1,2,0:2:0:0:
39,157,68951,2,0,L|105:167,1,45,0|2,1:2|0:2,0:0:0:0:
254,231,69185,5,0,0:2:0:0:
302,172,69302,1,2,0:2:0:0:
275,100,69420,2,0,B|273:44|273:44|349:92|349:92|441:95|441:95|403:152,1,306.000005836487,2|2,0:3|1:2,0:0:0:0:
288,296,70005,38,0,L|298:352,2,45,2|0|2,0:2|0:2|1:2,0:0:0:0:
143,223,70357,5,2,0:2:0:0:
122,262,70474,1,0,0:2:0:0:
168,329,70591,5,2,0:2:0:0:
129,305,70708,1,2,0:2:0:0:
85,300,70825,1,0,1:2:0:0:
43,315,70942,1,8,0:3:0:0:
10,346,71060,2,0,L|3:381,3,22.5,2|0|0|0,0:3|0:0|0:0|0:0,0:0:0:0:
282,371,71295,6,0,B|264:276|264:276|268:284|268:284|274:254|292:214|292:214|254:242|217:221,1,229.500004377365,4|0,0:3|3:0,0:0:0:0:
242,219,71705,1,0,3:0:0:0:
238,208,71763,2,0,L|234:155,1,45,0|0,1:0|0:0,0:0:0:0:
296,28,71998,37,0,3:0:0:0:
301,19,72115,2,0,B|359:51|345:112|345:112|367:134|367:134|364:204,1,175.499991966248,2|0,1:3|0:0,0:0:0:0:
385,304,72701,1,0,1:0:0:0:
385,304,72818,2,0,L|387:271,2,22.5,0|0|2,3:0|3:0|3:0,0:0:0:0:
492,117,73052,5,2,3:0:0:0:
492,117,73170,2,0,B|429:136|429:136|427:131|427:131|333:126|333:126|354:146,1,175.499991966248,0|0,1:3|3:0,0:0:0:0:
246,259,73638,5,0,1:0:0:0:
331,230,73755,1,0,3:0:0:0:
264,171,73873,1,0,3:0:0:0:
313,318,73990,22,0,B|215:307|246:393|143:370|143:370|210:307|185:253|185:253|211:235|211:235|174:198|126:214|126:214|96:166|46:173,1,540.000020599366,4|0,1:3|0:0,0:0:0:0:
33,72,75045,6,0,B|77:55|126:84|126:84|150:70|150:70|194:108|288:79,1,242.999992584229,4|0,0:1|0:0,0:0:0:0:
366,23,75513,5,2,1:2:0:0:
370,67,75630,1,2,0:2:0:0:
375,112,75747,1,0,0:2:0:0:
380,157,75864,1,2,1:2:0:0:
398,236,75982,5,2,0:2:0:0:
406,193,76099,1,0,0:2:0:0:
380,157,76216,1,2,0:2:0:0:
337,153,76333,1,2,0:2:0:0:
305,183,76451,2,0,L|245:193,2,45,0|2|2,1:2|0:2|0:2,0:0:0:0:
386,314,76802,5,0,0:2:0:0:
386,314,76920,2,0,B|397:286|397:286|392:225,1,58.4999973220826,2|0,0:3|0:0,0:0:0:0:
313,126,77154,2,0,B|302:154|302:154|307:214,1,58.4999973220826,2|0,0:3|0:0,0:0:0:0:
502,361,77388,6,0,L|492:290,1,45,2|2,1:2|0:2,0:0:0:0:
484,226,77623,1,0,0:2:0:0:
480,199,77740,1,2,1:2:0:0:
476,172,77857,2,0,L|466:101,1,45,2|0,0:2|0:2,0:0:0:0:
325,14,78091,37,2,0:2:0:0:
338,56,78208,1,2,0:2:0:0:
248,108,78326,5,0,1:2:0:0:
290,93,78443,1,8,0:3:0:0:
334,100,78560,1,2,0:3:0:0:
370,126,78677,1,2,0:3:0:0:
296,187,78795,6,0,B|211:210|211:210|111:157,1,175.499991966248,4|0,0:3|3:3,0:0:0:0:
131,157,79205,1,0,3:3:0:0:
129,146,79263,2,0,L|112:70,1,45,0|2,1:3|0:3,0:0:0:0:
151,4,79498,5,0,3:3:0:0:
226,14,79615,1,0,3:0:0:0:
302,24,79732,5,0,0:0:0:0:
303,34,79849,1,0,0:0:0:0:
304,44,79966,1,0,0:0:0:0:
359,111,80084,38,0,B|367:151|367:151|335:237,1,76.5000014591217,2|0,0:3|1:3,0:0:0:0:
159,99,80318,2,0,P|244:97|293:180,1,153.000002918243,2|0,0:3|0:0,0:0:0:0:
214,313,80670,2,0,L|203:179,1,135.000005149842,0|0,1:0|1:0,0:0:0:0:
4,265,81021,5,0,3:0:0:0:
49,198,81138,1,0,3:0:0:0:
13,125,81255,2,0,L|7:57,1,45,2|0,0:3|0:0,0:0:0:0:
0,271,81490,5,0,1:0:0:0:
81,277,81607,1,0,3:0:0:0:
162,283,81724,1,0,3:0:0:0:
243,289,81841,2,0,B|252:269|252:269|239:218,1,45,0|2,3:0|0:3,0:0:0:0:
138,170,82076,2,0,B|174:178|174:178|261:143,1,76.5000014591217,0|2,1:0|0:3,0:0:0:0:
270,90,82310,2,0,B|274:23,3,38.2500007295609,0|0|0|0,3:0|3:0|3:0|3:0,0:0:0:0:
366,12,82545,6,0,B|381:95|381:95|417:107|417:107|440:225,1,202.500007724762,4|0,0:1|0:0,0:0:0:0:
511,280,83013,37,2,1:2:0:0:
470,261,83130,1,2,0:2:0:0:
426,264,83247,1,0,0:0:0:0:
389,290,83364,1,2,1:2:0:0:
454,341,83482,5,2,0:2:0:0:
417,366,83599,1,0,0:2:0:0:
373,370,83716,1,2,0:2:0:0:
334,349,83833,1,2,0:2:0:0:
311,311,83951,2,0,L|305:242,1,45,0|2,1:2|0:2,0:0:0:0:
363,126,84185,5,0,0:2:0:0:
299,176,84302,1,2,0:2:0:0:
222,142,84420,2,0,B|134:127|134:127|137:133|137:133|48:157|48:157|6:82|6:82|45:98,1,306.000005836487,2|2,0:3|1:2,0:0:0:0:
112,39,85005,6,0,L|173:29,2,45,2|0|2,0:2|0:2|1:2,0:0:0:0:
256,63,85357,37,2,0:2:0:0:
293,87,85474,1,0,0:2:0:0:
337,95,85591,1,2,0:2:0:0:
380,84,85708,1,2,0:2:0:0:
372,5,85825,5,0,1:2:0:0:
330,22,85943,1,8,0:3:0:0:
303,74,86060,1,2,0:3:0:0:
325,142,86177,1,0,0:0:0:0:
399,168,86295,2,0,B|414:158|435:164|445:179|445:179|455:195|451:215|436:226|436:226|421:237|400:234|389:219|389:219|383:207|370:201|358:206|358:206|346:210|339:223|343:235|343:235|346:248|359:255|371:253,1,229.500004377365,4|0,0:3|3:0,0:0:0:0:
340,244,86705,1,0,3:0:0:0:
339,255,86763,2,0,L|330:313,1,45,0|0,1:0|0:0,0:0:0:0:
182,300,86998,5,0,3:0:0:0:
177,312,87115,2,0,B|171:332|179:352|196:364|196:364|214:375|236:373|252:360|252:360|267:347|273:325|265:306|265:306|257:287|238:275|217:277|217:277|55:302,1,382.500007295609,0|0,1:0|1:0,0:0:0:0:
0,231,87818,1,0,3:0:0:0:
0,231,87935,2,0,L|41:224,2,38.2500007295609,0|0|0,3:0|0:0|3:0,0:0:0:0:
74,140,88170,6,0,L|131:149,1,58.4999973220826,4|0,1:2|0:0,0:0:0:0:
274,86,88404,2,0,P|197:86|179:102,1,90,0|0,3:0|3:0,0:0:0:0:
344,204,88873,37,0,3:0:0:0:
408,183,88990,1,0,3:0:0:0:
408,116,89107,1,0,3:0:0:0:
344,95,89224,1,0,0:0:0:0:
304,150,89341,2,0,P|277:207|285:236,1,90,8|0,3:0|3:0,0:0:0:0:
321,312,89693,5,0,3:0:0:0:
321,312,89810,2,0,L|315:346,3,33.7500012874604,0|0|0|0,3:0|0:0|0:0|0:0,0:0:0:0:
403,232,90045,6,0,B|373:282|403:339|427:294|470:364|470:364|458:320|456:295|464:277|464:277|490:238|475:181|440:167|440:167|473:158|473:158|441:137|385:140|391:58,1,535.500010213852,4|8,0:3|0:3,0:0:0:0:
173,52,90982,5,0,1:0:0:0:
194,135,91099,1,0,3:0:0:0:
112,111,91216,2,0,B|107:158|107:158|130:198,1,90,0|0,3:0|3:0,0:0:0:0:
58,262,91451,2,0,B|96:289|96:289|142:289,1,90,0|0,3:0|3:0,0:0:0:0:
161,384,91685,2,0,B|204:364|204:364|227:324,1,90,0|0,3:0|3:0,0:0:0:0:
318,355,91920,38,0,B|336:319|315:281|315:281|323:268|323:268|294:216|319:158,1,153.000002918243,0|0,1:0|0:0,0:0:0:0:
316,206,92212,1,2,0:0:0:0:
325,203,92271,2,0,L|333:113,1,76.5000014591217,2|0,0:0|0:0,0:0:0:0:
420,88,92505,5,0,3:0:0:0:
507,61,92623,1,8,0:3:0:0:
441,0,92740,1,0,0:0:0:0:
486,149,92857,6,0,L|481:198,3,38.2500007295609,0|0|0|0,1:0|0:0|0:0|0:0,0:0:0:0:
440,258,93091,2,0,P|388:274|332:254,1,114.750002188683,0|0,0:0|0:0,0:0:0:0:
275,197,93326,6,0,L|267:160,3,38.2500007295609,0|0|0|0,1:0|0:0|0:0|0:0,0:0:0:0:
256,277,93560,2,0,P|211:308|152:306,1,114.750002188683,0|0,0:0|0:0,0:0:0:0:
77,229,93795,38,0,P|55:158|96:225,1,202.500007724762,0|0,1:0|0:0,0:0:0:0:
232,206,94263,6,0,B|277:200|277:200|320:234,2,90.0000034332277,0|0|0,3:0|0:0|0:0,0:0:0:0:
169,60,94732,5,0,1:0:0:0:
239,97,94849,1,2,0:0:0:0:
236,15,94966,1,2,0:0:0:0:
172,141,95084,1,2,0:0:0:0:
310,132,95201,6,0,B|387:149,2,67.5,0|0|0,3:0|0:0|0:0,0:0:0:0:
226,241,95670,6,0,B|269:231,1,45,0|0,1:0|0:0,0:0:0:0:
266,241,95845,1,0,0:0:0:0:
264,252,95904,1,0,0:0:0:0:
207,330,96021,2,0,B|258:345|258:345|426:306,1,202.500007724762,2|0,0:0|0:0,0:0:0:0:
445,211,96490,37,0,3:0:0:0:
447,221,96548,1,0,3:0:0:0:
450,232,96607,2,0,B|407:222,1,45,0|8,1:0|0:3,0:0:0:0:
222,155,96841,2,0,B|265:145,1,45,0|0,0:0|3:0,0:0:0:0:
411,116,97076,5,8,0:3:0:0:
339,132,97193,1,0,0:0:0:0:
268,148,97310,1,8,0:3:0:0:
310,7,97427,5,0,0:0:0:0:
360,61,97545,2,0,B|370:173|430:224|483:198|483:198|477:123|414:98|354:80|318:165|295:132|295:132|254:184|179:142,1,535.500010213852,4|8,0:3|0:3,0:0:0:0:
50,131,98482,5,0,1:0:0:0:
68,212,98599,1,0,3:0:0:0:
130,113,98716,2,0,B|84:105|84:105|45:134,1,90,0|0,3:0|3:0,0:0:0:0:
147,193,98951,2,0,B|155:147|155:147|126:108,1,90,0|0,3:0|3:0,0:0:0:0:
68,212,99185,2,0,B|114:220|114:220|150:191,1,90,0|0,3:0|3:0,0:0:0:0:
236,23,99420,38,0,B|218:59|239:97|239:97|231:110|231:110|260:162|235:220,1,153.000002918243,0|0,1:3|0:0,0:0:0:0:
238,172,99712,1,2,0:0:0:0:
229,175,99771,2,0,L|221:265,1,76.5000014591217,2|0,0:0|0:0,0:0:0:0:
355,303,100005,5,0,0:0:0:0:
303,239,100123,1,8,0:3:0:0:
274,315,100240,1,0,0:0:0:0:
384,227,100357,6,0,L|450:216,3,38.2500007295609,0|0|0|0,1:0|0:0|0:0|0:0,0:0:0:0:
332,163,100592,2,0,P|274:164|223:238,1,153.000002918243,0|0,0:0|1:0,0:0:0:0:
133,317,100943,6,0,L|67:307,5,38.2500007295609,0|0|0|0|0|0,0:0|0:0|0:0|0:0|0:0|0:0,0:0:0:0:
117,211,101295,38,0,B|111:152|111:152|115:142|115:142|109:72|109:72|152:87|152:87|195:61,1,229.500004377365,0|0,1:0|0:0,0:0:0:0:
312,17,101763,5,0,3:0:0:0:
310,42,101841,1,0,3:0:0:0:
308,67,101919,1,0,3:0:0:0:
306,93,101998,2,0,L|296:220,1,67.5000025749208,0|8,3:0|0:3,0:0:0:0:
377,287,102232,2,0,L|371:219,1,67.5000025749208,2|0,1:3|0:0,0:0:0:0:
410,138,102466,5,2,0:3:0:0:
417,130,102525,1,0,0:0:0:0:
426,123,102584,2,0,B|453:100|453:100|462:210,2,135.000005149842,2|2|2,0:3|0:3|0:3,0:0:0:0:
344,234,103170,6,0,L|269:224,1,67.5000025749208,0|0,1:0|3:0,0:0:0:0:
275,238,103345,1,0,3:0:0:0:
273,251,103404,2,0,L|198:241,1,67.5000025749208,0|0,3:0|3:0,0:0:0:0:
109,161,103638,1,2,3:2:0:0:
139,233,103755,1,2,0:0:0:0:
92,295,103873,38,0,P|62:243|69:199,1,67.5000025749208,2|2,0:0|3:2,0:0:0:0:
48,235,104048,1,0,3:0:0:0:
35,233,104107,2,0,L|25:158,1,67.5000025749208,0|0,1:0|0:0,0:0:0:0:
115,76,104341,5,8,0:3:0:0:
109,123,104459,1,0,0:0:0:0:
128,180,104576,1,8,0:3:0:0:
188,222,104693,1,0,0:3:0:0:
268,217,104810,1,8,0:3:0:0:
327,152,104927,1,0,0:3:0:0:
317,57,105045,6,0,B|316:127|316:127|322:133|322:133|364:225|364:225|301:270|301:270|315:206,1,306.000005836487,4|2,3:0|0:0,0:0:0:0:
216,321,105865,37,8,3:3:0:0:
220,325,105982,2,0,L|217:373,5,30,2|2|2|2|2|2,0:3|0:3|0:3|0:3|0:3|0:3,0:0:0:0:
221,300,106451,5,2,0:3:0:0:
223,275,106529,1,2,0:3:0:0:
224,250,106607,1,2,0:3:0:0:
226,225,106685,1,2,0:3:0:0:
227,200,106763,1,2,0:3:0:0:
229,175,106841,1,2,0:3:0:0:
231,150,106920,6,0,B|306:132|306:132|381:162,1,153.000002918243,0|0,1:0|3:0,0:0:0:0:
378,151,107212,1,0,3:0:0:0:
378,142,107271,2,0,L|390:54,1,76.5000014591217,2|0,3:0|0:0,0:0:0:0:
390,238,107505,5,0,0:0:0:0:
472,270,107623,1,10,0:3:0:0:
460,183,107740,1,0,0:0:0:0:
402,325,107857,6,0,L|407:378,3,38.2500007295609,0|0|0|0,1:0|0:0|0:0|0:0,0:0:0:0:
319,292,108091,2,0,P|262:296|211:356,1,114.750002188683,0|0,3:0|0:0,0:0:0:0:
135,327,108326,2,0,L|140:380,3,38.2500007295609,0|0|0|0,1:0|0:0|0:0|0:0,0:0:0:0:
94,255,108560,2,0,L|107:123,1,114.750002188683,0|0,0:0|0:0,0:0:0:0:
0,119,108795,38,0,L|15:267,1,135.000005149842,0|2,1:0|0:0,0:0:0:0:
17,282,109087,2,0,L|21:325,2,38.2500007295609,2|2|2,0:0|0:0|0:0,0:0:0:0:
135,327,109263,6,0,B|166:296|166:296|181:225,2,90.0000034332277,2|0|0,0:0|0:0|0:0,0:0:0:0:
114,191,109732,5,0,1:0:0:0:
191,169,109849,1,2,0:0:0:0:
253,220,109966,1,2,0:0:0:0:
330,198,110084,2,0,B|451:202|451:202|416:166,1,153.000002918243,2|0,3:0|0:0,0:0:0:0:
387,99,110377,6,0,B|349:122|297:119|267:67|267:67|237:79|237:79|232:74|232:74|232:82|232:82|195:95|195:95|139:123|141:195|141:195|163:113|237:112,1,459.00000875473,0|0,0:0|2:0,0:0:0:0:
243,330,111138,2,0,P|266:268|239:209,1,135.000005149842,0|0,3:0|3:0,0:0:0:0:
122,250,111490,1,0,3:0:0:0:
120,263,111548,1,0,3:0:0:0:
119,276,111607,2,0,L|187:271,2,67.5000025749208,0|0|0,1:0|0:0|1:0,0:0:0:0:
30,145,111959,37,0,0:0:0:0:
104,150,112076,1,8,3:0:0:0:
178,156,112193,1,8,3:0:0:0:
114,22,112310,5,4,3:0:0:0:
72,83,112427,1,4,3:0:0:0:
30,145,112545,2,0,B|43:221|43:221|48:225|48:225|18:317|18:317|73:288,1,229.500004377365,4|0,0:1|0:0,0:0:0:0:
155,254,113013,6,0,L|222:258,3,67.5000025749208,0|0|0|8,3:0|3:0|3:0|0:3,0:0:0:0:
148,165,113482,2,0,L|100:167,5,30,2|2|2|2|2|2,1:3|0:3|0:3|0:3|0:3|0:3,0:0:0:0:
173,164,113951,5,2,0:3:0:0:
198,162,114029,1,2,0:3:0:0:
223,161,114107,1,2,0:3:0:0:
248,159,114185,1,2,0:3:0:0:
273,158,114263,1,2,0:3:0:0:
298,156,114341,1,2,0:3:0:0:
323,154,114420,38,0,B|317:212|353:237|353:237|343:274|343:274|377:330|345:373,1,229.500004377365,4|0,1:0|0:0,0:0:0:0:
202,271,114888,5,2,0:3:0:0:
273,327,115005,1,2,0:3:0:0:
189,360,115123,2,0,L|108:354,1,76.5000014591217,8|2,0:3|0:3,0:0:0:0:
18,243,115357,6,0,P|108:249|186:124,1,202.500007724762,0|0,1:0|0:0,0:0:0:0:
25,135,115826,2,0,P|91:178|64:94,1,202.500007724762,0|0,3:0|0:0,0:0:0:0:
265,22,116295,6,0,L|276:148,1,114.750002188683,4|0,0:0|0:0,0:0:0:0:
384,188,116529,2,0,P|335:151|224:220,1,191.250003647804,4|0,0:0|0:0,0:0:0:0:
138,269,116880,2,0,B|273:279|273:279|310:236,1,191.250003647804,4|0,0:0|0:0,0:0:0:0:
314,229,117232,1,4,0:0:0:0:
256,192,117291,12,0,119107,0:0:0:0:
136,245,119341,38,0,L|199:215,1,45,0|0,0:0|3:0,0:0:0:0:
388,200,119576,2,0,L|317:194,1,45,0|0,3:0|3:0,0:0:0:0:
240,97,119810,5,0,3:0:0:0:
256,192,119927,1,0,3:0:0:0:
273,286,120044,1,4,3:0:0:0:
256,192,120103,12,0,131295,0:0:0:0:
