osu file format v14

[General]
AudioFilename: audio.mp3
AudioLeadIn: 0
PreviewTime: 56295
Countdown: 0
SampleSet: Soft
StackLeniency: 0.3
Mode: 0
LetterboxInBreaks: 0
WidescreenStoryboard: 1

[Editor]
Bookmarks: 30045,45045,52545,58170,60045,75045,90045,105045,116295,120045,131295
DistanceSpacing: 1.7
BeatDivisor: 8
GridSize: 32
TimelineZoom: 2.899999

[Metadata]
Title:Railgun Roulette
TitleUnicode:Railgun Roulette
Artist:Camellia vs. Akira Complex
ArtistUnicode:かめりあ vs. Akira Complex
Creator:ErunamoJAZZ
Version:Shot It
Source:
Tags:dubstep experimental S2TB c91 Reality Distortion TANO*C Sebastian343 Rugakot Yoari
BeatmapID:1201131
BeatmapSetID:567069

[Difficulty]
HPDrainRate:4
CircleSize:4
OverallDifficulty:7.7
ApproachRate:9.6
SliderMultiplier:1.8
SliderTickRate:1

[Events]
//Background and Video events
0,0,"1485900451117.png",0,0
//Break Periods
//Storyboard Layer 0 (Background)
//Storyboard Layer 1 (Fail)
//Storyboard Layer 2 (Pass)
//Storyboard Layer 3 (Foreground)
//Storyboard Layer 4 (Overlay)
//Storyboard Sound Samples

[TimingPoints]
45,468.75,4,2,0,70,1,0
52545,-100,4,2,0,60,0,0
53482,-100,4,2,0,50,0,0
54420,-100,4,2,0,40,0,0
55357,-100,4,2,0,30,0,0
56295,-100,4,2,0,70,0,0
58170,-200,4,2,0,70,0,0
59107,-100,4,2,0,70,0,0
59576,-66.6666666666667,4,2,0,70,0,0
59810,-50,4,2,0,70,0,0
60045,-25,4,2,0,70,0,1
60513,-50,4,2,0,70,0,1
61920,-25,4,2,0,70,0,1
62388,-50,4,2,0,70,0,1
63795,-25,4,2,0,70,0,1
64263,-50,4,2,0,70,0,1
67545,-25,4,2,0,70,0,1
68013,-50,4,2,0,70,0,1
69420,-25,4,2,0,70,0,1
69888,-50,4,2,0,70,0,1
71295,-25,4,2,0,70,0,1
71763,-50,4,2,0,70,0,1
73170,-25,4,2,0,70,0,1
73638,-50,4,2,0,70,0,1
73990,-200,4,2,0,30,0,0
75045,-25,4,2,0,70,0,1
75513,-50,4,2,0,70,0,1
76920,-25,4,2,0,70,0,1
77388,-50,4,2,0,70,0,1
78795,-25,4,2,0,70,0,1
79263,-50,4,2,0,70,0,1
82545,-25,4,2,0,70,0,1
83013,-50,4,2,0,70,0,1
84420,-25,4,2,0,70,0,1
84888,-50,4,2,0,70,0,1
86295,-25,4,2,0,70,0,1
86763,-50,4,2,0,70,0,1
88170,-25,4,2,0,70,0,1
88404,-50,4,2,0,70,0,0
90045,-100,4,2,0,70,0,0
90982,-50,4,2,0,70,0,0
94732,-25,4,2,0,70,0,0
95201,-50,4,2,0,70,0,0
97545,-100,4,2,0,70,0,0
98482,-50,4,2,0,70,0,0
105045,-33.3333333333333,4,2,0,70,0,0
105162,-50,4,2,0,50,0,0
105279,-50,4,2,0,30,0,0
105982,-25,4,2,0,70,0,0
106920,-50,4,2,0,70,0,0
109029,-25,4,2,0,70,0,0
109263,-50,4,2,0,70,0,0
113482,-25,4,2,0,70,0,0
114420,-50,4,2,0,70,0,0
116295,-33.3333333333333,4,2,0,70,0,0
119107,-100,4,2,0,70,0,0
120982,-100,4,2,0,65,0,0
121920,-100,4,2,0,60,0,0
122857,-100,4,2,0,55,0,0
123795,-100,4,2,0,50,0,0
124732,-100,4,2,0,45,0,0
125670,-100,4,2,0,40,0,0
126607,-100,4,2,0,35,0,0
127545,-100,4,2,0,30,0,0

[Colours]
Combo1 : 0,255,0
Combo2 : 0,255,255
Combo3 : 255,0,128
Combo4 : 219,219,219
Combo5 : 255,255,0
Combo6 : 77,77,77

[HitObjects]
324,220,29459,5,8,0:3:0:0:
324,220,29517,1,8,0:3:0:0:
324,220,29576,1,8,0:3:0:0:
260,220,29693,1,8,0:3:0:0:
212,180,29810,1,8,0:3:0:0:
212,116,29927,1,8,0:3:0:0:
300,132,30045,6,0,L|352:88,2,45,6|2|0,0:2|0:0|0:0,0:0:0:0:
240,48,30396,2,0,L|248:-12,2,45,2|2|0,0:0|0:0|0:0,0:0:0:0:
140,72,30748,2,0,L|100:24,2,45,2|2|0,0:0|0:0|0:0,0:0:0:0:
148,176,31099,1,2,0:0:0:0:
100,216,31216,2,0,L|48:208,1,45,2|0,0:0|0:0,0:0:0:0:
104,116,31451,1,2,0:0:0:0:
168,120,31568,1,2,0:0:0:0:
212,164,31685,1,0,0:0:0:0:
224,224,31802,1,0,0:0:0:0:
264,320,31920,6,0,L|300:276,1,45,2|2,0:0|0:0,0:0:0:0:
353,283,32154,1,0,0:0:0:0:
368,188,32271,2,0,L|388:241,1,45,2|2,0:0|0:0,0:0:0:0:
362,288,32505,1,0,0:0:0:0:
424,360,32623,2,0,L|367:350,1,45,2|2,0:0|0:0,0:0:0:0:
369,295,32857,1,0,0:0:0:0:
464,256,32974,2,0,L|473:199,1,45,2|2,0:0|0:0,0:0:0:0:
464,152,33209,1,0,0:0:0:0:
364,124,33326,1,2,0:2:0:0:
370,130,33443,1,2,0:2:0:0:
364,136,33560,1,0,0:0:0:0:
357,130,33677,1,0,0:0:0:0:
303,19,33795,5,2,0:0:0:0:
243,43,33912,1,2,0:0:0:0:
183,15,34029,1,0,0:0:0:0:
219,107,34146,1,2,0:0:0:0:
155,119,34263,1,2,0:0:0:0:
111,71,34380,1,0,0:0:0:0:
163,183,34498,1,2,0:0:0:0:
99,195,34615,1,2,0:0:0:0:
51,155,34732,1,0,0:0:0:0:
120,254,34849,1,2,0:0:0:0:
67,288,34966,1,2,0:0:0:0:
7,267,35084,1,0,0:0:0:0:
189,246,35201,1,2,0:0:0:0:
242,278,35318,1,2,0:0:0:0:
299,252,35435,1,0,0:0:0:0:
311,190,35552,1,0,0:0:0:0:
240,52,35670,38,0,L|212:116,1,45,2|2,0:0|0:0,0:0:0:0:
256,148,35904,1,0,0:0:0:0:
304,40,36021,2,0,L|340:84,1,45,2|2,0:0|0:0,0:0:0:0:
320,136,36255,1,0,0:0:0:0:
444,232,36373,2,0,L|412:196,1,45,2|2,0:0|0:0,0:0:0:0:
352,196,36607,1,0,0:0:0:0:
424,292,36724,2,0,L|372:304,1,45,2|2,0:0|0:0,0:0:0:0:
332,260,36959,1,0,0:0:0:0:
251,334,37076,2,0,L|268:292,1,45,2|2,0:0|0:0,0:0:0:0:
239,235,37310,1,0,0:0:0:0:
192,364,37427,1,0,0:0:0:0:
56,352,37545,6,0,L|-16:328,2,45,2|2|0,0:0|0:0|0:0,0:0:0:0:
108,260,37896,2,0,L|152:240,2,45,2|2|0,0:0|0:0|0:0,0:0:0:0:
232,308,38248,2,0,L|276:316,2,45,2|2|0,0:0|0:0|0:0,0:0:0:0:
344,236,38599,2,0,L|400:208,2,45,2|2|0,0:0|0:0|0:0,0:0:0:0:
248,196,38951,1,2,0:2:0:0:
239,193,39068,1,2,0:2:0:0:
242,185,39185,1,0,0:0:0:0:
251,187,39302,1,0,0:0:0:0:
180,68,39420,6,0,L|240:52,1,45,2|2,0:0|0:0,0:0:0:0:
284,40,39654,1,0,0:0:0:0:
160,116,39771,2,0,L|96:100,1,45,2|2,0:0|0:0,0:0:0:0:
56,96,40005,1,0,0:0:0:0:
164,172,40123,2,0,L|220:188,1,45,2|2,0:0|0:0,0:0:0:0:
268,200,40357,1,0,0:0:0:0:
140,224,40474,2,0,L|84:240,1,45,2|2,0:0|0:0,0:0:0:0:
36,252,40708,1,0,0:0:0:0:
156,280,40825,1,2,0:0:0:0:
142,340,40942,1,2,0:0:0:0:
203,354,41060,1,0,0:0:0:0:
217,293,41177,1,0,0:0:0:0:
324,212,41295,5,2,0:0:0:0:
336,272,41411,1,2,0:0:0:0:
348,332,41528,1,0,0:0:0:0:
412,232,41646,1,2,0:0:0:0:
424,292,41763,1,2,0:0:0:0:
436,352,41880,1,0,0:0:0:0:
504,284,41998,1,2,0:0:0:0:
492,224,42115,1,2,0:0:0:0:
480,164,42231,1,0,0:0:0:0:
496,36,42349,1,2,0:0:0:0:
468,96,42466,1,2,0:0:0:0:
416,132,42583,1,0,0:0:0:0:
392,36,42701,1,2,0:0:0:0:
336,68,42818,1,2,0:0:0:0:
304,124,42935,1,0,0:0:0:0:
292,188,43052,1,0,0:0:0:0:
344,308,43170,37,2,0:0:0:0:
300,260,43287,1,2,0:0:0:0:
240,236,43404,1,0,0:0:0:0:
104,356,43521,1,2,0:0:0:0:
152,312,43638,1,2,0:0:0:0:
176,252,43755,1,0,0:0:0:0:
60,116,43873,1,2,0:0:0:0:
104,164,43990,1,2,0:0:0:0:
164,188,44107,1,0,0:0:0:0:
300,68,44224,1,2,0:0:0:0:
252,112,44341,1,2,0:0:0:0:
228,172,44458,1,0,0:0:0:0:
304,320,44576,1,2,0:0:0:0:
370,319,44693,1,2,0:0:0:0:
428,291,44810,1,0,0:0:0:0:
463,239,44927,1,0,0:0:0:0:
467,84,45045,6,0,L|483:128,1,45,2|0,3:3|0:0,0:0:0:0:
414,157,45279,2,0,L|402:213,1,45,0|0,3:0|3:0,0:0:0:0:
495,367,45513,2,0,L|451:359,1,45,8|0,1:2|0:0,0:0:0:0:
370,319,45748,2,0,L|386:379,1,45,0|2,0:0|3:3,0:0:0:0:
311,267,45982,2,0,L|317:222,2,45,0|0|2,0:0|0:0|3:3,0:0:0:0:
296,343,46334,1,0,0:0:0:0:
134,350,46451,2,0,L|81:341,2,45,8|0|0,1:2|0:0|0:0,0:0:0:0:
186,300,46802,1,0,0:0:0:0:
232,244,46920,6,0,L|215:195,2,45,2|0|0,3:3|0:0|0:0,0:0:0:0:
186,300,47271,1,0,0:0:0:0:
41,276,47388,2,0,L|-3:294,1,45,8|0,1:2|0:0,0:0:0:0:
71,201,47623,2,0,L|51:147,2,45,0|2|0,0:0|3:3|0:0,0:0:0:0:
114,264,47974,1,2,0:3:0:0:
145,194,48091,2,0,L|151:130,1,45,2|0,0:3|0:0,0:0:0:0:
132,24,48326,1,8,1:2:0:0:
132,24,48443,2,0,P|168:16|228:24,1,90,2|0,3:3|0:0,0:0:0:0:
348,20,48795,6,0,L|300:56,2,45,2|0|0,3:3|0:0|0:0,0:0:0:0:
412,48,49146,1,0,3:0:0:0:
393,199,49263,2,0,L|401:247,2,45,8|0|0,1:2|0:0|0:0,0:0:0:0:
378,123,49615,1,2,3:3:0:0:
265,148,49732,2,0,L|325:156,1,45,0|0,3:0|0:0,0:0:0:0:
241,221,49966,2,0,L|180:234,1,45,2|0,0:3|0:0,0:0:0:0:
100,131,50201,2,0,L|91:179,1,45,8|0,1:2|0:0,0:0:0:0:
113,253,50435,2,0,L|98:318,1,45
251,300,50670,38,0,L|314:285,2,45,2|0|0,3:3|0:0|0:0,0:0:0:0:
203,359,51021,1,0,0:0:0:0:
372,318,51138,2,0,L|378:263,1,45,8|0,1:2|0:0,0:0:0:0:
408,203,51373,1,0,0:0:0:0:
479,228,51490,2,0,L|515:272,2,45,2|0|0,3:3|3:0|0:0,0:0:0:0:
467,152,51841,2,0,L|512:112,1,45,2|0,0:3|0:0,0:0:0:0:
366,139,52076,1,8,1:2:0:0:
366,139,52193,2,0,P|320:132|275:163,1,90,2|0,0:3|0:0,0:0:0:0:
228,236,52545,5,0,1:0:0:0:
224,253,52662,1,0,1:0:0:0:
218,270,52779,1,0,1:0:0:0:
209,286,52896,1,0,1:0:0:0:
197,299,53013,1,0,1:0:0:0:
183,311,53130,1,0,1:0:0:0:
168,319,53248,1,0,1:0:0:0:
151,325,53365,1,0,1:0:0:0:
133,328,53482,5,0,1:3:0:0:
115,327,53599,1,0,1:0:0:0:
97,324,53716,1,0,1:0:0:0:
81,317,53834,1,0,1:0:0:0:
65,308,53951,1,0,1:0:0:0:
52,296,54068,1,0,1:0:0:0:
41,281,54185,1,0,1:0:0:0:
33,265,54302,1,0,1:0:0:0:
27,248,54420,5,0,1:0:0:0:
25,230,54537,1,0,1:0:0:0:
26,212,54654,1,0,1:0:0:0:
30,195,54771,1,0,1:0:0:0:
37,178,54888,1,0,1:0:0:0:
47,163,55005,1,0,1:0:0:0:
60,151,55123,1,0,1:0:0:0:
74,140,55240,1,0,1:0:0:0:
90,132,55357,53,0,1:0:0:0:
108,127,55474,1,0,1:0:0:0:
126,125,55591,1,0,1:0:0:0:
144,127,55709,1,0,1:0:0:0:
161,131,55826,1,0,1:0:0:0:
177,139,55943,1,0,1:0:0:0:
192,149,56060,1,0,1:0:0:0:
205,162,56177,1,0,1:0:0:0:
228,236,56295,6,0,L|232:272,7,22.5,0|0|0|0|0|0|0|0,3:0|3:0|3:0|3:0|3:0|3:0|3:0|3:0,3:0:0:0:
328,300,56763,6,0,L|332:340,7,22.5,0|0|0|0|0|0|0|0,3:0|3:0|3:0|3:0|3:0|3:0|3:0|3:0,3:0:0:0:
378,146,57232,38,0,L|376:124,7,22.5,0|0|0|0|0|0|0|0,3:0|3:0|3:0|3:0|3:0|3:0|3:0|3:0,3:0:0:0:
460,328,57701,6,0,L|464:364,7,22.5,0|0|0|0|0|0|0|0,3:0|3:0|3:0|3:0|3:0|3:0|3:0|3:0,3:0:0:0:
440,200,58170,5,4,3:0:0:0:
440,200,58404,6,0,L|460:152,2,45,2|2|0,0:2|0:2|0:2,0:0:0:0:
384,256,59107,1,2,0:2:0:0:
324,208,59341,2,0,P|312:184|304:144,1,45,0|0,0:2|0:2,0:2:0:0:
256,192,59576,2,0,P|252:160|268:96,1,67.5000025749208,2|0,0:2|0:2,0:2:0:0:
180,136,59810,2,0,P|196:88|244:48,1,90,2|0,0:3|0:2,0:2:0:0:
408,104,60045,22,0,B|332:52|224:60|224:60|164:144|80:84|140:-4|224:60,1,360,0|0,1:0|0:0,0:0:0:0:
105,150,60396,5,0,0:0:0:0:
124,328,60513,2,0,P|173:321|215:272,1,90,2|2,1:2|0:2,0:0:0:0:
230,229,60748,1,0,0:2:0:0:
328,156,60865,5,2,1:2:0:0:
304,224,60982,1,2,0:2:0:0:
257,165,61099,1,0,0:2:0:0:
212,108,61216,1,2,0:2:0:0:
167,50,61334,1,2,0:2:0:0:
230,229,61451,5,0,1:2:0:0:
187,173,61568,1,2,0:2:0:0:
145,116,61685,1,2,0:2:0:0:
114,181,61802,1,0,0:2:0:0:
156,272,61920,38,0,P|208:316|304:276,1,180,2|0,0:3|0:3,0:3:0:0:
302,278,62154,2,0,P|322:204|426:192,1,180,2|0,0:3|0:3,0:3:0:0:
383,261,62388,5,0,1:2:0:0:
424,324,62505,1,2,0:2:0:0:
460,260,62623,1,2,0:2:0:0:
352,328,62740,5,0,1:2:0:0:
302,278,62857,1,2,0:2:0:0:
312,208,62974,1,2,0:2:0:0:
248,168,63091,1,2,0:2:0:0:
180,200,63209,1,0,0:2:0:0:
236,316,63326,5,2,1:2:0:0:
120,364,63443,1,8,0:3:0:0:
72,248,63560,2,0,P|84:228|88:184,1,45,2|0,3:0|0:0,0:0:0:0:
41,156,63677,2,0,P|57:140|76:129,1,45,2|0,3:0|0:0,0:0:0:0:
148,136,63795,38,0,B|155:98|129:64|99:51|63:57|63:57|123:26|174:23|211:52|210:82|284:82,1,360,4|0,0:3|0:0,0:0:0:0:
452,95,64146,1,0,3:3:0:0:
467,126,64205,1,0,3:3:0:0:
483,158,64263,1,0,1:3:0:0:
452,280,64380,6,0,B|408:276|408:276|348:280,1,90,2|0,0:3|0:3,0:3:0:0:
244,324,64615,2,0,L|239:271,1,45,2|0,1:3|0:3,0:3:0:0:
222,218,64732,2,0,L|115:186,2,90,0|0|0,3:3|3:3|3:3,0:3:0:0:
193,94,65084,2,0,L|134:73,1,45,2|0,0:3|0:3,0:3:0:0:
60,108,65201,6,0,P|36:140|24:200,1,90,0|2,1:3|0:3,0:3:0:0:
96,292,65435,2,0,P|134:300|194:287,1,90,2|0,0:3|0:3,0:3:0:0:
264,192,65670,6,0,P|310:247|307:320,1,135,0|0,1:0|0:0,0:0:0:0:
344,364,65904,2,0,L|432:316,2,90,0|0|0,3:0|3:0|3:0,3:0:0:0:
204,244,66255,2,0,P|184:188|208:140,1,90,2|0,0:3|0:0,0:0:0:0:
252,120,66490,1,0,1:0:0:0:
320,140,66607,2,0,P|340:180|319:243,2,90,0|0|0,3:0|3:0|3:0,3:0:0:0:
264,192,66959,1,2,0:3:0:0:
236,316,67076,54,0,B|196:336|196:336|116:332,1,90,0|2,1:0|3:3,0:0:0:0:
44,272,67310,1,2,3:0:0:0:
40,244,67369,1,0,3:0:0:0:
36,216,67427,1,0,3:0:0:0:
32,188,67486,1,0,3:0:0:0:
28,160,67545,70,0,B|132:76|272:60|272:60|306:100|320:140,1,360,4|0,0:1|0:0,0:0:0:0:
212,204,67896,21,0,0:0:0:0:
392,196,68013,2,0,P|412:140|396:92,1,90,2|2,1:2|0:2,0:0:0:0:
319,138,68248,1,0,0:2:0:0:
448,272,68365,5,2,1:2:0:0:
468,340,68482,1,2,0:2:0:0:
412,384,68599,1,0,0:2:0:0:
340,368,68716,1,2,0:2:0:0:
328,296,68834,1,2,0:2:0:0:
420,208,68951,53,0,1:2:0:0:
468,156,69068,1,2,0:2:0:0:
400,136,69185,1,0,0:2:0:0:
352,188,69302,1,2,0:2:0:0:
272,248,69420,70,0,B|184:340|72:320|72:320|84:256|164:228|164:228|96:208|72:148|92:84,1,540,2|0,0:3|0:0,0:0:0:0:
184,128,69888,21,2,1:2:0:0:
252,112,70005,1,2,0:2:0:0:
320,92,70123,1,0,0:2:0:0:
232,180,70240,5,2,1:2:0:0:
304,164,70357,1,2,0:2:0:0:
280,231,70474,1,0,0:2:0:0:
328,284,70591,1,2,0:2:0:0:
260,304,70709,1,2,0:2:0:0:
192,324,70826,5,0,1:2:0:0:
312,356,70943,1,8,0:3:0:0:
396,260,71060,2,0,L|504:228,1,90,2|0,0:3|0:0,0:0:0:0:
328,284,71295,22,0,B|124:344|124:344|196:200,1,360,4|0,0:3|0:0,0:0:0:0:
272,92,71646,5,0,3:0:0:0:
300,100,71705,1,0,3:0:0:0:
324,108,71763,2,0,P|256:160|184:76,1,180,0|0,1:0|3:0,0:0:0:0:
280,24,72115,6,0,B|328:24|348:64|384:52|384:52|352:-8|232:-8|184:12|144:56,1,360,2|0,1:3|3:0,0:0:0:0:
58,118,72701,1,0,1:0:0:0:
120,228,72818,1,0,3:0:0:0:
128,256,72877,1,0,3:0:0:0:
136,280,72935,2,0,L|256:284,1,90,2|2,3:0|3:0,3:0:0:0:
152,336,73170,54,0,L|356:344,1,180,0|0,1:3|3:0,0:0:0:0:
312,236,73404,2,0,L|268:52,1,180,2|0,0:2|3:0,0:0:0:0:
384,116,73638,38,0,L|412:216,2,90,0|0|0,1:0|3:0|3:0,3:0:0:0:
312,236,73990,22,2,B|274:272|224:257|224:257|174:243|136:279,1,191.25,4|0,1:3|0:1,0:1:0:0:
115,347,75045,6,0,B|191:387|303:379|363:311|363:311|311:235,1,360,4|0,0:1|0:0,0:0:0:0:
248,128,75396,5,0,0:0:0:0:
196,64,75513,2,0,P|164:88|112:88,1,90,2|2,1:2|0:2,0:2:0:0:
136,20,75748,1,0,0:2:0:0:
104,204,75865,5,2,1:2:0:0:
68,140,75982,1,2,0:2:0:0:
115,89,76099,1,0,0:2:0:0:
68,36,76216,1,2,0:2:0:0:
16,84,76334,1,2,0:2:0:0:
64,264,76451,5,0,1:2:0:0:
8,308,76568,1,2,0:2:0:0:
48,368,76685,1,2,0:2:0:0:
104,324,76802,1,0,0:2:0:0:
196,264,76920,38,0,P|256:200|236:100,1,180,2|0,0:3|0:0,0:0:0:0:
246,113,77154,2,0,P|331:132|408:65,1,180,2|0,0:3|0:0,0:0:0:0:
444,12,77388,5,2,1:2:0:0:
472,80,77505,1,2,0:2:0:0:
500,148,77623,1,0,0:2:0:0:
320,204,77740,5,2,1:2:0:0:
388,232,77857,1,2,0:2:0:0:
448,196,77974,1,0,0:2:0:0:
504,244,78091,1,2,0:2:0:0:
444,284,78209,1,2,0:2:0:0:
320,276,78326,5,0,1:2:0:0:
211,340,78443,1,8,0:3:0:0:
244,218,78560,2,0,P|251:197|255:162,1,45,2|0,0:3|0:0,0:0:0:0:
189,155,78677,2,0,P|170:135|135:125,1,45,2|0,0:3|0:0,0:0:0:0:
125,194,78795,38,0,B|83:175|71:129|91:90|91:90|-12:105|-23:218|29:274,1,360,4|0,0:3|0:0,0:0:0:0:
186,352,79146,1,0,3:3:0:0:
211,340,79205,1,0,3:3:0:0:
236,330,79263,1,0,1:3:0:0:
347,271,79380,6,0,L|447:299,1,90,2|0,0:3|0:0,0:0:0:0:
408,172,79615,1,2,1:3:0:0:
480,160,79732,2,0,P|492:108|476:36,2,90,0|0|0,3:3|3:0|3:0,3:0:0:0:
368,104,80084,1,2,0:3:0:0:
260,168,80201,1,0,1:3:0:0:
192,144,80318,2,0,L|168:80,1,45,2|0,0:3|0:0,0:0:0:0:
204,216,80435,2,0,P|188:260|136:304,1,90,2|0,0:3|0:0,0:0:0:0:
68,160,80670,6,0,P|60:232|92:288,1,135,0|0,1:0|0:0,0:0:0:0:
158,291,80904,2,0,B|202:293|202:293|248:312,2,90,0|0|0,1:0|3:0|3:0,3:0:0:0:
275,245,81255,2,0,B|292:204|292:204|346:155,1,90,2|0,0:3|0:0,0:0:0:0:
398,171,81490,1,0,1:0:0:0:
437,231,81607,2,0,B|462:266|462:266|522:292,2,90,0|0|0,3:0|3:0|3:0,3:0:0:0:
398,171,81959,1,2,0:3:0:0:
434,109,82076,2,0,B|459:74|459:74|519:48,1,90,0|2,1:0|0:3,0:0:0:0:
364,108,82310,1,0,3:0:0:0:
335,102,82369,1,0,3:0:0:0:
309,98,82427,1,0,3:0:0:0:
281,93,82486,1,0,3:0:0:0:
254,88,82545,54,0,B|165:72|165:72|218:156|178:265|62:276,1,360,4|0,0:1|0:0,0:0:0:0:
61,146,82896,37,0,0:0:0:0:
168,0,83013,2,0,L|288:20,2,90,2|2|0,1:2|0:2|0:0,0:0:0:0:
4,96,83365,5,2,1:2:0:0:
61,146,83482,1,2,0:2:0:0:
116,192,83599,1,0,0:2:0:0:
144,260,83716,1,2,0:2:0:0:
108,324,83834,1,2,0:2:0:0:
188,200,83951,37,0,1:2:0:0:
260,184,84068,1,2,0:2:0:0:
332,168,84185,1,0,0:2:0:0:
404,152,84302,1,2,0:2:0:0:
495,192,84420,70,0,B|475:280|475:280|403:224|303:256|303:256|371:320|371:320|291:372|199:336,1,540,2|0,0:3|0:0,0:0:0:0:
144,260,84888,21,2,1:2:0:0:
116,192,85005,1,2,0:2:0:0:
88,124,85123,1,0,0:2:0:0:
188,200,85240,5,2,1:2:0:0:
144,260,85357,1,2,0:2:0:0:
108,324,85474,1,0,0:2:0:0:
56,276,85591,1,2,0:2:0:0:
4,224,85709,1,2,0:2:0:0:
88,124,85826,5,0,1:2:0:0:
188,200,85943,1,8,0:3:0:0:
268,104,86060,2,0,L|325:35,1,90,2|0,0:3|0:0,0:0:0:0:
316,224,86295,22,0,B|308:376|308:376|452:376|480:276,1,360,4|0,0:3|3:0,0:0:0:0:
436,148,86646,21,0,3:0:0:0:
412,136,86705,1,0,3:0:0:0:
388,124,86763,2,0,P|408:64|524:48,1,180,0|0,1:0|3:0,3:0:0:0:
444,220,87115,2,0,B|384:260|304:232|256:168|284:80|284:80|200:40,1,360,0|0,1:0|0:0,0:0:0:0:
188,172,87701,2,0,L|172:288,1,90,0|0,1:0|3:0,0:0:0:0:
172,288,87877,1,0,3:0:0:0:
168,316,87935,1,0,3:0:0:0:
52,268,88052,1,0,3:0:0:0:
84,128,88170,54,0,P|144:72|292:152,1,270,4|0,1:2|0:0,0:0:0:0:
290,146,88404,53,0,3:0:0:0:
304,288,88638,1,0,3:0:0:0:
184,212,88873,2,0,L|68:196,1,90,0|0,3:0|3:0,3:0:0:0:
84,128,89107,1,0,3:0:0:0:
108,272,89341,1,8,3:0:0:0:
246,328,89576,1,0,3:0:0:0:
275,308,89693,1,0,3:0:0:0:
304,288,89810,1,0,3:0:0:0:
436,348,90045,6,2,B|468:282|440:217|436:217|431:217|403:152|436:86,1,270,4|0,0:3|0:0,0:0:0:0:
436,86,90865,1,8,0:3:0:0:
356,248,90982,22,0,P|340:200|340:148,1,90,0|0,1:0|3:0,3:0:0:0:
240,236,91216,2,0,P|246:193|272:148,1,90,0|0,3:0|3:0,3:0:0:0:
144,168,91451,2,0,P|170:134|215:108,1,90,0|0,3:0|3:0,3:0:0:0:
96,60,91685,2,0,P|136:44|188:44,1,90,0|0,3:0|3:0,3:0:0:0:
308,28,91920,6,0,P|376:68|412:168,1,180,0|0,1:0|0:0,0:0:0:0:
408,220,92212,1,2,0:0:0:0:
408,220,92271,2,0,B|456:240|456:240|400:312,1,135,2|0,0:0|0:0,0:0:0:0:
364,356,92505,2,0,L|304:332,1,45,0|0,3:0|0:0,0:0:0:0:
322,339,92623,2,0,L|226:391,1,90,8|0,0:3|0:0,0:0:0:0:
196,264,92857,6,0,B|204:208|204:208|64:264,1,180,0|0,1:0|0:0,0:0:0:0:
84,108,93326,2,0,B|248:36|248:36|224:152,1,270,0|0,1:0|0:0,0:0:0:0:
190,304,93795,54,0,B|216:348|280:376|348:360|348:360|332:328|352:284|412:288|420:336,1,315,0|0,1:0|0:0,0:0:0:0:
476,356,94263,2,0,P|504:296|484:224,2,135,0|0|8,3:0|3:0|3:0,3:0:0:0:
412,228,94732,1,0,1:0:0:0:
268,220,94849,70,2,P|248:176|236:124,1,90
200,76,94966,2,2,P|184:116|172:172,1,90
156,232,95084,2,2,P|120:192|96:124,1,90
96,88,95201,6,0,B|116:24|116:24|20:36,2,135,0|0|0,3:0|3:0|3:0,3:0:0:0:
104,159,95670,5,0,1:0:0:0:
84,228,95787,2,0,L|60:284,2,45
156,232,96021,2,0,P|288:180|304:48,1,270,2|0,0:0|0:0,0:0:0:0:
248,32,96490,1,0,3:0:0:0:
248,32,96548,1,0,3:0:0:0:
248,32,96607,1,0,1:0:0:0:
372,32,96724,22,0,L|492:16,1,90,8|0,0:3|0:0,0:0:0:0:
376,116,96959,1,0,3:0:0:0:
440,224,97076,2,0,L|464:112,1,90,8|0,0:3|0:0,0:0:0:0:
348,196,97310,2,0,L|326:301,1,90,8|0,0:3|0:0,0:0:0:0:
428,336,97545,6,2,B|352:388|256:368|256:368|232:296,1,247.5,4|2,0:3|0:0,0:0:0:0:
234,304,98365,1,8,0:3:0:0:
84,208,98482,22,0,P|124:216|184:240,1,90,0|0,1:0|3:0,3:0:0:0:
58,294,98717,2,0,P|67:249|83:207,1,90,0|0,3:0|3:0,3:0:0:0:
144,320,98951,2,0,P|99:310|57:294,1,90,0|0,3:0|3:0,3:0:0:0:
169,233,99185,2,0,P|159:277|143:319,1,90,0|0,3:0|3:0,3:0:0:0:
148,136,99420,6,0,P|204:108|136:40,1,180,0|0,1:3|0:0,0:0:0:0:
88,32,99712,1,2,0:0:0:0:
88,32,99771,2,0,P|68:128|84:212,1,180,2|0,0:0|0:0,0:0:0:0:
144,320,100123,1,8,0:3:0:0:
57,294,100240,1,0,0:0:0:0:
169,233,100357,22,0,P|230:156|254:74,1,180,0|0,1:0|0:0,0:0:0:0:
344,192,100826,1,0,1:0:0:0:
392,244,100943,38,0,L|388:284,2,30
416,244,101060,2,0,L|424:168,1,60
444,172,101177,2,0,L|448:136,2,30
508,209,101295,6,0,B|536:297|496:378|496:378|440:329|360:349,1,315,0|0,1:0|0:0,0:0:0:0:
299,341,101763,6,0,B|292:312|292:312|248:284,4,60,0|0|0|0|0,3:0|3:0|3:0|3:0|3:0,3:0:0:0:
256,340,102115,2,0,L|192:340,1,45,8|0,0:3|0:0,0:0:0:0:
148,328,102232,6,0,B|156:284|156:284|44:292,1,135,2|0,1:3|0:0,0:0:0:0:
32,236,102466,2,0,L|44:168,1,45,2|0,0:3|0:0,0:0:0:0:
39,191,102584,2,0,L|190:181,1,135,2|0,0:3|0:0,0:0:0:0:
184,116,102818,2,0,L|335:106,1,135,2|0,0:3|0:0,0:0:0:0:
318,107,103052,2,0,L|310:151,1,45,2|0,0:3|0:0,0:0:0:0:
288,240,103170,37,0,1:0:0:0:
408,280,103287,1,0,3:0:0:0:
408,280,103345,1,0,3:0:0:0:
408,280,103404,1,0,3:0:0:0:
436,156,103521,1,0,3:0:0:0:
318,107,103638,2,0,L|196:116,1,90,2|2,3:2|0:0,0:0:0:0:
220,240,103873,2,2,L|118:231,1,90,2|2,0:0|3:2,0:0:0:0:
112,252,104048,1,0,3:0:0:0:
92,272,104107,5,0,1:0:0:0:
32,160,104224,1,0,0:0:0:0:
96,52,104341,2,0,L|185:45,1,90,8|0,0:3|0:0,0:0:0:0:
312,36,104576,5,8,0:3:0:0:
396,128,104693,1,0,0:3:0:0:
396,253,104810,1,8,0:3:0:0:
312,348,104927,1,0,0:3:0:0:
214,264,105045,2,0,P|306:192|214:119,1,270,4|2,3:0|0:0,0:1:0:0:
82,169,105513,6,0,B|51:186|51:186|43:128|74:105,1,90,2|2,0:0|0:0,0:0:0:0:
96,52,105748,2,0,B|127:35|127:35|135:93|104:116,1,90,2|8,0:0|3:3,0:0:0:0:
176,192,105982,22,0,B|128:228|128:228|124:288,2,120,2|2|2,0:3|0:3|0:3,0:3:0:0:
168,252,106216,2,0,B|204:300|204:300|264:304,2,120,2|2|2,0:3|0:3|0:3,0:3:0:0:
228,260,106451,2,0,B|276:224|276:224|280:164,2,120,2|2|2,0:3|0:3|0:3,0:3:0:0:
236,200,106685,2,0,B|200:152|200:152|140:148,2,120,2|2|2,0:3|0:3|0:3,0:3:0:0:
263,303,106920,6,0,P|360:308|464:304,1,180,0|0,1:0|3:0,0:0:0:0:
476,252,107212,1,0,3:0:0:0:
476,252,107271,2,0,B|440:216|440:216|492:160|468:84,1,180,2|0,3:0|0:0,0:0:0:0:
348,128,107623,2,0,P|308:144|252:160,1,90,10|0,0:3|0:0,0:0:0:0:
168,76,107857,6,0,P|146:160|132:276,1,180,0|0,1:0|3:0,0:0:0:0:
360,364,108326,2,0,P|404:224|416:48,1,315,0|0,1:0|0:0,0:0:0:0:
416,56,108795,1,0,1:0:0:0:
168,76,109029,54,0,B|124:56|124:56|140:8,4,90,2|2|2|2|2,0:0|0:0|0:0|0:0|0:0,0:0:0:0:
212,160,109439,38,0,B|196:204|196:204|228:232,1,90,2|2,0:0|0:0,0:0:0:0:
252,248,109615,1,8,0:3:0:0:
344,164,109732,5,0,1:0:0:0:
404,276,109849,2,0,P|424:256|448:220,2,45,2|2|2,0:0|0:0|0:0,0:0:0:0:
292,336,110084,2,0,P|192:348|100:320,1,180,2|0,3:0|0:0,0:0:0:0:
420,76,110435,38,0,P|280:264|48:180,1,495,4|0,3:0|2:0,3:0:0:0:
59,196,111138,2,0,P|140:192|204:116,1,180,0|0,3:0|3:0,3:0:0:0:
88,72,111490,5,0,3:0:0:0:
88,72,111548,1,0,3:0:0:0:
88,72,111607,2,0,P|32:64|-8:36,1,90,0|0,1:0|0:0,0:0:0:0:
120,4,111841,2,0,P|176:12|216:40,1,90,0|0,1:0|0:0,0:0:0:0:
276,132,112076,1,8,3:0:0:0:
264,256,112193,1,8,3:0:0:0:
144,292,112310,1,4,3:0:0:0:
60,200,112427,1,4,3:0:0:0:
264,256,112545,6,0,B|324:257|380:280|421:332|421:332|383:368|333:368|292:352,1,315,4|0,0:1|0:0,0:0:0:0:
236,340,113013,2,0,P|192:312|176:252,2,90,0|0|0,3:0|3:0|3:0,3:0:0:0:
208,216,113365,1,8,0:3:0:0:
272,184,113482,38,0,P|330:210|396:205,2,120,2|2|2,1:3|0:3|0:3,0:0:0:0:
332,172,113716,2,0,P|283:118|276:38,2,120,2|2|2,0:3|0:3|0:3,0:0:0:0:
328,112,113951,2,0,P|368:132|444:132,2,120,2|2|2,0:3|0:3|0:3,0:0:0:0:
384,92,114185,2,0,P|332:48|316:-8,2,120,2|2|2,0:3|0:3|0:3,0:0:0:0:
385,208,114420,54,0,P|324:260|208:276,1,180,4|0,1:0|0:0,0:0:0:0:
152,156,114888,37,2,0:3:0:0:
100,40,115005,2,0,P|64:64|32:112,1,90,2|8,0:3|0:3,0:0:0:0:
44,228,115240,1,2,0:3:0:0:
156,284,115357,2,0,P|224:264|280:152,1,180,0|0,1:0|0:0,0:0:0:0:
279,175,115826,6,0,P|339:287|463:179,1,315,0|0,3:0|3:0,3:0:0:0:
464,202,116295,54,0,P|428:120|322:51,1,202.500007724762,4|0,0:0|0:0,0:0:0:0:
338,55,116529,2,0,B|216:104|112:64|112:64|100:208,1,337.500012874604,4|0,0:0|0:0,0:0:0:0:
103,169,116880,2,0,B|164:248|272:256|272:256|232:316|136:332,1,337.500012874604,4|0,0:0|0:0,0:0:0:0:
140,332,117232,1,4,0:0:0:0:
256,192,117291,12,0,119107,0:0:0:0:
356,192,119341,38,0,L|296:212,1,45,0|0,3:0|3:0,3:0:0:0:
156,192,119576,2,0,L|216:212,1,45,0|0,3:0|3:0,3:0:0:0:
256,272,119810,1,0,3:0:0:0:
256,344,119927,1,0,3:0:0:0:
256,160,120045,5,4,0:1:0:0:
256,192,120103,12,0,131295,0:0:0:0:
