osu file format v14

[General]
AudioFilename: audio.mp3
AudioLeadIn: 0
PreviewTime: 56295
Countdown: 0
SampleSet: Soft
StackLeniency: 0.3
Mode: 0
LetterboxInBreaks: 0
WidescreenStoryboard: 0

[Editor]
Bookmarks: 30045,45045,52545,58170,60045,75045,90045,105045,116295,120045,131295
DistanceSpacing: 1.6
BeatDivisor: 4
GridSize: 4
TimelineZoom: 1.3

[Metadata]
Title:Railgun Roulette
TitleUnicode:Railgun Roulette
Artist:Camellia vs. Akira Complex
ArtistUnicode:かめりあ vs. Akira Complex
Creator:ErunamoJAZZ
Version:Normal
Source:
Tags:dubstep experimental S2TB c91 Reality Distortion TANO*C Sebastian343 Rugakot Yoari
BeatmapID:1256115
BeatmapSetID:567069

[Difficulty]
HPDrainRate:3
CircleSize:3
OverallDifficulty:4
ApproachRate:4
SliderMultiplier:1
SliderTickRate:1

[Events]
//Background and Video events
0,0,"1485900451117.png",0,0
//Break Periods
//Storyboard Layer 0 (Background)
//Storyboard Layer 1 (Fail)
//Storyboard Layer 2 (Pass)
//Storyboard Layer 3 (Foreground)
//Storyboard Layer 4 (Overlay)
//Storyboard Sound Samples

[TimingPoints]
45,468.75,4,2,0,70,1,0
52545,-100,4,2,0,60,0,0
53482,-100,4,2,0,50,0,0
54420,-100,4,2,0,40,0,0
55357,-100,4,2,0,30,0,0
56295,-100,4,2,0,70,0,0
58170,-100,4,2,0,70,0,0
60045,-100,4,2,0,70,0,1
60513,-100,4,2,0,70,0,1
61920,-100,4,2,0,70,0,1
62388,-100,4,2,0,70,0,1
63795,-100,4,2,0,70,0,1
64263,-100,4,2,0,70,0,1
67545,-100,4,2,0,70,0,1
68013,-100,4,2,0,70,0,1
69420,-100,4,2,0,70,0,1
69888,-100,4,2,0,70,0,1
71295,-100,4,2,0,70,0,1
71763,-100,4,2,0,70,0,1
73170,-100,4,2,0,70,0,1
73638,-100,4,2,0,70,0,1
73990,-100,4,2,0,30,0,0
75045,-100,4,2,0,70,0,1
75513,-100,4,2,0,70,0,1
76920,-100,4,2,0,70,0,1
77388,-100,4,2,0,70,0,1
78795,-100,4,2,0,70,0,1
79263,-100,4,2,0,70,0,1
82545,-100,4,2,0,70,0,1
83013,-100,4,2,0,70,0,1
84420,-100,4,2,0,70,0,1
84888,-100,4,2,0,70,0,1
86295,-100,4,2,0,70,0,1
86763,-100,4,2,0,70,0,1
88170,-100,4,2,0,70,0,1
88404,-100,4,2,0,70,0,0
90045,-100,4,2,0,70,0,0
90982,-100,4,2,0,70,0,0
94732,-100,4,2,0,70,0,0
95201,-100,4,2,0,70,0,0
97545,-100,4,2,0,70,0,0
98482,-100,4,2,0,70,0,0
105162,-100,4,2,0,50,0,0
105279,-100,4,2,0,30,0,0
105982,-100,4,2,0,70,0,0
106920,-100,4,2,0,70,0,0
109029,-100,4,2,0,70,0,0
109263,-100,4,2,0,70,0,0
113482,-100,4,2,0,70,0,0
114420,-100,4,2,0,70,0,0
116295,-100,4,2,0,70,0,0
119107,-100,4,2,0,70,0,0
120982,-100,4,2,0,65,0,0
121920,-100,4,2,0,60,0,0
122857,-100,4,2,0,55,0,0
123795,-100,4,2,0,50,0,0

[Colours]
Combo1 : 0,255,0
Combo2 : 0,255,255
Combo3 : 255,0,128
Combo4 : 219,219,219
Combo5 : 255,255,0
Combo6 : 77,77,77

[HitObjects]
300,31,30045,6,0,P|337:63|405:77,1,100,6|2,0:2|0:0,0:0:0:0:
468,132,30982,2,0,B|415:180|353:198|283:184|283:184|213:171|151:189|98:237,1,400,2|2,0:0|0:0,0:0:0:0:
27,309,33326,1,2,0:2:0:0:
115,356,33795,6,0,P|165:363|243:332,1,100,2|2,0:0|0:0,0:0:0:0:
300,302,34732,2,0,B|327:236|282:209|243:176|259:115|259:115|300:77|354:89|354:89|407:100|424:151,1,400,2|2,0:0|0:0,0:0:0:0:
452,245,37076,1,2,0:0:0:0:
393,325,37545,6,0,P|343:325|300:302,1,100,2|2,0:0|0:0,0:0:0:0:
279,203,38482,2,0,P|298:76|125:159,1,400,2|2,0:0|0:0,0:0:0:0:
181,221,40826,1,2,0:0:0:0:
97,275,41295,6,0,P|115:322|158:361,1,100,2|2,0:0|0:0,0:0:0:0:
249,345,42232,2,0,P|273:301|275:242,1,100,2|2,0:0|0:0,0:0:0:0:
267,152,43170,2,0,P|283:106|335:57,1,100,2|2,0:0|0:0,0:0:0:0:
416,67,44107,2,0,P|447:103|464:173,1,100,2|2,0:0|0:0,0:0:0:0:
465,252,45045,38,0,P|429:285|367:318,1,100,2|8,3:3|1:2,0:0:0:0:
320,233,45982,2,0,P|276:258|240:291,1,100,0|8,3:0|1:2,0:0:0:0:
183,374,46920,1,2,3:3:0:0:
104,312,47388,2,0,P|64:281|19:260,2,100,8|0|8,1:2|3:0|1:2,0:0:0:0:
165,233,48795,6,0,P|198:195|280:160,1,100,2|8,3:3|1:2,0:0:0:0:
320,233,49732,2,0,P|358:201|385:159,1,100,0|8,3:0|1:2,0:0:0:0:
344,67,50670,1,2,3:3:0:0:
247,41,51138,2,0,P|208:72|181:114,2,100,8|0|8,1:2|3:0|1:2,0:0:0:0:
344,67,52545,6,0,B|435:136|412:240|412:240|310:274|224:211|224:211|234:305|145:357|55:338|33:262|20:222|59:158,1,750,0|0,1:0|1:0,0:0:0:0:
256,192,56295,12,4,58170,3:0:0:0:
303,141,60045,6,0,B|255:131|255:131|199:80,1,100,0|2,1:0|1:2,0:0:0:0:
118,28,60865,2,0,P|113:100|74:162,1,125,2|0,1:2|1:2,0:0:0:0:
136,298,61920,2,0,B|165:339|165:339|230:365,1,100,2|0,0:3|1:2,0:0:0:0:
310,290,62740,2,0,P|351:264|439:268,1,125,0|2,1:2|1:2,0:0:0:0:
485,113,63795,38,0,P|465:68|408:33,1,100,4|0,0:3|1:3,0:0:0:0:
371,145,64615,2,0,P|311:160|248:131,1,125,2|0,1:3|1:3,0:0:0:0:
134,30,65670,2,0,P|85:19|29:32,1,100,0|0,1:0|3:0,0:0:0:0:
83,139,66490,2,0,P|83:205|43:271,1,125,0|0,1:0|1:0,0:0:0:0:
5,317,67310,1,2,3:0:0:0:
64,370,67545,6,0,P|112:384|183:376,1,100,4|2,0:1|1:2,0:0:0:0:
210,272,68365,2,0,B|209:222|209:222|240:197|251:146,1,125,2|0,1:2|1:2,0:0:0:0:
343,30,69420,2,0,P|391:39|435:74,1,100,2|2,0:3|1:2,0:0:0:0:
428,189,70240,2,0,B|426:239|426:239|460:323,1,125,2|0,1:2|1:2,0:0:0:0:
294,297,71295,6,0,L|253:190,1,100,4|0,0:3|1:0,0:0:0:0:
352,128,72115,2,0,P|292:88|220:89,1,125,2|0,1:3|1:0,0:0:0:0:
177,231,73170,2,0,B|159:279|159:279|94:306,1,100,0|0,1:3|1:0,0:0:0:0:
27,214,73990,6,0,P|11:118|104:37,1,225,4|4,1:3|0:1,0:0:0:0:
255,68,75513,37,2,1:2:0:0:
250,188,75865,2,0,P|316:170|361:119,1,125,2|0,1:2|1:2,0:0:0:0:
490,45,76920,2,0,B|514:90|514:90|507:158,1,100,2|2,0:3|1:2,0:0:0:0:
488,257,77740,2,0,P|438:299|364:302,1,125,2|0,1:2|1:2,0:0:0:0:
240,228,78795,6,0,P|220:183|227:123,1,100,4|0,0:3|1:3,0:0:0:0:
340,160,79615,2,0,B|384:147|384:147|445:78,1,125,2|0,1:3|1:3,0:0:0:0:
289,23,80670,2,0,P|237:13|179:28,1,100,0|0,1:0|3:0,0:0:0:0:
122,120,81490,2,0,B|91:156|91:156|-2:189,1,125,0|0,1:0|1:0,0:0:0:0:
8,342,82545,6,0,L|114:381,1,100,4|2,0:1|1:2,0:0:0:0:
186,290,83365,2,0,P|219:255|293:246,1,125,2|0,1:2|1:2,0:0:0:0:
426,333,84420,2,0,B|452:292|452:292|455:229,1,100,2|2,0:3|1:2,0:0:0:0:
443,120,85240,2,0,P|391:76|330:62,1,125,2|0,1:2|1:2,0:0:0:0:
209,159,86295,6,0,P|216:208|248:257,1,100,4|0,0:3|1:0,0:0:0:0:
174,349,87115,2,0,P|111:338|48:349,1,125,0|0,1:0|1:0,0:0:0:0:
12,192,88170,22,0,P|30:151|88:109,1,100,4|0,1:2|3:0,0:0:0:0:
158,249,89107,1,0,3:0:0:0:
256,123,89576,1,0,3:0:0:0:
355,249,90045,6,0,P|408:165|415:84,1,175,4|8,0:3|0:3,0:0:0:0:
384,66,90982,2,0,B|336:53|336:53|288:69|288:69|246:42|181:56,1,200,0|0,1:0|1:0,0:0:0:0:
228,168,92271,2,0,P|196:192|160:204,1,75,2|8,0:0|0:3,0:0:0:0:
129,276,92857,6,0,P|172:302|224:307,2,100,0|0|0,1:0|1:0|1:0,0:0:0:0:
39,143,94263,2,0,L|111:122,1,75,0|8,3:0|3:0,0:0:0:0:
150,113,94732,2,0,B|142:62|142:62|87:17,2,100,0|0|0,1:0|3:0|1:0,0:0:0:0:
163,232,96021,6,0,L|175:330,1,75,2|0,0:0|0:0,0:0:0:0:
235,355,96607,1,0,1:0:0:0:
326,223,97076,1,8,0:3:0:0:
244,85,97545,6,0,P|320:62|411:88,1,175,4|8,0:3|0:3,0:0:0:0:
441,111,98482,2,0,P|487:202|468:294,1,200,0|0,1:0|1:3,0:0:0:0:
358,343,99771,2,0,L|286:301,1,75,2|8,0:0|0:3,0:0:0:0:
222,266,100357,38,0,P|181:295|112:308,1,100,0|0,1:0|1:0,0:0:0:0:
112,148,101295,2,0,P|168:89|259:64,1,175,0|8,1:0|0:3,0:0:0:0:
295,67,102232,2,0,L|352:97,1,50,2|2,1:3|0:3,0:0:0:0:
315,122,102584,2,0,L|350:166,1,50,2|2,0:3|0:3,0:0:0:0:
466,157,103170,6,0,B|497:198|497:198|498:246|498:246|466:286|466:286|417:294,1,200,0|0,1:0|1:0,0:0:0:0:
256,256,104576,1,8,0:3:0:0:
100,295,105045,1,4,3:0:0:0:
331,73,105982,6,0,B|305:46|305:46|275:49|275:49|248:30|248:30|216:40|216:40|189:28|189:28|156:45,1,200,2|0,0:3|1:0,0:0:0:0:
62,121,107271,2,0,P|45:158|44:207,1,75,2|10,3:0|0:3,0:0:0:0:
103,243,107857,2,0,P|140:214|204:201,1,100,0|0,1:0|1:0,0:0:0:0:
212,359,108795,6,0,B|262:369|262:369|283:357|283:357|308:358|308:358|343:311,1,150,0|0,1:0|0:0,0:0:0:0:
417,312,109732,2,0,P|443:287|462:247,1,75,0|2,1:0|3:0,0:0:0:0:
484,134,110435,2,0,P|447:86|354:50,1,150,4|0,3:0|3:0,0:0:0:0:
348,208,111607,38,0,P|266:264|185:215,1,200,0|4,1:0|0:1,0:0:0:0:
75,105,113013,2,0,P|105:74|150:64,1,75,0|8,3:0|0:3,0:0:0:0:
173,72,113482,2,0,B|203:93|203:93|232:84|232:84|262:98|262:98|291:82|291:82|320:88|320:88|349:65,1,200,2|4,1:3|1:0,0:0:0:0:
482,160,114888,2,0,P|457:213|446:266,1,100,2|0,0:3|1:0,0:0:0:0:
287,251,115826,1,0,3:0:0:0:
255,94,116295,6,0,B|208:71|208:71|193:110|154:129,1,125,4|4,0:0|0:0,0:0:0:0:
96,23,117232,2,0,P|59:189|245:212,1,400,4|0,0:0|0:0,0:0:0:0:
317,242,119341,2,0,L|320:304,2,50,0|0|0,3:0|3:0|3:0,0:0:0:0:
380,192,120045,1,4,0:1:0:0:
256,192,120279,12,0,123795,0:0:0:0:
