osu file format v14

[General]
AudioFilename: audio.mp3
AudioLeadIn: 0
PreviewTime: 56295
Countdown: 0
SampleSet: Soft
StackLeniency: 0.3
Mode: 0
LetterboxInBreaks: 0
WidescreenStoryboard: 0

[Editor]
Bookmarks: 30045,45045,52545,58170,60045,75045,90045,105045,116295,120045,131295
DistanceSpacing: 1
BeatDivisor: 4
GridSize: 32
TimelineZoom: 2.1

[Metadata]
Title:Railgun Roulette
TitleUnicode:Railgun Roulette
Artist:Camellia vs. Akira Complex
ArtistUnicode:かめりあ vs. Akira Complex
Creator:ErunamoJAZZ
Version:Hard+
Source:
Tags:dubstep experimental S2TB c91 Reality Distortion TANO*C Sebastian343 Rugakot Yoari
BeatmapID:1257212
BeatmapSetID:567069

[Difficulty]
HPDrainRate:4
CircleSize:4.5
OverallDifficulty:6
ApproachRate:8.5
SliderMultiplier:1.4
SliderTickRate:1

[Events]
//Background and Video events
0,0,"1485900451117.png",0,0
//Break Periods
//Storyboard Layer 0 (Background)
//Storyboard Layer 1 (Fail)
//Storyboard Layer 2 (Pass)
//Storyboard Layer 3 (Foreground)
//Storyboard Layer 4 (Overlay)
//Storyboard Sound Samples

[TimingPoints]
45,468.75,4,2,0,70,1,0
52545,-100,4,2,0,60,0,0
53482,-100,4,2,0,50,0,0
54420,-100,4,2,0,40,0,0
55357,-100,4,2,0,30,0,0
56295,-100,4,2,0,70,0,0
58170,-100,4,2,0,70,0,0
59107,-100,4,2,0,70,0,0
59576,-100,4,2,0,70,0,0
59810,-100,4,2,0,70,0,0
60045,-76.9230769230769,4,2,0,70,0,1
60513,-100,4,2,0,70,0,1
61920,-76.9230769230769,4,2,0,70,0,1
62388,-100,4,2,0,70,0,1
63795,-76.9230769230769,4,2,0,70,0,1
64263,-100,4,2,0,70,0,1
67545,-76.9230769230769,4,2,0,70,0,1
68013,-100,4,2,0,70,0,1
69420,-76.9230769230769,4,2,0,70,0,1
69888,-100,4,2,0,70,0,1
71295,-76.9230769230769,4,2,0,70,0,1
71763,-100,4,2,0,70,0,1
73170,-76.9230769230769,4,2,0,70,0,1
73638,-100,4,2,0,70,0,1
73990,-100,4,2,0,30,0,0
75045,-76.9230769230769,4,2,0,70,0,1
75513,-100,4,2,0,70,0,1
76920,-76.9230769230769,4,2,0,70,0,1
77388,-100,4,2,0,70,0,1
78795,-76.9230769230769,4,2,0,70,0,1
79263,-100,4,2,0,70,0,1
82545,-76.9230769230769,4,2,0,70,0,1
83013,-100,4,2,0,70,0,1
84420,-76.9230769230769,4,2,0,70,0,1
84888,-100,4,2,0,70,0,1
86295,-76.9230769230769,4,2,0,70,0,1
86763,-100,4,2,0,70,0,1
88170,-76.9230769230769,4,2,0,70,0,1
88404,-100,4,2,0,70,0,0
90045,-100,4,2,0,70,0,0
90982,-100,4,2,0,70,0,0
94732,-100,4,2,0,70,0,0
95201,-100,4,2,0,70,0,0
97545,-100,4,2,0,70,0,0
98482,-100,4,2,0,70,0,0
105162,-100,4,2,0,50,0,0
105279,-100,4,2,0,30,0,0
105982,-100,4,2,0,70,0,0
106920,-100,4,2,0,70,0,0
109029,-100,4,2,0,70,0,0
109263,-100,4,2,0,70,0,0
113482,-100,4,2,0,70,0,0
114420,-100,4,2,0,70,0,0
116295,-100,4,2,0,70,0,0
119107,-100,4,2,0,70,0,0
120982,-100,4,2,0,65,0,0
121920,-100,4,2,0,60,0,0
122857,-100,4,2,0,55,0,0
123795,-100,4,2,0,50,0,0

[Colours]
Combo1 : 0,255,0
Combo2 : 0,255,255
Combo3 : 255,0,128
Combo4 : 219,219,219
Combo5 : 255,255,0
Combo6 : 77,77,77

[HitObjects]
168,88,29459,6,0,L|182:63,2,17.5,8|8|8,0:3|0:3|0:3,0:0:0:0:
106,121,29693,2,0,L|66:98,2,35,8|8|8,0:3|0:3|0:3,0:0:0:0:
174,175,30045,6,0,L|180:220,2,35,6|2|0,0:2|0:0|0:0,0:0:0:0:
228,131,30396,2,0,L|265:100,2,35,2|2|0,0:0|0:0|0:0,0:0:0:0:
272,185,30748,2,0,L|314:215,2,35,2|2|0,0:0|0:0|0:0,0:0:0:0:
238,246,31099,2,0,L|233:290,2,35,2|2|0,0:0|0:0|0:0,0:0:0:0:
305,275,31451,1,2,0:0:0:0:
305,275,31568,2,0,L|327:313,2,35,2|0|0,0:0|0:0|0:0,0:0:0:0:
362,233,31920,6,0,L|405:201,1,35,2|2,0:0|0:0,0:0:0:0:
407,144,32154,1,0,0:0:0:0:
407,144,32271,2,0,L|423:82,1,35,2|2,0:0|0:0,0:0:0:0:
350,84,32505,1,0,0:0:0:0:
350,84,32623,2,0,L|304:43,1,35,2|2,0:0|0:0,0:0:0:0:
273,109,32857,1,0,0:0:0:0:
273,109,32974,2,0,L|232:131,1,35,2|2,0:0|0:0,0:0:0:0:
182,87,33209,1,0,0:0:0:0:
182,87,33326,1,2,0:2:0:0:
182,87,33443,2,0,B|173:41,2,35,2|0|0,0:2|0:0|0:0,0:0:0:0:
130,135,33795,6,0,L|89:129,2,35,2|2|0,0:0|0:0|0:0,0:0:0:0:
164,196,34146,2,0,L|131:247,2,35,2|2|0,0:0|0:0|0:0,0:0:0:0:
232,210,34498,2,0,L|258:257,2,35,2|2|0,0:0|0:0|0:0,0:0:0:0:
278,157,34849,2,0,L|329:162,2,35,2|2|0,0:0|0:0|0:0,0:0:0:0:
250,92,35201,2,0,L|276:53,1,35,2|2,0:0|0:0,0:0:0:0:
339,68,35435,2,0,L|361:113,1,35,0|0,0:0|0:0,0:0:0:0:
424,106,35670,38,0,L|459:64,2,35,2|2|0,0:0|0:0|0:0,0:0:0:0:
430,175,36021,2,0,L|482:215,2,35,2|2|0,0:0|0:0|0:0,0:0:0:0:
365,202,36373,2,0,L|363:245,1,35,2|2,0:0|0:0,0:0:0:0:
373,306,36607,1,0,0:0:0:0:
373,306,36724,2,0,L|435:317,2,35,2|2|0,0:0|0:0|0:0,0:0:0:0:
308,320,37076,1,2,0:0:0:0:
308,320,37193,1,2,0:0:0:0:
308,320,37310,2,0,L|271:367,1,35,0|0,0:0|0:0,0:0:0:0:
236,273,37545,6,0,L|221:228,2,35,2|2|0,0:0|0:0|0:0,0:0:0:0:
197,331,37896,2,0,L|167:369,2,35,2|2|0,0:0|0:0|0:0,0:0:0:0:
163,268,38248,2,0,L|139:220,2,35,2|2|0,0:0|0:0|0:0,0:0:0:0:
118,321,38599,2,0,L|80:360,2,35,2|2|0,0:0|0:0|0:0,0:0:0:0:
83,259,38951,1,2,0:2:0:0:
76,248,39068,1,2,0:2:0:0:
67,238,39185,1,0,0:0:0:0:
61,228,39302,1,0,0:0:0:0:
56,157,39420,6,0,L|80:117,1,35,2|2,0:0|0:0,0:0:0:0:
23,78,39654,1,0,0:0:0:0:
23,78,39771,2,0,L|44:39,1,35,2|2,0:0|0:0,0:0:0:0:
108,60,40005,1,0,0:0:0:0:
108,60,40123,2,0,L|168:83,1,35,2|2,0:0|0:0,0:0:0:0:
191,24,40357,1,0,0:0:0:0:
191,24,40474,2,0,L|250:51,1,35,2|2,0:0|0:0,0:0:0:0:
288,65,40709,1,0,0:0:0:0:
288,64,40826,2,0,L|333:30,1,35,2|2,0:0|0:0,0:0:0:0:
385,44,41060,2,0,L|390:101,1,35,0|0,0:0|0:0,0:0:0:0:
394,149,41295,6,0,L|397:192,2,35,2|2|0,0:0|0:0|0:0,0:0:0:0:
326,166,41646,2,0,L|300:117,2,35,2|2|0,0:0|0:0|0:0,0:0:0:0:
343,234,41998,2,0,L|317:282,2,35,2|2|0,0:0|0:0|0:0,0:0:0:0:
276,213,42349,2,0,L|234:240,2,35,2|2|0,0:0|0:0|0:0,0:0:0:0:
241,151,42701,2,0,L|194:117,1,35,2|2,0:0|0:0,0:0:0:0:
143,138,42935,2,0,L|105:163,1,35,0|0,0:0|0:0,0:0:0:0:
92,224,43170,38,0,L|78:284,2,35,2|2|0,0:0|0:0|0:0,0:0:0:0:
153,256,43521,2,0,L|182:307,2,35,2|2|0,0:0|0:0|0:0,0:0:0:0:
111,319,43873,2,0,L|76:367,2,35,2|2|0,0:0|0:0|0:0,0:0:0:0:
170,353,44224,2,0,L|222:384,2,35,2|2|0,0:0|0:0|0:0,0:0:0:0:
218,301,44576,1,2,0:0:0:0:
226,295,44693,1,2,0:0:0:0:
235,288,44810,1,0,0:0:0:0:
245,281,44927,1,0,0:0:0:0:
314,254,45045,6,0,P|352:251|394:263,1,70,2|0,3:3|3:0,0:0:0:0:
422,315,45396,1,0,3:0:0:0:
483,282,45513,2,0,P|509:241|510:164,1,105,8|2,1:2|3:3,0:0:0:0:
468,133,45982,6,0,P|430:138|385:117,1,70,0|2,0:0|3:3,0:0:0:0:
298,31,46451,1,8,1:2:0:0:
298,31,46568,2,0,P|260:30|225:54,1,70,0|0,0:0|0:0,0:0:0:0:
279,98,46920,5,2,3:3:0:0:
158,27,47154,1,0,0:0:0:0:
216,153,47388,2,0,P|173:204|118:198,1,105,8|2,1:2|3:3,0:0:0:0:
148,137,47857,38,0,P|106:143|81:165,1,70,0|2,0:0|0:3,0:0:0:0:
38,292,48326,1,8,1:2:0:0:
38,292,48443,2,0,P|64:324|96:334,1,70,2|0,3:3|0:0,0:0:0:0:
153,303,48795,6,0,P|206:292|258:320,1,105,2|0,3:3|3:0,0:0:0:0:
296,367,49263,1,8,1:2:0:0:
330,158,49615,1,2,3:3:0:0:
275,203,49732,6,0,P|241:205|204:189,1,70,0|2,3:0|0:3,0:0:0:0:
254,62,50201,1,8,1:2:0:0:
254,62,50318,2,0,P|219:51|172:67,1,70,0|0,0:0|0:0,0:0:0:0:
151,119,50670,5,2,3:3:0:0:
223,238,50904,1,0,0:0:0:0:
319,136,51138,2,0,P|357:110|421:124,1,105,8|2,1:2|3:3,0:0:0:0:
377,179,51607,38,0,P|389:209|433:242,1,70,0|2,3:0|0:3,0:0:0:0:
500,123,52076,1,8,1:2:0:0:
500,123,52193,2,0,P|493:90|456:49,1,70,2|0,0:3|0:0,0:0:0:0:
403,73,52545,6,0,L|363:96,1,35,0|0,1:0|1:0,0:0:0:0:
348,65,52779,2,0,L|314:106,1,35,0|0,1:0|1:0,0:0:0:0:
292,81,53013,2,0,L|279:122,1,35,0|0,1:0|1:0,0:0:0:0:
246,112,53248,2,0,L|258:162,1,35,0|0,1:0|1:0,0:0:0:0:
223,163,53482,2,0,L|249:198,1,35,0|0,1:3|1:0,0:0:0:0:
222,218,53716,2,0,L|269:239,1,35,0|0,1:0|1:0,0:0:0:0:
247,266,53951,2,0,L|292:271,1,35,0|0,1:0|1:0,0:0:0:0:
286,303,54185,2,0,L|332:270,1,35,0|0,1:0|1:0,0:0:0:0:
336,310,54420,6,0,L|335:258,1,35,0|0,1:0|1:0,0:0:0:0:
369,265,54654,2,0,L|350:212,1,35,0|0,1:0|1:0,0:0:0:0:
386,212,54888,2,0,L|357:189,1,35,0|0,1:0|1:0,0:0:0:0:
372,158,55123,2,0,L|331:159,1,35,0|0,1:0|1:0,0:0:0:0:
333,124,55357,2,0,L|271:144,1,35,0|0,1:0|1:0,0:0:0:0:
285,102,55591,2,0,L|243:132,1,35,0|0,1:0|1:0,0:0:0:0:
231,97,55826,2,0,L|201:149,1,35,0|0,1:0|1:0,0:0:0:0:
180,115,56060,2,0,L|171:173,1,35,0|0,1:0|1:0,0:0:0:0:
174,184,56295,6,0,L|187:215,7,17.5,0|0|0|0|0|0|0|0,3:0|3:0|3:0|3:0|3:0|3:0|3:0|3:0,0:0:0:0:
103,193,56763,38,0,L|93:172,7,17.5,0|0|0|0|0|0|0|0,3:0|3:0|3:0|3:0|3:0|3:0|3:0|3:0,0:0:0:0:
138,264,57232,6,0,L|151:293,7,17.5,0|0|0|0|0|0|0|0,3:0|3:0|3:0|3:0|3:0|3:0|3:0|3:0,0:0:0:0:
61,256,57701,6,0,L|50:233,7,17.5,0|0|0|0|0|0|0|0,3:0|3:0|3:0|3:0|3:0|3:0|3:0|3:0,0:0:0:0:
91,322,58170,5,4,3:0:0:0:
439,353,59341,2,0,L|475:332,2,35,0|0|2,0:2|0:2|0:2,0:0:0:0:
404,344,59693,1,0,0:2:0:0:
371,332,59810,2,0,L|330:353,1,35,2|0,0:3|0:2,0:0:0:0:
273,367,60045,22,0,P|217:299|228:239,1,136.499993751526,0|0,1:0|0:0,0:0:0:0:
239,226,60513,1,2,1:2:0:0:
308,222,60630,22,0,L|320:181,1,35,2|0,0:2|0:2,0:0:0:0:
307,154,60865,1,2,1:2:0:0:
293,121,60982,2,0,L|306:82,1,35,2|0,0:2|0:2,0:0:0:0:
323,59,61216,1,2,0:2:0:0:
355,45,61334,1,2,0:2:0:0:
389,47,61451,1,0,1:2:0:0:
417,67,61568,1,2,0:2:0:0:
428,99,61685,1,2,0:2:0:0:
423,133,61802,1,0,0:2:0:0:
397,220,61920,54,0,P|440:224|494:192,2,90.9999958343508,2|2|0,0:3|0:3|1:2,0:0:0:0:
332,192,62505,37,2,0:2:0:0:
305,168,62623,1,2,0:2:0:0:
271,159,62740,1,0,1:2:0:0:
236,166,62857,1,2,0:2:0:0:
208,187,62974,1,2,0:2:0:0:
174,195,63091,1,2,0:2:0:0:
139,186,63209,1,0,0:2:0:0:
111,164,63326,1,2,1:2:0:0:
108,94,63443,38,0,L|124:57,2,35,8|2|2,0:3|3:0|3:0,0:0:0:0:
46,125,63795,2,0,P|19:211|21:274,1,136.499993751526,4|0,0:3|3:3,0:0:0:0:
36,285,64205,1,0,3:3:0:0:
36,285,64263,2,0,L|68:308,2,35,0|2|0,1:3|0:3|0:3,0:0:0:0:
87,237,64615,53,2,1:3:0:0:
105,207,64732,2,0,P|109:186|110:157,2,35,0|0|0,3:3|3:3|3:3,0:0:0:0:
153,258,65084,1,2,0:3:0:0:
167,289,65201,2,0,P|168:309|166:327,2,35,0|2|2,1:3|0:3|0:3,0:0:0:0:
180,149,65670,38,0,P|192:129|222:111,1,52.5,0|0,1:0|0:0,0:0:0:0:
236,116,65904,2,0,L|278:138,2,35,0|0|0,3:0|3:0|3:0,0:0:0:0:
197,46,66255,1,2,0:3:0:0:
337,43,66490,1,0,1:0:0:0:
337,43,66607,6,0,L|374:54,1,35,0|0,3:0|3:0,0:0:0:0:
384,85,66841,2,0,L|399:119,1,35,0|2,3:0|0:3,0:0:0:0:
413,148,67076,2,0,L|457:166,2,35,0|2|2,1:0|3:3|3:0,0:0:0:0:
347,174,67427,53,0,3:0:0:0:
347,174,67486,1,0,3:0:0:0:
347,174,67545,2,0,P|304:208|283:300,1,136.499993751526,4|0,0:1|0:0,0:0:0:0:
287,318,68013,1,2,1:2:0:0:
341,361,68130,54,0,L|384:348,1,35,2|0,0:2|0:2,0:0:0:0:
395,322,68365,1,2,1:2:0:0:
411,291,68482,2,0,L|451:279,1,35,2|0,0:2|0:2,0:0:0:0:
475,264,68716,1,2,0:2:0:0:
494,234,68834,1,2,0:2:0:0:
498,199,68951,1,0,1:2:0:0:
485,166,69068,1,2,0:2:0:0:
462,138,69185,1,0,0:2:0:0:
427,134,69302,1,2,0:2:0:0:
383,214,69420,22,0,B|363:240|335:249|301:240|301:240|315:201|299:166|266:151,1,181.999991668702,2|2,0:3|1:2,0:0:0:0:
236,213,70005,37,2,0:2:0:0:
215,241,70122,1,0,0:2:0:0:
185,258,70239,1,2,1:2:0:0:
151,262,70356,1,2,0:2:0:0:
118,251,70473,1,0,0:2:0:0:
92,228,70590,1,2,0:2:0:0:
78,196,70708,1,2,0:2:0:0:
77,162,70825,1,0,1:2:0:0:
94,93,70943,38,0,L|110:50,2,35,8|2|0,0:3|0:3|0:0,0:0:0:0:
148,134,71295,2,0,P|236:117|291:86,1,136.499993751526,4|0,0:3|3:0,0:0:0:0:
305,77,71705,1,0,3:0:0:0:
305,77,71763,2,0,P|340:75|385:91,1,70,0|0,1:0|3:0,0:0:0:0:
364,154,72115,6,0,P|346:190|424:200,1,140,2|0,1:3|3:0,0:0:0:0:
444,187,72701,2,0,L|445:148,2,35,0|0|2,1:0|3:0|3:0,0:0:0:0:
470,209,73052,1,2,3:0:0:0:
447,297,73170,70,0,P|422:312|387:325,1,45.4999979171754,0|0,1:3|3:0,0:0:0:0:
239,358,73404,2,0,P|251:339|260:318,1,45.4999979171754,2|0,0:2|3:0,0:0:0:0:
267,158,73638,22,0,P|272:139|287:116,2,35,0|0|0,1:0|3:0|3:0,0:0:0:0:
256,192,73990,1,4,1:3:0:0:
256,192,74107,12,4,75045,0:1:0:0:
188,131,75513,69,2,1:2:0:0:
204,162,75630,2,0,L|192:203,1,35,2|0,0:2|0:2,0:0:0:0:
205,230,75865,1,2,1:2:0:0:
219,263,75982,2,0,L|206:302,1,35,2|0,0:2|0:2,0:0:0:0:
189,325,76216,1,2,0:2:0:0:
157,339,76334,1,2,0:2:0:0:
123,337,76451,1,0,1:2:0:0:
95,317,76568,1,2,0:2:0:0:
84,285,76685,1,2,0:2:0:0:
89,251,76802,1,0,0:2:0:0:
115,164,76920,70,0,P|72:160|18:192,2,90.9999958343508,2|2|2,0:3|0:3|1:2,0:0:0:0:
180,192,77505,37,2,0:2:0:0:
207,216,77623,1,0,0:2:0:0:
241,225,77740,1,2,1:2:0:0:
276,218,77857,1,2,0:2:0:0:
304,197,77974,1,0,0:2:0:0:
338,189,78091,1,2,0:2:0:0:
373,198,78209,1,2,0:2:0:0:
401,220,78326,1,0,1:2:0:0:
404,290,78443,38,0,L|388:327,2,35,8|2|2,0:3|0:3|0:3,0:0:0:0:
466,259,78795,2,0,P|493:173|491:110,1,136.499993751526,4|0,0:3|3:3,0:0:0:0:
476,99,79205,1,0,3:3:0:0:
476,99,79263,2,0,L|444:76,2,35,0|2|0,1:3|0:3|0:0,0:0:0:0:
425,147,79615,53,2,1:3:0:0:
407,177,79732,2,0,P|403:198|402:227,2,35,0|0|0,3:3|3:0|3:0,0:0:0:0:
359,126,80084,1,2,0:3:0:0:
345,95,80201,2,0,P|344:75|346:57,2,35,0|2|2,1:3|0:3|0:3,0:0:0:0:
332,235,80670,38,0,P|320:255|290:273,1,52.5,0|0,1:0|0:0,0:0:0:0:
275,272,80904,2,0,L|233:250,2,35,0|0|0,1:0|3:0|3:0,0:0:0:0:
315,338,81255,1,2,0:3:0:0:
175,341,81490,1,0,1:0:0:0:
175,341,81607,6,0,L|138:330,1,35,0|0,3:0|3:0,0:0:0:0:
128,299,81841,2,0,L|113:265,1,35,0|2,3:0|0:3,0:0:0:0:
99,236,82076,2,0,L|55:218,2,35,0|2|0,1:0|0:3|3:0,0:0:0:0:
165,210,82427,53,0,3:0:0:0:
165,210,82486,1,0,3:0:0:0:
165,210,82545,2,0,P|208:176|229:84,1,136.499993751526,4|0,0:1|0:0,0:0:0:0:
225,66,83013,1,2,1:2:0:0:
171,23,83130,54,0,L|128:36,1,35,2|0,0:2|0:0,0:0:0:0:
117,62,83365,1,2,1:2:0:0:
101,93,83482,2,0,L|61:105,1,35,2|0,0:2|0:2,0:0:0:0:
37,120,83716,1,2,0:2:0:0:
18,150,83834,1,2,0:2:0:0:
14,185,83951,1,0,1:2:0:0:
27,218,84068,1,2,0:2:0:0:
50,246,84185,1,0,0:2:0:0:
85,250,84302,1,2,0:2:0:0:
129,170,84420,22,0,B|149:144|177:135|211:144|211:144|197:183|213:218|246:233,1,181.999991668702,2|2,0:3|1:2,0:0:0:0:
276,171,85005,37,2,0:2:0:0:
297,143,85122,1,0,0:2:0:0:
327,126,85239,1,2,1:2:0:0:
361,122,85356,1,2,0:2:0:0:
394,133,85473,1,0,0:2:0:0:
420,156,85590,1,2,0:2:0:0:
434,188,85708,1,2,0:2:0:0:
435,222,85825,1,0,1:2:0:0:
418,291,85943,38,0,L|402:334,2,35,8|2|0,0:3|0:3|0:0,0:0:0:0:
364,250,86295,2,0,P|276:267|221:298,1,136.499993751526,4|0,0:3|3:0,0:0:0:0:
207,307,86705,1,0,3:0:0:0:
207,307,86763,2,0,P|172:309|127:293,1,70,0|0,1:0|3:0,0:0:0:0:
148,230,87115,6,0,P|166:194|88:184,1,140,0|0,1:0|0:0,0:0:0:0:
68,197,87701,2,0,L|67:236,2,35,0|0|0,1:0|3:0|3:0,0:0:0:0:
42,175,88052,1,0,3:0:0:0:
50,83,88170,70,0,P|95:68|157:77,1,90.9999958343508,4|0,1:2|3:0,0:0:0:0:
212,110,88638,21,0,3:0:0:0:
256,181,88873,2,0,L|256:227,2,35,0|0|0,3:0|3:0|3:0,0:0:0:0:
300,110,89341,1,8,3:0:0:0:
355,46,89576,2,0,L|357:-3,2,35,0|0|0,3:0|3:0|3:0,0:0:0:0:
404,115,90045,6,0,P|484:231|434:313,1,245,4|8,0:3|0:3,0:0:0:0:
380,339,90982,6,0,L|351:313,1,35,0|0,1:0|3:0,0:0:0:0:
348,350,91216,2,0,L|319:324,1,35,0|0,3:0|3:0,0:0:0:0:
318,361,91451,2,0,L|289:335,1,35,0|0,3:0|3:0,0:0:0:0:
288,372,91685,2,0,L|259:346,1,35,0|0,3:0|3:0,0:0:0:0:
206,305,91920,38,0,P|169:301|127:315,1,70,0|0,1:0|0:0,0:0:0:0:
125,323,92212,1,2,0:0:0:0:
111,337,92271,2,0,P|73:326|49:296,1,70,2|0,0:0|3:0,0:0:0:0:
42,252,92623,2,0,L|58:218,1,35,8|0,0:3|0:0,0:0:0:0:
56,167,92857,6,0,P|19:146|1:112,1,70,0|0,1:0|0:0,0:0:0:0:
95,70,93326,2,0,P|152:117|163:158,1,105,0|0,1:0|0:0,0:0:0:0:
208,167,93795,6,0,P|277:163|317:126,1,122.5,0|0,1:0|0:0,0:0:0:0:
323,104,94263,2,0,L|296:42,2,52.5,0|0|8,3:0|3:0|3:0,0:0:0:0:
386,133,94732,5,0,1:0:0:0:
433,111,94849,2,0,L|447:73,2,35,2|2|2,0:0|0:0|0:0,0:0:0:0:
461,155,95201,2,0,L|443:212,2,52.5,0|0|0,3:0|3:0|3:0,0:0:0:0:
381,222,95670,38,0,L|365:260,1,35,0|0,1:0|0:0,0:0:0:0:
344,356,96021,2,0,P|294:331|265:280,1,105,2|0,0:0|0:0,0:0:0:0:
244,228,96490,1,0,3:0:0:0:
244,228,96548,1,0,3:0:0:0:
244,228,96607,6,0,L|256:193,2,35,0|8|0,1:0|0:3|0:0,0:0:0:0:
200,278,96959,1,0,3:0:0:0:
155,296,97076,2,0,L|138:339,2,35,8|0|8,0:3|0:0|0:3,0:0:0:0:
136,254,97427,1,0,0:0:0:0:
77,297,97545,6,0,P|21:195|83:81,1,245,4|8,0:3|0:3,0:0:0:0:
139,65,98482,6,0,L|168:91,1,35,0|0,1:0|3:0,0:0:0:0:
171,54,98716,2,0,L|200:80,1,35,0|0,3:0|3:0,0:0:0:0:
201,43,98951,2,0,L|230:69,1,35,0|0,3:0|3:0,0:0:0:0:
231,32,99185,2,0,L|260:58,1,35,0|0,3:0|3:0,0:0:0:0:
322,82,99420,38,0,P|343:111|347:155,1,70,0|0,1:3|0:0,0:0:0:0:
342,160,99712,1,2,0:0:0:0:
336,176,99771,2,0,P|340:208|364:245,1,70,2|0,0:0|0:0,0:0:0:0:
402,271,100123,2,0,L|451:271,1,35,8|0,0:3|0:0,0:0:0:0:
481,243,100357,6,0,P|499:213|504:178,1,70,0|0,1:0|0:0,0:0:0:0:
466,80,100826,2,0,B|434:67|434:67|418:36|418:36|390:66,1,105,0|0,1:0|0:0,0:0:0:0:
361,103,101295,6,0,P|293:111|248:74,1,122.5,0|0,1:0|0:0,0:0:0:0:
232,63,101763,2,0,B|201:79|201:79|197:114|197:114|160:136,1,105,0|8,3:0|0:3,0:0:0:0:
122,160,102232,6,0,P|92:148|63:115,1,70,2|2,1:3|0:3,0:0:0:0:
46,72,102584,1,2,0:3:0:0:
4,168,102818,1,2,0:3:0:0:
13,272,103052,1,2,0:3:0:0:
46,312,103170,38,0,B|77:321|77:321|100:351|100:351|133:325,1,105,0|0,1:0|3:0,0:0:0:0:
162,288,103638,2,0,L|191:264,2,35,2|2|2,3:2|0:0|0:0,0:0:0:0:
245,321,103990,5,2,3:2:0:0:
245,321,104048,1,0,3:0:0:0:
245,321,104107,2,0,L|244:365,2,35,0|0|8,1:0|0:0|0:3,0:0:0:0:
288,291,104459,1,0,0:0:0:0:
332,262,104576,2,0,L|331:227,2,35,8|0|8,0:3|0:3|0:3,0:0:0:0:
371,296,104927,1,0,0:3:0:0:
413,328,105045,2,0,L|411:362,1,35,4|0,3:0|0:0,0:0:0:0:
44,344,105982,70,0,B|60:294|60:294|67:308|67:308|83:247|83:247|75:251|75:251|91:190|91:190|102:199|102:199|119:130|119:130,1,280,2|0,0:3|1:0,0:0:0:0:
187,223,107154,5,0,3:0:0:0:
187,223,107271,2,0,P|224:229|272:213,1,70,2|0,3:0|0:0,0:0:0:0:
297,190,107623,2,0,L|330:223,1,35,10|0,0:3|0:0,0:0:0:0:
352,172,107857,6,0,L|336:103,1,70,0|0,1:0|3:0,0:0:0:0:
417,36,108326,2,0,B|433:105|433:105|475:149,1,122.5,0|0,1:0|0:0,0:0:0:0:
460,167,108795,6,0,L|447:218,1,52.5,0|0,1:0|0:0,0:0:0:0:
441,244,109029,2,0,L|450:265,4,17.5,2|2|2|2|2,0:0|0:0|0:0|0:0|0:0,0:0:0:0:
363,228,109439,1,2,0:0:0:0:
314,290,109615,1,8,0:3:0:0:
314,290,109732,2,0,L|267:287,1,35,0|2,1:0|0:0,0:0:0:0:
226,286,109966,38,0,B|207:317|207:317|186:296|165:287|134:299,1,105,2|0,0:0|0:0,0:0:0:0:
102,324,110435,2,0,B|57:321|8:282|3:237|3:237|21:207|63:201,1,210,4|0,3:0|3:0,0:0:0:0:
163,170,111373,5,0,3:0:0:0:
172,118,111490,2,0,L|155:72,1,35,0|0,3:0|1:0,0:0:0:0:
211,75,111724,2,0,L|231:43,1,35,0|0,0:0|1:0,0:0:0:0:
282,45,111959,2,0,L|303:79,2,35,0|8|8,0:0|3:0|3:0,0:0:0:0:
352,85,112310,2,0,L|340:118,1,35,4|4,3:0|3:0,0:0:0:0:
349,170,112545,6,0,P|383:167|424:182,1,70,4|0,0:1|0:0,0:0:0:0:
372,272,113013,2,0,B|376:308|376:308|402:328|402:328|373:359,1,105,0|8,3:0|0:3,0:0:0:0:
326,360,113482,70,0,B|276:342|276:342|281:339|281:339|233:320|233:320|234:325|234:325|185:307|185:307|189:304|189:304|141:286|141:286|142:292|142:292|84:273,1,280,2|4,1:3|1:0,0:0:0:0:
89,136,114888,6,0,L|130:123,1,35,2|2,0:3|0:3,0:0:0:0:
127,73,115123,2,0,L|162:62,1,35,8|2,0:3|0:3,0:0:0:0:
213,67,115357,2,0,P|234:134|206:202,1,140,0|0,1:0|3:0,0:0:0:0:
94,276,116295,37,4,0:0:0:0:
187,323,116529,1,4,0:0:0:0:
275,193,116880,1,4,0:0:0:0:
394,296,117232,1,4,0:0:0:0:
256,192,117291,12,0,119107,0:0:0:0:
271,218,119341,6,0,L|304:246,2,35,0|0|0,3:0|3:0|3:0,0:0:0:0:
271,165,119693,2,0,L|297:142,2,35,0|0|0,3:0|3:0|3:0,0:0:0:0:
225,192,120045,1,4,0:1:0:0:
256,192,120162,12,0,127545,0:0:0:0:
