osu file format v14

[General]
AudioFilename: audio.mp3
AudioLeadIn: 0
PreviewTime: 56295
Countdown: 0
SampleSet: Soft
StackLeniency: 0.3
Mode: 0
LetterboxInBreaks: 0
WidescreenStoryboard: 1

[Editor]
Bookmarks: 30045,45045,52545,58170,60045,75045,90045,105045,116295,120045,131295
DistanceSpacing: 2.5
BeatDivisor: 4
GridSize: 4
TimelineZoom: 1.2

[Metadata]
Title:Railgun Roulette
TitleUnicode:Railgun Roulette
Artist:Camellia vs. Akira Complex
ArtistUnicode:かめりあ vs. Akira Complex
Creator:ErunamoJAZZ
Version:Advanced
Source:
Tags:dubstep experimental S2TB c91 Reality Distortion TANO*C Sebastian343 Rugakot Yoari
BeatmapID:1877964
BeatmapSetID:567069

[Difficulty]
HPDrainRate:4
CircleSize:3.7
OverallDifficulty:5
ApproachRate:7
SliderMultiplier:1.2
SliderTickRate:1

[Events]
//Background and Video events
0,0,"1485900451117.png",0,0
//Break Periods
//Storyboard Layer 0 (Background)
//Storyboard Layer 1 (Fail)
//Storyboard Layer 2 (Pass)
//Storyboard Layer 3 (Foreground)
//Storyboard Layer 4 (Overlay)
//Storyboard Sound Samples

[TimingPoints]
45,468.75,4,2,0,70,1,0
52545,-100,4,2,0,60,0,0
53482,-100,4,2,0,50,0,0
54420,-100,4,2,0,40,0,0
55357,-100,4,2,0,30,0,0
56295,-100,4,2,0,70,0,0
58170,-100,4,2,0,70,0,0
59107,-100,4,2,0,70,0,0
59576,-100,4,2,0,70,0,0
59810,-100,4,2,0,70,0,0
60045,-76.9230769230769,4,2,0,70,0,1
60513,-100,4,2,0,70,0,1
61920,-100,4,2,0,70,0,1
62388,-100,4,2,0,70,0,1
63795,-76.9230769230769,4,2,0,70,0,1
64263,-100,4,2,0,70,0,1
67545,-76.9230769230769,4,2,0,70,0,1
68013,-100,4,2,0,70,0,1
69420,-76.9230769230769,4,2,0,70,0,1
69888,-100,4,2,0,70,0,1
71295,-76.9230769230769,4,2,0,70,0,1
71763,-100,4,2,0,70,0,1
73170,-76.9230769230769,4,2,0,70,0,1
73638,-100,4,2,0,70,0,1
73990,-100,4,2,0,30,0,0
75045,-76.9230769230769,4,2,0,70,0,1
75513,-100,4,2,0,70,0,1
76920,-76.9230769230769,4,2,0,70,0,1
77388,-100,4,2,0,70,0,1
78795,-76.9230769230769,4,2,0,70,0,1
79263,-100,4,2,0,70,0,1
82545,-76.9230769230769,4,2,0,70,0,1
83013,-100,4,2,0,70,0,1
84420,-76.9230769230769,4,2,0,70,0,1
84888,-100,4,2,0,70,0,1
86295,-76.9230769230769,4,2,0,70,0,1
86763,-100,4,2,0,70,0,1
88170,-76.9230769230769,4,2,0,70,0,1
88404,-100,4,2,0,70,0,0
90045,-100,4,2,0,70,0,0
90982,-100,4,2,0,70,0,0
94732,-100,4,2,0,70,0,0
95201,-100,4,2,0,70,0,0
97545,-100,4,2,0,70,0,0
98482,-100,4,2,0,70,0,0
105162,-100,4,2,0,50,0,0
105279,-100,4,2,0,30,0,0
105982,-100,4,2,0,70,0,0
106920,-100,4,2,0,70,0,0
109029,-100,4,2,0,70,0,0
109263,-100,4,2,0,70,0,0
113482,-100,4,2,0,70,0,0
114420,-100,4,2,0,70,0,0
116295,-100,4,2,0,70,0,0
119107,-100,4,2,0,70,0,0
120982,-100,4,2,0,65,0,0
121920,-100,4,2,0,60,0,0
122857,-100,4,2,0,55,0,0
123795,-100,4,2,0,50,0,0

[Colours]
Combo1 : 0,255,0
Combo2 : 0,255,255
Combo3 : 255,0,128
Combo4 : 219,219,219
Combo5 : 255,255,0
Combo6 : 77,77,77

[HitObjects]
493,189,29459,6,0,B|479:197|479:197|463:192,3,30,8|8|8|8,0:3|0:3|0:3|0:3,0:0:0:0:
352,103,30045,6,0,B|342:180|291:199|291:199|251:190|244:165,1,180,6|2,0:2|0:0,0:0:0:0:
212,25,30982,2,0,P|122:78|95:188,1,210,0|0,0:0|0:0,0:0:0:0:
108,245,31920,6,0,P|75:251|48:267,1,60,2|0,0:0|0:0,0:0:0:0:
101,318,32271,2,0,P|130:331|185:328,1,60,2|0,0:0|0:0,0:0:0:0:
225,300,32623,2,0,L|234:338,1,30,2|2,0:0|0:0,0:0:0:0:
301,301,32857,2,0,P|378:270|456:340,1,180,0|0,0:0|0:0,0:0:0:0:
370,195,33795,6,0,B|342:137|386:84|386:84|352:73|343:31,1,180,2|2,0:0|0:0,0:0:0:0:
285,179,34732,2,0,P|231:270|120:252,1,210,0|0,0:0|0:0,0:0:0:0:
160,193,35670,38,0,P|165:162|157:129,1,60,2|0,0:0|0:0,0:0:0:0:
91,165,36021,2,0,P|56:182|11:181,1,60,2|0,0:0|0:0,0:0:0:0:
41,109,36373,2,0,P|51:78|75:49,1,60,2|0,0:0|0:0,0:0:0:0:
142,51,36724,6,0,B|157:65|157:65|196:-2|280:13,1,150,2|0,0:0|0:0,0:0:0:0:
392,91,37545,6,0,B|462:104|498:28|498:28|464:20|438:35,1,180,2|2,0:0|0:0,0:0:0:0:
453,178,38482,2,0,P|475:253|359:298,1,210,0|0,0:0|0:0,0:0:0:0:
309,266,39420,6,0,P|299:305|302:342,1,60,2|0,0:0|0:0,0:0:0:0:
230,355,39771,2,0,P|203:330|157:314,1,60,2|0,0:0|0:0,0:0:0:0:
211,250,40123,2,0,L|247:237,1,30,2|2,0:0|0:0,0:0:0:0:
198,177,40357,2,0,P|139:129|29:155,1,180,0|0,0:0|0:0,0:0:0:0:
66,295,41295,38,0,P|117:329|187:319,1,120,2|2,0:0|0:0,0:0:0:0:
256,200,41998,1,2,0:0:0:0:
339,326,42232,2,0,P|397:328|446:294,1,120,0|2,0:0|0:0,0:0:0:0:
425,145,42935,1,0,0:0:0:0:
307,50,43170,6,0,B|266:29,3,30,2|2|0|2,0:0|0:0|0:0|0:0,0:0:0:0:
221,82,43638,2,0,B|165:88,3,30,2|0|2|2,0:0|0:0|0:0|0:0,0:0:0:0:
256,192,44107,12,2,45045,3:3:0:0:
222,82,45513,6,0,L|207:178,1,90,8|2,1:2|3:3,0:0:0:0:
129,322,46216,1,2,3:3:0:0:
107,209,46451,1,8,1:2:0:0:
299,86,46920,5,2,3:3:0:0:
299,86,47388,2,0,P|300:136|275:183,1,90,8|2,1:2|3:3,0:0:0:0:
267,226,47857,2,0,P|322:206|397:235,1,120,0|8,0:0|1:2,0:0:0:0:
422,259,48443,2,0,B|393:275|393:275|406:307|389:338,1,90,2|2,3:3|3:3,0:0:0:0:
227,319,49146,37,0,3:0:0:0:
227,319,49263,2,0,P|183:328|127:310,1,90,8|2,1:2|3:3,0:0:0:0:
135,32,50201,2,0,P|178:67|166:131,1,120,8|2,1:2|3:3,0:0:0:0:
32,307,51138,5,8,1:2:0:0:
180,222,51490,1,2,3:3:0:0:
330,302,51841,1,2,0:3:0:0:
438,264,52076,2,0,L|446:208,1,30,8|2,1:2|0:3,0:0:0:0:
385,72,52545,6,0,L|390:35,7,30,0|0|0|0|0|0|0|0,1:0|1:0|1:0|1:0|1:0|1:0|1:0|1:0,0:0:0:0:
330,118,53482,2,0,L|303:158,7,30,0|0|0|0|0|0|0|0,1:3|1:0|1:0|1:0|1:0|1:0|1:0|1:0,0:0:0:0:
313,49,54420,6,0,L|282:-1,7,30,0|0|0|0|0|0|0|0,1:0|1:0|1:0|1:0|1:0|1:0|1:0|1:0,0:0:0:0:
260,98,55357,2,0,L|211:107,7,30,0|0|0|0|0|0|0|0,1:0|1:0|1:0|1:0|1:0|1:0|1:0|1:0,0:0:0:0:
256,192,56295,12,4,58170,3:0:0:0:
256,192,59107,37,2,0:2:0:0:
330,278,59341,2,0,L|361:271,2,30,0|0|2,0:2|0:2|0:2,0:0:0:0:
217,299,59810,1,2,0:3:0:0:
116,189,60045,6,0,B|112:229|112:229|68:255,1,77.9999964294435,0|0,1:0|0:0,0:0:0:0:
21,201,60396,1,0,0:0:0:0:
21,201,60513,2,0,L|34:124,1,60,2|0,1:2|0:2,0:0:0:0:
38,84,60865,2,0,P|26:60|-17:21,2,60,2|0|2,1:2|0:2|0:2,0:0:0:0:
94,73,61451,2,0,L|166:49,1,60,0|2,1:2|0:2,0:0:0:0:
297,17,61920,5,2,0:3:0:0:
297,17,62154,1,2,0:3:0:0:
393,77,62388,6,0,P|382:105|389:157,1,60,0|2,1:2|0:2,0:0:0:0:
403,187,62740,2,0,P|368:182|326:193,1,60,0|2,1:2|0:2,0:0:0:0:
345,242,63091,2,0,P|348:277|335:312,1,60,2|2,0:2|1:2,0:0:0:0:
373,348,63443,2,0,L|426:347,2,30,8|2|2,0:3|3:0|3:0,0:0:0:0:
274,345,63795,38,0,B|235:337|235:337|192:344,1,77.9999964294435,4|0,0:3|0:0,0:0:0:0:
133,372,64146,1,0,3:3:0:0:
120,359,64263,2,0,L|103:314,1,30,0|2,1:3|0:3,0:0:0:0:
63,187,64615,6,0,L|49:151,2,30,2|0|0,1:3|3:3|3:3,0:0:0:0:
76,198,64966,1,0,3:3:0:0:
93,203,65084,1,2,0:3:0:0:
110,201,65201,2,0,P|140:183|160:143,1,60,0|2,1:3|0:3,0:0:0:0:
304,166,65670,6,0,P|270:155|240:130,1,60,0|0,1:0|3:0,0:0:0:0:
225,70,66021,1,0,3:0:0:0:
231,53,66138,2,0,L|269:35,1,30,0|2,3:0|0:3,0:0:0:0:
407,66,66490,5,0,1:0:0:0:
399,81,66607,2,0,L|420:128,1,30,0|0,3:0|3:0,0:0:0:0:
468,153,66841,2,0,L|509:159,1,30,0|2,3:0|0:3,0:0:0:0:
401,180,67076,22,0,L|388:217,1,30,0|2,1:0|3:3,0:0:0:0:
406,229,67310,1,2,3:0:0:0:
296,324,67545,6,0,B|256:318|256:318|210:278,1,77.9999964294435,4|0,0:1|0:0,0:0:0:0:
182,241,67896,1,0,0:0:0:0:
182,241,68013,2,0,P|150:255|104:249,1,60,2|0,1:2|0:2,0:0:0:0:
84,296,68365,2,0,P|75:336|54:365,2,60,2|0|2,1:2|0:2|0:2,0:0:0:0:
75,239,68951,1,0,1:2:0:0:
64,224,69068,2,0,L|28:216,2,30,2|0|2,0:2|0:2|0:2,0:0:0:0:
139,160,69420,6,0,B|167:142|167:142|150:131|150:131|168:104|154:63,1,116.999994644165,2|0,0:3|0:0,0:0:0:0:
207,44,69888,2,0,P|238:53|282:45,1,60,2|0,1:2|0:2,0:0:0:0:
321,39,70240,2,0,P|349:33|383:38,2,60,2|0|2,1:2|0:2|0:2,0:0:0:0:
302,93,70826,1,0,1:2:0:0:
309,109,70943,2,0,L|355:127,2,30,8|2|0,0:3|0:3|0:0,0:0:0:0:
217,146,71295,54,0,P|205:184|209:229,1,77.9999964294435,4|0,0:3|0:0,0:0:0:0:
134,189,71646,2,0,P|127:168|118:151,2,38.9999982147218,0|0|0,3:0|1:0|0:0,0:0:0:0:
190,316,72115,6,0,B|273:329|254:263|339:286,1,150,2|0,1:3|1:0,0:0:0:0:
394,324,72818,2,0,L|410:278,1,30,0|2,3:0|3:0,0:0:0:0:
337,111,73170,6,0,B|346:167|346:167|369:137,1,77.9999964294435,0|2,1:3|0:2,0:0:0:0:
432,63,73638,2,0,L|471:44,2,30,0|0|0,1:0|3:0|3:0,0:0:0:0:
256,192,73990,12,4,75045,0:1:0:0:
250,286,75513,6,0,P|217:282|183:294,1,60,2|0,1:2|0:2,0:0:0:0:
153,247,75865,2,0,P|123:253|80:242,2,60,2|0|2,1:2|0:2|0:2,0:0:0:0:
191,203,76451,2,0,P|180:173|191:125,1,60,0|2,1:2|0:2,0:0:0:0:
351,56,76920,5,2,0:3:0:0:
351,56,77154,1,2,0:3:0:0:
238,46,77388,38,0,P|205:45|169:31,1,60,2|0,1:2|0:2,0:0:0:0:
126,57,77740,2,0,L|44:80,2,60,2|0|2,1:2|0:2|0:2,0:0:0:0:
155,106,78326,1,0,1:2:0:0:
165,125,78443,2,0,L|184:161,2,30,8|2|2,0:3|0:3|0:3,0:0:0:0:
135,218,78795,6,0,B|147:256|147:256|116:294,1,77.9999964294435,4|0,0:3|0:0,0:0:0:0:
194,310,79146,2,0,L|160:354,2,38.9999982147218,0|0|2,3:3|1:3|0:3,0:0:0:0:
344,310,79615,6,0,L|380:324,2,30,2|0|0,1:3|3:3|3:0,0:0:0:0:
333,297,79966,1,0,3:0:0:0:
328,280,80084,1,2,0:3:0:0:
330,263,80201,2,0,P|348:232|388:213,1,60,0|2,1:3|0:3,0:0:0:0:
458,149,80670,6,0,L|380:127,1,60,0|0,1:0|1:0,0:0:0:0:
400,75,81021,1,0,3:0:0:0:
385,65,81138,2,0,L|397:25,1,30,0|2,3:0|0:3,0:0:0:0:
256,97,81490,21,0,1:0:0:0:
244,82,81607,2,0,L|255:47,2,30,0|0|0,3:0|3:0|3:0,0:0:0:0:
175,114,81959,2,0,L|184:165,2,30,2|0|2,0:3|1:0|0:3,0:0:0:0:
143,78,82310,1,0,3:0:0:0:
124,87,82427,1,0,3:0:0:0:
65,138,82545,6,0,B|39:216,1,77.9999964294435,4|0,0:1|0:0,0:0:0:0:
72,284,82896,1,0,0:0:0:0:
72,284,83013,2,0,P|97:288|139:275,1,60,2|0,1:2|0:0,0:0:0:0:
174,317,83365,2,0,P|182:347|204:376,2,60,2|0|2,1:2|0:2|0:2,0:0:0:0:
180,260,83951,1,0,1:2:0:0:
180,240,84068,2,0,L|207:218,2,30,2|0|2,0:2|0:2|0:2,0:0:0:0:
258,299,84420,38,0,P|297:276|368:292,1,116.999994644165,2|0,0:3|0:0,0:0:0:0:
435,325,84888,2,0,P|463:311|489:282,1,60,2|0,1:2|0:2,0:0:0:0:
453,221,85240,2,0,P|469:189|474:146,2,60,2|0|2,1:2|0:2|0:2,0:0:0:0:
377,215,85826,1,0,1:2:0:0:
377,215,85943,2,0,P|343:190|325:151,1,60,8|0,0:3|0:0,0:0:0:0:
302,82,86295,22,0,L|216:103,1,77.9999964294435,4|0,0:3|3:0,0:0:0:0:
165,58,86646,2,0,L|157:9,2,38.9999982147218,0|0|0,3:0|1:0|0:0,0:0:0:0:
179,207,87115,6,0,P|156:276|80:300,1,150,0|0,1:0|1:0,0:0:0:0:
25,259,87818,2,0,L|28:222,2,30,0|0|0,3:0|3:0|3:0,0:0:0:0:
35,356,88170,6,0,P|72:375|129:365,1,77.9999964294435,4|0,1:2|3:0,0:0:0:0:
209,322,88638,1,0,3:0:0:0:
257,218,88873,1,0,3:0:0:0:
318,311,89107,2,0,P|371:336|430:326,1,120,0|0,3:0|3:0,0:0:0:0:
507,241,89810,1,0,3:0:0:0:
430,326,90045,6,0,B|376:329|344:255|344:255|329:324|280:334,1,210,4|8,0:3|0:3,0:0:0:0:
224,347,90982,2,0,B|193:358|183:335|183:335|146:347|146:347|164:326|150:299|150:299|197:294|204:247,1,210,0|0,1:0|3:0,0:0:0:0:
223,184,91920,6,0,B|156:161|156:161|156:156|156:156|112:172,1,120,0|0,1:0|0:0,0:0:0:0:
7,210,92623,1,8,0:3:0:0:
114,171,92857,2,0,L|105:94,1,60,0|0,1:0|0:0,0:0:0:0:
8,52,93326,1,0,1:0:0:0:
206,165,93795,38,0,B|279:175|323:105|323:105|318:92|318:92|337:82|337:82|343:96|343:96|367:83,1,210,0|8,1:0|3:0,0:0:0:0:
392,155,94732,6,0,B|387:169|387:169|391:185,3,30,0|2|2|2,1:0|0:0|0:0|0:0,0:0:0:0:
467,205,95201,6,0,P|469:185|467:165,2,40,0|0|0,3:0|0:0|0:0,0:0:0:0:
414,260,95670,6,0,B|383:266|383:266|341:247,1,60,0|0,1:0|0:0,0:0:0:0:
285,232,96021,2,0,B|223:210|223:210|192:242,1,90,2|0,0:0|0:0,0:0:0:0:
149,177,96490,1,0,3:0:0:0:
149,177,96607,2,0,B|154:155|176:143|176:143|149:146|135:114,1,90,0|0,1:0|3:0,0:0:0:0:
63,118,97076,2,0,P|29:138|12:186,1,90,8|0,0:3|0:0,0:0:0:0:
46,250,97545,38,0,B|79:270|116:254|116:254|96:308|133:356|184:356,1,210,4|8,0:3|0:3,0:0:0:0:
185,281,98482,2,0,B|190:261|205:248|205:248|232:258|240:282|240:282|260:269|287:301|287:301|312:276|354:284,1,210,0|0,1:0|3:0,0:0:0:0:
416,310,99420,6,0,P|419:266|386:221,2,90,0|2|8,1:3|0:0|0:3,0:0:0:0:
445,163,100357,2,0,P|460:135|493:115,1,60,0|0,1:0|0:0,0:0:0:0:
339,166,100826,2,0,B|315:168|315:168|297:158|297:158|275:165|275:165|252:150,1,90,0|0,1:0|0:0,0:0:0:0:
192,113,101295,6,0,B|175:172|175:172|206:222|206:222|182:212|182:212|168:227|168:227|146:218|146:218|126:231,1,210,0|8,1:0|0:3,0:0:0:0:
101,159,102232,6,0,L|111:121,2,30,2|0|2,1:3|0:0|0:3,0:0:0:0:
31,136,102584,2,0,L|49:67,2,60,2|2|2,0:3|0:3|0:3,0:0:0:0:
47,209,103170,38,0,P|43:254|-4:297,2,90,0|0|2,1:0|3:0|0:0,0:0:0:0:
129,228,103990,1,2,3:2:0:0:
129,228,104107,2,0,P|154:268|215:276,1,90,0|0,1:0|0:0,0:0:0:0:
201,205,104576,2,0,P|228:179|292:176,1,90,8|0,0:3|0:3,0:0:0:0:
265,246,105045,6,0,L|294:323,1,60,4|2,3:0|0:0,0:0:0:0:
418,227,105513,1,2,0:0:0:0:
418,227,105748,1,2,0:0:0:0:
418,227,105982,54,0,B|441:219|466:199|466:199|463:200|463:200|481:177|486:144|486:144|482:144|482:144|485:110|472:87|472:87|469:89|469:89|449:63|416:55,1,240,2|0,0:3|1:0,0:0:0:0:
318,120,107154,5,0,3:0:0:0:
318,120,107271,2,0,L|252:85,2,60,2|0|0,3:0|0:0|0:0,0:0:0:0:
264,172,107857,2,0,L|189:133,1,60,0|0,1:0|3:0,0:0:0:0:
78,215,108326,2,0,L|141:183,1,60,0|0,1:0|0:0,0:0:0:0:
133,37,108795,6,0,L|101:55,1,30,0|0,1:0|0:0,0:0:0:0:
49,99,109029,2,0,B|72:130|72:130|41:149,2,60,2|2|0,0:0|0:0|0:0,0:0:0:0:
145,117,109615,1,8,0:3:0:0:
145,117,109732,2,0,B|187:134|187:134|246:112,1,90,0|2,1:0|3:0,0:0:0:0:
444,53,110435,6,0,B|387:11|336:10|311:21|311:21|316:55|345:62,1,180,4|0,3:0|3:0,0:0:0:0:
418,172,111373,2,0,L|375:181,1,30,0|0,3:0|3:0,0:0:0:0:
314,184,111607,2,0,L|293:137,2,30,0|0|0,1:0|0:0|1:0,0:0:0:0:
356,246,111959,2,0,L|407:270,2,30,0|8|8,0:0|3:0|3:0,0:0:0:0:
312,251,112310,1,4,3:0:0:0:
303,270,112427,1,4,3:0:0:0:
244,221,112545,6,0,B|236:256|196:281|148:257|148:257|132:247|132:247|115:253|115:253|88:232|49:268,1,210,4|8,0:1|0:3,0:0:0:0:
31,336,113482,22,0,B|8:324|-11:300|-11:300|-8:300|-8:300|-21:276|-20:241|-20:241|-17:243|-17:243|-11:209|3:188|3:188|6:191|6:191|31:170|70:167,1,240,2|4,1:3|1:0,0:0:0:0:
329,48,114888,6,0,L|371:34,2,30,2|2|8,0:3|0:3|0:3,0:0:0:0:
308,123,115240,1,2,0:3:0:0:
308,123,115357,2,0,L|343:195,1,60,0|0,1:0|0:0,0:0:0:0:
228,249,115826,1,0,3:0:0:0:
228,249,116295,6,0,P|255:264|300:265,1,60,4|4,0:0|0:0,0:0:0:0:
329,48,116880,1,4,0:0:0:0:
228,249,117232,6,0,B|142:147|53:252|168:386|301:395|363:360|391:283|350:228,1,480,4|0,0:0|0:0,0:0:0:0:
231,138,119341,6,0,P|203:123|171:120,2,60,0|0|0,3:0|3:0|3:0,0:0:0:0:
350,228,120045,1,4,0:1:0:0:
256,192,120162,12,0,127545,0:0:0:0:
