osu file format v14

[General]
AudioFilename: audio.mp3
AudioLeadIn: 0
PreviewTime: 60170
Countdown: 0
SampleSet: Normal
StackLeniency: 0.7
Mode: 3
LetterboxInBreaks: 0
SpecialStyle: 0
WidescreenStoryboard: 0

[Editor]
Bookmarks: 89701,113490,150170,150228,165170,232201
DistanceSpacing: 0.8
BeatDivisor: 16
GridSize: 4
TimelineZoom: 2

[Metadata]
Title:Railgun Roulette
TitleUnicode:Railgun Roulette
Artist:Camellia vs. Akira Complex
ArtistUnicode:かめりあ vs. Akira Complex
Creator:Dubstek
Version:Velocity Roulette
Source:osu!
Tags:reality distortion 東京ビッグサイト TOKYO BIG SIGHT C91 Comic Market Comiket s2tb 0019 recording cametek かめるかめりあ kamelcamellia dubstep drumstep bonus track +06 featured artist fa Electronic instrumental SV
BeatmapID:2176028
BeatmapSetID:1041146

[Difficulty]
HPDrainRate:8.5
CircleSize:4
OverallDifficulty:8
ApproachRate:5
SliderMultiplier:1.4
SliderTickRate:1

[Events]
//Background and Video events
0,0,"bg.png",0,0
//Break Periods
//Storyboard Layer 0 (Background)
//Storyboard Layer 1 (Fail)
//Storyboard Layer 2 (Pass)
//Storyboard Layer 3 (Foreground)
//Storyboard Layer 4 (Overlay)
//Storyboard Sound Samples
Sample,218666,0,"pew2.wav",40
Sample,218724,0,"pew2.wav",40
Sample,218783,0,"pew2.wav",40
Sample,218841,0,"pew2.wav",40
Sample,218900,0,"pew2.wav",40
Sample,218959,0,"pew2.wav",40
Sample,219017,0,"pew2.wav",40
Sample,219076,0,"pew2.wav",40
Sample,219134,0,"pew2.wav",40
Sample,219193,0,"pew2.wav",40
Sample,219252,0,"pew2.wav",40
Sample,219310,0,"pew2.wav",40
Sample,219369,0,"pew2.wav",40
Sample,219427,0,"pew2.wav",40
Sample,219486,0,"pew2.wav",40

[TimingPoints]
170,234.375,4,1,1,40,1,0
170,-125,4,1,1,40,0,0
27474,-117.647058823529,4,1,1,40,0,0
27826,-111.111111111111,4,1,1,40,0,0
28177,-105.263157894737,4,1,1,40,0,0
28529,-100,4,1,1,40,0,0
28880,-95.2380952380952,4,1,1,40,0,0
29232,-90.9090909090909,4,1,1,40,0,0
29584,-55.5555555555556,4,1,1,40,0,0
29613,-500,4,1,1,40,0,0
29642,-55.5555555555556,4,1,1,40,0,0
29671,-500,4,1,1,40,0,0
29701,-50,4,1,1,40,0,0
29730,-125,4,1,1,40,0,0
29818,-50,4,1,1,40,0,0
29847,-125,4,1,1,40,0,0
29935,-62.5,4,1,1,40,0,0
29994,-250,4,1,1,40,0,0
30052,-62.5,4,1,1,40,0,0
30111,-250,4,1,1,40,0,0
30170,-83.3333333333333,4,1,1,50,0,0
30228,-125,4,1,1,50,0,0
30287,-83.3333333333333,4,1,1,50,0,0
30345,-125,4,1,1,50,0,0
30404,-83.3333333333333,4,1,1,50,0,0
30462,-125,4,1,1,50,0,0
30521,-83.3333333333333,4,1,1,50,0,0
30579,-125,4,1,1,50,0,0
30638,-83.3333333333333,4,1,1,50,0,0
30696,-125,4,1,1,50,0,0
30755,-83.3333333333333,4,1,1,50,0,0
30813,-125,4,1,1,50,0,0
30873,-83.3333333333333,4,1,1,50,0,0
30931,-125,4,1,1,50,0,0
30990,-83.3333333333333,4,1,1,50,0,0
31048,-125,4,1,1,50,0,0
31107,-83.3333333333333,4,1,1,50,0,0
31165,-125,4,1,1,50,0,0
31224,-83.3333333333333,4,1,1,50,0,0
31282,-125,4,1,1,50,0,0
31341,-83.3333333333333,4,1,1,50,0,0
31399,-125,4,1,1,50,0,0
31458,-83.3333333333333,4,1,1,50,0,0
31516,-125,4,1,1,50,0,0
31576,-83.3333333333333,4,1,1,50,0,0
31634,-125,4,1,1,50,0,0
31693,-83.3333333333333,4,1,1,50,0,0
31751,-125,4,1,1,50,0,0
31810,-83.3333333333333,4,1,1,50,0,0
31868,-125,4,1,1,50,0,0
31927,-83.3333333333333,4,1,1,50,0,0
31985,-125,4,1,1,50,0,0
32044,-83.3333333333333,4,1,1,50,0,0
32102,-125,4,1,1,50,0,0
32161,-83.3333333333333,4,1,1,50,0,0
32219,-125,4,1,1,50,0,0
32279,-83.3333333333333,4,1,1,50,0,0
32337,-125,4,1,1,50,0,0
32396,-83.3333333333333,4,1,1,50,0,0
32454,-125,4,1,1,50,0,0
32513,-83.3333333333333,4,1,1,50,0,0
32571,-125,4,1,1,50,0,0
32630,-83.3333333333333,4,1,1,50,0,0
32688,-125,4,1,1,50,0,0
32747,-83.3333333333333,4,1,1,50,0,0
32805,-125,4,1,1,50,0,0
32864,-83.3333333333333,4,1,1,50,0,0
32922,-125,4,1,1,50,0,0
32982,-83.3333333333333,4,1,1,50,0,0
33040,-125,4,1,1,50,0,0
33099,-83.3333333333333,4,1,1,50,0,0
33157,-125,4,1,1,50,0,0
33216,-83.3333333333333,4,1,1,50,0,0
33274,-125,4,1,1,50,0,0
33333,-83.3333333333333,4,1,1,50,0,0
33391,-125,4,1,1,50,0,0
33450,-83.3333333333333,4,1,1,50,0,0
33508,-125,4,1,1,50,0,0
33567,-83.3333333333333,4,1,1,50,0,0
33625,-125,4,1,1,50,0,0
33685,-83.3333333333333,4,1,1,50,0,0
33743,-125,4,1,1,50,0,0
33802,-83.3333333333333,4,1,1,50,0,0
33860,-125,4,1,1,50,0,0
33919,-83.3333333333333,4,1,1,50,0,0
33977,-125,4,1,1,50,0,0
34036,-83.3333333333333,4,1,1,50,0,0
34094,-125,4,1,1,50,0,0
34153,-83.3333333333333,4,1,1,50,0,0
34211,-125,4,1,1,50,0,0
34270,-83.3333333333333,4,1,1,50,0,0
34328,-125,4,1,1,50,0,0
34388,-83.3333333333333,4,1,1,50,0,0
34446,-125,4,1,1,50,0,0
34505,-83.3333333333333,4,1,1,50,0,0
34563,-125,4,1,1,50,0,0
34622,-83.3333333333333,4,1,1,50,0,0
34680,-125,4,1,1,50,0,0
34739,-83.3333333333333,4,1,1,50,0,0
34797,-125,4,1,1,50,0,0
34856,-83.3333333333333,4,1,1,50,0,0
34914,-125,4,1,1,50,0,0
34973,-83.3333333333333,4,1,1,50,0,0
35031,-125,4,1,1,50,0,0
35091,-83.3333333333333,4,1,1,50,0,0
35149,-125,4,1,1,50,0,0
35208,-83.3333333333333,4,1,1,50,0,0
35266,-125,4,1,1,50,0,0
35325,-83.3333333333333,4,1,1,50,0,0
35383,-125,4,1,1,50,0,0
35442,-83.3333333333333,4,1,1,50,0,0
35500,-125,4,1,1,50,0,0
35559,-83.3333333333333,4,1,1,50,0,0
35617,-125,4,1,1,50,0,0
35676,-83.3333333333333,4,1,1,50,0,0
35734,-125,4,1,1,50,0,0
35795,-83.3333333333333,4,1,1,50,0,0
35853,-125,4,1,1,50,0,0
35912,-83.3333333333333,4,1,1,50,0,0
35970,-125,4,1,1,50,0,0
36029,-83.3333333333333,4,1,1,50,0,0
36087,-125,4,1,1,50,0,0
36146,-83.3333333333333,4,1,1,50,0,0
36204,-125,4,1,1,50,0,0
36263,-83.3333333333333,4,1,1,50,0,0
36321,-125,4,1,1,50,0,0
36380,-83.3333333333333,4,1,1,50,0,0
36438,-125,4,1,1,50,0,0
36498,-83.3333333333333,4,1,1,50,0,0
36556,-125,4,1,1,50,0,0
36615,-83.3333333333333,4,1,1,50,0,0
36673,-125,4,1,1,50,0,0
36732,-83.3333333333333,4,1,1,50,0,0
36790,-125,4,1,1,50,0,0
36849,-83.3333333333333,4,1,1,50,0,0
36907,-125,4,1,1,50,0,0
36966,-83.3333333333333,4,1,1,50,0,0
37024,-125,4,1,1,50,0,0
37083,-83.3333333333333,4,1,1,50,0,0
37141,-125,4,1,1,50,0,0
37201,-83.3333333333333,4,1,1,50,0,0
37259,-125,4,1,1,50,0,0
37318,-83.3333333333333,4,1,1,50,0,0
37376,-125,4,1,1,50,0,0
37435,-83.3333333333333,4,1,1,50,0,0
37493,-125,4,1,1,50,0,0
37552,-83.3333333333333,4,1,1,50,0,0
37610,-125,4,1,1,50,0,0
37669,-83.3333333333333,4,1,1,50,0,0
37727,-125,4,1,1,50,0,0
37786,-83.3333333333333,4,1,1,50,0,0
37844,-125,4,1,1,50,0,0
37904,-83.3333333333333,4,1,1,50,0,0
37962,-125,4,1,1,50,0,0
38021,-83.3333333333333,4,1,1,50,0,0
38079,-125,4,1,1,50,0,0
38138,-83.3333333333333,4,1,1,50,0,0
38196,-125,4,1,1,50,0,0
38255,-83.3333333333333,4,1,1,50,0,0
38313,-125,4,1,1,50,0,0
38372,-83.3333333333333,4,1,1,50,0,0
38430,-125,4,1,1,50,0,0
38489,-83.3333333333333,4,1,1,50,0,0
38547,-125,4,1,1,50,0,0
38607,-83.3333333333333,4,1,1,50,0,0
38665,-125,4,1,1,50,0,0
38724,-83.3333333333333,4,1,1,50,0,0
38782,-125,4,1,1,50,0,0
38841,-83.3333333333333,4,1,1,50,0,0
38899,-125,4,1,1,50,0,0
38958,-83.3333333333333,4,1,1,50,0,0
39016,-125,4,1,1,50,0,0
39075,-83.3333333333333,4,1,1,50,0,0
39133,-125,4,1,1,50,0,0
39192,-83.3333333333333,4,1,1,50,0,0
39250,-125,4,1,1,50,0,0
39310,-83.3333333333333,4,1,1,50,0,0
39368,-125,4,1,1,50,0,0
39427,-83.3333333333333,4,1,1,50,0,0
39485,-125,4,1,1,50,0,0
39544,-83.3333333333333,4,1,1,50,0,0
39602,-125,4,1,1,50,0,0
39661,-83.3333333333333,4,1,1,50,0,0
39719,-125,4,1,1,50,0,0
39778,-83.3333333333333,4,1,1,50,0,0
39836,-125,4,1,1,50,0,0
39895,-83.3333333333333,4,1,1,50,0,0
39953,-125,4,1,1,50,0,0
40013,-83.3333333333333,4,1,1,50,0,0
40071,-125,4,1,1,50,0,0
40130,-83.3333333333333,4,1,1,50,0,0
40188,-125,4,1,1,50,0,0
40247,-83.3333333333333,4,1,1,50,0,0
40305,-125,4,1,1,50,0,0
40364,-83.3333333333333,4,1,1,50,0,0
40422,-125,4,1,1,50,0,0
40481,-83.3333333333333,4,1,1,50,0,0
40539,-125,4,1,1,50,0,0
40598,-83.3333333333333,4,1,1,50,0,0
40656,-125,4,1,1,50,0,0
40716,-83.3333333333333,4,1,1,50,0,0
40774,-125,4,1,1,50,0,0
40833,-83.3333333333333,4,1,1,50,0,0
40891,-125,4,1,1,50,0,0
40950,-83.3333333333333,4,1,1,50,0,0
41008,-125,4,1,1,50,0,0
41067,-83.3333333333333,4,1,1,50,0,0
41125,-125,4,1,1,50,0,0
41184,-83.3333333333333,4,1,1,50,0,0
41242,-125,4,1,1,50,0,0
41301,-83.3333333333333,4,1,1,50,0,0
41359,-125,4,1,1,50,0,0
41420,-83.3333333333333,4,1,1,50,0,0
41478,-125,4,1,1,50,0,0
41537,-83.3333333333333,4,1,1,50,0,0
41595,-125,4,1,1,50,0,0
41654,-83.3333333333333,4,1,1,50,0,0
41712,-125,4,1,1,50,0,0
41771,-83.3333333333333,4,1,1,50,0,0
41829,-125,4,1,1,50,0,0
41888,-83.3333333333333,4,1,1,50,0,0
41946,-125,4,1,1,50,0,0
42005,-83.3333333333333,4,1,1,50,0,0
42063,-125,4,1,1,50,0,0
42123,-83.3333333333333,4,1,1,50,0,0
42181,-125,4,1,1,50,0,0
42240,-83.3333333333333,4,1,1,50,0,0
42298,-125,4,1,1,50,0,0
42357,-83.3333333333333,4,1,1,50,0,0
42415,-125,4,1,1,50,0,0
42474,-83.3333333333333,4,1,1,50,0,0
42532,-125,4,1,1,50,0,0
42591,-83.3333333333333,4,1,1,50,0,0
42649,-125,4,1,1,50,0,0
42708,-83.3333333333333,4,1,1,50,0,0
42766,-125,4,1,1,50,0,0
42826,-83.3333333333333,4,1,1,50,0,0
42884,-125,4,1,1,50,0,0
42943,-83.3333333333333,4,1,1,50,0,0
43001,-125,4,1,1,50,0,0
43060,-83.3333333333333,4,1,1,50,0,0
43118,-125,4,1,1,50,0,0
43177,-83.3333333333333,4,1,1,50,0,0
43235,-125,4,1,1,50,0,0
43294,-83.3333333333333,4,1,1,50,0,0
43352,-125,4,1,1,50,0,0
43411,-83.3333333333333,4,1,1,50,0,0
43469,-125,4,1,1,50,0,0
43529,-83.3333333333333,4,1,1,50,0,0
43587,-125,4,1,1,50,0,0
43646,-83.3333333333333,4,1,1,50,0,0
43704,-125,4,1,1,50,0,0
43763,-83.3333333333333,4,1,1,50,0,0
43821,-125,4,1,1,50,0,0
43880,-83.3333333333333,4,1,1,50,0,0
43938,-125,4,1,1,50,0,0
43997,-83.3333333333333,4,1,1,50,0,0
44055,-125,4,1,1,50,0,0
44114,-83.3333333333333,4,1,1,50,0,0
44172,-125,4,1,1,50,0,0
44232,-83.3333333333333,4,1,1,50,0,0
44290,-125,4,1,1,50,0,0
44349,-83.3333333333333,4,1,1,50,0,0
44407,-125,4,1,1,50,0,0
44466,-83.3333333333333,4,1,1,50,0,0
44524,-125,4,1,1,50,0,0
44583,-83.3333333333333,4,1,1,50,0,0
44641,-125,4,1,1,50,0,0
44700,-83.3333333333333,4,1,1,50,0,0
44758,-125,4,1,1,50,0,0
44817,-83.3333333333333,4,1,1,50,0,0
44875,-125,4,1,1,50,0,0
44935,-83.3333333333333,4,1,1,50,0,0
44993,-125,4,1,1,50,0,0
45052,-83.3333333333333,4,1,1,50,0,0
45110,-125,4,1,1,50,0,0
45170,-83.3333333333333,4,1,1,60,0,0
45227,-125,4,1,1,60,0,0
45286,-83.3333333333333,4,1,1,60,0,0
45344,-125,4,1,1,60,0,0
45403,-83.3333333333333,4,1,1,60,0,0
45461,-125,4,1,1,60,0,0
45520,-83.3333333333333,4,1,1,60,0,0
45578,-125,4,1,1,60,0,0
45638,-83.3333333333333,4,1,1,60,0,0
45696,-125,4,1,1,60,0,0
45755,-83.3333333333333,4,1,1,60,0,0
45813,-125,4,1,1,60,0,0
45872,-83.3333333333333,4,1,1,60,0,0
45930,-125,4,1,1,60,0,0
45989,-83.3333333333333,4,1,1,60,0,0
46047,-125,4,1,1,60,0,0
46106,-83.3333333333333,4,1,1,60,0,0
46164,-125,4,1,1,60,0,0
46223,-83.3333333333333,4,1,1,60,0,0
46281,-125,4,1,1,60,0,0
46341,-83.3333333333333,4,1,1,60,0,0
46399,-125,4,1,1,60,0,0
46458,-83.3333333333333,4,1,1,60,0,0
46516,-125,4,1,1,60,0,0
46575,-83.3333333333333,4,1,1,60,0,0
46633,-125,4,1,1,60,0,0
46692,-83.3333333333333,4,1,1,60,0,0
46750,-125,4,1,1,60,0,0
46809,-83.3333333333333,4,1,1,60,0,0
46867,-125,4,1,1,60,0,0
46926,-83.3333333333333,4,1,1,60,0,0
46984,-125,4,1,1,60,0,0
47044,-83.3333333333333,4,1,1,60,0,0
47102,-125,4,1,1,60,0,0
47161,-83.3333333333333,4,1,1,60,0,0
47219,-125,4,1,1,60,0,0
47278,-83.3333333333333,4,1,1,60,0,0
47336,-125,4,1,1,60,0,0
47395,-83.3333333333333,4,1,1,60,0,0
47453,-125,4,1,1,60,0,0
47512,-83.3333333333333,4,1,1,60,0,0
47570,-125,4,1,1,60,0,0
47629,-83.3333333333333,4,1,1,60,0,0
47687,-125,4,1,1,60,0,0
47747,-83.3333333333333,4,1,1,60,0,0
47805,-125,4,1,1,60,0,0
47864,-83.3333333333333,4,1,1,60,0,0
47922,-125,4,1,1,60,0,0
47981,-83.3333333333333,4,1,1,60,0,0
48039,-125,4,1,1,60,0,0
48098,-83.3333333333333,4,1,1,60,0,0
48156,-125,4,1,1,60,0,0
48215,-83.3333333333333,4,1,1,60,0,0
48273,-125,4,1,1,60,0,0
48332,-83.3333333333333,4,1,1,60,0,0
48390,-125,4,1,1,60,0,0
48450,-83.3333333333333,4,1,1,60,0,0
48508,-125,4,1,1,60,0,0
48567,-83.3333333333333,4,1,1,60,0,0
48625,-125,4,1,1,60,0,0
48684,-83.3333333333333,4,1,1,60,0,0
48742,-125,4,1,1,60,0,0
48801,-83.3333333333333,4,1,1,60,0,0
48859,-125,4,1,1,60,0,0
48918,-83.3333333333333,4,1,1,60,0,0
48976,-125,4,1,1,60,0,0
49035,-83.3333333333333,4,1,1,60,0,0
49093,-125,4,1,1,60,0,0
49153,-83.3333333333333,4,1,1,60,0,0
49211,-125,4,1,1,60,0,0
49270,-83.3333333333333,4,1,1,60,0,0
49328,-125,4,1,1,60,0,0
49387,-83.3333333333333,4,1,1,60,0,0
49445,-125,4,1,1,60,0,0
49504,-83.3333333333333,4,1,1,60,0,0
49562,-125,4,1,1,60,0,0
49621,-83.3333333333333,4,1,1,60,0,0
49679,-125,4,1,1,60,0,0
49738,-83.3333333333333,4,1,1,60,0,0
49796,-125,4,1,1,60,0,0
49856,-83.3333333333333,4,1,1,60,0,0
49914,-125,4,1,1,60,0,0
49973,-83.3333333333333,4,1,1,60,0,0
50031,-125,4,1,1,60,0,0
50090,-83.3333333333333,4,1,1,60,0,0
50148,-125,4,1,1,60,0,0
50207,-83.3333333333333,4,1,1,60,0,0
50265,-125,4,1,1,60,0,0
50324,-83.3333333333333,4,1,1,60,0,0
50382,-125,4,1,1,60,0,0
50441,-83.3333333333333,4,1,1,60,0,0
50499,-125,4,1,1,60,0,0
50559,-83.3333333333333,4,1,1,60,0,0
50617,-125,4,1,1,60,0,0
50676,-83.3333333333333,4,1,1,60,0,0
50734,-125,4,1,1,60,0,0
50793,-83.3333333333333,4,1,1,60,0,0
50851,-125,4,1,1,60,0,0
50910,-83.3333333333333,4,1,1,60,0,0
50968,-125,4,1,1,60,0,0
51027,-83.3333333333333,4,1,1,60,0,0
51085,-125,4,1,1,60,0,0
51144,-83.3333333333333,4,1,1,60,0,0
51202,-125,4,1,1,60,0,0
51263,-83.3333333333333,4,1,1,60,0,0
51321,-125,4,1,1,60,0,0
51380,-83.3333333333333,4,1,1,60,0,0
51438,-125,4,1,1,60,0,0
51497,-83.3333333333333,4,1,1,60,0,0
51555,-125,4,1,1,60,0,0
51614,-83.3333333333333,4,1,1,60,0,0
51672,-125,4,1,1,60,0,0
51731,-83.3333333333333,4,1,1,60,0,0
51789,-125,4,1,1,60,0,0
51848,-83.3333333333333,4,1,1,60,0,0
51906,-125,4,1,1,60,0,0
51966,-83.3333333333333,4,1,1,60,0,0
52024,-125,4,1,1,60,0,0
52083,-83.3333333333333,4,1,1,60,0,0
52141,-125,4,1,1,60,0,0
52200,-83.3333333333333,4,1,1,60,0,0
52258,-125,4,1,1,60,0,0
52317,-83.3333333333333,4,1,1,60,0,0
52375,-125,4,1,1,60,0,0
52434,-83.3333333333333,4,1,1,60,0,0
52492,-125,4,1,1,60,0,0
52551,-83.3333333333333,4,1,1,60,0,0
52609,-125,4,1,1,60,0,0
52670,-62.5,4,1,1,60,0,0
52728,-250,4,1,1,60,0,0
52787,-62.5,4,1,1,60,0,0
52845,-250,4,1,1,60,0,0
52904,-62.5,4,1,1,60,0,0
52962,-250,4,1,1,60,0,0
53021,-62.5,4,1,1,60,0,0
53079,-250,4,1,1,60,0,0
53138,-62.5,4,1,1,60,0,0
53196,-250,4,1,1,60,0,0
53255,-62.5,4,1,1,60,0,0
53313,-250,4,1,1,60,0,0
53373,-62.5,4,1,1,60,0,0
53431,-250,4,1,1,60,0,0
53490,-62.5,4,1,1,60,0,0
53548,-250,4,1,1,60,0,0
53607,-62.5,4,1,1,60,0,0
53665,-250,4,1,1,60,0,0
53724,-62.5,4,1,1,60,0,0
53782,-250,4,1,1,60,0,0
53841,-62.5,4,1,1,60,0,0
53899,-250,4,1,1,60,0,0
53958,-62.5,4,1,1,60,0,0
54016,-250,4,1,1,60,0,0
54076,-62.5,4,1,1,60,0,0
54134,-250,4,1,1,60,0,0
54193,-62.5,4,1,1,60,0,0
54251,-250,4,1,1,60,0,0
54310,-62.5,4,1,1,60,0,0
54368,-250,4,1,1,60,0,0
54427,-62.5,4,1,1,60,0,0
54485,-250,4,1,1,60,0,0
54545,-62.5,4,1,1,60,0,0
54603,-250,4,1,1,60,0,0
54662,-62.5,4,1,1,60,0,0
54720,-250,4,1,1,60,0,0
54779,-48.780487804878,4,1,1,60,0,0
54808,-133.333333333333,4,1,1,60,0,0
54896,-48.780487804878,4,1,1,60,0,0
54925,-133.333333333333,4,1,1,60,0,0
55013,-48.780487804878,4,1,1,60,0,0
55042,-133.333333333333,4,1,1,60,0,0
55131,-48.780487804878,4,1,1,60,0,0
55160,-133.333333333333,4,1,1,60,0,0
55248,-48.780487804878,4,1,1,60,0,0
55277,-133.333333333333,4,1,1,60,0,0
55365,-48.780487804878,4,1,1,60,0,0
55394,-133.333333333333,4,1,1,60,0,0
55482,-48.780487804878,4,1,1,60,0,0
55511,-133.333333333333,4,1,1,60,0,0
55599,-48.780487804878,4,1,1,60,0,0
55628,-133.333333333333,4,1,1,60,0,0
55717,-48.780487804878,4,1,1,60,0,0
55746,-133.333333333333,4,1,1,60,0,0
55834,-48.780487804878,4,1,1,60,0,0
55863,-133.333333333333,4,1,1,60,0,0
55951,-48.780487804878,4,1,1,60,0,0
55980,-133.333333333333,4,1,1,60,0,0
56068,-48.780487804878,4,1,1,60,0,0
56097,-133.333333333333,4,1,1,60,0,0
56185,-48.780487804878,4,1,1,60,0,0
56214,-133.333333333333,4,1,1,60,0,0
56303,-48.780487804878,4,1,1,60,0,0
56332,-133.333333333333,4,1,1,60,0,0
56420,-43.4782608695652,4,1,1,60,0,0
56441,-1000,4,1,1,60,0,0
56478,-43.4782608695652,4,1,1,60,0,0
56499,-1000,4,1,1,60,0,0
56537,-43.4782608695652,4,1,1,60,0,0
56558,-1000,4,1,1,60,0,0
56595,-43.4782608695652,4,1,1,60,0,0
56616,-1000,4,1,1,60,0,0
56654,-43.4782608695652,4,1,1,60,0,0
56675,-1000,4,1,1,60,0,0
56712,-43.4782608695652,4,1,1,60,0,0
56733,-1000,4,1,1,60,0,0
56771,-43.4782608695652,4,1,1,60,0,0
56792,-1000,4,1,1,60,0,0
56830,-43.4782608695652,4,1,1,60,0,0
56851,-1000,4,1,1,60,0,0
56888,-43.4782608695652,4,1,1,60,0,0
56909,-1000,4,1,1,60,0,0
56947,-43.4782608695652,4,1,1,60,0,0
56968,-1000,4,1,1,60,0,0
57005,-43.4782608695652,4,1,1,60,0,0
57026,-1000,4,1,1,60,0,0
57064,-43.4782608695652,4,1,1,60,0,0
57085,-1000,4,1,1,60,0,0
57123,-43.4782608695652,4,1,1,60,0,0
57144,-1000,4,1,1,60,0,0
57181,-43.4782608695652,4,1,1,60,0,0
57202,-1000,4,1,1,60,0,0
57240,-43.4782608695652,4,1,1,60,0,0
57261,-1000,4,1,1,60,0,0
57298,-43.4782608695652,4,1,1,60,0,0
57319,-1000,4,1,1,60,0,0
57357,-43.4782608695652,4,1,1,60,0,0
57381,-1000,4,1,1,60,0,0
57416,-43.4782608695652,4,1,1,60,0,0
57440,-1000,4,1,1,60,0,0
57474,-43.4782608695652,4,1,1,60,0,0
57498,-1000,4,1,1,60,0,0
57533,-43.4782608695652,4,1,1,60,0,0
57557,-1000,4,1,1,60,0,0
57591,-43.4782608695652,4,1,1,60,0,0
57615,-1000,4,1,1,60,0,0
57650,-43.4782608695652,4,1,1,60,0,0
57674,-1000,4,1,1,60,0,0
57708,-43.4782608695652,4,1,1,60,0,0
57732,-1000,4,1,1,60,0,0
57767,-43.4782608695652,4,1,1,60,0,0
57791,-1000,4,1,1,60,0,0
57826,-43.4782608695652,4,1,1,60,0,0
57850,-1000,4,1,1,60,0,0
57884,-43.4782608695652,4,1,1,60,0,0
57908,-1000,4,1,1,60,0,0
57943,-43.4782608695652,4,1,1,60,0,0
57967,-1000,4,1,1,60,0,0
58001,-43.4782608695652,4,1,1,60,0,0
58025,-1000,4,1,1,60,0,0
58060,-43.4782608695652,4,1,1,60,0,0
58084,-1000,4,1,1,60,0,0
58119,-43.4782608695652,4,1,1,60,0,0
58143,-1000,4,1,1,60,0,0
58177,-43.4782608695652,4,1,1,60,0,0
58201,-1000,4,1,1,60,0,0
58236,-43.4782608695652,4,1,1,60,0,0
58260,-1000,4,1,1,60,0,0
58295,-50,4,1,1,60,0,0
58320,-500,4,1,1,60,0,0
58353,-50,4,1,1,60,0,0
58378,-500,4,1,1,60,0,0
58412,-50,4,1,1,60,0,0
58437,-500,4,1,1,60,0,0
58470,-50,4,1,1,60,0,0
58496,-500,4,1,1,60,0,0
58529,-50,4,1,1,60,0,0
58554,-500,4,1,1,60,0,0
58587,-50,4,1,1,60,0,0
58612,-500,4,1,1,60,0,0
58646,-50,4,1,1,60,0,0
58671,-500,4,1,1,60,0,0
58705,-50,4,1,1,60,0,0
58730,-500,4,1,1,60,0,0
58763,-50,4,1,1,60,0,0
58788,-500,4,1,1,60,0,0
58822,-50,4,1,1,60,0,0
58847,-500,4,1,1,60,0,0
58880,-50,4,1,1,60,0,0
58905,-500,4,1,1,60,0,0
58939,-50,4,1,1,60,0,0
58964,-500,4,1,1,60,0,0
58998,-50,4,1,1,60,0,0
59023,-500,4,1,1,60,0,0
59056,-50,4,1,1,60,0,0
59081,-500,4,1,1,60,0,0
59115,-50,4,1,1,60,0,0
59140,-500,4,1,1,60,0,0
59173,-50,4,1,1,60,0,0
59198,-500,4,1,1,60,0,0
59232,-50,4,1,1,60,0,0
59257,-500,4,1,1,60,0,0
59291,-50,4,1,1,60,0,0
59316,-500,4,1,1,60,0,0
59349,-50,4,1,1,60,0,0
59374,-500,4,1,1,60,0,0
59408,-50,4,1,1,60,0,0
59433,-500,4,1,1,60,0,0
59466,-62.5,4,1,1,60,0,0
59525,-250,4,1,1,60,0,0
59584,-62.5,4,1,1,60,0,0
59643,-250,4,1,1,60,0,0
59701,-50,4,1,1,60,0,0
59730,-125,4,1,1,60,0,0
59818,-100,4,1,1,60,0,0
59935,-40,4,1,1,60,0,0
59964,-200,4,1,1,60,0,0
60140,-45.4545454545455,4,1,1,60,0,0
60170,-50,4,1,1,60,0,1
60228,-71.4285714285714,4,1,1,60,0,1
60287,-83.3333333333333,4,1,1,60,0,1
60345,-125,4,1,1,60,0,1
60404,-250,4,1,1,60,0,1
60462,-500,4,1,1,60,0,1
60521,-45.4545454545455,4,1,1,60,0,1
60550,-166.666666666667,4,1,1,60,0,1
60638,-45.4545454545455,4,1,1,60,0,1
60668,-166.666666666667,4,1,1,60,0,1
60755,-71.4285714285714,4,1,1,60,0,1
60814,-166.666666666667,4,1,1,60,0,1
60873,-71.4285714285714,4,1,1,60,0,1
60932,-166.666666666667,4,1,1,60,0,1
60990,-71.4285714285714,4,1,1,60,0,1
61049,-166.666666666667,4,1,1,60,0,1
61107,-71.4285714285714,4,1,1,60,0,1
61166,-166.666666666667,4,1,1,60,0,1
61224,-71.4285714285714,4,1,1,60,0,1
61283,-166.666666666667,4,1,1,60,0,1
61341,-71.4285714285714,4,1,1,60,0,1
61400,-166.666666666667,4,1,1,60,0,1
61459,-71.4285714285714,4,1,1,60,0,1
61518,-166.666666666667,4,1,1,60,0,1
61576,-71.4285714285714,4,1,1,60,0,1
61635,-166.666666666667,4,1,1,60,0,1
61693,-71.4285714285714,4,1,1,60,0,1
61752,-166.666666666667,4,1,1,60,0,1
61810,-71.4285714285714,4,1,1,60,0,1
61869,-166.666666666667,4,1,1,60,0,1
61927,-71.4285714285714,4,1,1,60,0,1
61986,-166.666666666667,4,1,1,60,0,1
62045,-45.4545454545455,4,1,1,60,0,1
62074,-166.666666666667,4,1,1,60,0,1
62162,-100,4,1,1,60,0,1
62279,-45.4545454545455,4,1,1,60,0,1
62308,-166.666666666667,4,1,1,60,0,1
62484,-45.4545454545455,4,1,1,60,0,1
62543,-166.666666666667,4,1,1,60,0,1
62630,-71.4285714285714,4,1,1,60,0,1
62689,-166.666666666667,4,1,1,60,0,1
62748,-71.4285714285714,4,1,1,60,0,1
62807,-166.666666666667,4,1,1,60,0,1
62865,-71.4285714285714,4,1,1,60,0,1
62924,-166.666666666667,4,1,1,60,0,1
62982,-71.4285714285714,4,1,1,60,0,1
63041,-166.666666666667,4,1,1,60,0,1
63099,-71.4285714285714,4,1,1,60,0,1
63158,-166.666666666667,4,1,1,60,0,1
63216,-71.4285714285714,4,1,1,60,0,1
63275,-166.666666666667,4,1,1,60,0,1
63334,-71.4285714285714,4,1,1,60,0,1
63393,-166.666666666667,4,1,1,60,0,1
63451,-71.4285714285714,4,1,1,60,0,1
63510,-166.666666666667,4,1,1,60,0,1
63568,-71.4285714285714,4,1,1,60,0,1
63627,-166.666666666667,4,1,1,60,0,1
63685,-55.5555555555556,4,1,1,60,0,1
63714,-500.000000000003,4,1,1,60,0,1
63744,-55.5555555555556,4,1,1,60,0,1
63773,-500.000000000003,4,1,1,60,0,1
63802,-55.5555555555556,4,1,1,60,0,1
63831,-500.000000000003,4,1,1,60,0,1
63861,-55.5555555555556,4,1,1,60,0,1
63890,-500.000000000003,4,1,1,60,0,1
63920,-13.8888888888889,4,1,1,60,0,1
63934,-1000,4,1,1,60,0,1
63978,-17.8571428571429,4,1,1,60,0,1
63992,-1000,4,1,1,60,0,1
64037,-27.7777777777778,4,1,1,60,0,1
64054,-1000,4,1,1,60,0,1
64095,-50,4,1,1,60,0,1
64113,-1000,4,1,1,60,0,1
64154,-100,4,1,1,60,0,1
64271,-62.5,4,1,1,60,0,1
64300,-250,4,1,1,60,0,1
64330,-62.5,4,1,1,60,0,1
64359,-250,4,1,1,60,0,1
64388,-45.4545454545455,4,1,1,60,0,1
64418,-166.666666666667,4,1,1,60,0,1
64505,-40,4,1,1,60,0,1
64535,-200,4,1,1,60,0,1
64711,-40,4,1,1,60,0,1
64740,-45.4545454545455,4,1,1,60,0,1
64769,-166.666666666667,4,1,1,60,0,1
64857,-45.4545454545455,4,1,1,60,0,1
64872,-166.666666666667,4,1,1,60,0,1
64916,-100,4,1,1,60,0,1
64974,-45.4545454545455,4,1,1,60,0,1
64989,-166.666666666667,4,1,1,60,0,1
65033,-100,4,1,1,60,0,1
65091,-45.4545454545455,4,1,1,60,0,1
65106,-166.666666666667,4,1,1,60,0,1
65150,-100,4,1,1,60,0,1
65209,-40,4,1,1,60,0,1
65223,-200,4,1,1,60,0,1
65267,-100,4,1,1,60,0,1
65326,-45.4545454545455,4,1,1,60,0,1
65355,-166.666666666667,4,1,1,60,0,1
65443,-40,4,1,1,60,0,1
65472,-200,4,1,1,60,0,1
65560,-55.5555555555556,4,1,1,60,0,1
65580,-500,4,1,1,60,0,1
65599,-55.5555555555556,4,1,1,60,0,1
65619,-500,4,1,1,60,0,1
65638,-55.5555555555556,4,1,1,60,0,1
65658,-500,4,1,1,60,0,1
65677,-125,4,1,1,60,0,1
65765,-50,4,1,1,60,0,1
65795,-40,4,1,1,60,0,1
65853,-200,4,1,1,60,0,1
66029,-45.4545454545455,4,1,1,60,0,1
66044,-166.666666666667,4,1,1,60,0,1
66087,-100,4,1,1,60,0,1
66146,-45.4545454545455,4,1,1,60,0,1
66161,-166.666666666667,4,1,1,60,0,1
66205,-100,4,1,1,60,0,1
66263,-40,4,1,1,60,0,1
66293,-200,4,1,1,60,0,1
66380,-40,4,1,1,60,0,1
66410,-200,4,1,1,60,0,1
66586,-40,4,1,1,60,0,1
66615,-45.4545454545455,4,1,1,60,0,1
66644,-166.666666666667,4,1,1,60,0,1
66732,-45.4545454545455,4,1,1,60,0,1
66747,-166.666666666667,4,1,1,60,0,1
66790,-100,4,1,1,60,0,1
66849,-45.4545454545455,4,1,1,60,0,1
66864,-166.666666666667,4,1,1,60,0,1
66907,-100,4,1,1,60,0,1
66966,-45.4545454545455,4,1,1,60,0,1
66981,-166.666666666667,4,1,1,60,0,1
67024,-100,4,1,1,60,0,1
67084,-45.4545454545455,4,1,1,60,0,1
67099,-166.666666666667,4,1,1,60,0,1
67142,-100,4,1,1,60,0,1
67201,-40,4,1,1,60,0,1
67230,-200,4,1,1,60,0,1
67318,-45.4545454545455,4,1,1,60,0,1
67347,-166.666666666667,4,1,1,60,0,1
67435,-55.5555555555556,4,1,1,60,0,1
67464,-500,4,1,1,60,0,1
67494,-55.5555555555556,4,1,1,60,0,1
67523,-500,4,1,1,60,0,1
67552,-55.5555555555556,4,1,1,60,0,1
67582,-500,4,1,1,60,0,1
67611,-55.5555555555556,4,1,1,60,0,1
67640,-500,4,1,1,60,0,1
67670,-50,4,1,1,60,0,1
67728,-71.4285714285714,4,1,1,60,0,1
67787,-83.3333333333333,4,1,1,60,0,1
67845,-125,4,1,1,60,0,1
67904,-250,4,1,1,60,0,1
67962,-100,4,1,1,60,0,1
68021,-45.4545454545455,4,1,1,60,0,1
68050,-166.666666666667,4,1,1,60,0,1
68138,-45.4545454545455,4,1,1,60,0,1
68168,-166.666666666667,4,1,1,60,0,1
68255,-71.4285714285714,4,1,1,60,0,1
68314,-166.666666666667,4,1,1,60,0,1
68373,-71.4285714285714,4,1,1,60,0,1
68432,-166.666666666667,4,1,1,60,0,1
68490,-71.4285714285714,4,1,1,60,0,1
68549,-166.666666666667,4,1,1,60,0,1
68607,-71.4285714285714,4,1,1,60,0,1
68666,-166.666666666667,4,1,1,60,0,1
68724,-71.4285714285714,4,1,1,60,0,1
68783,-166.666666666667,4,1,1,60,0,1
68841,-71.4285714285714,4,1,1,60,0,1
68900,-166.666666666667,4,1,1,60,0,1
68959,-71.4285714285714,4,1,1,60,0,1
69018,-166.666666666667,4,1,1,60,0,1
69076,-71.4285714285714,4,1,1,60,0,1
69135,-166.666666666667,4,1,1,60,0,1
69193,-29.8507462686567,4,1,1,60,0,1
69199,-1000,4,1,1,60,0,1
69222,-29.8507462686567,4,1,1,60,0,1
69228,-1000,4,1,1,60,0,1
69237,-100,4,1,1,60,0,1
69310,-29.8507462686567,4,1,1,60,0,1
69316,-1000,4,1,1,60,0,1
69339,-29.8507462686567,4,1,1,60,0,1
69345,-1000,4,1,1,60,0,1
69354,-100,4,1,1,60,0,1
69427,-29.8507462686567,4,1,1,60,0,1
69433,-1000,4,1,1,60,0,1
69456,-29.8507462686567,4,1,1,60,0,1
69462,-1000,4,1,1,60,0,1
69471,-100,4,1,1,60,0,1
69545,-50,4,1,1,60,0,1
69574,-10000,4,1,1,60,0,1
69603,-50,4,1,1,60,0,1
69632,-10000,4,1,1,60,0,1
69662,-100,4,1,1,60,0,1
69779,-31.25,4,1,1,60,0,1
69800,-1000,4,1,1,60,0,1
69857,-31.25,4,1,1,60,0,1
69878,-1000,4,1,1,60,0,1
69935,-31.25,4,1,1,60,0,1
69956,-1000,4,1,1,60,0,1
70013,-45.4545454545455,4,1,1,60,0,1
70043,-166.666666666667,4,1,1,60,0,1
70130,-71.4285714285714,4,1,1,60,0,1
70189,-166.666666666667,4,1,1,60,0,1
70248,-71.4285714285714,4,1,1,60,0,1
70307,-166.666666666667,4,1,1,60,0,1
70365,-71.4285714285714,4,1,1,60,0,1
70424,-166.666666666667,4,1,1,60,0,1
70482,-71.4285714285714,4,1,1,60,0,1
70541,-166.666666666667,4,1,1,60,0,1
70599,-71.4285714285714,4,1,1,60,0,1
70658,-166.666666666667,4,1,1,60,0,1
70716,-71.4285714285714,4,1,1,60,0,1
70775,-166.666666666667,4,1,1,60,0,1
70834,-71.4285714285714,4,1,1,60,0,1
70893,-166.666666666667,4,1,1,60,0,1
70951,-71.4285714285714,4,1,1,60,0,1
71010,-166.666666666667,4,1,1,60,0,1
71068,-71.4285714285714,4,1,1,60,0,1
71127,-166.666666666667,4,1,1,60,0,1
71185,-55.5555555555556,4,1,1,60,0,1
71214,-500.000000000003,4,1,1,60,0,1
71244,-55.5555555555556,4,1,1,60,0,1
71273,-500.000000000003,4,1,1,60,0,1
71302,-55.5555555555556,4,1,1,60,0,1
71331,-500.000000000003,4,1,1,60,0,1
71361,-55.5555555555556,4,1,1,60,0,1
71390,-500.000000000003,4,1,1,60,0,1
71420,-40,4,1,1,60,0,1
71478,-200,4,1,1,60,0,1
71654,-100,4,1,1,60,0,1
71771,-55.5555555555556,4,1,1,60,0,1
71800,-500,4,1,1,60,0,1
71830,-55.5555555555556,4,1,1,60,0,1
71859,-500,4,1,1,60,0,1
71888,-40,4,1,1,60,0,1
71918,-200,4,1,1,60,0,1
72005,-55.5555555555556,4,1,1,60,0,1
72035,-500,4,1,1,60,0,1
72064,-55.5555555555556,4,1,1,60,0,1
72094,-500,4,1,1,60,0,1
72123,-100,4,1,1,60,0,1
72240,-40,4,1,1,60,0,1
72269,-200,4,1,1,60,0,1
72357,-166.666666666667,4,1,1,60,0,1
72416,-142.857142857143,4,1,1,60,0,1
72474,-125,4,1,1,60,0,1
72503,-83.3333333333333,4,1,1,60,0,1
72533,-62.5,4,1,1,60,0,1
72562,-55.5555555555556,4,1,1,60,0,1
72611,-500,4,1,1,60,0,1
72630,-55.5555555555556,4,1,1,60,0,1
72650,-500,4,1,1,60,0,1
72670,-55.5555555555556,4,1,1,60,0,1
72689,-500,4,1,1,60,0,1
72709,-55.5555555555556,4,1,1,60,0,1
72729,-500,4,1,1,60,0,1
72749,-55.5555555555556,4,1,1,60,0,1
72768,-500,4,1,1,60,0,1
72787,-55.5555555555556,4,1,1,60,0,1
72807,-500,4,1,1,60,0,1
72826,-100,4,1,1,60,0,1
72943,-62.5,4,1,1,60,0,1
72972,-250,4,1,1,60,0,1
73002,-62.5,4,1,1,60,0,1
73031,-250,4,1,1,60,0,1
73060,-55.5555555555556,4,1,1,60,0,1
73119,-500,4,1,1,60,0,1
73177,-62.5,4,1,1,60,0,1
73236,-250,4,1,1,60,0,1
73295,-40,4,1,1,60,0,1
73324,-200,4,1,1,60,0,1
73470,-66.6666666666667,4,1,1,60,0,1
73529,-55.5555555555556,4,1,1,60,0,1
73548,-500,4,1,1,60,0,1
73568,-55.5555555555556,4,1,1,60,0,1
73587,-500,4,1,1,60,0,1
73607,-55.5555555555556,4,1,1,60,0,1
73626,-500,4,1,1,60,0,1
73646,-55.5555555555556,4,1,1,60,0,1
73665,-500,4,1,1,60,0,1
73685,-55.5555555555556,4,1,1,60,0,1
73704,-500,4,1,1,60,0,1
73724,-55.5555555555556,4,1,1,60,0,1
73743,-500,4,1,1,60,0,1
73763,-40,4,1,1,60,0,1
73793,-200,4,1,1,60,0,1
73880,-45.4545454545455,4,1,1,60,0,1
73910,-166.666666666667,4,1,1,60,0,1
74086,-50,4,1,1,60,0,1
74115,-31.25,4,1,1,60,0,1
74132,-10000,4,1,1,60,0,1
74173,-31.25,4,1,1,60,0,1
74190,-10000,4,1,1,60,0,1
74232,-31.25,4,1,1,60,0,1
74249,-10000,4,1,1,60,0,1
74291,-31.25,4,1,1,60,0,1
74308,-10000,4,1,1,60,0,1
74349,-31.25,4,1,1,60,0,1
74366,-10000,4,1,1,60,0,1
74408,-31.25,4,1,1,60,0,1
74425,-10000,4,1,1,60,0,1
74466,-31.25,4,1,1,60,0,1
74483,-10000,4,1,1,60,0,1
74525,-31.25,4,1,1,60,0,1
74542,-10000,4,1,1,60,0,1
74584,-31.25,4,1,1,60,0,1
74601,-10000,4,1,1,60,0,1
74642,-31.25,4,1,1,60,0,1
74659,-10000,4,1,1,60,0,1
74701,-31.25,4,1,1,60,0,1
74718,-10000,4,1,1,60,0,1
74759,-31.25,4,1,1,60,0,1
74776,-10000,4,1,1,60,0,1
74818,-31.25,4,1,1,60,0,1
74835,-10000,4,1,1,60,0,1
74877,-31.25,4,1,1,60,0,1
74894,-10000,4,1,1,60,0,1
74935,-31.25,4,1,1,60,0,1
74952,-10000,4,1,1,60,0,1
74994,-31.25,4,1,1,60,0,1
75011,-10000,4,1,1,60,0,1
75052,-31.25,4,1,1,60,0,1
75069,-10000,4,1,1,60,0,1
75111,-31.25,4,1,1,60,0,1
75128,-10000,4,1,1,60,0,1
75170,-50,4,1,1,60,0,1
75228,-71.4285714285714,4,1,1,60,0,1
75287,-83.3333333333333,4,1,1,60,0,1
75345,-125,4,1,1,60,0,1
75404,-250,4,1,1,60,0,1
75462,-500,4,1,1,60,0,1
75521,-45.4545454545455,4,1,1,60,0,1
75550,-166.666666666667,4,1,1,60,0,1
75638,-45.4545454545455,4,1,1,60,0,1
75668,-166.666666666667,4,1,1,60,0,1
75755,-71.4285714285714,4,1,1,60,0,1
75814,-166.666666666667,4,1,1,60,0,1
75873,-71.4285714285714,4,1,1,60,0,1
75932,-166.666666666667,4,1,1,60,0,1
75990,-71.4285714285714,4,1,1,60,0,1
76049,-166.666666666667,4,1,1,60,0,1
76107,-71.4285714285714,4,1,1,60,0,1
76166,-166.666666666667,4,1,1,60,0,1
76224,-71.4285714285714,4,1,1,60,0,1
76283,-166.666666666667,4,1,1,60,0,1
76341,-71.4285714285714,4,1,1,60,0,1
76400,-166.666666666667,4,1,1,60,0,1
76459,-71.4285714285714,4,1,1,60,0,1
76518,-166.666666666667,4,1,1,60,0,1
76576,-71.4285714285714,4,1,1,60,0,1
76635,-166.666666666667,4,1,1,60,0,1
76693,-71.4285714285714,4,1,1,60,0,1
76752,-166.666666666667,4,1,1,60,0,1
76810,-71.4285714285714,4,1,1,60,0,1
76869,-166.666666666667,4,1,1,60,0,1
76927,-71.4285714285714,4,1,1,60,0,1
76986,-166.666666666667,4,1,1,60,0,1
77045,-45.4545454545455,4,1,1,60,0,1
77074,-166.666666666667,4,1,1,60,0,1
77162,-100,4,1,1,60,0,1
77279,-45.4545454545455,4,1,1,60,0,1
77308,-166.666666666667,4,1,1,60,0,1
77484,-45.4545454545455,4,1,1,60,0,1
77543,-166.666666666667,4,1,1,60,0,1
77630,-71.4285714285714,4,1,1,60,0,1
77689,-166.666666666667,4,1,1,60,0,1
77748,-71.4285714285714,4,1,1,60,0,1
77807,-166.666666666667,4,1,1,60,0,1
77865,-71.4285714285714,4,1,1,60,0,1
77924,-166.666666666667,4,1,1,60,0,1
77982,-71.4285714285714,4,1,1,60,0,1
78041,-166.666666666667,4,1,1,60,0,1
78099,-71.4285714285714,4,1,1,60,0,1
78158,-166.666666666667,4,1,1,60,0,1
78216,-71.4285714285714,4,1,1,60,0,1
78275,-166.666666666667,4,1,1,60,0,1
78334,-71.4285714285714,4,1,1,60,0,1
78393,-166.666666666667,4,1,1,60,0,1
78451,-71.4285714285714,4,1,1,60,0,1
78510,-166.666666666667,4,1,1,60,0,1
78568,-71.4285714285714,4,1,1,60,0,1
78627,-166.666666666667,4,1,1,60,0,1
78685,-55.5555555555556,4,1,1,60,0,1
78714,-500.000000000003,4,1,1,60,0,1
78744,-55.5555555555556,4,1,1,60,0,1
78773,-500.000000000003,4,1,1,60,0,1
78802,-55.5555555555556,4,1,1,60,0,1
78831,-500.000000000003,4,1,1,60,0,1
78861,-55.5555555555556,4,1,1,60,0,1
78890,-500.000000000003,4,1,1,60,0,1
78920,-13.8888888888889,4,1,1,60,0,1
78934,-1000,4,1,1,60,0,1
78978,-17.8571428571429,4,1,1,60,0,1
78992,-1000,4,1,1,60,0,1
79037,-27.7777777777778,4,1,1,60,0,1
79054,-1000,4,1,1,60,0,1
79095,-50,4,1,1,60,0,1
79113,-1000,4,1,1,60,0,1
79154,-100,4,1,1,60,0,1
79271,-62.5,4,1,1,60,0,1
79300,-250,4,1,1,60,0,1
79330,-62.5,4,1,1,60,0,1
79359,-250,4,1,1,60,0,1
79388,-45.4545454545455,4,1,1,60,0,1
79418,-166.666666666667,4,1,1,60,0,1
79505,-40,4,1,1,60,0,1
79535,-200,4,1,1,60,0,1
79711,-40,4,1,1,60,0,1
79740,-45.4545454545455,4,1,1,60,0,1
79769,-166.666666666667,4,1,1,60,0,1
79857,-45.4545454545455,4,1,1,60,0,1
79872,-166.666666666667,4,1,1,60,0,1
79916,-100,4,1,1,60,0,1
79974,-45.4545454545455,4,1,1,60,0,1
79989,-166.666666666667,4,1,1,60,0,1
80033,-100,4,1,1,60,0,1
80091,-45.4545454545455,4,1,1,60,0,1
80106,-166.666666666667,4,1,1,60,0,1
80150,-100,4,1,1,60,0,1
80209,-40,4,1,1,60,0,1
80223,-200,4,1,1,60,0,1
80267,-100,4,1,1,60,0,1
80326,-45.4545454545455,4,1,1,60,0,1
80355,-166.666666666667,4,1,1,60,0,1
80443,-40,4,1,1,60,0,1
80472,-200,4,1,1,60,0,1
80560,-55.5555555555556,4,1,1,60,0,1
80580,-500,4,1,1,60,0,1
80599,-55.5555555555556,4,1,1,60,0,1
80619,-500,4,1,1,60,0,1
80638,-55.5555555555556,4,1,1,60,0,1
80658,-500,4,1,1,60,0,1
80677,-125,4,1,1,60,0,1
80765,-50,4,1,1,60,0,1
80795,-40,4,1,1,60,0,1
80853,-200,4,1,1,60,0,1
81029,-45.4545454545455,4,1,1,60,0,1
81044,-166.666666666667,4,1,1,60,0,1
81087,-100,4,1,1,60,0,1
81146,-45.4545454545455,4,1,1,60,0,1
81161,-166.666666666667,4,1,1,60,0,1
81205,-100,4,1,1,60,0,1
81263,-40,4,1,1,60,0,1
81293,-200,4,1,1,60,0,1
81380,-40,4,1,1,60,0,1
81410,-200,4,1,1,60,0,1
81586,-40,4,1,1,60,0,1
81615,-45.4545454545455,4,1,1,60,0,1
81644,-166.666666666667,4,1,1,60,0,1
81732,-45.4545454545455,4,1,1,60,0,1
81747,-166.666666666667,4,1,1,60,0,1
81790,-100,4,1,1,60,0,1
81849,-45.4545454545455,4,1,1,60,0,1
81864,-166.666666666667,4,1,1,60,0,1
81907,-100,4,1,1,60,0,1
81966,-45.4545454545455,4,1,1,60,0,1
81981,-166.666666666667,4,1,1,60,0,1
82024,-100,4,1,1,60,0,1
82084,-45.4545454545455,4,1,1,60,0,1
82099,-166.666666666667,4,1,1,60,0,1
82142,-100,4,1,1,60,0,1
82201,-40,4,1,1,60,0,1
82230,-200,4,1,1,60,0,1
82318,-45.4545454545455,4,1,1,60,0,1
82347,-166.666666666667,4,1,1,60,0,1
82435,-55.5555555555556,4,1,1,60,0,1
82464,-500,4,1,1,60,0,1
82494,-55.5555555555556,4,1,1,60,0,1
82523,-500,4,1,1,60,0,1
82552,-55.5555555555556,4,1,1,60,0,1
82582,-500,4,1,1,60,0,1
82611,-55.5555555555556,4,1,1,60,0,1
82640,-500,4,1,1,60,0,1
82670,-50,4,1,1,60,0,1
82728,-71.4285714285714,4,1,1,60,0,1
82787,-83.3333333333333,4,1,1,60,0,1
82845,-125,4,1,1,60,0,1
82904,-250,4,1,1,60,0,1
82962,-500,4,1,1,60,0,1
83021,-45.4545454545455,4,1,1,60,0,1
83050,-166.666666666667,4,1,1,60,0,1
83138,-45.4545454545455,4,1,1,60,0,1
83168,-166.666666666667,4,1,1,60,0,1
83255,-71.4285714285714,4,1,1,60,0,1
83314,-166.666666666667,4,1,1,60,0,1
83373,-71.4285714285714,4,1,1,60,0,1
83432,-166.666666666667,4,1,1,60,0,1
83490,-71.4285714285714,4,1,1,60,0,1
83549,-166.666666666667,4,1,1,60,0,1
83607,-71.4285714285714,4,1,1,60,0,1
83666,-166.666666666667,4,1,1,60,0,1
83724,-71.4285714285714,4,1,1,60,0,1
83783,-166.666666666667,4,1,1,60,0,1
83841,-71.4285714285714,4,1,1,60,0,1
83900,-166.666666666667,4,1,1,60,0,1
83959,-71.4285714285714,4,1,1,60,0,1
84018,-166.666666666667,4,1,1,60,0,1
84076,-71.4285714285714,4,1,1,60,0,1
84135,-166.666666666667,4,1,1,60,0,1
84193,-29.8507462686567,4,1,1,60,0,1
84199,-1000,4,1,1,60,0,1
84222,-29.8507462686567,4,1,1,60,0,1
84228,-1000,4,1,1,60,0,1
84237,-100,4,1,1,60,0,1
84310,-29.8507462686567,4,1,1,60,0,1
84316,-1000,4,1,1,60,0,1
84339,-29.8507462686567,4,1,1,60,0,1
84345,-1000,4,1,1,60,0,1
84354,-100,4,1,1,60,0,1
84427,-29.8507462686567,4,1,1,60,0,1
84433,-1000,4,1,1,60,0,1
84456,-29.8507462686567,4,1,1,60,0,1
84462,-1000,4,1,1,60,0,1
84471,-100,4,1,1,60,0,1
84545,-50,4,1,1,60,0,1
84574,-10000,4,1,1,60,0,1
84603,-50,4,1,1,60,0,1
84632,-10000,4,1,1,60,0,1
84662,-100,4,1,1,60,0,1
84779,-31.25,4,1,1,60,0,1
84800,-1000,4,1,1,60,0,1
84857,-31.25,4,1,1,60,0,1
84878,-1000,4,1,1,60,0,1
84935,-31.25,4,1,1,60,0,1
84956,-1000,4,1,1,60,0,1
85013,-45.4545454545455,4,1,1,60,0,1
85043,-166.666666666667,4,1,1,60,0,1
85130,-71.4285714285714,4,1,1,60,0,1
85189,-166.666666666667,4,1,1,60,0,1
85248,-71.4285714285714,4,1,1,60,0,1
85307,-166.666666666667,4,1,1,60,0,1
85365,-71.4285714285714,4,1,1,60,0,1
85424,-166.666666666667,4,1,1,60,0,1
85482,-71.4285714285714,4,1,1,60,0,1
85541,-166.666666666667,4,1,1,60,0,1
85599,-71.4285714285714,4,1,1,60,0,1
85658,-166.666666666667,4,1,1,60,0,1
85716,-71.4285714285714,4,1,1,60,0,1
85775,-166.666666666667,4,1,1,60,0,1
85834,-71.4285714285714,4,1,1,60,0,1
85893,-166.666666666667,4,1,1,60,0,1
85951,-71.4285714285714,4,1,1,60,0,1
86010,-166.666666666667,4,1,1,60,0,1
86068,-71.4285714285714,4,1,1,60,0,1
86127,-166.666666666667,4,1,1,60,0,1
86185,-55.5555555555556,4,1,1,60,0,1
86214,-500.000000000003,4,1,1,60,0,1
86244,-55.5555555555556,4,1,1,60,0,1
86273,-500.000000000003,4,1,1,60,0,1
86302,-55.5555555555556,4,1,1,60,0,1
86331,-500.000000000003,4,1,1,60,0,1
86361,-55.5555555555556,4,1,1,60,0,1
86390,-500.000000000003,4,1,1,60,0,1
86420,-40,4,1,1,60,0,1
86478,-200,4,1,1,60,0,1
86654,-100,4,1,1,60,0,1
86771,-55.5555555555556,4,1,1,60,0,1
86800,-500,4,1,1,60,0,1
86830,-55.5555555555556,4,1,1,60,0,1
86859,-500,4,1,1,60,0,1
86888,-40,4,1,1,60,0,1
86918,-200,4,1,1,60,0,1
87005,-55.5555555555556,4,1,1,60,0,1
87035,-500,4,1,1,60,0,1
87064,-55.5555555555556,4,1,1,60,0,1
87094,-500,4,1,1,60,0,1
87123,-100,4,1,1,60,0,1
87240,-40,4,1,1,60,0,1
87269,-200,4,1,1,60,0,1
87357,-166.666666666667,4,1,1,60,0,1
87416,-142.857142857143,4,1,1,60,0,1
87474,-125,4,1,1,60,0,1
87503,-83.3333333333333,4,1,1,60,0,1
87533,-62.5,4,1,1,60,0,1
87562,-55.5555555555556,4,1,1,60,0,1
87611,-500,4,1,1,60,0,1
87630,-55.5555555555556,4,1,1,60,0,1
87650,-500,4,1,1,60,0,1
87670,-55.5555555555556,4,1,1,60,0,1
87689,-500,4,1,1,60,0,1
87709,-55.5555555555556,4,1,1,60,0,1
87729,-500,4,1,1,60,0,1
87749,-55.5555555555556,4,1,1,60,0,1
87768,-500,4,1,1,60,0,1
87787,-55.5555555555556,4,1,1,60,0,1
87807,-500,4,1,1,60,0,1
87826,-100,4,1,1,60,0,1
87943,-62.5,4,1,1,60,0,1
87972,-250,4,1,1,60,0,1
88002,-62.5,4,1,1,60,0,1
88031,-250,4,1,1,60,0,1
88060,-55.5555555555556,4,1,1,60,0,1
88119,-500,4,1,1,60,0,1
88177,-62.5,4,1,1,60,0,1
88236,-250,4,1,1,60,0,1
88295,-40,4,1,1,60,0,0
88324,-200,4,1,1,60,0,0
88470,-66.6666666666667,4,1,1,60,0,0
88529,-55.5555555555556,4,1,1,60,0,0
88548,-500,4,1,1,60,0,0
88568,-55.5555555555556,4,1,1,60,0,0
88587,-500,4,1,1,60,0,0
88607,-55.5555555555556,4,1,1,60,0,0
88626,-500,4,1,1,60,0,0
88646,-55.5555555555556,4,1,1,60,0,0
88665,-500,4,1,1,60,0,0
88685,-55.5555555555556,4,1,1,60,0,0
88704,-500,4,1,1,60,0,0
88724,-55.5555555555556,4,1,1,60,0,0
88743,-500,4,1,1,60,0,0
88763,-66.6666666666667,4,1,1,60,0,0
88880,-200,4,1,1,60,0,0
88998,-66.6666666666667,4,1,1,60,0,0
89056,-200,4,1,1,60,0,0
89115,-66.6666666666667,4,1,1,60,0,0
89173,-200,4,1,1,60,0,0
89232,-43.4782608695652,4,1,1,60,0,0
89256,-1000,4,1,1,60,0,0
89291,-43.4782608695652,4,1,1,60,0,0
89315,-1000,4,1,1,60,0,0
89349,-43.4782608695652,4,1,1,60,0,0
89373,-1000,4,1,1,60,0,0
89408,-43.4782608695652,4,1,1,60,0,0
89432,-1000,4,1,1,60,0,0
89466,-66.6666666666667,4,1,1,60,0,0
89525,-200,4,1,1,60,0,0
89584,-100,4,1,1,60,0,0
89701,-62.5,4,1,1,60,0,0
89759,-250,4,1,1,60,0,0
89818,-62.5,4,1,1,60,0,0
89877,-250,4,1,1,60,0,0
89935,-55.5555555555556,4,1,1,60,0,0
89964,-500,4,1,1,60,0,0
89994,-55.5555555555556,4,1,1,60,0,0
90023,-500,4,1,1,60,0,0
90052,-55.5555555555556,4,1,1,60,0,0
90081,-500,4,1,1,60,0,0
90111,-55.5555555555556,4,1,1,60,0,0
90140,-500,4,1,1,60,0,0
90170,-31.25,4,1,1,60,0,1
90187,-1000,4,1,1,60,0,1
90229,-31.25,4,1,1,60,0,1
90246,-1000,4,1,1,60,0,1
90287,-31.25,4,1,1,60,0,1
90304,-1000,4,1,1,60,0,1
90346,-31.25,4,1,1,60,0,1
90363,-1000,4,1,1,60,0,1
90404,-31.25,4,1,1,60,0,1
90421,-1000,4,1,1,60,0,1
90463,-31.25,4,1,1,60,0,1
90480,-1000,4,1,1,60,0,1
90521,-31.25,4,1,1,60,0,1
90538,-1000,4,1,1,60,0,1
90580,-31.25,4,1,1,60,0,1
90597,-1000,4,1,1,60,0,1
90638,-31.25,4,1,1,60,0,1
90655,-1000,4,1,1,60,0,1
90696,-31.25,4,1,1,60,0,1
90713,-1000,4,1,1,60,0,1
90755,-31.25,4,1,1,60,0,1
90772,-1000,4,1,1,60,0,1
90814,-31.25,4,1,1,60,0,1
90831,-1000,4,1,1,60,0,1
90872,-31.25,4,1,1,60,0,1
90889,-1000,4,1,1,60,0,1
90931,-31.25,4,1,1,60,0,1
90948,-1000,4,1,1,60,0,1
90990,-62.5,4,1,1,60,0,1
91048,-250,4,1,1,60,0,1
91107,-40,4,1,1,60,0,1
91122,-200,4,1,1,60,0,1
91166,-100,4,1,1,60,0,1
91224,-40,4,1,1,60,0,1
91239,-200,4,1,1,60,0,1
91283,-100,4,1,1,60,0,1
91341,-40,4,1,1,60,0,1
91356,-200,4,1,1,60,0,1
91400,-100,4,1,1,60,0,1
91459,-40,4,1,1,60,0,1
91474,-200,4,1,1,60,0,1
91518,-100,4,1,1,60,0,1
91576,-40,4,1,1,60,0,1
91591,-200,4,1,1,60,0,1
91635,-100,4,1,1,60,0,1
91693,-40,4,1,1,60,0,1
91708,-200,4,1,1,60,0,1
91752,-100,4,1,1,60,0,1
91810,-40,4,1,1,60,0,1
91825,-200,4,1,1,60,0,1
91869,-100,4,1,1,60,0,1
91927,-40,4,1,1,60,0,1
91942,-200,4,1,1,60,0,1
91986,-100,4,1,1,60,0,1
92045,-40,4,1,1,60,0,1
92103,-200,4,1,1,60,0,1
92279,-55.5555555555556,4,1,1,60,0,1
92308,-500,4,1,1,60,0,1
92337,-55.5555555555556,4,1,1,60,0,1
92366,-500,4,1,1,60,0,1
92396,-43.4782608695652,4,1,1,60,0,1
92420,-1000,4,1,1,60,0,1
92455,-43.4782608695652,4,1,1,60,0,1
92479,-1000,4,1,1,60,0,1
92513,-43.4782608695652,4,1,1,60,0,1
92537,-1000,4,1,1,60,0,1
92572,-43.4782608695652,4,1,1,60,0,1
92596,-1000,4,1,1,60,0,1
92630,-40,4,1,1,60,0,1
92660,-200,4,1,1,60,0,1
92748,-100,4,1,1,60,0,1
92865,-40,4,1,1,60,0,1
92879,-200,4,1,1,60,0,1
92923,-100,4,1,1,60,0,1
92982,-40,4,1,1,60,0,1
93041,-200,4,1,1,60,0,1
93216,-55.5555555555556,4,1,1,60,0,1
93236,-500,4,1,1,60,0,1
93255,-55.5555555555556,4,1,1,60,0,1
93275,-500,4,1,1,60,0,1
93295,-55.5555555555556,4,1,1,60,0,1
93315,-500,4,1,1,60,0,1
93334,-100,4,1,1,60,0,1
93451,-40,4,1,1,60,0,1
93510,-200,4,1,1,60,0,1
93685,-55.5555555555556,4,1,1,60,0,1
93705,-500,4,1,1,60,0,1
93724,-55.5555555555556,4,1,1,60,0,1
93744,-500,4,1,1,60,0,1
93764,-55.5555555555556,4,1,1,60,0,1
93784,-500,4,1,1,60,0,1
93803,-100,4,1,1,60,0,1
93920,-31.25,4,1,1,60,0,1
93937,-1000,4,1,1,60,0,1
93978,-31.25,4,1,1,60,0,1
93995,-1000,4,1,1,60,0,1
94037,-31.25,4,1,1,60,0,1
94054,-1000,4,1,1,60,0,1
94095,-31.25,4,1,1,60,0,1
94112,-1000,4,1,1,60,0,1
94154,-31.25,4,1,1,60,0,1
94171,-1000,4,1,1,60,0,1
94212,-31.25,4,1,1,60,0,1
94229,-1000,4,1,1,60,0,1
94271,-31.25,4,1,1,60,0,1
94288,-1000,4,1,1,60,0,1
94330,-31.25,4,1,1,60,0,1
94347,-1000,4,1,1,60,0,1
94388,-45.4545454545455,4,1,1,60,0,1
94408,-166.666666666667,4,1,1,60,0,1
94466,-100,4,1,1,60,0,1
94545,-45.4545454545455,4,1,1,60,0,1
94565,-166.666666666667,4,1,1,60,0,1
94623,-100,4,1,1,60,0,1
94701,-45.4545454545455,4,1,1,60,0,1
94721,-166.666666666667,4,1,1,60,0,1
94779,-100,4,1,1,60,0,1
94857,-40,4,1,1,60,0,1
94872,-200,4,1,1,60,0,1
94916,-100,4,1,1,60,0,1
94974,-40,4,1,1,60,0,1
94989,-200,4,1,1,60,0,1
95033,-100,4,1,1,60,0,1
95091,-40,4,1,1,60,0,1
95106,-200,4,1,1,60,0,1
95150,-100,4,1,1,60,0,1
95209,-40,4,1,1,60,0,1
95224,-200,4,1,1,60,0,1
95268,-100,4,1,1,60,0,1
95326,-40,4,1,1,60,0,1
95355,-200,4,1,1,60,0,1
95443,-100,4,1,1,60,0,1
95502,-40,4,1,1,60,0,1
95531,-200,4,1,1,60,0,1
95619,-100,4,1,1,60,0,1
95677,-40,4,1,1,60,0,1
95706,-200,4,1,1,60,0,1
95794,-45.4545454545455,4,1,1,60,0,1
95824,-166.666666666667,4,1,1,60,0,1
95912,-55.5555555555556,4,1,1,60,0,1
95941,-500,4,1,1,60,0,1
95970,-55.5555555555556,4,1,1,60,0,1
95999,-500,4,1,1,60,0,1
96029,-45.4545454545455,4,1,1,60,0,1
96058,-166.666666666667,4,1,1,60,0,1
96146,-40,4,1,1,60,0,1
96175,-200,4,1,1,60,0,1
96263,-166.666666666667,4,1,1,60,0,1
96322,-142.857142857143,4,1,1,60,0,1
96380,-125,4,1,1,60,0,1
96409,-83.3333333333333,4,1,1,60,0,1
96439,-62.5,4,1,1,60,0,1
96468,-55.5555555555556,4,1,1,60,0,1
96498,-45.4545454545455,4,1,1,60,0,1
96527,-166.666666666667,4,1,1,60,0,1
96615,-55.5555555555556,4,1,1,60,0,1
96644,-500,4,1,1,60,0,1
96673,-55.5555555555556,4,1,1,60,0,1
96702,-500,4,1,1,60,0,1
96732,-40,4,1,1,60,0,1
96761,-200,4,1,1,60,0,1
96849,-45.4545454545455,4,1,1,60,0,1
96878,-166.666666666667,4,1,1,60,0,1
96966,-55.5555555555556,4,1,1,60,0,1
96986,-500,4,1,1,60,0,1
97005,-55.5555555555556,4,1,1,60,0,1
97025,-500,4,1,1,60,0,1
97045,-55.5555555555556,4,1,1,60,0,1
97065,-500,4,1,1,60,0,1
97084,-45.4545454545455,4,1,1,60,0,1
97113,-166.666666666667,4,1,1,60,0,1
97201,-71.4285714285714,4,1,1,60,0,1
97259,-166.666666666667,4,1,1,60,0,1
97318,-71.4285714285714,4,1,1,60,0,1
97376,-166.666666666667,4,1,1,60,0,1
97435,-71.4285714285714,4,1,1,60,0,1
97493,-166.666666666667,4,1,1,60,0,1
97552,-71.4285714285714,4,1,1,60,0,1
97610,-166.666666666667,4,1,1,60,0,1
97670,-31.25,4,1,1,60,0,1
97687,-1000,4,1,1,60,0,1
97729,-31.25,4,1,1,60,0,1
97746,-1000,4,1,1,60,0,1
97787,-31.25,4,1,1,60,0,1
97804,-1000,4,1,1,60,0,1
97846,-31.25,4,1,1,60,0,1
97863,-1000,4,1,1,60,0,1
97904,-31.25,4,1,1,60,0,1
97921,-1000,4,1,1,60,0,1
97963,-31.25,4,1,1,60,0,1
97980,-1000,4,1,1,60,0,1
98021,-31.25,4,1,1,60,0,1
98038,-1000,4,1,1,60,0,1
98080,-31.25,4,1,1,60,0,1
98097,-1000,4,1,1,60,0,1
98138,-31.25,4,1,1,60,0,1
98155,-1000,4,1,1,60,0,1
98196,-31.25,4,1,1,60,0,1
98213,-1000,4,1,1,60,0,1
98255,-31.25,4,1,1,60,0,1
98272,-1000,4,1,1,60,0,1
98314,-31.25,4,1,1,60,0,1
98331,-1000,4,1,1,60,0,1
98372,-31.25,4,1,1,60,0,1
98389,-1000,4,1,1,60,0,1
98431,-31.25,4,1,1,60,0,1
98448,-1000,4,1,1,60,0,1
98490,-45.4545454545455,4,1,1,60,0,1
98519,-166.666666666667,4,1,1,60,0,1
98607,-40,4,1,1,60,0,1
98622,-200,4,1,1,60,0,1
98666,-100,4,1,1,60,0,1
98724,-40,4,1,1,60,0,1
98739,-200,4,1,1,60,0,1
98783,-100,4,1,1,60,0,1
98841,-40,4,1,1,60,0,1
98856,-200,4,1,1,60,0,1
98900,-100,4,1,1,60,0,1
98959,-40,4,1,1,60,0,1
98974,-200,4,1,1,60,0,1
99018,-100,4,1,1,60,0,1
99076,-40,4,1,1,60,0,1
99091,-200,4,1,1,60,0,1
99135,-100,4,1,1,60,0,1
99193,-40,4,1,1,60,0,1
99208,-200,4,1,1,60,0,1
99252,-100,4,1,1,60,0,1
99310,-40,4,1,1,60,0,1
99325,-200,4,1,1,60,0,1
99369,-100,4,1,1,60,0,1
99427,-40,4,1,1,60,0,1
99442,-200,4,1,1,60,0,1
99486,-100,4,1,1,60,0,1
99545,-40,4,1,1,60,0,1
99603,-200,4,1,1,60,0,1
99779,-55.5555555555556,4,1,1,60,0,1
99808,-500,4,1,1,60,0,1
99837,-55.5555555555556,4,1,1,60,0,1
99866,-500,4,1,1,60,0,1
99896,-43.4782608695652,4,1,1,60,0,1
99920,-1000,4,1,1,60,0,1
99955,-43.4782608695652,4,1,1,60,0,1
99979,-1000,4,1,1,60,0,1
100013,-43.4782608695652,4,1,1,60,0,1
100037,-1000,4,1,1,60,0,1
100072,-43.4782608695652,4,1,1,60,0,1
100096,-1000,4,1,1,60,0,1
100130,-40,4,1,1,60,0,1
100160,-200,4,1,1,60,0,1
100248,-100,4,1,1,60,0,1
100365,-40,4,1,1,60,0,1
100379,-200,4,1,1,60,0,1
100423,-100,4,1,1,60,0,1
100482,-40,4,1,1,60,0,1
100541,-200,4,1,1,60,0,1
100716,-55.5555555555556,4,1,1,60,0,1
100736,-500,4,1,1,60,0,1
100755,-55.5555555555556,4,1,1,60,0,1
100775,-500,4,1,1,60,0,1
100795,-55.5555555555556,4,1,1,60,0,1
100815,-500,4,1,1,60,0,1
100834,-100,4,1,1,60,0,1
100951,-45.4545454545455,4,1,1,60,0,1
100980,-166.666666666667,4,1,1,60,0,1
101068,-55.5555555555556,4,1,1,60,0,1
101097,-500,4,1,1,60,0,1
101127,-55.5555555555556,4,1,1,60,0,1
101156,-500,4,1,1,60,0,1
101185,-55.5555555555556,4,1,1,60,0,1
101214,-500,4,1,1,60,0,1
101244,-55.5555555555556,4,1,1,60,0,1
101273,-500,4,1,1,60,0,1
101302,-55.5555555555556,4,1,1,60,0,1
101331,-500,4,1,1,60,0,1
101361,-55.5555555555556,4,1,1,60,0,1
101390,-500,4,1,1,60,0,1
101420,-31.25,4,1,1,60,0,1
101437,-1000,4,1,1,60,0,1
101478,-31.25,4,1,1,60,0,1
101495,-1000,4,1,1,60,0,1
101537,-31.25,4,1,1,60,0,1
101554,-1000,4,1,1,60,0,1
101595,-31.25,4,1,1,60,0,1
101612,-1000,4,1,1,60,0,1
101654,-31.25,4,1,1,60,0,1
101671,-1000,4,1,1,60,0,1
101712,-31.25,4,1,1,60,0,1
101729,-1000,4,1,1,60,0,1
101771,-31.25,4,1,1,60,0,1
101788,-1000,4,1,1,60,0,1
101830,-31.25,4,1,1,60,0,1
101847,-1000,4,1,1,60,0,1
101888,-52.6315789473684,4,1,1,60,0,1
101927,-1000,4,1,1,60,0,1
101966,-52.6315789473684,4,1,1,60,0,1
102005,-1000,4,1,1,60,0,1
102045,-52.6315789473684,4,1,1,60,0,1
102084,-1000,4,1,1,60,0,1
102123,-52.6315789473684,4,1,1,60,0,1
102162,-1000,4,1,1,60,0,1
102201,-45.4545454545455,4,1,1,60,0,1
102240,-166.666666666667,4,1,1,60,0,1
102357,-40,4,1,1,60,0,1
102386,-200,4,1,1,60,0,1
102474,-43.4782608695652,4,1,1,60,0,1
102498,-1000,4,1,1,60,0,1
102533,-43.4782608695652,4,1,1,60,0,1
102557,-1000,4,1,1,60,0,1
102591,-52.6315789473684,4,1,1,60,0,1
102621,-1000,4,1,1,60,0,1
102650,-52.6315789473684,4,1,1,60,0,1
102679,-1000,4,1,1,60,0,1
102709,-31.25,4,1,1,60,0,1
102727,-1000,4,1,1,60,0,1
102767,-31.25,4,1,1,60,0,1
102785,-1000,4,1,1,60,0,1
102826,-31.25,4,1,1,60,0,1
102844,-1000,4,1,1,60,0,1
102884,-31.25,4,1,1,60,0,1
102902,-1000,4,1,1,60,0,1
102943,-52.6315789473684,4,1,1,60,0,1
102972,-1000,4,1,1,60,0,1
103002,-52.6315789473684,4,1,1,60,0,1
103031,-1000,4,1,1,60,0,1
103060,-100,4,1,1,60,0,1
103177,-40,4,1,1,60,0,1
103192,-200,4,1,1,60,0,1
103236,-100,4,1,1,60,0,1
103295,-45.4545454545455,4,1,1,60,0,1
103324,-166.666666666667,4,1,1,60,0,1
103412,-55.5555555555556,4,1,1,60,0,1
103441,-500,4,1,1,60,0,1
103470,-55.5555555555556,4,1,1,60,0,1
103499,-500,4,1,1,60,0,1
103529,-45.4545454545455,4,1,1,60,0,1
103558,-166.666666666667,4,1,1,60,0,1
103646,-45.4545454545455,4,1,1,60,0,1
103661,-166.666666666667,4,1,1,60,0,1
103705,-100,4,1,1,60,0,1
103763,-45.4545454545455,4,1,1,60,0,1
103778,-166.666666666667,4,1,1,60,0,1
103822,-100,4,1,1,60,0,1
103880,-31.25,4,1,1,60,0,1
103898,-1000,4,1,1,60,0,1
103939,-31.25,4,1,1,60,0,1
103957,-1000,4,1,1,60,0,1
103998,-31.25,4,1,1,60,0,1
104016,-1000,4,1,1,60,0,1
104056,-31.25,4,1,1,60,0,1
104074,-1000,4,1,1,60,0,1
104115,-55.5555555555556,4,1,1,60,0,1
104144,-500,4,1,1,60,0,1
104173,-55.5555555555556,4,1,1,60,0,1
104202,-500,4,1,1,60,0,1
104232,-40,4,1,1,60,0,1
104261,-200,4,1,1,60,0,1
104349,-62.5,4,1,1,60,0,1
104408,-250,4,1,1,60,0,1
104466,-100,4,1,1,60,0,1
104584,-62.5,4,1,1,60,0,1
104643,-250,4,1,1,60,0,1
104701,-100,4,1,1,60,0,1
104935,-62.5,4,1,1,60,0,1
104994,-250,4,1,1,60,0,1
105052,-100,4,1,1,60,0,1
105170,-40,4,1,1,60,0,1
105228,-200,4,1,1,60,0,1
105404,-41.6666666666667,4,1,1,60,0,1
105424,-10000,4,1,1,60,0,1
105638,-35.7142857142857,4,1,1,60,0,1
105668,-166.666666666667,4,1,1,60,0,1
105873,-45.4545454545455,4,1,1,60,0,1
105893,-166.666666666667,4,1,1,60,0,1
105931,-100,4,1,1,60,0,1
105990,-45.4545454545455,4,1,1,60,0,1
106019,-166.666666666667,4,1,1,60,0,1
106107,-40,4,1,1,60,0,1
106127,-200,4,1,1,60,0,1
106185,-40,4,1,1,60,0,1
106205,-200,4,1,1,60,0,1
106263,-40,4,1,1,60,0,1
106283,-200,4,1,1,60,0,1
106341,-40,4,1,1,60,0,1
106361,-200,4,1,1,60,0,1
106420,-40,4,1,1,60,0,1
106440,-200,4,1,1,60,0,1
106498,-40,4,1,1,60,0,1
106518,-200,4,1,1,60,0,1
106576,-40,4,1,1,60,0,1
106596,-200,4,1,1,60,0,1
106654,-40,4,1,1,60,0,1
106674,-200,4,1,1,60,0,1
106732,-40,4,1,1,60,0,1
106752,-200,4,1,1,60,0,1
106810,-40,4,1,1,60,0,1
106830,-200,4,1,1,60,0,1
106888,-40,4,1,1,60,0,1
106908,-200,4,1,1,60,0,1
106966,-40,4,1,1,60,0,1
106986,-200,4,1,1,60,0,1
107045,-40,4,1,1,60,0,1
107103,-200,4,1,1,60,0,1
107279,-55.5555555555556,4,1,1,60,0,1
107308,-500,4,1,1,60,0,1
107337,-55.5555555555556,4,1,1,60,0,1
107366,-500,4,1,1,60,0,1
107396,-43.4782608695652,4,1,1,60,0,1
107420,-1000,4,1,1,60,0,1
107455,-43.4782608695652,4,1,1,60,0,1
107479,-1000,4,1,1,60,0,1
107513,-43.4782608695652,4,1,1,60,0,1
107537,-1000,4,1,1,60,0,1
107572,-43.4782608695652,4,1,1,60,0,1
107596,-1000,4,1,1,60,0,1
107630,-40,4,1,1,60,0,1
107660,-200,4,1,1,60,0,1
107748,-100,4,1,1,60,0,1
107865,-40,4,1,1,60,0,1
107879,-200,4,1,1,60,0,1
107923,-100,4,1,1,60,0,1
107982,-40,4,1,1,60,0,1
108041,-200,4,1,1,60,0,1
108216,-55.5555555555556,4,1,1,60,0,1
108236,-500,4,1,1,60,0,1
108255,-55.5555555555556,4,1,1,60,0,1
108275,-500,4,1,1,60,0,1
108295,-55.5555555555556,4,1,1,60,0,1
108315,-500,4,1,1,60,0,1
108334,-100,4,1,1,60,0,1
108451,-40,4,1,1,60,0,1
108510,-200,4,1,1,60,0,1
108685,-55.5555555555556,4,1,1,60,0,1
108705,-500,4,1,1,60,0,1
108724,-55.5555555555556,4,1,1,60,0,1
108744,-500,4,1,1,60,0,1
108764,-55.5555555555556,4,1,1,60,0,1
108784,-500,4,1,1,60,0,1
108803,-100,4,1,1,60,0,1
108920,-40,4,1,1,60,0,1
108979,-200,4,1,1,60,0,1
109154,-52.6315789473684,4,1,1,60,0,1
109183,-1000,4,1,1,60,0,1
109212,-52.6315789473684,4,1,1,60,0,1
109241,-1000,4,1,1,60,0,1
109271,-52.6315789473684,4,1,1,60,0,1
109300,-1000,4,1,1,60,0,1
109330,-52.6315789473684,4,1,1,60,0,1
109359,-1000,4,1,1,60,0,1
109388,-40,4,1,1,60,0,1
109418,-200,4,1,1,60,0,1
109505,-100,4,1,1,60,0,1
109564,-40,4,1,1,60,0,1
109594,-200,4,1,1,60,0,1
109681,-100,4,1,1,60,0,1
109740,-40,4,1,1,60,0,1
109754,-200,4,1,1,60,0,1
109798,-100,4,1,1,60,0,1
109857,-40,4,1,1,60,0,1
109886,-200,4,1,1,60,0,1
109974,-62.5,4,1,1,60,0,1
110033,-250,4,1,1,60,0,1
110091,-62.5,4,1,1,60,0,1
110150,-250,4,1,1,60,0,1
110209,-43.4782608695652,4,1,1,60,0,1
110233,-1000,4,1,1,60,0,1
110267,-43.4782608695652,4,1,1,60,0,1
110291,-1000,4,1,1,60,0,1
110326,-43.4782608695652,4,1,1,60,0,1
110350,-1000,4,1,1,60,0,1
110384,-43.4782608695652,4,1,1,60,0,1
110408,-1000,4,1,1,60,0,1
110443,-62.5,4,1,1,60,0,1
110502,-250,4,1,1,60,0,1
110560,-31.25,4,1,1,60,0,1
110577,-1000,4,1,1,60,0,1
110618,-31.25,4,1,1,60,0,1
110635,-1000,4,1,1,60,0,1
110677,-31.25,4,1,1,60,0,1
110694,-1000,4,1,1,60,0,1
110735,-31.25,4,1,1,60,0,1
110752,-1000,4,1,1,60,0,1
110795,-31.25,4,1,1,60,0,1
110812,-1000,4,1,1,60,0,1
110853,-31.25,4,1,1,60,0,1
110870,-1000,4,1,1,60,0,1
110912,-43.4782608695652,4,1,1,60,0,1
110936,-1000,4,1,1,60,0,1
110971,-43.4782608695652,4,1,1,60,0,1
110995,-1000,4,1,1,60,0,1
111029,-43.4782608695652,4,1,1,60,0,1
111053,-1000,4,1,1,60,0,1
111088,-43.4782608695652,4,1,1,60,0,1
111112,-1000,4,1,1,60,0,1
111146,-43.4782608695652,4,1,1,60,0,1
111170,-1000,4,1,1,60,0,1
111205,-43.4782608695652,4,1,1,60,0,1
111229,-1000,4,1,1,60,0,1
111263,-40,4,1,1,60,0,1
111293,-200,4,1,1,60,0,1
111380,-43.4782608695652,4,1,1,60,0,1
111404,-1000,4,1,1,60,0,1
111439,-43.4782608695652,4,1,1,60,0,1
111463,-1000,4,1,1,60,0,1
111498,-45.4545454545455,4,1,1,60,0,1
111527,-166.666666666667,4,1,1,60,0,1
111615,-62.5,4,1,1,60,0,1
111644,-250,4,1,1,60,0,1
111673,-62.5,4,1,1,60,0,1
111702,-250,4,1,1,60,0,1
111732,-40,4,1,1,60,0,1
111761,-200,4,1,1,60,0,1
111849,-45.4545454545455,4,1,1,60,0,1
111878,-166.666666666667,4,1,1,60,0,1
111966,-45.4545454545455,4,1,1,60,0,1
111996,-166.666666666667,4,1,1,60,0,1
112084,-100,4,1,1,60,0,1
112201,-62.5,4,1,1,60,0,1
112259,-250,4,1,1,60,0,1
112318,-62.5,4,1,1,60,0,1
112376,-250,4,1,1,60,0,1
112435,-62.5,4,1,1,60,0,1
112493,-250,4,1,1,60,0,1
112552,-62.5,4,1,1,60,0,1
112610,-250,4,1,1,60,0,1
112670,-40,4,1,1,60,0,1
112728,-200,4,1,1,60,0,1
112904,-43.4782608695652,4,1,1,60,0,1
112928,-1000,4,1,1,60,0,1
112963,-43.4782608695652,4,1,1,60,0,1
112987,-1000,4,1,1,60,0,1
113021,-43.4782608695652,4,1,1,60,0,1
113045,-1000,4,1,1,60,0,1
113080,-43.4782608695652,4,1,1,60,0,1
113104,-1000,4,1,1,60,0,1
113138,-40,4,1,1,60,0,1
113153,-200,4,1,1,60,0,1
113197,-100,4,1,1,60,0,1
113255,-40,4,1,1,60,0,1
113270,-200,4,1,1,60,0,1
113314,-100,4,1,1,60,0,1
113373,-40,4,1,1,60,0,1
113388,-200,4,1,1,60,0,1
113432,-100,4,1,1,60,0,1
113490,-45.4545454545455,4,1,1,60,0,1
113519,-166.666666666667,4,1,1,60,0,1
113607,-40,4,1,1,60,0,1
113627,-200,4,1,1,60,0,1
113685,-40,4,1,1,60,0,1
113705,-200,4,1,1,60,0,1
113763,-40,4,1,1,60,0,1
113783,-200,4,1,1,60,0,1
113841,-40,4,1,1,60,0,1
113861,-200,4,1,1,60,0,1
113920,-40,4,1,1,60,0,1
113940,-200,4,1,1,60,0,1
113998,-40,4,1,1,60,0,1
114018,-200,4,1,1,60,0,1
114076,-40,4,1,1,60,0,1
114096,-200,4,1,1,60,0,1
114154,-40,4,1,1,60,0,1
114174,-200,4,1,1,60,0,1
114232,-40,4,1,1,60,0,1
114252,-200,4,1,1,60,0,1
114310,-40,4,1,1,60,0,1
114330,-200,4,1,1,60,0,1
114388,-40,4,1,1,60,0,1
114408,-200,4,1,1,60,0,1
114466,-40,4,1,1,60,0,1
114486,-200,4,1,1,60,0,1
114545,-40,4,1,1,60,0,1
114603,-200,4,1,1,60,0,1
114779,-43.4782608695652,4,1,1,60,0,1
114803,-1000,4,1,1,60,0,1
114838,-43.4782608695652,4,1,1,60,0,1
114862,-1000,4,1,1,60,0,1
114896,-43.4782608695652,4,1,1,60,0,1
114920,-1000,4,1,1,60,0,1
114955,-43.4782608695652,4,1,1,60,0,1
114979,-1000,4,1,1,60,0,1
115013,-45.4545454545455,4,1,1,60,0,1
115028,-166.666666666667,4,1,1,60,0,1
115072,-100,4,1,1,60,0,1
115130,-40,4,1,1,60,0,1
115145,-200,4,1,1,60,0,1
115189,-100,4,1,1,60,0,1
115365,-40,4,1,1,60,0,1
115380,-200,4,1,1,60,0,1
115424,-100,4,1,1,60,0,1
115482,-40,4,1,1,60,0,1
115541,-200,4,1,1,60,0,1
115716,-55.5555555555556,4,1,1,60,0,1
115736,-500,4,1,1,60,0,1
115755,-55.5555555555556,4,1,1,60,0,1
115775,-500,4,1,1,60,0,1
115795,-55.5555555555556,4,1,1,60,0,1
115814,-500,4,1,1,60,0,1
115834,-55.5555555555556,4,1,1,60,0,1
115853,-500,4,1,1,60,0,1
115873,-55.5555555555556,4,1,1,60,0,1
115892,-500,4,1,1,60,0,1
115912,-55.5555555555556,4,1,1,60,0,1
115931,-500,4,1,1,60,0,1
115951,-100,4,1,1,60,0,1
116244,-43.4782608695652,4,1,1,60,0,1
116268,-1000,4,1,1,60,0,1
116302,-43.4782608695652,4,1,1,60,0,1
116326,-1000,4,1,1,60,0,1
116361,-43.4782608695652,4,1,1,60,0,1
116385,-1000,4,1,1,60,0,1
116420,-40,4,1,1,60,0,1
116449,-200,4,1,1,60,0,1
116537,-125,4,1,1,60,0,1
116625,-50,4,1,1,60,0,1
116654,-40,4,1,1,60,0,1
116712,-200,4,1,1,60,0,1
116888,-125,4,1,1,60,0,1
116976,-50,4,1,1,60,0,1
117005,-40,4,1,1,60,0,1
117064,-200,4,1,1,60,0,1
117240,-125,4,1,1,60,0,1
117328,-50,4,1,1,60,0,1
117357,-500,4,1,1,60,0,1
117396,-10000,4,1,1,60,0,1
117435,-500,4,1,1,60,0,1
117474,-10000,4,1,1,60,0,1
117513,-500,4,1,1,60,0,1
117552,-10000,4,1,1,60,0,1
117591,-500,4,1,1,60,0,1
117630,-10000,4,1,1,60,0,1
117670,-500,4,1,1,60,0,1
117709,-10000,4,1,1,60,0,1
117748,-250,4,1,1,60,0,1
117787,-10000,4,1,1,60,0,1
117826,-250,4,1,1,60,0,1
117865,-10000,4,1,1,60,0,1
117904,-250,4,1,1,60,0,1
117943,-10000,4,1,1,60,0,1
117982,-250,4,1,1,60,0,1
118021,-10000,4,1,1,60,0,1
118060,-166.666666666667,4,1,1,60,0,1
118099,-10000,4,1,1,60,0,1
118138,-166.666666666667,4,1,1,60,0,1
118177,-10000,4,1,1,60,0,1
118216,-166.666666666667,4,1,1,60,0,1
118255,-10000,4,1,1,60,0,1
118295,-166.666666666667,4,1,1,60,0,1
118334,-10000,4,1,1,60,0,1
118373,-125,4,1,1,60,0,1
118412,-10000,4,1,1,60,0,1
118451,-125,4,1,1,60,0,1
118490,-10000,4,1,1,60,0,1
118529,-125,4,1,1,60,0,1
118568,-10000,4,1,1,60,0,1
118607,-125,4,1,1,60,0,1
118646,-10000,4,1,1,60,0,1
118685,-125,4,1,1,60,0,1
118724,-10000,4,1,1,60,0,1
118763,-83.3333333333333,4,1,1,60,0,1
118802,-10000,4,1,1,60,0,1
118841,-66.6666666666667,4,1,1,60,0,1
118880,-10000,4,1,1,60,0,1
118920,-55.5555555555556,4,1,1,60,0,1
118959,-10000,4,1,1,60,0,1
118998,-47.6190476190476,4,1,1,60,0,1
119037,-10000,4,1,1,60,0,1
119076,-43.4782608695652,4,1,1,60,0,1
119115,-10000,4,1,1,60,0,1
119154,-40,4,1,1,60,0,1
119193,-10000,4,1,1,60,0,1
119232,-100,4,1,1,60,0,1
119466,-62.5,4,1,1,60,0,1
119525,-250,4,1,1,60,0,1
119584,-62.5,4,1,1,60,0,1
119643,-250,4,1,1,60,0,1
119701,-45.4545454545455,4,1,1,60,0,1
119730,-166.666666666667,4,1,1,60,0,1
119818,-100,4,1,1,60,0,1
119935,-45.4545454545455,4,1,1,60,0,1
119964,-166.666666666667,4,1,1,60,0,1
120052,-100,4,1,1,60,0,1
120170,-125,4,1,1,40,0,0
147474,-117.647058823529,4,1,1,45,0,0
147826,-111.111111111111,4,1,1,50,0,0
148177,-105.263157894737,4,1,1,55,0,0
148529,-100,4,1,1,60,0,0
148880,-95.2380952380952,4,1,1,60,0,0
149232,-90.9090909090909,4,1,1,60,0,0
149584,-55.5555555555556,4,1,1,60,0,0
149613,-500,4,1,1,60,0,0
149642,-55.5555555555556,4,1,1,60,0,0
149671,-500,4,1,1,60,0,0
149701,-50,4,1,1,60,0,0
149730,-125,4,1,1,60,0,0
149818,-50,4,1,1,60,0,0
149847,-125,4,1,1,60,0,0
149935,-62.5,4,1,1,60,0,0
149994,-250,4,1,1,60,0,0
150052,-62.5,4,1,1,60,0,0
150111,-250,4,1,1,60,0,0
150170,-83.3333333333333,4,1,1,50,0,0
150228,-125,4,1,1,50,0,0
150287,-83.3333333333333,4,1,1,50,0,0
150345,-125,4,1,1,50,0,0
150404,-83.3333333333333,4,1,1,50,0,0
150462,-125,4,1,1,50,0,0
150521,-83.3333333333333,4,1,1,50,0,0
150579,-125,4,1,1,50,0,0
150638,-83.3333333333333,4,1,1,50,0,0
150696,-125,4,1,1,50,0,0
150755,-83.3333333333333,4,1,1,50,0,0
150813,-125,4,1,1,50,0,0
150873,-83.3333333333333,4,1,1,50,0,0
150931,-125,4,1,1,50,0,0
150990,-83.3333333333333,4,1,1,50,0,0
151048,-125,4,1,1,50,0,0
151107,-83.3333333333333,4,1,1,50,0,0
151165,-125,4,1,1,50,0,0
151224,-83.3333333333333,4,1,1,50,0,0
151282,-125,4,1,1,50,0,0
151341,-83.3333333333333,4,1,1,50,0,0
151399,-125,4,1,1,50,0,0
151458,-83.3333333333333,4,1,1,50,0,0
151516,-125,4,1,1,50,0,0
151576,-83.3333333333333,4,1,1,50,0,0
151634,-125,4,1,1,50,0,0
151693,-83.3333333333333,4,1,1,50,0,0
151751,-125,4,1,1,50,0,0
151810,-83.3333333333333,4,1,1,50,0,0
151868,-125,4,1,1,50,0,0
151927,-83.3333333333333,4,1,1,50,0,0
151985,-125,4,1,1,50,0,0
152044,-83.3333333333333,4,1,1,50,0,0
152102,-125,4,1,1,50,0,0
152161,-83.3333333333333,4,1,1,50,0,0
152219,-125,4,1,1,50,0,0
152279,-83.3333333333333,4,1,1,50,0,0
152337,-125,4,1,1,50,0,0
152396,-83.3333333333333,4,1,1,50,0,0
152454,-125,4,1,1,50,0,0
152513,-83.3333333333333,4,1,1,50,0,0
152571,-125,4,1,1,50,0,0
152630,-83.3333333333333,4,1,1,50,0,0
152688,-125,4,1,1,50,0,0
152747,-83.3333333333333,4,1,1,50,0,0
152805,-125,4,1,1,50,0,0
152864,-83.3333333333333,4,1,1,50,0,0
152922,-125,4,1,1,50,0,0
152982,-83.3333333333333,4,1,1,50,0,0
153040,-125,4,1,1,50,0,0
153099,-83.3333333333333,4,1,1,50,0,0
153157,-125,4,1,1,50,0,0
153216,-83.3333333333333,4,1,1,50,0,0
153274,-125,4,1,1,50,0,0
153333,-83.3333333333333,4,1,1,50,0,0
153391,-125,4,1,1,50,0,0
153450,-83.3333333333333,4,1,1,50,0,0
153508,-125,4,1,1,50,0,0
153567,-83.3333333333333,4,1,1,50,0,0
153625,-125,4,1,1,50,0,0
153685,-83.3333333333333,4,1,1,50,0,0
153743,-125,4,1,1,50,0,0
153802,-83.3333333333333,4,1,1,50,0,0
153860,-125,4,1,1,50,0,0
153919,-83.3333333333333,4,1,1,50,0,0
153977,-125,4,1,1,50,0,0
154036,-83.3333333333333,4,1,1,50,0,0
154094,-125,4,1,1,50,0,0
154153,-83.3333333333333,4,1,1,50,0,0
154211,-125,4,1,1,50,0,0
154270,-83.3333333333333,4,1,1,50,0,0
154328,-125,4,1,1,50,0,0
154388,-83.3333333333333,4,1,1,50,0,0
154446,-125,4,1,1,50,0,0
154505,-83.3333333333333,4,1,1,50,0,0
154563,-125,4,1,1,50,0,0
154622,-83.3333333333333,4,1,1,50,0,0
154680,-125,4,1,1,50,0,0
154739,-83.3333333333333,4,1,1,50,0,0
154797,-125,4,1,1,50,0,0
154856,-83.3333333333333,4,1,1,50,0,0
154914,-125,4,1,1,50,0,0
154973,-83.3333333333333,4,1,1,50,0,0
155031,-125,4,1,1,50,0,0
155091,-83.3333333333333,4,1,1,50,0,0
155149,-125,4,1,1,50,0,0
155208,-83.3333333333333,4,1,1,50,0,0
155266,-125,4,1,1,50,0,0
155325,-83.3333333333333,4,1,1,50,0,0
155383,-125,4,1,1,50,0,0
155442,-83.3333333333333,4,1,1,50,0,0
155500,-125,4,1,1,50,0,0
155559,-83.3333333333333,4,1,1,50,0,0
155617,-125,4,1,1,50,0,0
155676,-83.3333333333333,4,1,1,50,0,0
155734,-125,4,1,1,50,0,0
155795,-83.3333333333333,4,1,1,50,0,0
155853,-125,4,1,1,50,0,0
155912,-83.3333333333333,4,1,1,50,0,0
155970,-125,4,1,1,50,0,0
156029,-83.3333333333333,4,1,1,50,0,0
156087,-125,4,1,1,50,0,0
156146,-83.3333333333333,4,1,1,50,0,0
156204,-125,4,1,1,50,0,0
156263,-83.3333333333333,4,1,1,50,0,0
156321,-125,4,1,1,50,0,0
156380,-83.3333333333333,4,1,1,50,0,0
156438,-125,4,1,1,50,0,0
156498,-83.3333333333333,4,1,1,50,0,0
156556,-125,4,1,1,50,0,0
156615,-83.3333333333333,4,1,1,50,0,0
156673,-125,4,1,1,50,0,0
156732,-83.3333333333333,4,1,1,50,0,0
156790,-125,4,1,1,50,0,0
156849,-83.3333333333333,4,1,1,50,0,0
156907,-125,4,1,1,50,0,0
156966,-83.3333333333333,4,1,1,50,0,0
157024,-125,4,1,1,50,0,0
157083,-83.3333333333333,4,1,1,50,0,0
157141,-125,4,1,1,50,0,0
157201,-83.3333333333333,4,1,1,50,0,0
157259,-125,4,1,1,50,0,0
157318,-83.3333333333333,4,1,1,50,0,0
157376,-125,4,1,1,50,0,0
157435,-83.3333333333333,4,1,1,50,0,0
157493,-125,4,1,1,50,0,0
157552,-83.3333333333333,4,1,1,50,0,0
157610,-125,4,1,1,50,0,0
157669,-83.3333333333333,4,1,1,50,0,0
157727,-125,4,1,1,50,0,0
157786,-83.3333333333333,4,1,1,50,0,0
157844,-125,4,1,1,50,0,0
157904,-83.3333333333333,4,1,1,50,0,0
157962,-125,4,1,1,50,0,0
158021,-83.3333333333333,4,1,1,50,0,0
158079,-125,4,1,1,50,0,0
158138,-83.3333333333333,4,1,1,50,0,0
158196,-125,4,1,1,50,0,0
158255,-83.3333333333333,4,1,1,50,0,0
158313,-125,4,1,1,50,0,0
158372,-83.3333333333333,4,1,1,50,0,0
158430,-125,4,1,1,50,0,0
158489,-83.3333333333333,4,1,1,50,0,0
158547,-125,4,1,1,50,0,0
158607,-83.3333333333333,4,1,1,50,0,0
158665,-125,4,1,1,50,0,0
158724,-83.3333333333333,4,1,1,50,0,0
158782,-125,4,1,1,50,0,0
158841,-83.3333333333333,4,1,1,50,0,0
158899,-125,4,1,1,50,0,0
158958,-83.3333333333333,4,1,1,50,0,0
159016,-125,4,1,1,50,0,0
159075,-83.3333333333333,4,1,1,50,0,0
159133,-125,4,1,1,50,0,0
159192,-83.3333333333333,4,1,1,50,0,0
159250,-125,4,1,1,50,0,0
159310,-83.3333333333333,4,1,1,50,0,0
159368,-125,4,1,1,50,0,0
159427,-83.3333333333333,4,1,1,50,0,0
159485,-125,4,1,1,50,0,0
159544,-83.3333333333333,4,1,1,50,0,0
159602,-125,4,1,1,50,0,0
159661,-83.3333333333333,4,1,1,50,0,0
159719,-125,4,1,1,50,0,0
159778,-83.3333333333333,4,1,1,50,0,0
159836,-125,4,1,1,50,0,0
159895,-83.3333333333333,4,1,1,50,0,0
159953,-125,4,1,1,50,0,0
160013,-83.3333333333333,4,1,1,50,0,0
160071,-125,4,1,1,50,0,0
160130,-83.3333333333333,4,1,1,50,0,0
160188,-125,4,1,1,50,0,0
160247,-83.3333333333333,4,1,1,50,0,0
160305,-125,4,1,1,50,0,0
160364,-83.3333333333333,4,1,1,50,0,0
160422,-125,4,1,1,50,0,0
160481,-83.3333333333333,4,1,1,50,0,0
160539,-125,4,1,1,50,0,0
160598,-83.3333333333333,4,1,1,50,0,0
160656,-125,4,1,1,50,0,0
160716,-83.3333333333333,4,1,1,50,0,0
160774,-125,4,1,1,50,0,0
160833,-83.3333333333333,4,1,1,50,0,0
160891,-125,4,1,1,50,0,0
160950,-83.3333333333333,4,1,1,50,0,0
161008,-125,4,1,1,50,0,0
161067,-83.3333333333333,4,1,1,50,0,0
161125,-125,4,1,1,50,0,0
161184,-83.3333333333333,4,1,1,50,0,0
161242,-125,4,1,1,50,0,0
161301,-83.3333333333333,4,1,1,50,0,0
161359,-125,4,1,1,50,0,0
161420,-83.3333333333333,4,1,1,50,0,0
161478,-125,4,1,1,50,0,0
161537,-83.3333333333333,4,1,1,50,0,0
161595,-125,4,1,1,50,0,0
161654,-83.3333333333333,4,1,1,50,0,0
161712,-125,4,1,1,50,0,0
161771,-83.3333333333333,4,1,1,50,0,0
161829,-125,4,1,1,50,0,0
161888,-83.3333333333333,4,1,1,50,0,0
161946,-125,4,1,1,50,0,0
162005,-83.3333333333333,4,1,1,50,0,0
162063,-125,4,1,1,50,0,0
162123,-83.3333333333333,4,1,1,50,0,0
162181,-125,4,1,1,50,0,0
162240,-83.3333333333333,4,1,1,50,0,0
162298,-125,4,1,1,50,0,0
162357,-83.3333333333333,4,1,1,50,0,0
162415,-125,4,1,1,50,0,0
162474,-83.3333333333333,4,1,1,50,0,0
162532,-125,4,1,1,50,0,0
162591,-83.3333333333333,4,1,1,50,0,0
162649,-125,4,1,1,50,0,0
162708,-83.3333333333333,4,1,1,50,0,0
162766,-125,4,1,1,50,0,0
162826,-83.3333333333333,4,1,1,50,0,0
162884,-125,4,1,1,50,0,0
162943,-83.3333333333333,4,1,1,50,0,0
163001,-125,4,1,1,50,0,0
163060,-83.3333333333333,4,1,1,50,0,0
163118,-125,4,1,1,50,0,0
163177,-83.3333333333333,4,1,1,50,0,0
163235,-125,4,1,1,50,0,0
163294,-83.3333333333333,4,1,1,50,0,0
163352,-125,4,1,1,50,0,0
163411,-83.3333333333333,4,1,1,50,0,0
163469,-125,4,1,1,50,0,0
163529,-83.3333333333333,4,1,1,50,0,0
163587,-125,4,1,1,50,0,0
163646,-83.3333333333333,4,1,1,50,0,0
163704,-125,4,1,1,50,0,0
163763,-83.3333333333333,4,1,1,50,0,0
163821,-125,4,1,1,50,0,0
163880,-83.3333333333333,4,1,1,50,0,0
163938,-125,4,1,1,50,0,0
163997,-83.3333333333333,4,1,1,50,0,0
164055,-125,4,1,1,50,0,0
164114,-83.3333333333333,4,1,1,50,0,0
164172,-125,4,1,1,50,0,0
164232,-83.3333333333333,4,1,1,50,0,0
164290,-125,4,1,1,50,0,0
164349,-83.3333333333333,4,1,1,50,0,0
164407,-125,4,1,1,50,0,0
164466,-83.3333333333333,4,1,1,50,0,0
164524,-125,4,1,1,50,0,0
164583,-83.3333333333333,4,1,1,50,0,0
164641,-125,4,1,1,50,0,0
164700,-83.3333333333333,4,1,1,50,0,0
164758,-125,4,1,1,50,0,0
164817,-83.3333333333333,4,1,1,50,0,0
164875,-125,4,1,1,50,0,0
164935,-83.3333333333333,4,1,1,50,0,0
164993,-125,4,1,1,50,0,0
165052,-83.3333333333333,4,1,1,50,0,0
165110,-125,4,1,1,50,0,0
165170,-83.3333333333333,4,1,1,60,0,0
165227,-125,4,1,1,60,0,0
165286,-83.3333333333333,4,1,1,60,0,0
165344,-125,4,1,1,60,0,0
165403,-83.3333333333333,4,1,1,60,0,0
165461,-125,4,1,1,60,0,0
165520,-83.3333333333333,4,1,1,60,0,0
165578,-125,4,1,1,60,0,0
165638,-83.3333333333333,4,1,1,60,0,0
165696,-125,4,1,1,60,0,0
165755,-83.3333333333333,4,1,1,60,0,0
165813,-125,4,1,1,60,0,0
165872,-83.3333333333333,4,1,1,60,0,0
165930,-125,4,1,1,60,0,0
165989,-83.3333333333333,4,1,1,60,0,0
166047,-125,4,1,1,60,0,0
166106,-83.3333333333333,4,1,1,60,0,0
166164,-125,4,1,1,60,0,0
166223,-83.3333333333333,4,1,1,60,0,0
166281,-125,4,1,1,60,0,0
166341,-83.3333333333333,4,1,1,60,0,0
166399,-125,4,1,1,60,0,0
166458,-83.3333333333333,4,1,1,60,0,0
166516,-125,4,1,1,60,0,0
166575,-83.3333333333333,4,1,1,60,0,0
166633,-125,4,1,1,60,0,0
166692,-83.3333333333333,4,1,1,60,0,0
166750,-125,4,1,1,60,0,0
166809,-83.3333333333333,4,1,1,60,0,0
166867,-125,4,1,1,60,0,0
166926,-83.3333333333333,4,1,1,60,0,0
166984,-125,4,1,1,60,0,0
167044,-83.3333333333333,4,1,1,60,0,0
167102,-125,4,1,1,60,0,0
167161,-83.3333333333333,4,1,1,60,0,0
167219,-125,4,1,1,60,0,0
167278,-83.3333333333333,4,1,1,60,0,0
167336,-125,4,1,1,60,0,0
167395,-83.3333333333333,4,1,1,60,0,0
167453,-125,4,1,1,60,0,0
167512,-83.3333333333333,4,1,1,60,0,0
167570,-125,4,1,1,60,0,0
167629,-83.3333333333333,4,1,1,60,0,0
167687,-125,4,1,1,60,0,0
167747,-83.3333333333333,4,1,1,60,0,0
167805,-125,4,1,1,60,0,0
167864,-83.3333333333333,4,1,1,60,0,0
167922,-125,4,1,1,60,0,0
167981,-83.3333333333333,4,1,1,60,0,0
168039,-125,4,1,1,60,0,0
168098,-83.3333333333333,4,1,1,60,0,0
168156,-125,4,1,1,60,0,0
168215,-83.3333333333333,4,1,1,60,0,0
168273,-125,4,1,1,60,0,0
168332,-83.3333333333333,4,1,1,60,0,0
168390,-125,4,1,1,60,0,0
168450,-83.3333333333333,4,1,1,60,0,0
168508,-125,4,1,1,60,0,0
168567,-83.3333333333333,4,1,1,60,0,0
168625,-125,4,1,1,60,0,0
168684,-83.3333333333333,4,1,1,60,0,0
168742,-125,4,1,1,60,0,0
168801,-83.3333333333333,4,1,1,60,0,0
168859,-125,4,1,1,60,0,0
168918,-83.3333333333333,4,1,1,60,0,0
168976,-125,4,1,1,60,0,0
169035,-83.3333333333333,4,1,1,60,0,0
169093,-125,4,1,1,60,0,0
169153,-83.3333333333333,4,1,1,60,0,0
169211,-125,4,1,1,60,0,0
169270,-83.3333333333333,4,1,1,60,0,0
169328,-125,4,1,1,60,0,0
169387,-83.3333333333333,4,1,1,60,0,0
169445,-125,4,1,1,60,0,0
169504,-83.3333333333333,4,1,1,60,0,0
169562,-125,4,1,1,60,0,0
169621,-83.3333333333333,4,1,1,60,0,0
169679,-125,4,1,1,60,0,0
169738,-83.3333333333333,4,1,1,60,0,0
169796,-125,4,1,1,60,0,0
169856,-83.3333333333333,4,1,1,60,0,0
169914,-125,4,1,1,60,0,0
169973,-83.3333333333333,4,1,1,60,0,0
170031,-125,4,1,1,60,0,0
170090,-83.3333333333333,4,1,1,60,0,0
170148,-125,4,1,1,60,0,0
170207,-83.3333333333333,4,1,1,60,0,0
170265,-125,4,1,1,60,0,0
170324,-83.3333333333333,4,1,1,60,0,0
170382,-125,4,1,1,60,0,0
170441,-83.3333333333333,4,1,1,60,0,0
170499,-125,4,1,1,60,0,0
170559,-83.3333333333333,4,1,1,60,0,0
170617,-125,4,1,1,60,0,0
170676,-83.3333333333333,4,1,1,60,0,0
170734,-125,4,1,1,60,0,0
170793,-83.3333333333333,4,1,1,60,0,0
170851,-125,4,1,1,60,0,0
170910,-83.3333333333333,4,1,1,60,0,0
170968,-125,4,1,1,60,0,0
171027,-83.3333333333333,4,1,1,60,0,0
171085,-125,4,1,1,60,0,0
171144,-83.3333333333333,4,1,1,60,0,0
171202,-125,4,1,1,60,0,0
171263,-83.3333333333333,4,1,1,60,0,0
171321,-125,4,1,1,60,0,0
171380,-83.3333333333333,4,1,1,60,0,0
171438,-125,4,1,1,60,0,0
171497,-83.3333333333333,4,1,1,60,0,0
171555,-125,4,1,1,60,0,0
171614,-83.3333333333333,4,1,1,60,0,0
171672,-125,4,1,1,60,0,0
171731,-83.3333333333333,4,1,1,60,0,0
171789,-125,4,1,1,60,0,0
171848,-83.3333333333333,4,1,1,60,0,0
171906,-125,4,1,1,60,0,0
171966,-83.3333333333333,4,1,1,60,0,0
172024,-125,4,1,1,60,0,0
172083,-83.3333333333333,4,1,1,60,0,0
172141,-125,4,1,1,60,0,0
172200,-83.3333333333333,4,1,1,60,0,0
172258,-125,4,1,1,60,0,0
172317,-83.3333333333333,4,1,1,60,0,0
172375,-125,4,1,1,60,0,0
172434,-83.3333333333333,4,1,1,60,0,0
172492,-125,4,1,1,60,0,0
172551,-83.3333333333333,4,1,1,60,0,0
172609,-125,4,1,1,60,0,0
172670,-62.5,4,1,1,60,0,0
172728,-250,4,1,1,60,0,0
172787,-62.5,4,1,1,60,0,0
172845,-250,4,1,1,60,0,0
172904,-62.5,4,1,1,60,0,0
172962,-250,4,1,1,60,0,0
173021,-62.5,4,1,1,60,0,0
173079,-250,4,1,1,60,0,0
173138,-62.5,4,1,1,60,0,0
173196,-250,4,1,1,60,0,0
173255,-62.5,4,1,1,60,0,0
173313,-250,4,1,1,60,0,0
173373,-62.5,4,1,1,60,0,0
173431,-250,4,1,1,60,0,0
173490,-62.5,4,1,1,60,0,0
173548,-250,4,1,1,60,0,0
173607,-62.5,4,1,1,60,0,0
173665,-250,4,1,1,60,0,0
173724,-62.5,4,1,1,60,0,0
173782,-250,4,1,1,60,0,0
173841,-62.5,4,1,1,60,0,0
173899,-250,4,1,1,60,0,0
173958,-62.5,4,1,1,60,0,0
174016,-250,4,1,1,60,0,0
174076,-62.5,4,1,1,60,0,0
174134,-250,4,1,1,60,0,0
174193,-62.5,4,1,1,60,0,0
174251,-250,4,1,1,60,0,0
174310,-62.5,4,1,1,60,0,0
174368,-250,4,1,1,60,0,0
174427,-62.5,4,1,1,60,0,0
174485,-250,4,1,1,60,0,0
174545,-62.5,4,1,1,60,0,0
174603,-250,4,1,1,60,0,0
174662,-62.5,4,1,1,60,0,0
174720,-250,4,1,1,60,0,0
174779,-48.780487804878,4,1,1,60,0,0
174808,-133.333333333333,4,1,1,60,0,0
174896,-48.780487804878,4,1,1,60,0,0
174925,-133.333333333333,4,1,1,60,0,0
175013,-48.780487804878,4,1,1,60,0,0
175042,-133.333333333333,4,1,1,60,0,0
175131,-48.780487804878,4,1,1,60,0,0
175160,-133.333333333333,4,1,1,60,0,0
175248,-48.780487804878,4,1,1,60,0,0
175277,-133.333333333333,4,1,1,60,0,0
175365,-48.780487804878,4,1,1,60,0,0
175394,-133.333333333333,4,1,1,60,0,0
175482,-48.780487804878,4,1,1,60,0,0
175511,-133.333333333333,4,1,1,60,0,0
175599,-48.780487804878,4,1,1,60,0,0
175628,-133.333333333333,4,1,1,60,0,0
175717,-48.780487804878,4,1,1,60,0,0
175746,-133.333333333333,4,1,1,60,0,0
175834,-48.780487804878,4,1,1,60,0,0
175863,-133.333333333333,4,1,1,60,0,0
175951,-48.780487804878,4,1,1,60,0,0
175980,-133.333333333333,4,1,1,60,0,0
176068,-48.780487804878,4,1,1,60,0,0
176097,-133.333333333333,4,1,1,60,0,0
176185,-48.780487804878,4,1,1,60,0,0
176214,-133.333333333333,4,1,1,60,0,0
176303,-48.780487804878,4,1,1,60,0,0
176332,-133.333333333333,4,1,1,60,0,0
176420,-43.4782608695652,4,1,1,60,0,0
176441,-1000,4,1,1,60,0,0
176478,-43.4782608695652,4,1,1,60,0,0
176499,-1000,4,1,1,60,0,0
176537,-43.4782608695652,4,1,1,60,0,0
176558,-1000,4,1,1,60,0,0
176595,-43.4782608695652,4,1,1,60,0,0
176616,-1000,4,1,1,60,0,0
176654,-43.4782608695652,4,1,1,60,0,0
176675,-1000,4,1,1,60,0,0
176712,-43.4782608695652,4,1,1,60,0,0
176733,-1000,4,1,1,60,0,0
176771,-43.4782608695652,4,1,1,60,0,0
176792,-1000,4,1,1,60,0,0
176830,-43.4782608695652,4,1,1,60,0,0
176851,-1000,4,1,1,60,0,0
176888,-43.4782608695652,4,1,1,60,0,0
176909,-1000,4,1,1,60,0,0
176947,-43.4782608695652,4,1,1,60,0,0
176968,-1000,4,1,1,60,0,0
177005,-43.4782608695652,4,1,1,60,0,0
177026,-1000,4,1,1,60,0,0
177064,-43.4782608695652,4,1,1,60,0,0
177085,-1000,4,1,1,60,0,0
177123,-43.4782608695652,4,1,1,60,0,0
177144,-1000,4,1,1,60,0,0
177181,-43.4782608695652,4,1,1,60,0,0
177202,-1000,4,1,1,60,0,0
177240,-43.4782608695652,4,1,1,60,0,0
177261,-1000,4,1,1,60,0,0
177298,-43.4782608695652,4,1,1,60,0,0
177319,-1000,4,1,1,60,0,0
177357,-43.4782608695652,4,1,1,60,0,0
177381,-1000,4,1,1,60,0,0
177416,-43.4782608695652,4,1,1,60,0,0
177440,-1000,4,1,1,60,0,0
177474,-43.4782608695652,4,1,1,60,0,0
177498,-1000,4,1,1,60,0,0
177533,-43.4782608695652,4,1,1,60,0,0
177557,-1000,4,1,1,60,0,0
177591,-43.4782608695652,4,1,1,60,0,0
177615,-1000,4,1,1,60,0,0
177650,-43.4782608695652,4,1,1,60,0,0
177674,-1000,4,1,1,60,0,0
177708,-43.4782608695652,4,1,1,60,0,0
177732,-1000,4,1,1,60,0,0
177767,-43.4782608695652,4,1,1,60,0,0
177791,-1000,4,1,1,60,0,0
177826,-43.4782608695652,4,1,1,60,0,0
177850,-1000,4,1,1,60,0,0
177884,-43.4782608695652,4,1,1,60,0,0
177908,-1000,4,1,1,60,0,0
177943,-43.4782608695652,4,1,1,60,0,0
177967,-1000,4,1,1,60,0,0
178001,-43.4782608695652,4,1,1,60,0,0
178025,-1000,4,1,1,60,0,0
178060,-43.4782608695652,4,1,1,60,0,0
178084,-1000,4,1,1,60,0,0
178119,-43.4782608695652,4,1,1,60,0,0
178143,-1000,4,1,1,60,0,0
178177,-43.4782608695652,4,1,1,60,0,0
178201,-1000,4,1,1,60,0,0
178236,-43.4782608695652,4,1,1,60,0,0
178260,-1000,4,1,1,60,0,0
178295,-50,4,1,1,60,0,0
178320,-500,4,1,1,60,0,0
178353,-50,4,1,1,60,0,0
178378,-500,4,1,1,60,0,0
178412,-50,4,1,1,60,0,0
178437,-500,4,1,1,60,0,0
178470,-50,4,1,1,60,0,0
178496,-500,4,1,1,60,0,0
178529,-50,4,1,1,60,0,0
178554,-500,4,1,1,60,0,0
178587,-50,4,1,1,60,0,0
178612,-500,4,1,1,60,0,0
178646,-50,4,1,1,60,0,0
178671,-500,4,1,1,60,0,0
178705,-50,4,1,1,60,0,0
178730,-500,4,1,1,60,0,0
178763,-50,4,1,1,60,0,0
178788,-500,4,1,1,60,0,0
178822,-50,4,1,1,60,0,0
178847,-500,4,1,1,60,0,0
178880,-50,4,1,1,60,0,0
178905,-500,4,1,1,60,0,0
178939,-50,4,1,1,60,0,0
178964,-500,4,1,1,60,0,0
178998,-50,4,1,1,60,0,0
179023,-500,4,1,1,60,0,0
179056,-50,4,1,1,60,0,0
179081,-500,4,1,1,60,0,0
179115,-50,4,1,1,60,0,0
179140,-500,4,1,1,60,0,0
179173,-50,4,1,1,60,0,0
179198,-500,4,1,1,60,0,0
179232,-50,4,1,1,60,0,0
179257,-500,4,1,1,60,0,0
179291,-50,4,1,1,60,0,0
179316,-500,4,1,1,60,0,0
179349,-50,4,1,1,60,0,0
179374,-500,4,1,1,60,0,0
179408,-50,4,1,1,60,0,0
179433,-500,4,1,1,60,0,0
179466,-62.5,4,1,1,60,0,0
179525,-250,4,1,1,60,0,0
179584,-62.5,4,1,1,60,0,0
179643,-250,4,1,1,60,0,0
179701,-50,4,1,1,60,0,0
179730,-125,4,1,1,60,0,0
179818,-100,4,1,1,60,0,0
179935,-40,4,1,1,60,0,0
179964,-200,4,1,1,60,0,0
180052,-100,4,1,1,60,0,0
180170,-40,4,1,1,60,0,0
180210,-200,4,1,1,60,0,0
180287,-13.5135135135135,4,1,1,60,0,0
180293,-333.333333333333,4,1,1,60,0,0
180345,-16.9491525423729,4,1,1,60,0,0
180351,-333.333333333333,4,1,1,60,0,0
180404,-21.2765957446809,4,1,1,60,0,0
180410,-333.333333333333,4,1,1,60,0,0
180462,-24.390243902439,4,1,1,60,0,0
180468,-333.333333333333,4,1,1,60,0,0
180521,-24.390243902439,4,1,1,60,0,0
180527,-333.333333333333,4,1,1,60,0,0
180580,-24.390243902439,4,1,1,60,0,0
180586,-333.333333333333,4,1,1,60,0,0
180638,-45.4545454545455,4,1,1,60,0,1
180668,-166.666666666667,4,1,1,60,0,1
180755,-71.4285714285714,4,1,1,60,0,1
180814,-166.666666666667,4,1,1,60,0,1
180873,-71.4285714285714,4,1,1,60,0,1
180932,-166.666666666667,4,1,1,60,0,1
180990,-71.4285714285714,4,1,1,60,0,1
181049,-166.666666666667,4,1,1,60,0,1
181107,-71.4285714285714,4,1,1,60,0,1
181166,-166.666666666667,4,1,1,60,0,1
181224,-71.4285714285714,4,1,1,60,0,1
181283,-166.666666666667,4,1,1,60,0,1
181341,-71.4285714285714,4,1,1,60,0,1
181400,-166.666666666667,4,1,1,60,0,1
181459,-71.4285714285714,4,1,1,60,0,1
181518,-166.666666666667,4,1,1,60,0,1
181576,-71.4285714285714,4,1,1,60,0,1
181635,-166.666666666667,4,1,1,60,0,1
181693,-71.4285714285714,4,1,1,60,0,1
181752,-166.666666666667,4,1,1,60,0,1
181810,-71.4285714285714,4,1,1,60,0,1
181869,-166.666666666667,4,1,1,60,0,1
181927,-71.4285714285714,4,1,1,60,0,1
181986,-166.666666666667,4,1,1,60,0,1
182045,-45.4545454545455,4,1,1,60,0,1
182074,-166.666666666667,4,1,1,60,0,1
182162,-100,4,1,1,60,0,1
182279,-45.4545454545455,4,1,1,60,0,1
182308,-166.666666666667,4,1,1,60,0,1
182484,-45.4545454545455,4,1,1,60,0,1
182543,-166.666666666667,4,1,1,60,0,1
182630,-71.4285714285714,4,1,1,60,0,1
182689,-166.666666666667,4,1,1,60,0,1
182748,-71.4285714285714,4,1,1,60,0,1
182807,-166.666666666667,4,1,1,60,0,1
182865,-71.4285714285714,4,1,1,60,0,1
182924,-166.666666666667,4,1,1,60,0,1
182982,-71.4285714285714,4,1,1,60,0,1
183041,-166.666666666667,4,1,1,60,0,1
183099,-71.4285714285714,4,1,1,60,0,1
183158,-166.666666666667,4,1,1,60,0,1
183216,-71.4285714285714,4,1,1,60,0,1
183275,-166.666666666667,4,1,1,60,0,1
183334,-71.4285714285714,4,1,1,60,0,1
183393,-166.666666666667,4,1,1,60,0,1
183451,-71.4285714285714,4,1,1,60,0,1
183510,-166.666666666667,4,1,1,60,0,1
183568,-71.4285714285714,4,1,1,60,0,1
183627,-166.666666666667,4,1,1,60,0,1
183685,-55.5555555555556,4,1,1,60,0,1
183714,-500.000000000003,4,1,1,60,0,1
183744,-55.5555555555556,4,1,1,60,0,1
183773,-500.000000000003,4,1,1,60,0,1
183802,-55.5555555555556,4,1,1,60,0,1
183831,-500.000000000003,4,1,1,60,0,1
183861,-55.5555555555556,4,1,1,60,0,1
183890,-500.000000000003,4,1,1,60,0,1
183920,-13.8888888888889,4,1,1,60,0,1
183934,-1000,4,1,1,60,0,1
183978,-17.8571428571429,4,1,1,60,0,1
183992,-1000,4,1,1,60,0,1
184037,-27.7777777777778,4,1,1,60,0,1
184054,-1000,4,1,1,60,0,1
184095,-50,4,1,1,60,0,1
184113,-1000,4,1,1,60,0,1
184154,-100,4,1,1,60,0,1
184271,-62.5,4,1,1,60,0,1
184300,-250,4,1,1,60,0,1
184330,-62.5,4,1,1,60,0,1
184359,-250,4,1,1,60,0,1
184388,-45.4545454545455,4,1,1,60,0,1
184418,-166.666666666667,4,1,1,60,0,1
184505,-40,4,1,1,60,0,1
184535,-200,4,1,1,60,0,1
184711,-40,4,1,1,60,0,1
184740,-45.4545454545455,4,1,1,60,0,1
184769,-166.666666666667,4,1,1,60,0,1
184857,-45.4545454545455,4,1,1,60,0,1
184872,-166.666666666667,4,1,1,60,0,1
184916,-100,4,1,1,60,0,1
184974,-45.4545454545455,4,1,1,60,0,1
184989,-166.666666666667,4,1,1,60,0,1
185033,-100,4,1,1,60,0,1
185091,-45.4545454545455,4,1,1,60,0,1
185106,-166.666666666667,4,1,1,60,0,1
185150,-100,4,1,1,60,0,1
185209,-40,4,1,1,60,0,1
185223,-200,4,1,1,60,0,1
185267,-100,4,1,1,60,0,1
185326,-45.4545454545455,4,1,1,60,0,1
185355,-166.666666666667,4,1,1,60,0,1
185443,-40,4,1,1,60,0,1
185472,-200,4,1,1,60,0,1
185560,-55.5555555555556,4,1,1,60,0,1
185580,-500,4,1,1,60,0,1
185599,-55.5555555555556,4,1,1,60,0,1
185619,-500,4,1,1,60,0,1
185638,-55.5555555555556,4,1,1,60,0,1
185658,-500,4,1,1,60,0,1
185677,-125,4,1,1,60,0,1
185765,-50,4,1,1,60,0,1
185795,-40,4,1,1,60,0,1
185853,-200,4,1,1,60,0,1
186029,-45.4545454545455,4,1,1,60,0,1
186044,-166.666666666667,4,1,1,60,0,1
186087,-100,4,1,1,60,0,1
186146,-45.4545454545455,4,1,1,60,0,1
186161,-166.666666666667,4,1,1,60,0,1
186205,-100,4,1,1,60,0,1
186263,-40,4,1,1,60,0,1
186293,-200,4,1,1,60,0,1
186380,-40,4,1,1,60,0,1
186410,-200,4,1,1,60,0,1
186586,-40,4,1,1,60,0,1
186615,-45.4545454545455,4,1,1,60,0,1
186644,-166.666666666667,4,1,1,60,0,1
186732,-45.4545454545455,4,1,1,60,0,1
186747,-166.666666666667,4,1,1,60,0,1
186790,-100,4,1,1,60,0,1
186849,-45.4545454545455,4,1,1,60,0,1
186864,-166.666666666667,4,1,1,60,0,1
186907,-100,4,1,1,60,0,1
186966,-45.4545454545455,4,1,1,60,0,1
186981,-166.666666666667,4,1,1,60,0,1
187024,-100,4,1,1,60,0,1
187084,-45.4545454545455,4,1,1,60,0,1
187099,-166.666666666667,4,1,1,60,0,1
187142,-100,4,1,1,60,0,1
187201,-40,4,1,1,60,0,1
187230,-200,4,1,1,60,0,1
187318,-45.4545454545455,4,1,1,60,0,1
187347,-166.666666666667,4,1,1,60,0,1
187435,-55.5555555555556,4,1,1,60,0,1
187464,-500,4,1,1,60,0,1
187494,-55.5555555555556,4,1,1,60,0,1
187523,-500,4,1,1,60,0,1
187552,-55.5555555555556,4,1,1,60,0,1
187582,-500,4,1,1,60,0,1
187611,-55.5555555555556,4,1,1,60,0,1
187640,-500,4,1,1,60,0,1
187670,-50,4,1,1,60,0,1
187728,-71.4285714285714,4,1,1,60,0,1
187787,-83.3333333333333,4,1,1,60,0,1
187845,-125,4,1,1,60,0,1
187904,-250,4,1,1,60,0,1
187962,-100,4,1,1,60,0,1
188021,-45.4545454545455,4,1,1,60,0,1
188050,-166.666666666667,4,1,1,60,0,1
188138,-45.4545454545455,4,1,1,60,0,1
188168,-166.666666666667,4,1,1,60,0,1
188255,-71.4285714285714,4,1,1,60,0,1
188314,-166.666666666667,4,1,1,60,0,1
188373,-71.4285714285714,4,1,1,60,0,1
188432,-166.666666666667,4,1,1,60,0,1
188490,-71.4285714285714,4,1,1,60,0,1
188549,-166.666666666667,4,1,1,60,0,1
188607,-71.4285714285714,4,1,1,60,0,1
188666,-166.666666666667,4,1,1,60,0,1
188724,-71.4285714285714,4,1,1,60,0,1
188783,-166.666666666667,4,1,1,60,0,1
188841,-71.4285714285714,4,1,1,60,0,1
188900,-166.666666666667,4,1,1,60,0,1
188959,-71.4285714285714,4,1,1,60,0,1
189018,-166.666666666667,4,1,1,60,0,1
189076,-71.4285714285714,4,1,1,60,0,1
189135,-166.666666666667,4,1,1,60,0,1
189193,-29.8507462686567,4,1,1,60,0,1
189199,-1000,4,1,1,60,0,1
189222,-29.8507462686567,4,1,1,60,0,1
189228,-1000,4,1,1,60,0,1
189237,-100,4,1,1,60,0,1
189310,-29.8507462686567,4,1,1,60,0,1
189316,-1000,4,1,1,60,0,1
189339,-29.8507462686567,4,1,1,60,0,1
189345,-1000,4,1,1,60,0,1
189354,-100,4,1,1,60,0,1
189427,-29.8507462686567,4,1,1,60,0,1
189433,-1000,4,1,1,60,0,1
189456,-29.8507462686567,4,1,1,60,0,1
189462,-1000,4,1,1,60,0,1
189471,-100,4,1,1,60,0,1
189545,-50,4,1,1,60,0,1
189574,-10000,4,1,1,60,0,1
189603,-50,4,1,1,60,0,1
189632,-10000,4,1,1,60,0,1
189662,-100,4,1,1,60,0,1
189779,-31.25,4,1,1,60,0,1
189800,-1000,4,1,1,60,0,1
189857,-31.25,4,1,1,60,0,1
189878,-1000,4,1,1,60,0,1
189935,-31.25,4,1,1,60,0,1
189956,-1000,4,1,1,60,0,1
190013,-45.4545454545455,4,1,1,60,0,1
190043,-166.666666666667,4,1,1,60,0,1
190130,-71.4285714285714,4,1,1,60,0,1
190189,-166.666666666667,4,1,1,60,0,1
190248,-71.4285714285714,4,1,1,60,0,1
190307,-166.666666666667,4,1,1,60,0,1
190365,-71.4285714285714,4,1,1,60,0,1
190424,-166.666666666667,4,1,1,60,0,1
190482,-71.4285714285714,4,1,1,60,0,1
190541,-166.666666666667,4,1,1,60,0,1
190599,-71.4285714285714,4,1,1,60,0,1
190658,-166.666666666667,4,1,1,60,0,1
190716,-71.4285714285714,4,1,1,60,0,1
190775,-166.666666666667,4,1,1,60,0,1
190834,-71.4285714285714,4,1,1,60,0,1
190893,-166.666666666667,4,1,1,60,0,1
190951,-71.4285714285714,4,1,1,60,0,1
191010,-166.666666666667,4,1,1,60,0,1
191068,-71.4285714285714,4,1,1,60,0,1
191127,-166.666666666667,4,1,1,60,0,1
191185,-55.5555555555556,4,1,1,60,0,1
191214,-500.000000000003,4,1,1,60,0,1
191244,-55.5555555555556,4,1,1,60,0,1
191273,-500.000000000003,4,1,1,60,0,1
191302,-55.5555555555556,4,1,1,60,0,1
191331,-500.000000000003,4,1,1,60,0,1
191361,-55.5555555555556,4,1,1,60,0,1
191390,-500.000000000003,4,1,1,60,0,1
191420,-40,4,1,1,60,0,1
191478,-200,4,1,1,60,0,1
191654,-100,4,1,1,60,0,1
191771,-55.5555555555556,4,1,1,60,0,1
191800,-500,4,1,1,60,0,1
191830,-55.5555555555556,4,1,1,60,0,1
191859,-500,4,1,1,60,0,1
191888,-40,4,1,1,60,0,1
191918,-200,4,1,1,60,0,1
192005,-55.5555555555556,4,1,1,60,0,1
192035,-500,4,1,1,60,0,1
192064,-55.5555555555556,4,1,1,60,0,1
192094,-500,4,1,1,60,0,1
192123,-100,4,1,1,60,0,1
192240,-40,4,1,1,60,0,1
192269,-200,4,1,1,60,0,1
192357,-166.666666666667,4,1,1,60,0,1
192416,-142.857142857143,4,1,1,60,0,1
192474,-125,4,1,1,60,0,1
192503,-83.3333333333333,4,1,1,60,0,1
192533,-62.5,4,1,1,60,0,1
192562,-55.5555555555556,4,1,1,60,0,1
192611,-500,4,1,1,60,0,1
192630,-55.5555555555556,4,1,1,60,0,1
192650,-500,4,1,1,60,0,1
192670,-55.5555555555556,4,1,1,60,0,1
192689,-500,4,1,1,60,0,1
192709,-55.5555555555556,4,1,1,60,0,1
192729,-500,4,1,1,60,0,1
192749,-55.5555555555556,4,1,1,60,0,1
192768,-500,4,1,1,60,0,1
192787,-55.5555555555556,4,1,1,60,0,1
192807,-500,4,1,1,60,0,1
192826,-100,4,1,1,60,0,1
192943,-62.5,4,1,1,60,0,1
192972,-250,4,1,1,60,0,1
193002,-62.5,4,1,1,60,0,1
193031,-250,4,1,1,60,0,1
193060,-55.5555555555556,4,1,1,60,0,1
193119,-500,4,1,1,60,0,1
193177,-62.5,4,1,1,60,0,1
193236,-250,4,1,1,60,0,1
193295,-40,4,1,1,60,0,1
193353,-200,4,1,1,60,0,1
193529,-55.5555555555556,4,1,1,60,0,1
193548,-500,4,1,1,60,0,1
193568,-55.5555555555556,4,1,1,60,0,1
193587,-500,4,1,1,60,0,1
193607,-55.5555555555556,4,1,1,60,0,1
193626,-500,4,1,1,60,0,1
193646,-40,4,1,1,60,0,1
193705,-200,4,1,1,60,0,1
193880,-40,4,1,1,60,0,1
193895,-200,4,1,1,60,0,1
193939,-100,4,1,1,60,0,1
193998,-40,4,1,1,60,0,1
194028,-200,4,1,1,60,0,1
194115,-100,4,1,1,60,0,1
194349,-40,4,1,1,60,0,1
194379,-200,4,1,1,60,0,1
194466,-100,4,1,1,60,0,1
194701,-40,4,1,1,60,0,1
194731,-200,4,1,1,60,0,1
194818,-100,4,1,1,60,0,1
195170,-50,4,1,1,60,0,1
195228,-71.4285714285714,4,1,1,60,0,1
195287,-83.3333333333333,4,1,1,60,0,1
195345,-125,4,1,1,60,0,1
195404,-250,4,1,1,60,0,1
195462,-500,4,1,1,60,0,1
195521,-45.4545454545455,4,1,1,60,0,1
195550,-166.666666666667,4,1,1,60,0,1
195638,-45.4545454545455,4,1,1,60,0,1
195668,-166.666666666667,4,1,1,60,0,1
195755,-71.4285714285714,4,1,1,60,0,1
195814,-166.666666666667,4,1,1,60,0,1
195873,-71.4285714285714,4,1,1,60,0,1
195932,-166.666666666667,4,1,1,60,0,1
195990,-71.4285714285714,4,1,1,60,0,1
196049,-166.666666666667,4,1,1,60,0,1
196107,-71.4285714285714,4,1,1,60,0,1
196166,-166.666666666667,4,1,1,60,0,1
196224,-71.4285714285714,4,1,1,60,0,1
196283,-166.666666666667,4,1,1,60,0,1
196341,-71.4285714285714,4,1,1,60,0,1
196400,-166.666666666667,4,1,1,60,0,1
196459,-71.4285714285714,4,1,1,60,0,1
196518,-166.666666666667,4,1,1,60,0,1
196576,-71.4285714285714,4,1,1,60,0,1
196635,-166.666666666667,4,1,1,60,0,1
196693,-71.4285714285714,4,1,1,60,0,1
196752,-166.666666666667,4,1,1,60,0,1
196810,-71.4285714285714,4,1,1,60,0,1
196869,-166.666666666667,4,1,1,60,0,1
196927,-71.4285714285714,4,1,1,60,0,1
196986,-166.666666666667,4,1,1,60,0,1
197045,-45.4545454545455,4,1,1,60,0,1
197074,-166.666666666667,4,1,1,60,0,1
197162,-100,4,1,1,60,0,1
197279,-45.4545454545455,4,1,1,60,0,1
197308,-166.666666666667,4,1,1,60,0,1
197484,-45.4545454545455,4,1,1,60,0,1
197543,-166.666666666667,4,1,1,60,0,1
197630,-71.4285714285714,4,1,1,60,0,1
197689,-166.666666666667,4,1,1,60,0,1
197748,-71.4285714285714,4,1,1,60,0,1
197807,-166.666666666667,4,1,1,60,0,1
197865,-71.4285714285714,4,1,1,60,0,1
197924,-166.666666666667,4,1,1,60,0,1
197982,-71.4285714285714,4,1,1,60,0,1
198041,-166.666666666667,4,1,1,60,0,1
198099,-71.4285714285714,4,1,1,60,0,1
198158,-166.666666666667,4,1,1,60,0,1
198216,-71.4285714285714,4,1,1,60,0,1
198275,-166.666666666667,4,1,1,60,0,1
198334,-71.4285714285714,4,1,1,60,0,1
198393,-166.666666666667,4,1,1,60,0,1
198451,-71.4285714285714,4,1,1,60,0,1
198510,-166.666666666667,4,1,1,60,0,1
198568,-71.4285714285714,4,1,1,60,0,1
198627,-166.666666666667,4,1,1,60,0,1
198685,-55.5555555555556,4,1,1,60,0,1
198714,-500.000000000003,4,1,1,60,0,1
198744,-55.5555555555556,4,1,1,60,0,1
198773,-500.000000000003,4,1,1,60,0,1
198802,-55.5555555555556,4,1,1,60,0,1
198831,-500.000000000003,4,1,1,60,0,1
198861,-55.5555555555556,4,1,1,60,0,1
198890,-500.000000000003,4,1,1,60,0,1
198920,-13.8888888888889,4,1,1,60,0,1
198934,-1000,4,1,1,60,0,1
198978,-17.8571428571429,4,1,1,60,0,1
198992,-1000,4,1,1,60,0,1
199037,-27.7777777777778,4,1,1,60,0,1
199054,-1000,4,1,1,60,0,1
199095,-50,4,1,1,60,0,1
199113,-1000,4,1,1,60,0,1
199154,-100,4,1,1,60,0,1
199271,-62.5,4,1,1,60,0,1
199300,-250,4,1,1,60,0,1
199330,-62.5,4,1,1,60,0,1
199359,-250,4,1,1,60,0,1
199388,-45.4545454545455,4,1,1,60,0,1
199418,-166.666666666667,4,1,1,60,0,1
199505,-40,4,1,1,60,0,1
199535,-200,4,1,1,60,0,1
199711,-40,4,1,1,60,0,1
199740,-45.4545454545455,4,1,1,60,0,1
199769,-166.666666666667,4,1,1,60,0,1
199857,-45.4545454545455,4,1,1,60,0,1
199872,-166.666666666667,4,1,1,60,0,1
199916,-100,4,1,1,60,0,1
199974,-45.4545454545455,4,1,1,60,0,1
199989,-166.666666666667,4,1,1,60,0,1
200033,-100,4,1,1,60,0,1
200091,-45.4545454545455,4,1,1,60,0,1
200106,-166.666666666667,4,1,1,60,0,1
200150,-100,4,1,1,60,0,1
200209,-40,4,1,1,60,0,1
200223,-200,4,1,1,60,0,1
200267,-100,4,1,1,60,0,1
200326,-45.4545454545455,4,1,1,60,0,1
200355,-166.666666666667,4,1,1,60,0,1
200443,-40,4,1,1,60,0,1
200472,-200,4,1,1,60,0,1
200560,-55.5555555555556,4,1,1,60,0,1
200580,-500,4,1,1,60,0,1
200599,-55.5555555555556,4,1,1,60,0,1
200619,-500,4,1,1,60,0,1
200638,-55.5555555555556,4,1,1,60,0,1
200658,-500,4,1,1,60,0,1
200677,-125,4,1,1,60,0,1
200765,-50,4,1,1,60,0,1
200795,-40,4,1,1,60,0,1
200853,-200,4,1,1,60,0,1
201029,-45.4545454545455,4,1,1,60,0,1
201044,-166.666666666667,4,1,1,60,0,1
201087,-100,4,1,1,60,0,1
201146,-45.4545454545455,4,1,1,60,0,1
201161,-166.666666666667,4,1,1,60,0,1
201205,-100,4,1,1,60,0,1
201263,-40,4,1,1,60,0,1
201293,-200,4,1,1,60,0,1
201380,-40,4,1,1,60,0,1
201410,-200,4,1,1,60,0,1
201586,-40,4,1,1,60,0,1
201615,-45.4545454545455,4,1,1,60,0,1
201644,-166.666666666667,4,1,1,60,0,1
201732,-45.4545454545455,4,1,1,60,0,1
201747,-166.666666666667,4,1,1,60,0,1
201790,-100,4,1,1,60,0,1
201849,-45.4545454545455,4,1,1,60,0,1
201864,-166.666666666667,4,1,1,60,0,1
201907,-100,4,1,1,60,0,1
201966,-45.4545454545455,4,1,1,60,0,1
201981,-166.666666666667,4,1,1,60,0,1
202024,-100,4,1,1,60,0,1
202084,-45.4545454545455,4,1,1,60,0,1
202099,-166.666666666667,4,1,1,60,0,1
202142,-100,4,1,1,60,0,1
202201,-40,4,1,1,60,0,1
202230,-200,4,1,1,60,0,1
202318,-45.4545454545455,4,1,1,60,0,1
202347,-166.666666666667,4,1,1,60,0,1
202435,-55.5555555555556,4,1,1,60,0,1
202464,-500,4,1,1,60,0,1
202494,-55.5555555555556,4,1,1,60,0,1
202523,-500,4,1,1,60,0,1
202552,-55.5555555555556,4,1,1,60,0,1
202582,-500,4,1,1,60,0,1
202611,-55.5555555555556,4,1,1,60,0,1
202640,-500,4,1,1,60,0,1
202670,-40,4,1,1,60,0,0
202699,-200,4,1,1,60,0,0
202787,-166.666666666667,4,1,1,60,0,0
202846,-142.857142857143,4,1,1,60,0,0
202904,-125,4,1,1,60,0,0
202933,-83.3333333333333,4,1,1,60,0,0
202963,-62.5,4,1,1,60,0,0
202992,-55.5555555555556,4,1,1,60,0,0
203021,-200,4,1,1,60,0,0
203109,-40,4,1,1,60,0,0
203168,-200,4,1,1,60,0,0
203255,-71.4285714285714,4,1,1,60,0,0
203314,-166.666666666667,4,1,1,60,0,0
203373,-71.4285714285714,4,1,1,60,0,0
203432,-166.666666666667,4,1,1,60,0,0
203490,-71.4285714285714,4,1,1,60,0,0
203549,-166.666666666667,4,1,1,60,0,0
203607,-40,4,1,1,60,0,0
203636,-200,4,1,1,60,0,0
203724,-71.4285714285714,4,1,1,60,0,0
203783,-166.666666666667,4,1,1,60,0,0
203841,-71.4285714285714,4,1,1,60,0,0
203900,-166.666666666667,4,1,1,60,0,0
203959,-71.4285714285714,4,1,1,60,0,0
204018,-166.666666666667,4,1,1,60,0,0
204076,-40,4,1,1,60,0,0
204105,-200,4,1,1,60,0,0
204193,-71.4285714285714,4,1,1,60,0,0
204252,-166.666666666667,4,1,1,60,0,0
204310,-71.4285714285714,4,1,1,60,0,0
204369,-166.666666666667,4,1,1,60,0,0
204427,-71.4285714285714,4,1,1,60,0,0
204486,-166.666666666667,4,1,1,60,0,0
204545,-40,4,1,1,60,0,0
204574,-200,4,1,1,60,0,0
204662,-166.666666666667,4,1,1,60,0,0
204721,-142.857142857143,4,1,1,60,0,0
204779,-125,4,1,1,60,0,0
204808,-83.3333333333333,4,1,1,60,0,0
204838,-62.5,4,1,1,60,0,0
204867,-55.5555555555556,4,1,1,60,0,0
204896,-200,4,1,1,60,0,0
204984,-40,4,1,1,60,0,0
205043,-200,4,1,1,60,0,0
205130,-71.4285714285714,4,1,1,60,0,0
205189,-166.666666666667,4,1,1,60,0,0
205248,-71.4285714285714,4,1,1,60,0,0
205307,-166.666666666667,4,1,1,60,0,0
205365,-71.4285714285714,4,1,1,60,0,0
205424,-166.666666666667,4,1,1,60,0,0
205482,-40,4,1,1,60,0,0
205511,-200,4,1,1,60,0,0
205599,-71.4285714285714,4,1,1,60,0,0
205658,-166.666666666667,4,1,1,60,0,0
205716,-71.4285714285714,4,1,1,60,0,0
205775,-166.666666666667,4,1,1,60,0,0
205834,-71.4285714285714,4,1,1,60,0,0
205893,-166.666666666667,4,1,1,60,0,0
205951,-40,4,1,1,60,0,0
205980,-200,4,1,1,60,0,0
206068,-62.5,4,1,1,60,0,0
206097,-250.000000000001,4,1,1,60,0,0
206127,-62.5,4,1,1,60,0,0
206156,-250.000000000001,4,1,1,60,0,0
206185,-71.4285714285714,4,1,1,60,0,0
206244,-166.666666666667,4,1,1,60,0,0
206302,-62.5,4,1,1,60,0,0
206331,-250.000000000001,4,1,1,60,0,0
206361,-62.5,4,1,1,60,0,0
206390,-250.000000000001,4,1,1,60,0,0
206420,-40,4,1,1,60,0,0
206449,-200,4,1,1,60,0,0
206537,-50,4,1,1,60,0,0
206566,-125,4,1,1,60,0,0
206654,-100,4,1,1,60,0,0
206888,-55.5555555555556,4,1,1,60,0,0
206917,-500,4,1,1,60,0,0
206947,-55.5555555555556,4,1,1,60,0,0
206976,-500,4,1,1,60,0,0
207005,-50,4,1,1,60,0,0
207034,-125,4,1,1,60,0,0
207123,-40,4,1,1,60,0,0
207152,-200,4,1,1,60,0,0
207240,-50,4,1,1,60,0,0
207269,-125,4,1,1,60,0,0
207357,-100,4,1,1,60,0,0
207591,-55.5555555555556,4,1,1,60,0,0
207611,-500,4,1,1,60,0,0
207630,-55.5555555555556,4,1,1,60,0,0
207650,-500,4,1,1,60,0,0
207670,-55.5555555555556,4,1,1,60,0,0
207690,-500,4,1,1,60,0,0
207709,-50,4,1,1,60,0,0
207748,-125,4,1,1,60,0,0
207826,-40,4,1,1,60,0,0
207855,-200,4,1,1,60,0,0
207943,-71.4285714285714,4,1,1,60,0,0
208002,-166.666666666667,4,1,1,60,0,0
208060,-71.4285714285714,4,1,1,60,0,0
208119,-166.666666666667,4,1,1,60,0,0
208177,-71.4285714285714,4,1,1,60,0,0
208236,-166.666666666667,4,1,1,60,0,0
208295,-40,4,1,1,60,0,0
208353,-200,4,1,1,60,0,0
208529,-55.5555555555556,4,1,1,60,0,0
208549,-500,4,1,1,60,0,0
208568,-55.5555555555556,4,1,1,60,0,0
208588,-500,4,1,1,60,0,0
208608,-55.5555555555556,4,1,1,60,0,0
208627,-500,4,1,1,60,0,0
208647,-55.5555555555556,4,1,1,60,0,0
208666,-500,4,1,1,60,0,0
208686,-55.5555555555556,4,1,1,60,0,0
208705,-500,4,1,1,60,0,0
208725,-55.5555555555556,4,1,1,60,0,0
208744,-500,4,1,1,60,0,0
208763,-66.6666666666667,4,1,1,60,0,0
208880,-200,4,1,1,60,0,0
208998,-66.6666666666667,4,1,1,60,0,0
209056,-200,4,1,1,60,0,0
209115,-66.6666666666667,4,1,1,60,0,0
209173,-200,4,1,1,60,0,0
209232,-43.4782608695652,4,1,1,60,0,0
209256,-1000,4,1,1,60,0,0
209291,-43.4782608695652,4,1,1,60,0,0
209315,-1000,4,1,1,60,0,0
209349,-43.4782608695652,4,1,1,60,0,0
209373,-1000,4,1,1,60,0,0
209408,-43.4782608695652,4,1,1,60,0,0
209432,-1000,4,1,1,60,0,0
209466,-66.6666666666667,4,1,1,60,0,0
209525,-200,4,1,1,60,0,0
209584,-100,4,1,1,60,0,0
209701,-62.5,4,1,1,60,0,0
209759,-250,4,1,1,60,0,0
209818,-62.5,4,1,1,60,0,0
209877,-250,4,1,1,60,0,0
209935,-55.5555555555556,4,1,1,60,0,0
209964,-500,4,1,1,60,0,0
209994,-55.5555555555556,4,1,1,60,0,0
210023,-500,4,1,1,60,0,0
210052,-55.5555555555556,4,1,1,60,0,0
210081,-500,4,1,1,60,0,0
210111,-55.5555555555556,4,1,1,60,0,0
210140,-500,4,1,1,60,0,0
210170,-31.25,4,1,1,60,0,0
210187,-1000,4,1,1,60,0,0
210229,-31.25,4,1,1,60,0,0
210246,-1000,4,1,1,60,0,0
210287,-31.25,4,1,1,60,0,0
210304,-1000,4,1,1,60,0,0
210346,-31.25,4,1,1,60,0,0
210363,-1000,4,1,1,60,0,0
210404,-31.25,4,1,1,60,0,0
210421,-1000,4,1,1,60,0,0
210463,-31.25,4,1,1,60,0,0
210480,-1000,4,1,1,60,0,0
210521,-31.25,4,1,1,60,0,0
210538,-1000,4,1,1,60,0,0
210580,-31.25,4,1,1,60,0,0
210597,-1000,4,1,1,60,0,0
210638,-31.25,4,1,1,60,0,0
210655,-1000,4,1,1,60,0,0
210696,-31.25,4,1,1,60,0,0
210713,-1000,4,1,1,60,0,0
210755,-31.25,4,1,1,60,0,0
210772,-1000,4,1,1,60,0,0
210814,-31.25,4,1,1,60,0,0
210831,-1000,4,1,1,60,0,0
210872,-31.25,4,1,1,60,0,0
210889,-1000,4,1,1,60,0,0
210931,-31.25,4,1,1,60,0,0
210948,-1000,4,1,1,60,0,0
210990,-50,4,1,1,60,0,0
211019,-125,4,1,1,60,0,0
211107,-250.000000000001,4,1,1,60,0,0
211124,-10000,4,1,1,60,0,0
211166,-166.666666666667,4,1,1,60,0,0
211183,-10000,4,1,1,60,0,0
211283,-111.111111111111,4,1,1,60,0,0
211303,-10000,4,1,1,60,0,0
211400,-76.9230769230769,4,1,1,60,0,0
211429,-10000,4,1,1,60,0,0
211546,-40,4,1,1,60,0,0
211575,-10000,4,1,1,60,0,0
211654,-40,4,1,1,60,0,0
211683,-10000,4,1,1,60,0,0
211810,-40,4,1,1,60,0,0
211839,-1000,4,1,1,60,0,0
211869,-200,4,1,1,60,0,0
211898,-166.666666666667,4,1,1,60,0,0
211927,-142.857142857143,4,1,1,60,0,0
211957,-125,4,1,1,60,0,0
211986,-111.111111111111,4,1,1,60,0,0
212015,-100,4,1,1,60,0,0
212045,-40,4,1,1,60,0,1
212074,-200,4,1,1,60,0,1
212162,-31.25,4,1,1,60,0,1
212179,-1000,4,1,1,60,0,1
212220,-31.25,4,1,1,60,0,1
212237,-1000,4,1,1,60,0,1
212279,-31.25,4,1,1,60,0,1
212296,-1000,4,1,1,60,0,1
212337,-31.25,4,1,1,60,0,1
212354,-1000,4,1,1,60,0,1
212396,-31.25,4,1,1,60,0,1
212413,-1000,4,1,1,60,0,1
212454,-31.25,4,1,1,60,0,1
212471,-1000,4,1,1,60,0,1
212513,-31.25,4,1,1,60,0,1
212530,-1000,4,1,1,60,0,1
212571,-31.25,4,1,1,60,0,1
212588,-1000,4,1,1,60,0,1
212630,-31.25,4,1,1,60,0,1
212647,-1000,4,1,1,60,0,1
212688,-31.25,4,1,1,60,0,1
212705,-1000,4,1,1,60,0,1
212748,-45.4545454545455,4,1,1,60,0,1
212777,-166.666666666667,4,1,1,60,0,1
212865,-100,4,1,1,60,0,1
212982,-40,4,1,1,60,0,1
212997,-200,4,1,1,60,0,1
213041,-40,4,1,1,60,0,1
213056,-200,4,1,1,60,0,1
213099,-40,4,1,1,60,0,1
213114,-200,4,1,1,60,0,1
213158,-40,4,1,1,60,0,1
213173,-200,4,1,1,60,0,1
213216,-40,4,1,1,60,0,1
213231,-200,4,1,1,60,0,1
213275,-40,4,1,1,60,0,1
213290,-200,4,1,1,60,0,1
213334,-40,4,1,1,60,0,1
213349,-200,4,1,1,60,0,1
213392,-40,4,1,1,60,0,1
213407,-200,4,1,1,60,0,1
213451,-45.4545454545455,4,1,1,60,0,1
213480,-166.666666666667,4,1,1,60,0,1
213568,-40,4,1,1,60,0,1
213583,-200,4,1,1,60,0,1
213627,-40,4,1,1,60,0,1
213642,-200,4,1,1,60,0,1
213685,-40,4,1,1,60,0,1
213700,-200,4,1,1,60,0,1
213744,-40,4,1,1,60,0,1
213759,-200,4,1,1,60,0,1
213802,-40,4,1,1,60,0,1
213817,-200,4,1,1,60,0,1
213861,-40,4,1,1,60,0,1
213876,-200,4,1,1,60,0,1
213920,-31.25,4,1,1,60,0,1
213937,-1000,4,1,1,60,0,1
213978,-31.25,4,1,1,60,0,1
213995,-1000,4,1,1,60,0,1
214037,-31.25,4,1,1,60,0,1
214054,-1000,4,1,1,60,0,1
214095,-31.25,4,1,1,60,0,1
214112,-1000,4,1,1,60,0,1
214154,-31.25,4,1,1,60,0,1
214171,-1000,4,1,1,60,0,1
214212,-31.25,4,1,1,60,0,1
214229,-1000,4,1,1,60,0,1
214271,-31.25,4,1,1,60,0,1
214288,-1000,4,1,1,60,0,1
214330,-31.25,4,1,1,60,0,1
214347,-1000,4,1,1,60,0,1
214388,-45.4545454545455,4,1,1,60,0,1
214408,-166.666666666667,4,1,1,60,0,1
214466,-100,4,1,1,60,0,1
214545,-45.4545454545455,4,1,1,60,0,1
214565,-166.666666666667,4,1,1,60,0,1
214623,-100,4,1,1,60,0,1
214701,-45.4545454545455,4,1,1,60,0,1
214721,-166.666666666667,4,1,1,60,0,1
214779,-100,4,1,1,60,0,1
214857,-40,4,1,1,60,0,1
214872,-200,4,1,1,60,0,1
214916,-100,4,1,1,60,0,1
214974,-40,4,1,1,60,0,1
214989,-200,4,1,1,60,0,1
215033,-100,4,1,1,60,0,1
215091,-40,4,1,1,60,0,1
215106,-200,4,1,1,60,0,1
215150,-100,4,1,1,60,0,1
215209,-40,4,1,1,60,0,1
215224,-200,4,1,1,60,0,1
215268,-100,4,1,1,60,0,1
215326,-40,4,1,1,60,0,1
215355,-200,4,1,1,60,0,1
215443,-100,4,1,1,60,0,1
215502,-40,4,1,1,60,0,1
215531,-200,4,1,1,60,0,1
215619,-100,4,1,1,60,0,1
215677,-40,4,1,1,60,0,1
215706,-200,4,1,1,60,0,1
215795,-45.4545454545455,4,1,1,60,0,1
215824,-166.666666666667,4,1,1,60,0,1
215912,-55.5555555555556,4,1,1,60,0,1
215941,-500,4,1,1,60,0,1
215970,-55.5555555555556,4,1,1,60,0,1
215999,-500,4,1,1,60,0,1
216029,-45.4545454545455,4,1,1,60,0,1
216058,-166.666666666667,4,1,1,60,0,1
216146,-40,4,1,1,60,0,1
216175,-200,4,1,1,60,0,1
216263,-166.666666666667,4,1,1,60,0,1
216322,-142.857142857143,4,1,1,60,0,1
216380,-125,4,1,1,60,0,1
216409,-83.3333333333333,4,1,1,60,0,1
216439,-62.5,4,1,1,60,0,1
216468,-55.5555555555556,4,1,1,60,0,1
216498,-45.4545454545455,4,1,1,60,0,1
216527,-166.666666666667,4,1,1,60,0,1
216615,-55.5555555555556,4,1,1,60,0,1
216644,-500,4,1,1,60,0,1
216673,-55.5555555555556,4,1,1,60,0,1
216702,-500,4,1,1,60,0,1
216732,-40,4,1,1,60,0,1
216761,-200,4,1,1,60,0,1
216849,-45.4545454545455,4,1,1,60,0,1
216878,-166.666666666667,4,1,1,60,0,1
216966,-55.5555555555556,4,1,1,60,0,1
216986,-500,4,1,1,60,0,1
217005,-55.5555555555556,4,1,1,60,0,1
217025,-500,4,1,1,60,0,1
217045,-55.5555555555556,4,1,1,60,0,1
217065,-500,4,1,1,60,0,1
217084,-45.4545454545455,4,1,1,60,0,1
217113,-166.666666666667,4,1,1,60,0,1
217201,-71.4285714285714,4,1,1,60,0,1
217259,-166.666666666667,4,1,1,60,0,1
217318,-71.4285714285714,4,1,1,60,0,1
217376,-166.666666666667,4,1,1,60,0,1
217435,-71.4285714285714,4,1,1,60,0,1
217493,-166.666666666667,4,1,1,60,0,1
217552,-71.4285714285714,4,1,1,60,0,1
217610,-166.666666666667,4,1,1,60,0,1
217670,-31.25,4,1,1,60,0,1
217687,-1000,4,1,1,60,0,1
217729,-31.25,4,1,1,60,0,1
217746,-1000,4,1,1,60,0,1
217787,-31.25,4,1,1,60,0,1
217804,-1000,4,1,1,60,0,1
217846,-31.25,4,1,1,60,0,1
217863,-1000,4,1,1,60,0,1
217904,-31.25,4,1,1,60,0,1
217921,-1000,4,1,1,60,0,1
217963,-31.25,4,1,1,60,0,1
217980,-1000,4,1,1,60,0,1
218021,-100,4,1,1,60,0,1
218138,-31.25,4,1,1,60,0,1
218155,-1000,4,1,1,60,0,1
218197,-31.25,4,1,1,60,0,1
218214,-1000,4,1,1,60,0,1
218255,-31.25,4,1,1,60,0,1
218272,-1000,4,1,1,60,0,1
218314,-31.25,4,1,1,60,0,1
218331,-1000,4,1,1,60,0,1
218373,-55.5555555555556,4,1,1,60,0,1
218402,-500,4,1,1,60,0,1
218431,-55.5555555555556,4,1,1,60,0,1
218460,-500,4,1,1,60,0,1
218490,-55.5555555555556,4,1,1,60,0,1
218519,-500,4,1,1,60,0,1
218548,-55.5555555555556,4,1,1,60,0,1
218577,-500,4,1,1,60,0,1
218607,-40,4,1,1,60,0,1
218622,-200,4,1,1,60,0,1
218666,-40,4,1,1,60,0,1
218681,-200,4,1,1,60,0,1
218724,-40,4,1,1,60,0,1
218739,-200,4,1,1,60,0,1
218783,-40,4,1,1,60,0,1
218798,-200,4,1,1,60,0,1
218841,-40,4,1,1,60,0,1
218856,-200,4,1,1,60,0,1
218900,-40,4,1,1,60,0,1
218915,-200,4,1,1,60,0,1
218959,-40,4,1,1,60,0,1
218974,-200,4,1,1,60,0,1
219017,-40,4,1,1,60,0,1
219032,-200,4,1,1,60,0,1
219076,-40,4,1,1,60,0,1
219091,-200,4,1,1,60,0,1
219134,-40,4,1,1,60,0,1
219149,-200,4,1,1,60,0,1
219193,-40,4,1,1,60,0,1
219208,-200,4,1,1,60,0,1
219252,-40,4,1,1,60,0,1
219267,-200,4,1,1,60,0,1
219310,-40,4,1,1,60,0,1
219325,-200,4,1,1,60,0,1
219369,-40,4,1,1,60,0,1
219384,-200,4,1,1,60,0,1
219427,-40,4,1,1,60,0,1
219442,-200,4,1,1,60,0,1
219486,-40,4,1,1,60,0,1
219501,-200,4,1,1,60,0,1
219545,-40,4,1,1,60,0,1
219574,-200,4,1,1,60,0,1
219662,-31.25,4,1,1,60,0,1
219679,-1000,4,1,1,60,0,1
219720,-31.25,4,1,1,60,0,1
219737,-1000,4,1,1,60,0,1
219779,-31.25,4,1,1,60,0,1
219796,-1000,4,1,1,60,0,1
219837,-31.25,4,1,1,60,0,1
219854,-1000,4,1,1,60,0,1
219896,-31.25,4,1,1,60,0,1
219913,-1000,4,1,1,60,0,1
219954,-31.25,4,1,1,60,0,1
219971,-1000,4,1,1,60,0,1
220013,-31.25,4,1,1,60,0,1
220030,-1000,4,1,1,60,0,1
220071,-31.25,4,1,1,60,0,1
220088,-1000,4,1,1,60,0,1
220130,-31.25,4,1,1,60,0,1
220147,-1000,4,1,1,60,0,1
220188,-31.25,4,1,1,60,0,1
220205,-1000,4,1,1,60,0,1
220248,-45.4545454545455,4,1,1,60,0,1
220277,-166.666666666667,4,1,1,60,0,1
220365,-100,4,1,1,60,0,1
220482,-40,4,1,1,60,0,1
220497,-200,4,1,1,60,0,1
220541,-40,4,1,1,60,0,1
220556,-200,4,1,1,60,0,1
220599,-40,4,1,1,60,0,1
220614,-200,4,1,1,60,0,1
220658,-40,4,1,1,60,0,1
220673,-200,4,1,1,60,0,1
220716,-40,4,1,1,60,0,1
220731,-200,4,1,1,60,0,1
220775,-40,4,1,1,60,0,1
220790,-200,4,1,1,60,0,1
220834,-40,4,1,1,60,0,1
220849,-200,4,1,1,60,0,1
220892,-40,4,1,1,60,0,1
220907,-200,4,1,1,60,0,1
220951,-45.4545454545455,4,1,1,60,0,1
220980,-166.666666666667,4,1,1,60,0,1
221068,-40,4,1,1,60,0,1
221083,-200,4,1,1,60,0,1
221127,-40,4,1,1,60,0,1
221142,-200,4,1,1,60,0,1
221185,-40,4,1,1,60,0,1
221200,-200,4,1,1,60,0,1
221244,-40,4,1,1,60,0,1
221259,-200,4,1,1,60,0,1
221302,-40,4,1,1,60,0,1
221317,-200,4,1,1,60,0,1
221361,-40,4,1,1,60,0,1
221376,-200,4,1,1,60,0,1
221420,-31.25,4,1,1,60,0,1
221437,-1000,4,1,1,60,0,1
221478,-31.25,4,1,1,60,0,1
221495,-1000,4,1,1,60,0,1
221537,-31.25,4,1,1,60,0,1
221554,-1000,4,1,1,60,0,1
221595,-31.25,4,1,1,60,0,1
221612,-1000,4,1,1,60,0,1
221654,-31.25,4,1,1,60,0,1
221671,-1000,4,1,1,60,0,1
221712,-31.25,4,1,1,60,0,1
221729,-1000,4,1,1,60,0,1
221771,-31.25,4,1,1,60,0,1
221788,-1000,4,1,1,60,0,1
221830,-31.25,4,1,1,60,0,1
221847,-1000,4,1,1,60,0,1
221888,-52.6315789473684,4,1,1,60,0,1
221927,-1000,4,1,1,60,0,1
221966,-52.6315789473684,4,1,1,60,0,1
222005,-1000,4,1,1,60,0,1
222045,-52.6315789473684,4,1,1,60,0,1
222084,-1000,4,1,1,60,0,1
222123,-52.6315789473684,4,1,1,60,0,1
222162,-1000,4,1,1,60,0,1
222201,-45.4545454545455,4,1,1,60,0,1
222240,-166.666666666667,4,1,1,60,0,1
222357,-40,4,1,1,60,0,1
222386,-200,4,1,1,60,0,1
222474,-43.4782608695652,4,1,1,60,0,1
222498,-1000,4,1,1,60,0,1
222533,-43.4782608695652,4,1,1,60,0,1
222557,-1000,4,1,1,60,0,1
222591,-52.6315789473684,4,1,1,60,0,1
222621,-1000,4,1,1,60,0,1
222650,-52.6315789473684,4,1,1,60,0,1
222679,-1000,4,1,1,60,0,1
222709,-31.25,4,1,1,60,0,1
222727,-1000,4,1,1,60,0,1
222767,-31.25,4,1,1,60,0,1
222785,-1000,4,1,1,60,0,1
222826,-31.25,4,1,1,60,0,1
222844,-1000,4,1,1,60,0,1
222884,-31.25,4,1,1,60,0,1
222902,-1000,4,1,1,60,0,1
222943,-52.6315789473684,4,1,1,60,0,1
222972,-1000,4,1,1,60,0,1
223002,-52.6315789473684,4,1,1,60,0,1
223031,-1000,4,1,1,60,0,1
223060,-100,4,1,1,60,0,1
223177,-40,4,1,1,60,0,1
223192,-200,4,1,1,60,0,1
223236,-100,4,1,1,60,0,1
223295,-45.4545454545455,4,1,1,60,0,1
223324,-166.666666666667,4,1,1,60,0,1
223412,-55.5555555555556,4,1,1,60,0,1
223441,-500,4,1,1,60,0,1
223470,-55.5555555555556,4,1,1,60,0,1
223499,-500,4,1,1,60,0,1
223529,-45.4545454545455,4,1,1,60,0,1
223558,-166.666666666667,4,1,1,60,0,1
223646,-45.4545454545455,4,1,1,60,0,1
223661,-166.666666666667,4,1,1,60,0,1
223705,-100,4,1,1,60,0,1
223763,-45.4545454545455,4,1,1,60,0,1
223778,-166.666666666667,4,1,1,60,0,1
223822,-100,4,1,1,60,0,1
223880,-31.25,4,1,1,60,0,1
223898,-1000,4,1,1,60,0,1
223939,-31.25,4,1,1,60,0,1
223957,-1000,4,1,1,60,0,1
223998,-31.25,4,1,1,60,0,1
224016,-1000,4,1,1,60,0,1
224056,-31.25,4,1,1,60,0,1
224074,-1000,4,1,1,60,0,1
224115,-55.5555555555556,4,1,1,60,0,1
224144,-500,4,1,1,60,0,1
224173,-55.5555555555556,4,1,1,60,0,1
224202,-500,4,1,1,60,0,1
224232,-40,4,1,1,60,0,1
224261,-200,4,1,1,60,0,1
224349,-62.5,4,1,1,60,0,1
224408,-250,4,1,1,60,0,1
224466,-100,4,1,1,60,0,1
224584,-62.5,4,1,1,60,0,1
224643,-250,4,1,1,60,0,1
224701,-100,4,1,1,60,0,1
224935,-62.5,4,1,1,60,0,1
224994,-250,4,1,1,60,0,1
225052,-100,4,1,1,60,0,1
225170,-40,4,1,1,60,0,0
225228,-200,4,1,1,60,0,0
225404,-100,4,1,1,60,0,0
225990,-50,4,1,1,60,0,0
226019,-125,4,1,1,60,0,0
226107,-40,4,1,1,60,0,0
226136,-200,4,1,1,60,0,0
226224,-100,4,1,1,60,0,0
226341,-50,4,1,1,60,0,0
226370,-125,4,1,1,60,0,0
226459,-100,4,1,1,60,0,0
226576,-40,4,1,1,60,0,0
226605,-200,4,1,1,60,0,0
226693,-100,4,1,1,60,0,0
226810,-50,4,1,1,60,0,0
226839,-125,4,1,1,60,0,0
226928,-100,4,1,1,60,0,0
227045,-40,4,1,1,60,0,1
227074,-200,4,1,1,60,0,1
227162,-40,4,1,1,60,0,1
227177,-200,4,1,1,60,0,1
227220,-40,4,1,1,60,0,1
227235,-200,4,1,1,60,0,1
227279,-40,4,1,1,60,0,1
227294,-200,4,1,1,60,0,1
227337,-40,4,1,1,60,0,1
227352,-200,4,1,1,60,0,1
227396,-40,4,1,1,60,0,1
227411,-200,4,1,1,60,0,1
227455,-40,4,1,1,60,0,1
227470,-200,4,1,1,60,0,1
227513,-40,4,1,1,60,0,1
227572,-200,4,1,1,60,0,1
227748,-100,4,1,1,60,0,1
227865,-40,4,1,1,60,0,1
227880,-200,4,1,1,60,0,1
227923,-40,4,1,1,60,0,1
227938,-200,4,1,1,60,0,1
227982,-40,4,1,1,60,0,1
228011,-200,4,1,1,60,0,1
228099,-40,4,1,1,60,0,1
228114,-200,4,1,1,60,0,1
228158,-40,4,1,1,60,0,1
228173,-200,4,1,1,60,0,1
228216,-40,4,1,1,60,0,1
228231,-200,4,1,1,60,0,1
228275,-40,4,1,1,60,0,1
228290,-200,4,1,1,60,0,1
228334,-40,4,1,1,60,0,1
228363,-200,4,1,1,60,0,1
228451,-40,4,1,1,60,0,1
228509,-200,4,1,1,60,0,1
228685,-40,4,1,1,60,0,1
228714,-200,4,1,1,60,0,1
228802,-100,4,1,1,60,0,1
228920,-40,4,1,1,60,0,1
228979,-200,4,1,1,60,0,1
229154,-52.6315789473684,4,1,1,60,0,1
229183,-1000,4,1,1,60,0,1
229212,-52.6315789473684,4,1,1,60,0,1
229241,-1000,4,1,1,60,0,1
229271,-52.6315789473684,4,1,1,60,0,1
229300,-1000,4,1,1,60,0,1
229330,-52.6315789473684,4,1,1,60,0,1
229359,-1000,4,1,1,60,0,1
229388,-40,4,1,1,60,0,1
229418,-200,4,1,1,60,0,1
229505,-100,4,1,1,60,0,1
229564,-40,4,1,1,60,0,1
229594,-200,4,1,1,60,0,1
229681,-100,4,1,1,60,0,1
229740,-40,4,1,1,60,0,1
229754,-200,4,1,1,60,0,1
229798,-100,4,1,1,60,0,1
229857,-40,4,1,1,60,0,1
229886,-200,4,1,1,60,0,1
229974,-62.5,4,1,1,60,0,1
230033,-250,4,1,1,60,0,1
230091,-62.5,4,1,1,60,0,1
230150,-250,4,1,1,60,0,1
230209,-43.4782608695652,4,1,1,60,0,1
230233,-1000,4,1,1,60,0,1
230267,-43.4782608695652,4,1,1,60,0,1
230291,-1000,4,1,1,60,0,1
230326,-43.4782608695652,4,1,1,60,0,1
230350,-1000,4,1,1,60,0,1
230384,-43.4782608695652,4,1,1,60,0,1
230408,-1000,4,1,1,60,0,1
230443,-62.5,4,1,1,60,0,1
230502,-250,4,1,1,60,0,1
230560,-31.25,4,1,1,60,0,1
230577,-1000,4,1,1,60,0,1
230618,-31.25,4,1,1,60,0,1
230635,-1000,4,1,1,60,0,1
230677,-31.25,4,1,1,60,0,1
230694,-1000,4,1,1,60,0,1
230735,-31.25,4,1,1,60,0,1
230752,-1000,4,1,1,60,0,1
230795,-31.25,4,1,1,60,0,1
230812,-1000,4,1,1,60,0,1
230853,-31.25,4,1,1,60,0,1
230870,-1000,4,1,1,60,0,1
230912,-43.4782608695652,4,1,1,60,0,1
230936,-1000,4,1,1,60,0,1
230971,-43.4782608695652,4,1,1,60,0,1
230995,-1000,4,1,1,60,0,1
231029,-43.4782608695652,4,1,1,60,0,1
231053,-1000,4,1,1,60,0,1
231088,-43.4782608695652,4,1,1,60,0,1
231112,-1000,4,1,1,60,0,1
231146,-43.4782608695652,4,1,1,60,0,1
231170,-1000,4,1,1,60,0,1
231205,-43.4782608695652,4,1,1,60,0,1
231229,-1000,4,1,1,60,0,1
231263,-40,4,1,1,60,0,1
231293,-200,4,1,1,60,0,1
231380,-43.4782608695652,4,1,1,60,0,1
231404,-1000,4,1,1,60,0,1
231439,-43.4782608695652,4,1,1,60,0,1
231463,-1000,4,1,1,60,0,1
231498,-50,4,1,1,60,0,1
231527,-125,4,1,1,60,0,1
231615,-62.5,4,1,1,60,0,1
231644,-250,4,1,1,60,0,1
231673,-62.5,4,1,1,60,0,1
231702,-250,4,1,1,60,0,1
231732,-40,4,1,1,60,0,1
231761,-200,4,1,1,60,0,1
231849,-45.4545454545455,4,1,1,60,0,1
231878,-166.666666666667,4,1,1,60,0,1
231966,-45.4545454545455,4,1,1,60,0,1
231996,-166.666666666667,4,1,1,60,0,1
232084,-100,4,1,1,60,0,1
232201,-62.5,4,1,1,60,0,1
232259,-250,4,1,1,60,0,1
232318,-62.5,4,1,1,60,0,1
232376,-250,4,1,1,60,0,1
232435,-62.5,4,1,1,60,0,1
232493,-250,4,1,1,60,0,1
232552,-62.5,4,1,1,60,0,1
232610,-250,4,1,1,60,0,1
232670,-40,4,1,1,60,0,1
232728,-200,4,1,1,60,0,1
232904,-43.4782608695652,4,1,1,60,0,1
232928,-1000,4,1,1,60,0,1
232963,-43.4782608695652,4,1,1,60,0,1
232987,-1000,4,1,1,60,0,1
233021,-43.4782608695652,4,1,1,60,0,1
233045,-1000,4,1,1,60,0,1
233080,-43.4782608695652,4,1,1,60,0,1
233104,-1000,4,1,1,60,0,1
233138,-40,4,1,1,60,0,1
233153,-200,4,1,1,60,0,1
233197,-100,4,1,1,60,0,1
233255,-40,4,1,1,60,0,1
233270,-200,4,1,1,60,0,1
233314,-100,4,1,1,60,0,1
233373,-40,4,1,1,60,0,1
233388,-200,4,1,1,60,0,1
233432,-100,4,1,1,60,0,1
233490,-45.4545454545455,4,1,1,60,0,1
233519,-166.666666666667,4,1,1,60,0,1
233607,-40,4,1,1,60,0,1
233627,-200,4,1,1,60,0,1
233685,-40,4,1,1,60,0,1
233705,-200,4,1,1,60,0,1
233763,-40,4,1,1,60,0,1
233783,-200,4,1,1,60,0,1
233841,-40,4,1,1,60,0,1
233861,-200,4,1,1,60,0,1
233920,-40,4,1,1,60,0,1
233940,-200,4,1,1,60,0,1
233998,-40,4,1,1,60,0,1
234018,-200,4,1,1,60,0,1
234076,-40,4,1,1,60,0,1
234096,-200,4,1,1,60,0,1
234154,-40,4,1,1,60,0,1
234174,-200,4,1,1,60,0,1
234232,-40,4,1,1,60,0,1
234252,-200,4,1,1,60,0,1
234310,-40,4,1,1,60,0,1
234330,-200,4,1,1,60,0,1
234388,-40,4,1,1,60,0,1
234408,-200,4,1,1,60,0,1
234466,-40,4,1,1,60,0,1
234486,-200,4,1,1,60,0,1
234545,-40,4,1,1,60,0,1
234603,-200,4,1,1,60,0,1
234779,-43.4782608695652,4,1,1,60,0,1
234803,-1000,4,1,1,60,0,1
234838,-43.4782608695652,4,1,1,60,0,1
234862,-1000,4,1,1,60,0,1
234896,-43.4782608695652,4,1,1,60,0,1
234920,-1000,4,1,1,60,0,1
234955,-43.4782608695652,4,1,1,60,0,1
234979,-1000,4,1,1,60,0,1
235013,-45.4545454545455,4,1,1,60,0,1
235028,-166.666666666667,4,1,1,60,0,1
235072,-100,4,1,1,60,0,1
235130,-40,4,1,1,60,0,1
235145,-200,4,1,1,60,0,1
235189,-100,4,1,1,60,0,1
235365,-40,4,1,1,60,0,1
235380,-200,4,1,1,60,0,1
235424,-100,4,1,1,60,0,1
235482,-40,4,1,1,60,0,1
235541,-200,4,1,1,60,0,1
235716,-55.5555555555556,4,1,1,60,0,1
235736,-500,4,1,1,60,0,1
235755,-55.5555555555556,4,1,1,60,0,1
235775,-500,4,1,1,60,0,1
235795,-55.5555555555556,4,1,1,60,0,1
235814,-500,4,1,1,60,0,1
235834,-55.5555555555556,4,1,1,60,0,1
235853,-500,4,1,1,60,0,1
235873,-55.5555555555556,4,1,1,60,0,1
235892,-500,4,1,1,60,0,1
235912,-55.5555555555556,4,1,1,60,0,1
235931,-500,4,1,1,60,0,1
235951,-100,4,1,1,60,0,1
236244,-43.4782608695652,4,1,1,60,0,1
236268,-1000,4,1,1,60,0,1
236302,-43.4782608695652,4,1,1,60,0,1
236326,-1000,4,1,1,60,0,1
236361,-43.4782608695652,4,1,1,60,0,1
236385,-1000,4,1,1,60,0,1
236420,-40,4,1,1,60,0,1
236449,-200,4,1,1,60,0,1
236537,-125,4,1,1,60,0,1
236625,-50,4,1,1,60,0,1
236654,-40,4,1,1,60,0,1
236712,-200,4,1,1,60,0,1
236888,-125,4,1,1,60,0,1
236976,-50,4,1,1,60,0,1
237005,-40,4,1,1,60,0,1
237064,-200,4,1,1,60,0,1
237240,-125,4,1,1,60,0,1
237328,-50,4,1,1,60,0,1
237357,-500,4,1,1,60,0,1
237396,-10000,4,1,1,60,0,1
237435,-500,4,1,1,60,0,1
237474,-10000,4,1,1,60,0,1
237513,-500,4,1,1,60,0,1
237552,-10000,4,1,1,60,0,1
237591,-500,4,1,1,60,0,1
237630,-10000,4,1,1,60,0,1
237670,-500,4,1,1,60,0,1
237709,-10000,4,1,1,60,0,1
237748,-250,4,1,1,60,0,1
237787,-10000,4,1,1,60,0,1
237826,-250,4,1,1,60,0,1
237865,-10000,4,1,1,60,0,1
237904,-250,4,1,1,60,0,1
237943,-10000,4,1,1,60,0,1
237982,-250,4,1,1,60,0,1
238021,-10000,4,1,1,60,0,1
238060,-166.666666666667,4,1,1,60,0,1
238099,-10000,4,1,1,60,0,1
238138,-166.666666666667,4,1,1,60,0,1
238177,-10000,4,1,1,60,0,1
238216,-166.666666666667,4,1,1,60,0,1
238255,-10000,4,1,1,60,0,1
238295,-166.666666666667,4,1,1,60,0,1
238334,-10000,4,1,1,60,0,1
238373,-125,4,1,1,60,0,1
238412,-10000,4,1,1,60,0,1
238451,-125,4,1,1,60,0,1
238490,-10000,4,1,1,60,0,1
238529,-125,4,1,1,60,0,1
238568,-10000,4,1,1,60,0,1
238607,-125,4,1,1,60,0,1
238646,-10000,4,1,1,60,0,1
238685,-125,4,1,1,60,0,1
238724,-10000,4,1,1,60,0,1
238763,-83.3333333333333,4,1,1,60,0,1
238802,-10000,4,1,1,60,0,1
238841,-66.6666666666667,4,1,1,60,0,1
238880,-10000,4,1,1,60,0,1
238920,-55.5555555555556,4,1,1,60,0,1
238959,-10000,4,1,1,60,0,1
238998,-47.6190476190476,4,1,1,60,0,1
239037,-10000,4,1,1,60,0,1
239076,-43.4782608695652,4,1,1,60,0,1
239115,-10000,4,1,1,60,0,1
239154,-40,4,1,1,60,0,1
239193,-10000,4,1,1,60,0,1
239232,-100,4,1,1,60,0,1
239466,-62.5,4,1,1,60,0,1
239525,-250,4,1,1,60,0,1
239584,-62.5,4,1,1,60,0,1
239643,-250,4,1,1,60,0,1
239701,-45.4545454545455,4,1,1,60,0,1
239730,-166.666666666667,4,1,1,60,0,1
239818,-100,4,1,1,60,0,1
239935,-45.4545454545455,4,1,1,60,0,1
239964,-166.666666666667,4,1,1,60,0,1
240052,-100,4,1,1,60,0,1
240170,-125,4,1,1,60,0,0
262670,-125,4,1,1,50,0,0
268295,-125,4,1,1,40,0,0
268529,-125,4,1,1,37,0,0
268880,-125,4,1,1,35,0,0
269232,-125,4,1,1,32,0,0
269584,-125,4,1,1,30,0,0
269935,-125,4,1,1,27,0,0
270404,-125,4,1,1,25,0,0
270873,-125,4,1,1,22,0,0
271341,-125,4,1,1,20,0,0
271810,-125,4,1,1,17,0,0
272279,-125,4,1,1,15,0,0

[HitObjects]
64,192,170,5,0,0:0:0:0:
320,192,170,128,0,3920:0:0:0:70:sweep.wav
448,192,170,1,2,0:0:0:0:
448,192,1869,1,0,0:0:0:0:
192,192,2045,1,0,0:0:0:0:
192,192,2396,1,0,0:0:0:0:
64,192,2748,1,0,0:0:0:0:
64,192,3099,1,0,0:0:0:0:
448,192,3451,1,0,0:0:0:0:
192,192,3920,1,0,0:0:0:0:
64,192,3920,128,0,5326:0:0:0:0:
320,192,4271,1,0,0:0:0:0:
320,192,4623,1,0,0:0:0:0:
320,192,4974,1,0,0:0:0:0:
320,192,5326,1,0,0:0:0:0:
192,192,5443,1,0,0:0:0:0:
64,192,5560,1,0,0:0:0:0:
192,192,5619,1,0,0:0:0:0:
320,192,5677,1,0,0:0:0:0:
448,192,5795,1,0,0:0:0:0:
320,192,6029,1,0,0:0:0:0:
192,192,6146,1,0,0:0:0:0:
64,192,6380,1,0,0:0:0:0:
448,192,6498,1,0,0:0:0:0:
192,192,6732,1,0,0:0:0:0:
448,192,6849,1,0,0:0:0:0:
320,192,7084,1,0,0:0:0:0:
192,192,7201,1,0,0:0:0:0:
192,192,7435,1,0,0:0:0:0:
64,192,7670,1,0,0:0:0:0:
320,192,7670,1,0,0:0:0:0:
192,192,7787,1,0,0:0:0:0:
448,192,7904,1,0,0:0:0:0:
320,192,8021,1,0,0:0:0:0:
64,192,8138,1,0,0:0:0:0:
448,192,8255,1,0,0:0:0:0:
192,192,8373,1,0,0:0:0:0:
320,192,8490,1,0,0:0:0:0:
64,192,8607,1,0,0:0:0:0:
192,192,8724,1,0,0:0:0:0:
448,192,8841,1,0,0:0:0:0:
64,192,8959,1,0,0:0:0:0:
320,192,9076,1,0,0:0:0:0:
448,192,9193,1,0,0:0:0:0:
64,192,9310,1,0,0:0:0:0:
192,192,9369,1,0,0:0:0:0:
320,192,9427,1,0,0:0:0:0:
448,192,9545,1,0,0:0:0:0:
64,192,9545,1,0,0:0:0:0:
192,192,9662,1,0,0:0:0:0:
64,192,9779,1,0,0:0:0:0:
448,192,9896,1,0,0:0:0:0:
320,192,9896,1,0,0:0:0:0:
192,192,10013,1,0,0:0:0:0:
320,192,10130,1,0,0:0:0:0:
448,192,10248,1,0,0:0:0:0:
64,192,10248,1,0,0:0:0:0:
192,192,10365,1,0,0:0:0:0:
320,192,10482,1,0,0:0:0:0:
64,192,10599,1,0,0:0:0:0:
448,192,10599,1,0,0:0:0:0:
192,192,10716,1,0,0:0:0:0:
320,192,10834,1,0,0:0:0:0:
192,192,10951,1,0,0:0:0:0:
64,192,10951,1,0,0:0:0:0:
320,192,11068,1,0,0:0:0:0:
448,192,11185,1,0,0:0:0:0:
192,192,11302,1,0,0:0:0:0:
448,192,11420,1,0,0:0:0:0:
64,192,11420,1,0,0:0:0:0:
320,192,11537,1,0,0:0:0:0:
64,192,11654,1,0,0:0:0:0:
448,192,11771,1,0,0:0:0:0:
192,192,11888,1,0,0:0:0:0:
320,192,12005,1,0,0:0:0:0:
448,192,12123,1,0,0:0:0:0:
64,192,12240,1,0,0:0:0:0:
448,192,12357,1,0,0:0:0:0:
192,192,12474,1,0,0:0:0:0:
64,192,12591,1,0,0:0:0:0:
448,192,12709,1,0,0:0:0:0:
320,192,12767,1,0,0:0:0:0:
192,192,12826,1,0,0:0:0:0:
448,192,12943,1,0,0:0:0:0:
64,192,13060,1,0,0:0:0:0:
192,192,13177,1,0,0:0:0:0:
448,192,13295,1,0,0:0:0:0:
320,192,13295,1,0,0:0:0:0:
192,192,13412,1,0,0:0:0:0:
64,192,13529,1,0,0:0:0:0:
320,192,13646,1,0,0:0:0:0:
192,192,13763,1,0,0:0:0:0:
320,192,13880,1,0,0:0:0:0:
64,192,13998,1,0,0:0:0:0:
448,192,14115,1,0,0:0:0:0:
320,192,14232,1,0,0:0:0:0:
64,192,14349,1,0,0:0:0:0:
192,192,14466,1,0,0:0:0:0:
448,192,14584,1,0,0:0:0:0:
320,192,14642,1,0,0:0:0:0:
192,192,14701,1,0,0:0:0:0:
448,192,14818,1,0,0:0:0:0:
320,192,14935,1,0,0:0:0:0:
64,192,15052,1,0,0:0:0:0:
192,192,15170,1,0,0:0:0:0:
448,192,15170,1,0,0:0:0:0:
320,192,15287,1,0,0:0:0:0:
192,192,15404,1,0,0:0:0:0:
448,192,15521,1,0,0:0:0:0:
64,192,15638,1,0,0:0:0:0:
320,192,15755,1,0,0:0:0:0:
192,192,15873,1,0,0:0:0:0:
448,192,15990,1,0,0:0:0:0:
64,192,16107,1,0,0:0:0:0:
320,192,16224,1,0,0:0:0:0:
448,192,16341,1,0,0:0:0:0:
192,192,16459,1,0,0:0:0:0:
320,192,16576,1,0,0:0:0:0:
64,192,16693,1,0,0:0:0:0:
320,192,16810,1,0,0:0:0:0:
192,192,16869,1,0,0:0:0:0:
64,192,16927,1,0,0:0:0:0:
320,192,17045,1,0,0:0:0:0:
448,192,17045,1,0,0:0:0:0:
192,192,17162,1,0,0:0:0:0:
320,192,17279,1,0,0:0:0:0:
448,192,17396,1,0,0:0:0:0:
64,192,17396,1,0,0:0:0:0:
192,192,17513,1,0,0:0:0:0:
320,192,17630,1,0,0:0:0:0:
448,192,17748,1,0,0:0:0:0:
192,192,17748,1,0,0:0:0:0:
64,192,17865,1,0,0:0:0:0:
320,192,17982,1,0,0:0:0:0:
192,192,18099,1,0,0:0:0:0:
64,192,18099,1,0,0:0:0:0:
448,192,18216,1,0,0:0:0:0:
64,192,18334,1,0,0:0:0:0:
192,192,18451,1,0,0:0:0:0:
448,192,18451,1,0,0:0:0:0:
320,192,18568,1,0,0:0:0:0:
192,192,18685,1,0,0:0:0:0:
448,192,18802,1,0,0:0:0:0:
320,192,18920,1,0,0:0:0:0:
64,192,18920,1,0,0:0:0:0:
192,192,19037,1,0,0:0:0:0:
320,192,19154,1,0,0:0:0:0:
64,192,19271,1,0,0:0:0:0:
192,192,19388,1,0,0:0:0:0:
448,192,19505,1,0,0:0:0:0:
192,192,19623,1,0,0:0:0:0:
320,192,19740,1,0,0:0:0:0:
64,192,19857,1,0,0:0:0:0:
448,192,19974,1,0,0:0:0:0:
320,192,20091,1,0,0:0:0:0:
192,192,20209,1,0,0:0:0:0:
448,192,20326,1,0,0:0:0:0:
64,192,20443,1,0,0:0:0:0:
320,192,20560,1,0,0:0:0:0:
192,192,20619,1,0,0:0:0:0:
64,192,20677,1,0,0:0:0:0:
320,192,20795,1,0,0:0:0:0:
448,192,20795,1,0,0:0:0:0:
192,192,20912,1,0,0:0:0:0:
320,192,21029,1,0,0:0:0:0:
64,192,21146,1,0,0:0:0:0:
448,192,21146,1,0,0:0:0:0:
192,192,21263,1,0,0:0:0:0:
64,192,21380,1,0,0:0:0:0:
320,192,21498,1,0,0:0:0:0:
448,192,21498,1,0,0:0:0:0:
192,192,21615,1,0,0:0:0:0:
320,192,21732,1,0,0:0:0:0:
64,192,21849,1,0,0:0:0:0:
448,192,21849,1,0,0:0:0:0:
192,192,21966,1,0,0:0:0:0:
320,192,22084,1,0,0:0:0:0:
192,192,22201,1,0,0:0:0:0:
64,192,22201,1,0,0:0:0:0:
448,192,22318,1,0,0:0:0:0:
64,192,22435,1,0,0:0:0:0:
320,192,22552,1,0,0:0:0:0:
448,192,22670,1,0,0:0:0:0:
64,192,22670,1,0,0:0:0:0:
192,192,22787,1,0,0:0:0:0:
320,192,22904,1,0,0:0:0:0:
64,192,23021,1,0,0:0:0:0:
448,192,23138,1,0,0:0:0:0:
192,192,23255,1,0,0:0:0:0:
320,192,23373,1,0,0:0:0:0:
64,192,23490,1,0,0:0:0:0:
320,192,23607,1,0,0:0:0:0:
192,192,23724,1,0,0:0:0:0:
448,192,23841,1,0,0:0:0:0:
64,192,23959,1,0,0:0:0:0:
320,192,24076,1,0,0:0:0:0:
448,192,24193,1,0,0:0:0:0:
192,192,24310,1,0,0:0:0:0:
320,192,24369,1,0,0:0:0:0:
448,192,24427,1,0,0:0:0:0:
192,192,24545,1,0,0:0:0:0:
64,192,24545,1,0,0:0:0:0:
320,192,24662,1,0,0:0:0:0:
64,192,24779,1,0,0:0:0:0:
448,192,24896,1,0,0:0:0:0:
192,192,24896,1,0,0:0:0:0:
320,192,25013,1,0,0:0:0:0:
192,192,25130,1,0,0:0:0:0:
448,192,25248,1,0,0:0:0:0:
64,192,25248,1,0,0:0:0:0:
320,192,25365,1,0,0:0:0:0:
192,192,25482,1,0,0:0:0:0:
448,192,25599,1,0,0:0:0:0:
320,192,25599,1,0,0:0:0:0:
64,192,25716,1,0,0:0:0:0:
448,192,25834,1,0,0:0:0:0:
64,192,25951,1,0,0:0:0:0:
192,192,25951,1,0,0:0:0:0:
320,192,26068,1,0,0:0:0:0:
448,192,26185,1,0,0:0:0:0:
192,192,26302,1,0,0:0:0:0:
448,192,26420,1,0,0:0:0:0:
320,192,26420,128,0,26771:0:0:0:0:
64,192,26537,1,0,0:0:0:0:
448,192,26654,1,0,0:0:0:0:
192,192,26771,128,0,27123:0:0:0:0:
64,192,26888,1,0,0:0:0:0:
320,192,27005,1,0,0:0:0:0:
448,192,27123,128,0,27474:0:0:0:0:
64,192,27240,1,0,0:0:0:0:
320,192,27357,1,0,0:0:0:0:
64,192,27474,128,0,27826:0:0:0:0:
192,192,27591,1,0,0:0:0:0:
448,192,27709,1,0,0:0:0:0:
320,192,27826,128,0,28177:0:0:0:0:
192,192,27943,1,0,0:0:0:0:
448,192,28060,1,0,0:0:0:0:
192,192,28177,128,0,28529:0:0:0:0:
448,192,28295,1,0,0:0:0:0:
64,192,28295,1,0,0:0:0:0:
320,192,28412,1,0,0:0:0:0:
448,192,28529,128,0,28880:0:0:0:0:
64,192,28646,1,0,0:0:0:0:
320,192,28763,1,0,0:0:0:0:
64,192,28880,128,0,29232:0:0:0:0:
192,192,28998,1,0,0:0:0:0:
448,192,29115,1,0,0:0:0:0:
192,192,29232,128,0,29466:0:0:0:0:
448,192,29349,1,0,0:0:0:0:
320,192,29466,1,0,0:0:0:0:
192,192,29584,1,2,0:0:0:0:
64,192,29584,1,0,0:0:0:0:
320,192,29642,1,2,0:0:0:0:
64,192,29701,1,0,0:0:0:0:
448,192,29701,1,2,0:0:0:0:
320,192,29818,1,0,0:0:0:0:
448,192,29818,1,2,0:0:0:0:
64,192,29935,1,0,0:0:0:0:
192,192,29935,1,2,0:0:0:0:
192,192,30052,1,2,0:0:0:0:
64,192,30170,1,0,0:0:0:0:
320,192,30170,1,0,0:0:0:0:
448,192,30170,1,0,0:0:0:70:finish.wav
320,192,30287,1,0,0:0:0:0:
192,192,30404,1,0,0:0:0:0:
448,192,30521,1,0,0:0:0:0:
448,192,30638,1,0,0:0:0:0:
64,192,30755,1,0,0:0:0:0:
448,192,30873,1,0,0:0:0:0:
448,192,30990,1,0,0:0:0:0:
64,192,31107,1,0,0:0:0:0:
448,192,31224,1,0,0:0:0:0:
448,192,31341,1,0,0:0:0:0:
64,192,31459,1,0,0:0:0:0:
448,192,31576,1,0,0:0:0:0:
448,192,31693,1,0,0:0:0:0:
192,192,31810,1,0,0:0:0:0:
192,192,31927,1,0,0:0:0:0:
320,192,32045,1,0,0:0:0:0:
320,192,32162,1,0,0:0:0:0:
64,192,32279,1,0,0:0:0:0:
320,192,32396,1,0,0:0:0:0:
320,192,32513,1,0,0:0:0:0:
64,192,32630,1,0,0:0:0:0:
320,192,32748,1,0,0:0:0:0:
320,192,32865,1,0,0:0:0:0:
64,192,32982,1,0,0:0:0:0:
320,192,33099,1,0,0:0:0:0:
320,192,33216,1,0,0:0:0:0:
64,192,33334,1,0,0:0:0:0:
448,192,33451,1,0,0:0:0:0:
448,192,33568,1,0,0:0:0:0:
192,192,33685,1,0,0:0:0:0:
192,192,33802,1,0,0:0:0:0:
448,192,33920,1,0,0:0:0:0:
448,192,34037,1,0,0:0:0:0:
64,192,34154,1,0,0:0:0:0:
448,192,34271,1,0,0:0:0:0:
448,192,34388,1,0,0:0:0:0:
64,192,34505,1,0,0:0:0:0:
448,192,34623,1,0,0:0:0:0:
448,192,34740,1,0,0:0:0:0:
64,192,34857,1,0,0:0:0:0:
448,192,34974,1,0,0:0:0:0:
448,192,35091,1,0,0:0:0:0:
64,192,35209,1,0,0:0:0:0:
320,192,35326,1,0,0:0:0:0:
320,192,35443,1,0,0:0:0:0:
192,192,35560,1,0,0:0:0:0:
192,192,35677,1,0,0:0:0:0:
448,192,35795,1,0,0:0:0:0:
448,192,35912,1,0,0:0:0:0:
192,192,36029,1,0,0:0:0:0:
448,192,36146,1,0,0:0:0:0:
448,192,36263,1,0,0:0:0:0:
192,192,36380,1,0,0:0:0:0:
448,192,36498,1,0,0:0:0:0:
448,192,36615,1,0,0:0:0:0:
192,192,36732,1,0,0:0:0:0:
448,192,36849,1,0,0:0:0:0:
448,192,36966,1,0,0:0:0:0:
192,192,37084,1,0,0:0:0:0:
320,192,37201,1,0,0:0:0:0:
320,192,37318,1,0,0:0:0:0:
64,192,37435,1,0,0:0:0:0:
64,192,37552,1,0,0:0:0:0:
448,192,37670,1,0,0:0:0:0:
192,192,37787,1,0,0:0:0:0:
192,192,37904,1,0,0:0:0:0:
448,192,38021,1,0,0:0:0:0:
192,192,38138,1,0,0:0:0:0:
192,192,38255,1,0,0:0:0:0:
448,192,38373,1,0,0:0:0:0:
192,192,38490,1,0,0:0:0:0:
192,192,38607,1,0,0:0:0:0:
448,192,38724,1,0,0:0:0:0:
192,192,38841,1,0,0:0:0:0:
192,192,38959,1,0,0:0:0:0:
320,192,39076,1,0,0:0:0:0:
320,192,39193,1,0,0:0:0:0:
192,192,39310,1,0,0:0:0:0:
192,192,39427,1,0,0:0:0:0:
320,192,39545,1,0,0:0:0:0:
64,192,39662,1,0,0:0:0:0:
64,192,39779,1,0,0:0:0:0:
320,192,39896,1,0,0:0:0:0:
64,192,40013,1,0,0:0:0:0:
64,192,40130,1,0,0:0:0:0:
320,192,40248,1,0,0:0:0:0:
64,192,40365,1,0,0:0:0:0:
64,192,40482,1,0,0:0:0:0:
320,192,40599,1,0,0:0:0:0:
64,192,40716,1,0,0:0:0:0:
64,192,40834,1,0,0:0:0:0:
448,192,40951,1,0,0:0:0:0:
448,192,41068,1,0,0:0:0:0:
192,192,41185,1,0,0:0:0:0:
192,192,41302,1,0,0:0:0:0:
320,192,41420,1,0,0:0:0:0:
320,192,41537,1,0,0:0:0:0:
64,192,41654,1,0,0:0:0:0:
320,192,41771,1,0,0:0:0:0:
320,192,41888,1,0,0:0:0:0:
64,192,42005,1,0,0:0:0:0:
320,192,42123,1,0,0:0:0:0:
320,192,42240,1,0,0:0:0:0:
64,192,42357,1,0,0:0:0:0:
320,192,42474,1,0,0:0:0:0:
320,192,42591,1,0,0:0:0:0:
64,192,42709,1,0,0:0:0:0:
448,192,42826,1,0,0:0:0:0:
448,192,42943,1,0,0:0:0:0:
64,192,43060,1,0,0:0:0:0:
64,192,43177,1,0,0:0:0:0:
448,192,43295,1,0,0:0:0:0:
192,192,43412,1,0,0:0:0:0:
192,192,43529,1,0,0:0:0:0:
448,192,43646,1,0,0:0:0:0:
192,192,43763,1,0,0:0:0:0:
192,192,43880,1,0,0:0:0:0:
448,192,43998,1,0,0:0:0:0:
192,192,44115,1,0,0:0:0:0:
192,192,44232,1,0,0:0:0:0:
448,192,44349,1,0,0:0:0:0:
192,192,44466,1,0,0:0:0:0:
192,192,44584,1,0,0:0:0:0:
320,192,44701,1,0,0:0:0:0:
320,192,44818,1,0,0:0:0:0:
192,192,44935,1,0,0:0:0:0:
192,192,45052,1,0,0:0:0:0:
64,192,45170,1,0,0:0:0:0:
320,192,45170,1,0,0:0:0:0:
448,192,45170,1,0,0:0:0:70:finish.wav
192,192,45287,1,0,0:0:0:0:
320,192,45404,1,0,0:0:0:0:
192,192,45521,1,0,0:0:0:0:
64,192,45638,1,0,0:0:0:40:Muted Snare.wav
448,192,45638,1,0,0:0:0:0:
320,192,45755,1,0,0:0:0:0:
448,192,45873,1,0,0:0:0:0:
64,192,45990,1,0,0:0:0:0:
192,192,46107,1,0,0:0:0:0:
64,192,46224,1,0,0:0:0:0:
448,192,46341,1,0,0:0:0:0:
320,192,46459,1,0,0:0:0:0:
448,192,46576,1,0,0:0:0:0:
192,192,46576,1,0,0:0:0:40:Muted Snare.wav
64,192,46693,1,0,0:0:0:0:
320,192,46810,1,0,0:0:0:0:
192,192,46927,1,0,0:0:0:0:
320,192,47045,1,0,0:0:0:70:kick.wav
448,192,47045,1,0,0:0:0:0:
64,192,47162,1,0,0:0:0:0:
320,192,47279,1,0,0:0:0:0:
192,192,47396,1,0,0:0:0:0:
448,192,47513,1,0,0:0:0:0:
320,192,47513,1,0,0:0:0:40:Muted Snare.wav
192,192,47630,1,0,0:0:0:0:
448,192,47748,1,0,0:0:0:0:
64,192,47865,1,0,0:0:0:0:
192,192,47865,1,0,0:0:0:70:kick.wav
448,192,47982,1,0,0:0:0:0:
64,192,48099,1,0,0:0:0:0:
320,192,48216,1,0,0:0:0:0:
64,192,48334,1,0,0:0:0:0:
320,192,48451,1,0,0:0:0:40:Muted Snare.wav
448,192,48451,1,0,0:0:0:0:
192,192,48568,1,0,0:0:0:70:kick.wav
64,192,48568,1,0,0:0:0:0:
448,192,48685,1,0,0:0:0:0:
320,192,48802,1,0,0:0:0:0:
64,192,48920,1,0,0:0:0:0:
192,192,48920,1,0,0:0:0:70:kick.wav
448,192,49037,1,0,0:0:0:0:
64,192,49154,1,0,0:0:0:0:
320,192,49271,1,0,0:0:0:0:
192,192,49271,1,0,0:0:0:70:kick.wav
448,192,49388,1,0,0:0:0:40:Muted Snare.wav
64,192,49388,1,0,0:0:0:0:
320,192,49505,1,0,0:0:0:0:
192,192,49623,1,0,0:0:0:0:
320,192,49740,1,0,0:0:0:70:kick.wav
448,192,49740,1,0,0:0:0:0:
192,192,49857,1,0,0:0:0:0:
448,192,49974,1,0,0:0:0:0:
64,192,50091,1,0,0:0:0:0:
320,192,50209,1,0,0:0:0:0:
64,192,50326,1,0,0:0:0:0:
192,192,50326,1,0,0:0:0:40:Muted Snare.wav
448,192,50443,1,0,0:0:0:0:
320,192,50560,1,0,0:0:0:0:
192,192,50677,1,0,0:0:0:0:
64,192,50795,1,0,0:0:0:70:kick.wav
448,192,50795,1,0,0:0:0:0:
320,192,50912,1,0,0:0:0:0:
448,192,51029,1,0,0:0:0:0:
64,192,51146,1,0,0:0:0:0:
192,192,51263,1,0,0:0:0:40:Muted Snare.wav
448,192,51263,1,0,0:0:0:0:
64,192,51380,1,0,0:0:0:0:
320,192,51498,1,0,0:0:0:0:
64,192,51615,1,0,0:0:0:0:
192,192,51615,1,0,0:0:0:70:kick.wav
448,192,51732,1,0,0:0:0:0:
320,192,51849,1,0,0:0:0:0:
64,192,51966,1,0,0:0:0:0:
192,192,51966,1,0,0:0:0:70:kick.wav
320,192,52084,1,0,0:0:0:0:
64,192,52201,1,0,0:0:0:0:
448,192,52201,1,0,0:0:0:40:Muted Snare.wav
192,192,52318,1,0,0:0:0:70:kick.wav
320,192,52318,1,0,0:0:0:0:
448,192,52435,1,0,0:0:0:0:
64,192,52552,1,0,0:0:0:0:
448,192,52670,1,2,0:0:0:0:
192,192,52670,1,0,0:0:0:0:
448,192,52787,1,2,0:0:0:0:
64,192,52787,1,0,0:0:0:0:
320,192,52904,1,2,0:0:0:0:
64,192,52904,1,0,0:0:0:0:
448,192,53021,1,0,0:0:0:0:
320,192,53021,1,2,0:0:0:0:
64,192,53138,1,0,0:0:0:0:
192,192,53138,1,2,0:0:0:0:
448,192,53255,1,0,0:0:0:0:
192,192,53255,1,2,0:0:0:0:
320,192,53373,1,2,0:0:0:0:
448,192,53373,1,0,0:0:0:0:
64,192,53490,1,0,0:0:0:0:
320,192,53490,1,2,0:0:0:0:
448,192,53607,1,0,0:0:0:0:
192,192,53607,1,2,0:0:0:0:
192,192,53724,1,2,0:0:0:0:
64,192,53724,1,0,0:0:0:0:
64,192,53841,1,0,0:0:0:0:
448,192,53841,1,2,0:0:0:0:
320,192,53959,1,0,0:0:0:0:
448,192,53959,1,2,0:0:0:0:
192,192,54076,1,2,0:0:0:0:
64,192,54076,1,0,0:0:0:0:
192,192,54193,1,2,0:0:0:0:
448,192,54193,1,0,0:0:0:0:
64,192,54310,1,2,0:0:0:0:
448,192,54310,1,0,0:0:0:0:
320,192,54427,1,0,0:0:0:0:
64,192,54427,1,2,0:0:0:0:
192,192,54545,1,0,0:0:0:0:
448,192,54545,1,2,0:0:0:0:
448,192,54662,1,2,0:0:0:0:
64,192,54662,1,0,0:0:0:0:
64,192,54779,1,0,0:0:0:0:
192,192,54779,1,2,0:0:0:0:
320,192,54896,1,2,0:0:0:0:
448,192,54896,1,0,0:0:0:0:
192,192,55013,1,2,0:0:0:0:
64,192,55013,1,0,0:0:0:0:
192,192,55130,1,2,0:0:0:0:
64,192,55130,1,0,0:0:0:0:
320,192,55248,1,2,0:0:0:0:
448,192,55248,1,0,0:0:0:0:
320,192,55365,1,2,0:0:0:0:
448,192,55365,1,0,0:0:0:0:
64,192,55482,1,0,0:0:0:0:
192,192,55482,1,2,0:0:0:0:
64,192,55599,1,0,0:0:0:0:
192,192,55599,1,2,0:0:0:0:
448,192,55716,1,0,0:0:0:0:
320,192,55716,1,2,0:0:0:0:
320,192,55834,1,2,0:0:0:0:
448,192,55834,1,0,0:0:0:0:
192,192,55951,1,2,0:0:0:0:
64,192,55951,1,0,0:0:0:0:
64,192,56068,1,0,0:0:0:0:
192,192,56068,1,2,0:0:0:0:
448,192,56185,1,0,0:0:0:0:
320,192,56185,1,2,0:0:0:0:
320,192,56302,1,2,0:0:0:0:
448,192,56302,1,0,0:0:0:0:
192,192,56420,1,0,0:0:0:70:snare1.wav
64,192,56420,1,0,0:0:0:0:
448,192,56478,1,0,0:0:0:70:snare1.wav
320,192,56537,1,0,0:0:0:70:snare1.wav
192,192,56595,1,0,0:0:0:70:snare1.wav
64,192,56654,1,0,0:0:0:70:snare1.wav
448,192,56712,1,0,0:0:0:70:snare1.wav
320,192,56771,1,0,0:0:0:70:snare1.wav
64,192,56830,1,0,0:0:0:70:snare1.wav
192,192,56888,1,0,0:0:0:70:snare1.wav
320,192,56947,1,0,0:0:0:70:snare1.wav
448,192,57005,1,0,0:0:0:70:snare1.wav
192,192,57064,1,0,0:0:0:70:snare1.wav
64,192,57123,1,0,0:0:0:70:snare1.wav
448,192,57181,1,0,0:0:0:70:snare1.wav
320,192,57240,1,0,0:0:0:70:snare1.wav
64,192,57298,1,0,0:0:0:70:snare1.wav
192,192,57357,1,0,0:0:0:70:snare1.wav
320,192,57416,1,0,0:0:0:70:snare1.wav
64,192,57474,1,0,0:0:0:70:snare1.wav
192,192,57533,1,0,0:0:0:70:snare1.wav
448,192,57591,1,0,0:0:0:70:snare1.wav
64,192,57650,1,0,0:0:0:70:snare1.wav
320,192,57709,1,0,0:0:0:70:snare1.wav
448,192,57767,1,0,0:0:0:70:snare1.wav
192,192,57826,1,0,0:0:0:70:snare1.wav
320,192,57884,1,0,0:0:0:70:snare1.wav
64,192,57943,1,0,0:0:0:70:snare1.wav
192,192,58002,1,0,0:0:0:70:snare1.wav
448,192,58060,1,0,0:0:0:70:snare1.wav
64,192,58119,1,0,0:0:0:70:snare1.wav
320,192,58177,1,0,0:0:0:70:snare1.wav
448,192,58236,1,0,0:0:0:70:snare1.wav
64,192,58295,1,2,0:0:0:0:
192,192,58295,1,0,0:0:0:0:
448,192,58529,128,0,59115:0:0:0:0:
192,192,58529,128,0,59349:0:0:0:0:
320,192,58763,128,0,59466:0:0:0:0:
64,192,58998,128,0,59349:0:0:0:0:
448,192,59232,128,0,59466:0:0:0:0:
192,192,59466,1,0,0:0:0:70:Tom1.wav
64,192,59466,1,0,0:0:0:0:
192,192,59584,1,0,0:0:0:70:Tom1.wav
448,192,59584,1,0,0:0:0:0:
320,192,59701,128,0,59818:0:0:0:70:Tom2.wav
448,192,59701,128,0,59818:0:0:0:0:
192,192,59818,1,0,0:0:0:70:Tom1.wav
64,192,59818,1,0,0:0:0:0:
64,192,59935,128,0,60052:0:0:0:0:
320,192,59935,128,0,60052:0:0:0:70:Tom3.wav
448,192,59935,128,0,60052:0:0:0:0:
320,192,60170,1,0,0:0:0:70:finish.wav
448,192,60170,1,0,0:0:0:0:
192,192,60170,128,0,60521:0:0:0:100:Bassdrop.wav
64,192,60170,128,0,60521:0:0:0:0:
448,192,60521,1,0,0:0:0:0:
320,192,60521,1,2,0:0:0:0:
64,192,60638,1,0,0:0:0:0:
192,192,60638,1,0,0:0:0:0:
448,192,60638,1,8,0:0:0:0:
192,192,60755,1,0,0:0:0:0:
64,192,60755,1,0,0:0:0:0:
320,192,60873,1,0,0:0:0:0:
448,192,60873,1,0,0:0:0:0:
64,192,60990,1,0,0:0:0:0:
448,192,60990,1,0,0:0:0:0:
320,192,60990,1,2,0:0:0:0:
192,192,61107,1,0,0:0:0:0:
64,192,61107,1,0,0:0:0:0:
320,192,61224,1,0,0:0:0:0:
448,192,61224,1,0,0:0:0:0:
448,192,61341,1,0,0:0:0:0:
64,192,61341,1,0,0:0:0:0:
320,192,61459,1,0,0:0:0:0:
192,192,61459,1,0,0:0:0:0:
64,192,61576,1,0,0:0:0:0:
448,192,61576,1,0,0:0:0:0:
192,192,61576,1,8,0:0:0:0:
320,192,61693,1,0,0:0:0:0:
448,192,61693,1,0,0:0:0:0:
192,192,61810,1,0,0:0:0:0:
64,192,61810,1,0,0:0:0:0:
192,192,61927,1,0,0:0:0:0:
448,192,61927,1,0,0:0:0:0:
64,192,62045,128,0,62162:0:0:0:0:
320,192,62045,128,2,62162:0:0:0:0:
448,192,62045,128,0,62162:0:0:0:40:Growl3.wav
64,192,62279,128,0,62396:0:0:0:0:
192,192,62279,128,0,62396:0:0:0:0:
448,192,62279,128,0,62396:0:0:0:40:Growl3.wav
192,192,62513,1,0,0:0:0:0:
448,192,62513,1,8,0:0:0:0:
320,192,62513,1,0,0:0:0:0:
320,192,62630,1,0,0:0:0:0:
448,192,62630,1,0,0:0:0:0:
64,192,62748,1,0,0:0:0:0:
192,192,62748,1,0,0:0:0:0:
64,192,62865,1,0,0:0:0:0:
320,192,62865,1,0,0:0:0:0:
448,192,62865,1,2,0:0:0:0:
192,192,62982,1,0,0:0:0:0:
320,192,62982,1,0,0:0:0:0:
64,192,63099,1,0,0:0:0:0:
448,192,63099,1,0,0:0:0:0:
320,192,63216,1,0,0:0:0:0:
448,192,63216,1,0,0:0:0:0:
192,192,63334,1,0,0:0:0:0:
64,192,63334,1,0,0:0:0:0:
64,192,63451,1,0,0:0:0:0:
320,192,63451,1,0,0:0:0:0:
448,192,63451,1,8,0:0:0:0:
192,192,63568,1,0,0:0:0:0:
320,192,63568,1,2,0:0:0:0:
64,192,63685,1,0,0:0:0:0:
448,192,63685,1,0,0:0:0:0:
192,192,63744,1,0,0:0:0:0:
320,192,63802,1,0,0:0:0:0:
448,192,63861,1,0,0:0:0:0:
64,192,63920,128,2,64154:0:0:0:0:
192,192,63920,128,0,64154:0:0:0:100:Bassdrop.wav
64,192,64271,1,0,0:0:0:0:
192,192,64271,1,2,0:0:0:0:
320,192,64330,1,2,0:0:0:0:
64,192,64388,1,0,0:0:0:0:
192,192,64388,1,8,0:0:0:0:
448,192,64388,1,0,0:0:0:0:
320,192,64505,128,0,64623:0:0:0:0:
448,192,64505,128,0,64623:0:0:0:0:
64,192,64740,1,0,0:0:0:0:
192,192,64740,1,2,0:0:0:0:
448,192,64740,1,0,0:0:0:0:
64,192,64857,128,0,64916:0:0:0:0:
192,192,64857,128,0,64916:0:0:0:0:
448,192,64974,128,0,65033:0:0:0:0:
320,192,64974,128,0,65033:0:0:0:0:
448,192,65091,128,0,65150:0:0:0:0:
320,192,65091,128,0,65150:0:0:0:0:
64,192,65209,128,0,65267:0:0:0:0:
192,192,65209,128,0,65267:0:0:0:0:
64,192,65326,1,0,0:0:0:0:
320,192,65326,1,0,0:0:0:0:
448,192,65326,1,8,0:0:0:0:
448,192,65443,128,0,65560:0:0:0:0:
320,192,65443,128,0,65560:0:0:0:0:
64,192,65560,1,0,0:0:0:0:
192,192,65599,1,0,0:0:0:0:
320,192,65638,1,0,0:0:0:0:
448,192,65677,1,0,0:0:0:0:
192,192,65795,128,0,66029:0:0:0:70:Growl.wav
64,192,65795,128,0,66029:0:0:0:0:
320,192,65795,1,2,0:0:0:0:
320,192,66029,128,0,66087:0:0:0:0:
448,192,66029,128,0,66087:0:0:0:0:
320,192,66146,128,0,66205:0:0:0:0:
448,192,66146,128,0,66205:0:0:0:0:
448,192,66263,1,8,0:0:0:0:
64,192,66263,1,0,0:0:0:0:
192,192,66263,1,0,0:0:0:0:
192,192,66380,128,0,66498:0:0:0:0:
64,192,66380,128,0,66498:0:0:0:0:
64,192,66615,1,0,0:0:0:0:
320,192,66615,1,2,0:0:0:0:
448,192,66615,1,0,0:0:0:0:
192,192,66732,128,0,66791:0:0:0:0:
64,192,66732,128,0,66791:0:0:0:0:
320,192,66849,128,0,66908:0:0:0:0:
448,192,66849,128,0,66908:0:0:0:0:
320,192,66966,128,0,67025:0:0:0:0:
448,192,66966,128,0,67025:0:0:0:0:
64,192,66966,1,2,0:0:0:0:
64,192,67084,128,0,67142:0:0:0:0:
192,192,67084,128,0,67142:0:0:0:0:
192,192,67201,1,0,0:0:0:0:
320,192,67201,1,8,0:0:0:0:
448,192,67201,1,0,0:0:0:0:
64,192,67318,1,2,0:0:0:0:
448,192,67318,128,0,67435:0:0:0:100:Bassdrop.wav
192,192,67435,1,0,0:0:0:70:Tom1.wav
64,192,67494,1,0,0:0:0:70:Tom1.wav
320,192,67552,1,0,0:0:0:70:Tom1.wav
192,192,67611,1,0,0:0:0:70:Tom1.wav
320,192,67670,128,0,67904:0:0:0:0:
448,192,67670,128,8,67904:0:0:0:0:
64,192,67670,128,0,67904:0:0:0:0:
192,192,68021,1,2,0:0:0:0:
64,192,68021,1,0,0:0:0:0:
64,192,68138,1,0,0:0:0:0:
320,192,68138,1,8,0:0:0:0:
448,192,68138,1,0,0:0:0:0:
448,192,68255,1,0,0:0:0:0:
320,192,68255,1,0,0:0:0:0:
64,192,68373,1,0,0:0:0:0:
192,192,68373,1,0,0:0:0:0:
64,192,68490,1,0,0:0:0:0:
448,192,68490,1,0,0:0:0:0:
192,192,68490,1,2,0:0:0:0:
448,192,68607,1,0,0:0:0:0:
320,192,68607,1,0,0:0:0:0:
64,192,68724,1,0,0:0:0:0:
192,192,68724,1,0,0:0:0:0:
448,192,68841,1,0,0:0:0:0:
64,192,68841,1,0,0:0:0:0:
320,192,68959,1,0,0:0:0:0:
192,192,68959,1,0,0:0:0:0:
448,192,69076,1,8,0:0:0:0:
320,192,69076,1,0,0:0:0:0:
64,192,69076,1,0,0:0:0:0:
64,192,69193,1,0,0:0:0:0:
192,192,69222,1,0,0:0:0:0:
448,192,69310,1,0,0:0:0:0:
320,192,69339,1,0,0:0:0:0:
64,192,69427,1,0,0:0:0:0:
192,192,69457,1,0,0:0:0:0:
64,192,69545,128,0,69779:0:0:0:70:Growl.wav
320,192,69545,1,2,0:0:0:0:
448,192,69545,1,0,0:0:0:0:
192,192,69662,128,0,69779:0:0:0:0:
320,192,69701,128,0,69779:0:0:0:0:
448,192,69779,128,0,70013:0:0:0:0:
192,192,70013,1,8,0:0:0:0:
320,192,70013,1,0,0:0:0:0:
64,192,70013,1,0,0:0:0:0:
64,192,70130,1,0,0:0:0:0:
448,192,70130,1,0,0:0:0:0:
192,192,70248,1,0,0:0:0:0:
320,192,70248,1,0,0:0:0:0:
64,192,70365,1,2,0:0:0:0:
448,192,70365,1,0,0:0:0:0:
320,192,70365,1,0,0:0:0:0:
192,192,70482,1,0,0:0:0:0:
64,192,70482,1,0,0:0:0:0:
320,192,70599,1,0,0:0:0:0:
448,192,70599,1,0,0:0:0:0:
448,192,70716,1,0,0:0:0:0:
64,192,70716,1,0,0:0:0:0:
192,192,70834,1,0,0:0:0:0:
320,192,70834,1,0,0:0:0:0:
64,192,70951,1,0,0:0:0:0:
320,192,70951,1,0,0:0:0:0:
448,192,70951,1,8,0:0:0:0:
192,192,71068,1,2,0:0:0:0:
64,192,71068,1,0,0:0:0:0:
320,192,71185,1,0,0:0:0:0:
448,192,71244,1,0,0:0:0:0:
192,192,71302,1,0,0:0:0:0:
320,192,71361,1,0,0:0:0:0:
64,192,71420,128,8,71654:0:0:0:0:
448,192,71420,128,0,71654:0:0:0:0:
192,192,71420,128,0,71654:0:0:0:100:Bassdrop.wav
320,192,71771,1,2,0:0:0:0:
448,192,71771,1,0,0:0:0:0:
192,192,71830,1,2,0:0:0:0:
64,192,71888,128,8,72123:0:0:0:0:
320,192,71888,128,0,72123:0:0:0:0:
448,192,71888,128,0,72123:0:0:0:70:Growl.wav
192,192,72005,128,0,72123:0:0:0:0:
192,192,72240,128,0,72591:0:0:0:0:
64,192,72240,128,0,72591:0:0:0:100:Bassdrop.wav
448,192,72240,1,2,0:0:0:0:
448,192,72591,1,0,0:0:0:0:
320,192,72630,1,0,0:0:0:0:
192,192,72670,1,0,0:0:0:0:
64,192,72709,1,0,0:0:0:0:
448,192,72748,1,0,0:0:0:0:
320,192,72787,1,0,0:0:0:0:
192,192,72826,1,8,0:0:0:0:
64,192,72826,1,0,0:0:0:0:
320,192,72943,1,0,0:0:0:0:
448,192,72943,1,0,0:0:0:0:
192,192,73002,1,0,0:0:0:0:
64,192,73060,1,0,0:0:0:0:
448,192,73060,1,0,0:0:0:0:
64,192,73177,1,0,0:0:0:0:
320,192,73177,1,0,0:0:0:0:
192,192,73295,1,2,0:0:0:0:
448,192,73295,128,0,73529:0:0:0:0:
320,192,73295,128,0,73529:0:0:0:0:
64,192,73529,1,0,0:0:0:0:
192,192,73568,1,0,0:0:0:0:
320,192,73607,1,0,0:0:0:0:
448,192,73646,1,0,0:0:0:0:
64,192,73685,1,0,0:0:0:0:
192,192,73724,1,0,0:0:0:0:
320,192,73763,1,8,0:0:0:0:
448,192,73763,1,0,0:0:0:0:
192,192,73880,128,0,73998:0:0:0:0:
448,192,73880,128,0,73998:0:0:0:0:
64,192,73880,128,2,73998:0:0:0:0:
448,192,74115,128,0,75052:0:0:0:0:
320,192,74115,128,2,75052:0:0:0:0:
64,192,74115,1,0,0:0:0:0:
320,192,75170,1,0,0:0:0:70:finish.wav
192,192,75170,128,0,75521:0:0:0:100:Bassdrop.wav
64,192,75170,128,0,75521:0:0:0:0:
448,192,75170,1,0,0:0:0:0:
448,192,75521,1,0,0:0:0:0:
320,192,75521,1,2,0:0:0:0:
64,192,75638,1,0,0:0:0:0:
192,192,75638,1,0,0:0:0:0:
448,192,75638,1,8,0:0:0:0:
192,192,75755,1,0,0:0:0:0:
64,192,75755,1,0,0:0:0:0:
320,192,75873,1,0,0:0:0:0:
448,192,75873,1,0,0:0:0:0:
64,192,75990,1,2,0:0:0:0:
448,192,75990,1,0,0:0:0:0:
320,192,75990,1,0,0:0:0:0:
192,192,76107,1,0,0:0:0:0:
64,192,76107,1,0,0:0:0:0:
320,192,76224,1,0,0:0:0:0:
448,192,76224,1,0,0:0:0:0:
448,192,76341,1,0,0:0:0:0:
64,192,76341,1,0,0:0:0:0:
320,192,76459,1,0,0:0:0:0:
192,192,76459,1,0,0:0:0:0:
64,192,76576,1,0,0:0:0:0:
448,192,76576,1,0,0:0:0:0:
192,192,76576,1,8,0:0:0:0:
320,192,76693,1,0,0:0:0:0:
448,192,76693,1,0,0:0:0:0:
192,192,76810,1,0,0:0:0:0:
64,192,76810,1,0,0:0:0:0:
192,192,76927,1,0,0:0:0:0:
448,192,76927,1,0,0:0:0:0:
64,192,77045,128,0,77162:0:0:0:40:Growl3.wav
320,192,77045,128,2,77162:0:0:0:0:
448,192,77045,128,0,77162:0:0:0:0:
64,192,77279,128,0,77396:0:0:0:40:Growl3.wav
192,192,77279,128,0,77396:0:0:0:0:
448,192,77279,128,0,77396:0:0:0:0:
192,192,77513,1,0,0:0:0:0:
448,192,77513,1,8,0:0:0:0:
320,192,77513,1,0,0:0:0:0:
320,192,77630,1,0,0:0:0:0:
448,192,77630,1,0,0:0:0:0:
64,192,77748,1,0,0:0:0:0:
192,192,77748,1,0,0:0:0:0:
64,192,77865,1,0,0:0:0:0:
320,192,77865,1,2,0:0:0:0:
448,192,77865,1,0,0:0:0:0:
192,192,77982,1,0,0:0:0:0:
320,192,77982,1,0,0:0:0:0:
64,192,78099,1,0,0:0:0:0:
448,192,78099,1,0,0:0:0:0:
320,192,78216,1,0,0:0:0:0:
448,192,78216,1,0,0:0:0:0:
192,192,78334,1,0,0:0:0:0:
64,192,78334,1,0,0:0:0:0:
64,192,78451,1,8,0:0:0:0:
320,192,78451,1,0,0:0:0:0:
448,192,78451,1,0,0:0:0:0:
192,192,78568,1,0,0:0:0:0:
320,192,78568,1,2,0:0:0:0:
64,192,78685,1,0,0:0:0:0:
448,192,78685,1,0,0:0:0:0:
192,192,78744,1,0,0:0:0:0:
320,192,78802,1,0,0:0:0:0:
448,192,78861,1,0,0:0:0:0:
64,192,78920,128,0,79154:0:0:0:100:Bassdrop.wav
192,192,78920,128,2,79154:0:0:0:0:
64,192,79271,1,0,0:0:0:0:
192,192,79271,1,2,0:0:0:0:
320,192,79330,1,2,0:0:0:0:
64,192,79388,1,0,0:0:0:0:
192,192,79388,1,8,0:0:0:0:
448,192,79388,1,0,0:0:0:0:
320,192,79505,128,0,79623:0:0:0:0:
448,192,79505,128,0,79623:0:0:0:0:
64,192,79740,1,0,0:0:0:0:
192,192,79740,1,2,0:0:0:0:
448,192,79740,1,0,0:0:0:0:
192,192,79857,128,0,79916:0:0:0:0:
64,192,79857,128,0,79916:0:0:0:0:
320,192,79974,128,0,80033:0:0:0:0:
448,192,79974,128,0,80033:0:0:0:0:
320,192,80091,128,0,80150:0:0:0:0:
448,192,80091,128,0,80150:0:0:0:0:
192,192,80209,128,0,80267:0:0:0:0:
64,192,80209,128,0,80267:0:0:0:0:
64,192,80326,1,0,0:0:0:0:
320,192,80326,1,8,0:0:0:0:
448,192,80326,1,0,0:0:0:0:
320,192,80443,128,0,80560:0:0:0:0:
448,192,80443,128,0,80560:0:0:0:0:
64,192,80560,1,0,0:0:0:0:
192,192,80599,1,0,0:0:0:0:
448,192,80638,1,0,0:0:0:0:
320,192,80677,1,0,0:0:0:0:
192,192,80795,128,0,81029:0:0:0:70:Growl.wav
64,192,80795,128,0,81029:0:0:0:0:
448,192,80795,1,2,0:0:0:0:
320,192,81029,128,0,81087:0:0:0:0:
448,192,81029,128,0,81087:0:0:0:0:
320,192,81146,128,0,81205:0:0:0:0:
448,192,81146,128,0,81205:0:0:0:0:
448,192,81263,1,0,0:0:0:0:
64,192,81263,1,0,0:0:0:0:
192,192,81263,1,8,0:0:0:0:
192,192,81380,128,0,81498:0:0:0:0:
64,192,81380,128,0,81498:0:0:0:0:
64,192,81615,1,0,0:0:0:0:
320,192,81615,1,2,0:0:0:0:
448,192,81615,1,0,0:0:0:0:
192,192,81732,128,0,81791:0:0:0:0:
64,192,81732,128,0,81791:0:0:0:0:
320,192,81849,128,0,81908:0:0:0:0:
448,192,81849,128,0,81908:0:0:0:0:
320,192,81966,128,0,82025:0:0:0:0:
448,192,81966,128,0,82025:0:0:0:0:
64,192,81966,1,2,0:0:0:0:
64,192,82084,128,0,82142:0:0:0:0:
192,192,82084,128,0,82142:0:0:0:0:
192,192,82201,1,0,0:0:0:0:
320,192,82201,1,8,0:0:0:0:
448,192,82201,1,0,0:0:0:0:
64,192,82318,1,2,0:0:0:0:
448,192,82318,128,0,82435:0:0:0:100:Bassdrop.wav
192,192,82435,1,0,0:0:0:70:Tom1.wav
64,192,82494,1,0,0:0:0:70:Tom1.wav
320,192,82552,1,0,0:0:0:70:Tom1.wav
192,192,82611,1,0,0:0:0:70:Tom1.wav
320,192,82670,128,8,82904:0:0:0:0:
64,192,82670,128,0,82904:0:0:0:0:
448,192,82670,128,0,82904:0:0:0:0:
192,192,83021,1,2,0:0:0:0:
64,192,83021,1,0,0:0:0:0:
64,192,83138,1,0,0:0:0:0:
320,192,83138,1,8,0:0:0:0:
448,192,83138,1,0,0:0:0:0:
448,192,83255,1,0,0:0:0:0:
320,192,83255,1,0,0:0:0:0:
64,192,83373,1,0,0:0:0:0:
192,192,83373,1,0,0:0:0:0:
64,192,83490,1,0,0:0:0:0:
448,192,83490,1,0,0:0:0:0:
192,192,83490,1,2,0:0:0:0:
448,192,83607,1,0,0:0:0:0:
320,192,83607,1,0,0:0:0:0:
64,192,83724,1,0,0:0:0:0:
192,192,83724,1,0,0:0:0:0:
448,192,83841,1,0,0:0:0:0:
64,192,83841,1,0,0:0:0:0:
320,192,83959,1,0,0:0:0:0:
192,192,83959,1,0,0:0:0:0:
448,192,84076,1,0,0:0:0:0:
320,192,84076,1,8,0:0:0:0:
64,192,84076,1,0,0:0:0:0:
64,192,84193,1,0,0:0:0:0:
192,192,84222,1,0,0:0:0:0:
448,192,84310,1,0,0:0:0:0:
320,192,84339,1,0,0:0:0:0:
64,192,84427,1,0,0:0:0:0:
192,192,84457,1,0,0:0:0:0:
320,192,84545,1,2,0:0:0:0:
64,192,84545,128,0,84779:0:0:0:70:Growl.wav
448,192,84545,1,0,0:0:0:0:
192,192,84662,128,0,84779:0:0:0:0:
320,192,84701,128,0,84779:0:0:0:0:
448,192,84779,128,0,85013:0:0:0:0:
192,192,85013,1,0,0:0:0:0:
320,192,85013,1,8,0:0:0:0:
64,192,85013,1,0,0:0:0:0:
64,192,85130,1,0,0:0:0:0:
448,192,85130,1,0,0:0:0:0:
192,192,85248,1,0,0:0:0:0:
320,192,85248,1,0,0:0:0:0:
64,192,85365,1,0,0:0:0:0:
192,192,85365,1,0,0:0:0:0:
448,192,85365,1,2,0:0:0:0:
320,192,85482,1,0,0:0:0:0:
448,192,85482,1,0,0:0:0:0:
192,192,85599,1,0,0:0:0:0:
64,192,85599,1,0,0:0:0:0:
448,192,85716,1,0,0:0:0:0:
64,192,85716,1,0,0:0:0:0:
192,192,85834,1,0,0:0:0:0:
320,192,85834,1,0,0:0:0:0:
64,192,85951,1,0,0:0:0:0:
320,192,85951,1,8,0:0:0:0:
448,192,85951,1,0,0:0:0:0:
192,192,86068,1,2,0:0:0:0:
64,192,86068,1,0,0:0:0:0:
320,192,86185,1,0,0:0:0:0:
448,192,86244,1,0,0:0:0:0:
192,192,86302,1,0,0:0:0:0:
320,192,86361,1,0,0:0:0:0:
64,192,86420,128,8,86654:0:0:0:0:
448,192,86420,128,0,86654:0:0:0:0:
192,192,86420,128,0,86654:0:0:0:100:Bassdrop.wav
320,192,86771,1,2,0:0:0:0:
448,192,86771,1,0,0:0:0:0:
192,192,86830,1,2,0:0:0:0:
64,192,86888,128,8,87123:0:0:0:0:
320,192,86888,128,0,87123:0:0:0:0:
448,192,86888,128,0,87123:0:0:0:70:Growl.wav
192,192,87005,128,0,87123:0:0:0:0:
192,192,87240,128,0,87591:0:0:0:0:
64,192,87240,128,0,87591:0:0:0:100:Bassdrop.wav
448,192,87240,1,2,0:0:0:0:
448,192,87591,1,0,0:0:0:0:
320,192,87630,1,0,0:0:0:0:
192,192,87670,1,0,0:0:0:0:
64,192,87709,1,0,0:0:0:0:
448,192,87748,1,0,0:0:0:0:
320,192,87787,1,0,0:0:0:0:
192,192,87826,1,8,0:0:0:0:
64,192,87826,1,0,0:0:0:0:
320,192,87943,1,0,0:0:0:70:Tom1.wav
448,192,87943,1,0,0:0:0:0:
192,192,88002,1,0,0:0:0:70:Tom2.wav
64,192,88060,1,0,0:0:0:70:Tom3.wav
448,192,88060,1,0,0:0:0:0:
320,192,88177,1,0,0:0:0:0:
192,192,88177,1,0,0:0:0:70:Tom3.wav
448,192,88295,1,0,0:0:0:0:
192,192,88295,128,0,88529:0:0:0:0:
64,192,88295,128,8,88529:0:0:0:0:
448,192,88529,1,0,0:0:0:0:
320,192,88568,1,0,0:0:0:0:
192,192,88607,1,0,0:0:0:0:
64,192,88646,1,0,0:0:0:0:
448,192,88685,1,0,0:0:0:0:
320,192,88724,1,0,0:0:0:0:
192,192,88763,1,0,0:0:0:0:
64,192,88763,1,0,0:0:0:0:
320,192,88998,1,0,0:0:0:0:
320,192,89115,1,0,0:0:0:0:
192,192,89232,128,0,89701:0:0:0:0:
64,192,89232,1,0,0:0:0:0:
64,192,89466,1,0,0:0:0:0:
448,192,89466,1,0,0:0:0:70:Tom3.wav
448,192,89701,1,0,0:0:0:0:
320,192,89701,1,0,0:0:0:70:Tom1.wav
64,192,89818,1,0,0:0:0:0:
320,192,89818,1,0,0:0:0:70:Tom1.wav
192,192,89935,1,0,0:0:0:70:Tom1.wav
64,192,89994,1,0,0:0:0:70:Tom1.wav
320,192,90052,1,0,0:0:0:70:Tom1.wav
192,192,90111,1,0,0:0:0:70:Tom1.wav
320,192,90170,128,0,90521:0:0:0:70:finish.wav
448,192,90170,128,8,90521:0:0:0:0:
64,192,90170,128,0,90638:0:0:0:0:
192,192,90404,128,0,90638:0:0:0:0:
320,192,90638,128,0,90990:0:0:0:0:
448,192,90638,128,0,90990:0:0:0:0:
64,192,90990,1,0,0:0:0:0:
192,192,90990,1,2,0:0:0:0:
320,192,91107,128,0,91166:0:0:0:0:
448,192,91107,128,0,91166:0:0:0:0:
64,192,91107,1,8,0:0:0:0:
320,192,91224,128,0,91283:0:0:0:0:
448,192,91224,128,0,91283:0:0:0:0:
320,192,91341,128,0,91400:0:0:0:0:
448,192,91341,128,0,91400:0:0:0:0:
320,192,91459,128,0,91517:0:0:0:0:
448,192,91459,128,0,91517:0:0:0:0:
192,192,91576,128,0,91634:0:0:0:0:
64,192,91576,128,0,91634:0:0:0:0:
64,192,91693,128,0,91752:0:0:0:0:
192,192,91693,128,0,91752:0:0:0:0:
64,192,91810,128,0,91869:0:0:0:0:
192,192,91810,128,0,91869:0:0:0:0:
192,192,91927,128,0,91986:0:0:0:0:
64,192,91927,128,0,91986:0:0:0:0:
448,192,92045,1,2,0:0:0:0:
192,192,92045,128,0,92279:0:0:0:0:
64,192,92045,1,0,0:0:0:0:
320,192,92279,1,0,0:0:0:0:
192,192,92337,1,0,0:0:0:0:
64,192,92337,1,0,0:0:0:0:
320,192,92396,1,0,0:0:0:0:
448,192,92396,128,0,92630:0:0:0:0:
64,192,92630,128,0,92748:0:0:0:0:
192,192,92630,128,0,92748:0:0:0:0:
448,192,92748,1,0,0:0:0:0:
320,192,92748,1,2,0:0:0:0:
64,192,92865,128,0,92923:0:0:0:0:
192,192,92865,128,0,92923:0:0:0:0:
64,192,92982,1,0,0:0:0:0:
448,192,92982,128,0,93216:0:0:0:70:Growl.wav
320,192,92982,1,8,0:0:0:0:
64,192,93216,1,0,0:0:0:0:
192,192,93255,1,0,0:0:0:0:
448,192,93295,1,0,0:0:0:0:
320,192,93334,1,0,0:0:0:0:
192,192,93451,1,2,0:0:0:0:
64,192,93451,128,0,93685:0:0:0:100:Bassdrop.wav
448,192,93451,1,0,0:0:0:0:
448,192,93685,1,0,0:0:0:0:
320,192,93724,1,0,0:0:0:0:
64,192,93763,1,0,0:0:0:0:
192,192,93802,1,0,0:0:0:0:
448,192,93920,128,0,94154:0:0:0:0:
320,192,93920,1,2,0:0:0:0:
64,192,93920,128,0,94154:0:0:0:0:
192,192,94037,128,0,94388:0:0:0:0:
320,192,94154,128,0,94388:0:0:0:0:
448,192,94388,128,0,94466:0:0:0:70:pew.wav
64,192,94388,128,0,94466:0:0:0:0:
64,192,94545,128,0,94623:0:0:0:0:
448,192,94545,128,0,94623:0:0:0:70:pew.wav
448,192,94701,128,0,94779:0:0:0:70:pew.wav
64,192,94701,128,0,94779:0:0:0:0:
64,192,94857,1,8,0:0:0:0:
448,192,94857,1,0,0:0:0:0:
192,192,94857,1,0,0:0:0:0:
320,192,94974,128,0,95033:0:0:0:40:pew2.wav
320,192,95091,128,0,95150:0:0:0:40:pew2.wav
320,192,95209,128,0,95267:0:0:0:40:pew2.wav
64,192,95326,128,0,95443:0:0:0:0:
448,192,95326,128,0,95443:0:0:0:0:
320,192,95502,128,0,95619:0:0:0:0:
64,192,95502,128,0,95619:0:0:0:0:
64,192,95677,128,0,95795:0:0:0:0:
192,192,95677,128,0,95795:0:0:0:0:
320,192,95795,1,0,0:0:0:0:
448,192,95795,1,2,0:0:0:0:
192,192,95912,1,0,0:0:0:0:
320,192,95970,1,0,0:0:0:0:
448,192,96029,1,0,0:0:0:0:
64,192,96029,1,0,0:0:0:0:
448,192,96146,128,0,96498:0:0:0:0:
320,192,96146,128,0,96498:0:0:0:0:
192,192,96146,1,0,0:0:0:0:
64,192,96498,1,0,0:0:0:0:
192,192,96498,1,0,0:0:0:0:
320,192,96615,1,2,0:0:0:0:
448,192,96615,1,0,0:0:0:0:
192,192,96673,1,2,0:0:0:0:
64,192,96732,1,0,0:0:0:0:
320,192,96732,1,8,0:0:0:0:
448,192,96732,1,0,0:0:0:0:
192,192,96849,1,2,0:0:0:0:
64,192,96849,1,0,0:0:0:0:
448,192,96966,1,0,0:0:0:0:
320,192,97005,1,0,0:0:0:0:
192,192,97045,1,0,0:0:0:0:
64,192,97084,1,0,0:0:0:0:
448,192,97084,1,2,0:0:0:0:
192,192,97201,1,0,0:0:0:70:Tom3.wav
64,192,97201,1,0,0:0:0:0:
320,192,97318,1,0,0:0:0:70:Tom3.wav
448,192,97318,1,0,0:0:0:0:
192,192,97435,1,2,0:0:0:0:
448,192,97435,1,0,0:0:0:70:Tom2.wav
64,192,97552,1,0,0:0:0:70:Tom1.wav
320,192,97552,1,0,0:0:0:0:
64,192,97670,128,0,98021:0:0:0:0:
192,192,97670,128,0,98021:0:0:0:0:
448,192,97670,128,8,98138:0:0:0:0:
320,192,97904,128,0,98138:0:0:0:0:
192,192,98138,128,0,98490:0:0:0:0:
64,192,98138,128,0,98490:0:0:0:0:
448,192,98490,1,0,0:0:0:0:
320,192,98490,1,2,0:0:0:0:
192,192,98607,128,0,98666:0:0:0:0:
64,192,98607,128,0,98666:0:0:0:0:
448,192,98607,1,8,0:0:0:0:
192,192,98724,128,0,98783:0:0:0:0:
64,192,98724,128,0,98783:0:0:0:0:
192,192,98841,128,0,98900:0:0:0:0:
64,192,98841,128,0,98900:0:0:0:0:
192,192,98959,128,0,99017:0:0:0:0:
64,192,98959,128,0,99017:0:0:0:0:
320,192,99076,128,0,99134:0:0:0:0:
448,192,99076,128,0,99134:0:0:0:0:
448,192,99193,128,0,99252:0:0:0:0:
320,192,99193,128,0,99252:0:0:0:0:
448,192,99310,128,0,99369:0:0:0:0:
320,192,99310,128,0,99369:0:0:0:0:
320,192,99427,128,0,99486:0:0:0:0:
448,192,99427,128,0,99486:0:0:0:0:
448,192,99545,1,0,0:0:0:0:
192,192,99545,128,0,99779:0:0:0:0:
64,192,99545,1,2,0:0:0:0:
320,192,99779,1,0,0:0:0:0:
192,192,99837,1,0,0:0:0:0:
64,192,99837,1,0,0:0:0:0:
320,192,99896,1,0,0:0:0:0:
448,192,99896,128,0,100130:0:0:0:0:
64,192,100130,128,0,100248:0:0:0:0:
192,192,100130,128,0,100248:0:0:0:0:
448,192,100248,1,0,0:0:0:0:
320,192,100248,1,2,0:0:0:0:
64,192,100365,128,0,100423:0:0:0:0:
192,192,100365,128,0,100423:0:0:0:0:
64,192,100482,1,0,0:0:0:0:
448,192,100482,128,0,100716:0:0:0:70:Growl.wav
320,192,100482,1,8,0:0:0:0:
64,192,100716,1,0,0:0:0:0:
192,192,100755,1,0,0:0:0:0:
448,192,100795,1,0,0:0:0:0:
320,192,100834,1,0,0:0:0:0:
448,192,100951,1,2,0:0:0:0:
64,192,100951,128,0,101068:0:0:0:0:
192,192,100951,128,0,101068:0:0:0:0:
320,192,101068,1,0,0:0:0:0:
192,192,101127,1,0,0:0:0:0:
448,192,101185,1,0,0:0:0:0:
320,192,101244,1,0,0:0:0:0:
64,192,101302,1,0,0:0:0:0:
192,192,101361,1,0,0:0:0:0:
320,192,101420,128,0,101654:0:0:0:0:
448,192,101420,1,2,0:0:0:0:
64,192,101537,128,0,101888:0:0:0:0:
192,192,101654,128,0,101888:0:0:0:0:
320,192,101888,1,0,0:0:0:70:pew.wav
448,192,101888,1,0,0:0:0:0:
320,192,101966,1,0,0:0:0:70:pew.wav
448,192,101966,1,0,0:0:0:0:
64,192,102045,1,0,0:0:0:0:
192,192,102045,1,0,0:0:0:70:pew.wav
192,192,102123,1,0,0:0:0:70:pew.wav
64,192,102123,1,0,0:0:0:0:
320,192,102201,1,0,0:0:0:70:pew.wav
448,192,102201,1,0,0:0:0:0:
192,192,102357,1,8,0:0:0:0:
448,192,102357,128,0,102591:0:0:0:0:
64,192,102357,1,0,0:0:0:0:
64,192,102591,1,0,0:0:0:0:
192,192,102591,1,0,0:0:0:0:
320,192,102650,1,0,0:0:0:0:
64,192,102709,128,0,102943:0:0:0:0:
448,192,102709,128,0,103060:0:0:0:0:
192,192,102943,128,0,103236:0:0:0:0:
320,192,102943,128,0,103060:0:0:0:0:
64,192,103060,128,0,103236:0:0:0:0:
448,192,103177,128,0,103236:0:0:0:0:
320,192,103177,128,0,103236:0:0:0:0:
448,192,103295,1,2,0:0:0:0:
320,192,103295,1,0,0:0:0:0:
192,192,103295,1,0,0:0:0:0:
192,192,103412,1,0,0:0:0:0:
64,192,103412,1,0,0:0:0:0:
320,192,103470,1,0,0:0:0:0:
448,192,103529,1,0,0:0:0:0:
64,192,103529,1,0,0:0:0:0:
320,192,103646,128,0,103705:0:0:0:0:
448,192,103646,128,0,103705:0:0:0:0:
64,192,103763,128,0,103822:0:0:0:0:
320,192,103763,128,0,103822:0:0:0:0:
192,192,103880,128,0,104115:0:0:0:0:
64,192,103880,128,0,104115:0:0:0:0:
320,192,104115,1,2,0:0:0:0:
448,192,104115,1,0,0:0:0:0:
192,192,104173,1,2,0:0:0:0:
64,192,104232,1,8,0:0:0:0:
320,192,104232,1,0,0:0:0:0:
448,192,104232,1,0,0:0:0:0:
192,192,104349,1,2,0:0:0:0:
64,192,104349,1,0,0:0:0:70:Tom2.wav
192,192,104466,1,0,0:0:0:70:Tom2.wav
320,192,104584,1,2,0:0:0:0:
448,192,104584,1,0,0:0:0:70:Tom2.wav
320,192,104701,1,0,0:0:0:70:Tom3.wav
64,192,104818,1,0,0:0:0:70:Tom3.wav
192,192,104935,1,2,0:0:0:0:
448,192,104935,1,0,0:0:0:70:Tom3.wav
192,192,105052,1,0,0:0:0:70:Tom3.wav
64,192,105170,128,0,105404:0:0:0:0:
320,192,105170,128,2,105404:0:0:0:0:
448,192,105170,128,0,105404:0:0:0:0:
192,192,105990,1,0,0:0:0:0:
64,192,105990,1,2,0:0:0:0:
64,192,106107,1,8,0:0:0:0:
448,192,106107,1,0,0:0:0:0:
192,192,106107,1,0,0:0:0:0:
320,192,106185,1,0,0:0:0:0:
192,192,106263,1,0,0:0:0:0:
64,192,106263,1,0,0:0:0:0:
448,192,106341,1,0,0:0:0:0:
320,192,106341,1,0,0:0:0:0:
192,192,106420,1,0,0:0:0:0:
64,192,106420,1,0,0:0:0:0:
448,192,106498,1,0,0:0:0:0:
320,192,106498,1,0,0:0:0:0:
192,192,106576,1,0,0:0:0:0:
64,192,106576,1,0,0:0:0:0:
448,192,106654,1,0,0:0:0:0:
320,192,106654,1,0,0:0:0:0:
192,192,106732,1,0,0:0:0:0:
64,192,106732,1,0,0:0:0:0:
448,192,106810,1,0,0:0:0:0:
320,192,106810,1,0,0:0:0:0:
192,192,106888,1,0,0:0:0:0:
64,192,106888,1,0,0:0:0:0:
320,192,106966,1,0,0:0:0:0:
64,192,107045,1,0,0:0:0:0:
192,192,107045,128,0,107279:0:0:0:0:
448,192,107045,1,2,0:0:0:0:
320,192,107279,1,0,0:0:0:0:
192,192,107337,1,0,0:0:0:0:
64,192,107337,1,0,0:0:0:0:
320,192,107396,1,0,0:0:0:0:
448,192,107396,128,0,107630:0:0:0:0:
64,192,107630,128,0,107748:0:0:0:0:
192,192,107630,128,0,107748:0:0:0:0:
448,192,107748,1,0,0:0:0:0:
320,192,107748,1,2,0:0:0:0:
64,192,107865,128,0,107923:0:0:0:0:
192,192,107865,128,0,107923:0:0:0:0:
64,192,107982,1,0,0:0:0:0:
448,192,107982,128,0,108216:0:0:0:70:Growl.wav
320,192,107982,1,8,0:0:0:0:
64,192,108216,1,0,0:0:0:0:
192,192,108255,1,0,0:0:0:0:
448,192,108295,1,0,0:0:0:0:
320,192,108334,1,0,0:0:0:0:
192,192,108451,1,2,0:0:0:0:
448,192,108451,128,0,108685:0:0:0:100:Bassdrop.wav
64,192,108451,1,0,0:0:0:0:
64,192,108685,1,0,0:0:0:0:
192,192,108724,1,0,0:0:0:0:
448,192,108763,1,0,0:0:0:0:
320,192,108802,1,0,0:0:0:0:
192,192,108920,128,0,109154:0:0:0:0:
448,192,108920,128,0,109154:0:0:0:0:
64,192,108920,128,8,109154:0:0:0:0:
320,192,109154,1,0,0:0:0:0:
192,192,109212,1,0,0:0:0:0:
320,192,109271,1,0,0:0:0:0:
192,192,109330,1,0,0:0:0:0:
64,192,109388,128,0,109505:0:0:0:0:
448,192,109388,128,0,109505:0:0:0:0:
64,192,109564,128,0,109681:0:0:0:0:
448,192,109564,128,0,109681:0:0:0:0:
320,192,109740,128,0,109798:0:0:0:0:
192,192,109740,128,2,109798:0:0:0:0:
448,192,109857,1,0,0:0:0:0:
64,192,109857,1,0,0:0:0:0:
320,192,109857,1,8,0:0:0:0:
192,192,109974,1,0,0:0:0:0:
448,192,110091,1,0,0:0:0:0:
192,192,110091,1,0,0:0:0:0:
64,192,110209,1,0,0:0:0:0:
320,192,110209,128,0,110443:0:0:0:0:
192,192,110443,1,0,0:0:0:0:
448,192,110443,1,0,0:0:0:0:
64,192,110560,1,0,0:0:0:0:
320,192,110560,1,2,0:0:0:0:
448,192,110560,128,0,111029:0:0:0:100:Bassdrop.wav
320,192,110912,128,0,111146:0:0:0:0:
192,192,111029,128,0,111263:0:0:0:0:
64,192,111146,128,0,111263:0:0:0:0:
448,192,111263,128,0,111498:0:0:0:70:Growl.wav
320,192,111263,128,0,111498:0:0:0:0:
192,192,111498,1,0,0:0:0:0:
64,192,111498,1,0,0:0:0:0:
320,192,111615,1,2,0:0:0:0:
448,192,111615,1,0,0:0:0:0:
192,192,111673,1,2,0:0:0:0:
448,192,111732,1,0,0:0:0:0:
64,192,111732,1,0,0:0:0:0:
320,192,111732,1,8,0:0:0:0:
64,192,111849,1,0,0:0:0:0:
192,192,111849,1,2,0:0:0:0:
320,192,111966,128,0,112084:0:0:0:0:
448,192,111966,128,0,112084:0:0:0:0:
192,192,112084,1,2,0:0:0:0:
64,192,112084,1,0,0:0:0:0:
64,192,112201,1,0,0:0:0:0:
448,192,112201,1,0,0:0:0:70:Tom1.wav
320,192,112318,1,0,0:0:0:0:
448,192,112318,1,0,0:0:0:70:Tom1.wav
64,192,112435,1,2,0:0:0:0:
192,192,112435,1,0,0:0:0:70:Tom2.wav
64,192,112552,1,0,0:0:0:0:
448,192,112552,1,0,0:0:0:70:Tom3.wav
448,192,112670,1,0,0:0:0:0:
192,192,112670,128,0,113138:0:0:0:100:Bassdrop.wav
320,192,112670,1,8,0:0:0:0:
64,192,112904,128,0,113138:0:0:0:0:
320,192,113138,128,0,113197:0:0:0:0:
448,192,113138,128,0,113197:0:0:0:0:
320,192,113255,128,0,113314:0:0:0:0:
448,192,113255,128,0,113314:0:0:0:0:
320,192,113373,128,0,113431:0:0:0:0:
448,192,113373,128,0,113431:0:0:0:0:
64,192,113490,1,0,0:0:0:0:
192,192,113490,1,2,0:0:0:0:
64,192,113607,1,0,0:0:0:0:
320,192,113607,1,8,0:0:0:0:
448,192,113607,1,0,0:0:0:0:
192,192,113685,1,0,0:0:0:0:
320,192,113763,1,0,0:0:0:0:
448,192,113763,1,0,0:0:0:0:
64,192,113841,1,0,0:0:0:0:
192,192,113841,1,0,0:0:0:0:
320,192,113920,1,0,0:0:0:0:
448,192,113920,1,0,0:0:0:0:
192,192,113998,1,0,0:0:0:0:
64,192,113998,1,0,0:0:0:0:
448,192,114076,1,0,0:0:0:0:
320,192,114076,1,0,0:0:0:0:
192,192,114154,1,0,0:0:0:0:
64,192,114154,1,0,0:0:0:0:
320,192,114232,1,0,0:0:0:0:
448,192,114232,1,0,0:0:0:0:
192,192,114310,1,0,0:0:0:0:
64,192,114310,1,0,0:0:0:0:
320,192,114388,1,0,0:0:0:0:
448,192,114388,1,0,0:0:0:0:
192,192,114466,1,0,0:0:0:0:
64,192,114545,1,8,0:0:0:0:
320,192,114545,128,2,114896:0:0:0:100:Bassdrop.wav
448,192,114545,128,0,114896:0:0:0:0:
192,192,114779,128,0,115013:0:0:0:0:
64,192,114837,128,0,115013:0:0:0:0:
320,192,115013,128,0,115072:0:0:0:0:
448,192,115013,128,0,115072:0:0:0:0:
320,192,115130,128,0,115248:0:0:0:0:
448,192,115130,128,0,115248:0:0:0:0:
192,192,115248,1,2,0:0:0:0:
64,192,115248,1,0,0:0:0:0:
64,192,115365,128,0,115423:0:0:0:0:
192,192,115365,128,0,115423:0:0:0:0:
448,192,115482,128,0,115716:0:0:0:0:
64,192,115482,1,0,0:0:0:0:
320,192,115482,1,8,0:0:0:0:
192,192,115716,1,0,0:0:0:0:
64,192,115755,1,0,0:0:0:0:
448,192,115795,1,0,0:0:0:0:
320,192,115834,1,0,0:0:0:0:
192,192,115873,1,0,0:0:0:0:
64,192,115912,1,0,0:0:0:0:
448,192,115951,1,2,0:0:0:0:
320,192,115951,128,0,116244:0:0:0:0:
192,192,116244,128,0,116537:0:0:0:0:
64,192,116420,128,0,116537:0:0:0:0:
320,192,116420,128,2,116537:0:0:0:0:
448,192,116420,128,8,116537:0:0:0:0:
64,192,116654,128,0,116888:0:0:0:0:
320,192,116654,128,8,116888:0:0:0:0:
192,192,116654,128,2,116888:0:0:0:0:
320,192,117005,128,2,117240:0:0:0:0:
448,192,117005,128,8,117240:0:0:0:0:
64,192,117005,128,0,117240:0:0:0:0:
64,192,117357,1,0,0:0:0:0:
192,192,117357,128,0,119232:0:0:0:0:
320,192,117357,128,2,119232:0:0:0:0:
448,192,117357,128,8,118763:0:0:0:0:
64,192,119466,1,0,0:0:0:0:
192,192,119466,1,0,0:0:0:70:Tom1.wav
448,192,119584,1,0,0:0:0:0:
192,192,119584,1,0,0:0:0:70:Tom1.wav
448,192,119701,128,0,119818:0:0:0:0:
320,192,119701,128,0,119818:0:0:0:70:Tom2.wav
192,192,119818,1,0,0:0:0:70:Tom1.wav
64,192,119818,1,0,0:0:0:0:
64,192,119935,128,0,120052:0:0:0:0:
320,192,119935,128,0,120052:0:0:0:70:Tom3.wav
448,192,119935,128,0,120052:0:0:0:0:
320,192,120170,128,0,123920:0:0:0:70:finish.wav
64,192,120170,1,8,0:0:0:0:
192,192,120170,1,0,0:0:0:70:sweep.wav
448,192,120170,1,0,0:0:0:0:
448,192,121869,1,0,0:0:0:0:
192,192,122045,1,0,0:0:0:0:
192,192,122396,1,0,0:0:0:0:
64,192,122748,1,0,0:0:0:0:
64,192,123099,1,0,0:0:0:0:
448,192,123451,1,0,0:0:0:0:
64,192,123920,128,0,125326:0:0:0:0:
192,192,123920,1,0,0:0:0:0:
320,192,124271,1,0,0:0:0:0:
320,192,124623,1,0,0:0:0:0:
320,192,124974,1,0,0:0:0:0:
320,192,125326,1,0,0:0:0:0:
192,192,125443,1,0,0:0:0:0:
64,192,125560,1,0,0:0:0:0:
192,192,125619,1,0,0:0:0:0:
320,192,125677,1,0,0:0:0:0:
448,192,125795,1,0,0:0:0:0:
320,192,126029,1,0,0:0:0:0:
192,192,126146,1,0,0:0:0:0:
64,192,126380,1,0,0:0:0:0:
448,192,126498,1,0,0:0:0:0:
192,192,126732,1,0,0:0:0:0:
448,192,126849,1,0,0:0:0:0:
320,192,127084,1,0,0:0:0:0:
192,192,127201,1,0,0:0:0:0:
192,192,127435,1,0,0:0:0:0:
320,192,127670,1,0,0:0:0:0:
64,192,127670,1,0,0:0:0:0:
192,192,127787,1,0,0:0:0:0:
448,192,127904,1,0,0:0:0:0:
320,192,128021,1,0,0:0:0:0:
64,192,128138,1,0,0:0:0:0:
448,192,128255,1,0,0:0:0:0:
192,192,128373,1,0,0:0:0:0:
320,192,128490,1,0,0:0:0:0:
64,192,128607,1,0,0:0:0:0:
192,192,128724,1,0,0:0:0:0:
448,192,128841,1,0,0:0:0:0:
64,192,128959,1,0,0:0:0:0:
320,192,129076,1,0,0:0:0:0:
448,192,129193,1,0,0:0:0:0:
64,192,129310,1,0,0:0:0:0:
192,192,129369,1,0,0:0:0:0:
320,192,129427,1,0,0:0:0:0:
448,192,129545,1,0,0:0:0:0:
64,192,129545,1,0,0:0:0:0:
192,192,129662,1,0,0:0:0:0:
64,192,129779,1,0,0:0:0:0:
448,192,129896,1,0,0:0:0:0:
320,192,129896,1,0,0:0:0:0:
64,192,130013,1,0,0:0:0:0:
320,192,130130,1,0,0:0:0:0:
448,192,130248,1,0,0:0:0:0:
192,192,130248,1,0,0:0:0:0:
64,192,130365,1,0,0:0:0:0:
448,192,130482,1,0,0:0:0:0:
320,192,130599,1,0,0:0:0:0:
192,192,130599,1,0,0:0:0:0:
64,192,130716,1,0,0:0:0:0:
448,192,130834,1,0,0:0:0:0:
192,192,130951,1,0,0:0:0:0:
64,192,130951,1,0,0:0:0:0:
320,192,131068,1,0,0:0:0:0:
448,192,131185,1,0,0:0:0:0:
64,192,131302,1,0,0:0:0:0:
448,192,131420,1,0,0:0:0:0:
192,192,131420,1,0,0:0:0:0:
320,192,131537,1,0,0:0:0:0:
64,192,131654,1,0,0:0:0:0:
448,192,131771,1,0,0:0:0:0:
192,192,131888,1,0,0:0:0:0:
320,192,132005,1,0,0:0:0:0:
448,192,132123,1,0,0:0:0:0:
64,192,132240,1,0,0:0:0:0:
448,192,132357,1,0,0:0:0:0:
192,192,132474,1,0,0:0:0:0:
64,192,132591,1,0,0:0:0:0:
448,192,132709,1,0,0:0:0:0:
320,192,132767,1,0,0:0:0:0:
192,192,132826,1,0,0:0:0:0:
448,192,132943,1,0,0:0:0:0:
64,192,133060,1,0,0:0:0:0:
192,192,133177,1,0,0:0:0:0:
320,192,133295,1,0,0:0:0:0:
448,192,133295,1,0,0:0:0:0:
192,192,133412,1,0,0:0:0:0:
64,192,133529,1,0,0:0:0:0:
320,192,133646,1,0,0:0:0:0:
192,192,133763,1,0,0:0:0:0:
320,192,133880,1,0,0:0:0:0:
64,192,133998,1,0,0:0:0:0:
448,192,134115,1,0,0:0:0:0:
320,192,134232,1,0,0:0:0:0:
64,192,134349,1,0,0:0:0:0:
192,192,134466,1,0,0:0:0:0:
448,192,134584,1,0,0:0:0:0:
320,192,134642,1,0,0:0:0:0:
192,192,134701,1,0,0:0:0:0:
448,192,134818,1,0,0:0:0:0:
320,192,134935,1,0,0:0:0:0:
64,192,135052,1,0,0:0:0:0:
192,192,135170,1,0,0:0:0:0:
448,192,135170,1,0,0:0:0:0:
320,192,135287,1,0,0:0:0:0:
192,192,135404,1,0,0:0:0:0:
448,192,135521,1,0,0:0:0:0:
64,192,135638,1,0,0:0:0:0:
320,192,135755,1,0,0:0:0:0:
192,192,135873,1,0,0:0:0:0:
448,192,135990,1,0,0:0:0:0:
64,192,136107,1,0,0:0:0:0:
320,192,136224,1,0,0:0:0:0:
448,192,136341,1,0,0:0:0:0:
192,192,136459,1,0,0:0:0:0:
320,192,136576,1,0,0:0:0:0:
64,192,136693,1,0,0:0:0:0:
320,192,136810,1,0,0:0:0:0:
192,192,136869,1,0,0:0:0:0:
64,192,136927,1,0,0:0:0:0:
320,192,137045,1,0,0:0:0:0:
448,192,137045,1,0,0:0:0:0:
192,192,137162,1,0,0:0:0:0:
320,192,137279,1,0,0:0:0:0:
448,192,137396,1,0,0:0:0:0:
64,192,137396,1,0,0:0:0:0:
192,192,137513,1,0,0:0:0:0:
320,192,137630,1,0,0:0:0:0:
448,192,137748,1,0,0:0:0:0:
192,192,137748,1,0,0:0:0:0:
64,192,137865,1,0,0:0:0:0:
320,192,137982,1,0,0:0:0:0:
192,192,138099,1,0,0:0:0:0:
64,192,138099,1,0,0:0:0:0:
448,192,138216,1,0,0:0:0:0:
64,192,138334,1,0,0:0:0:0:
192,192,138451,1,0,0:0:0:0:
448,192,138451,1,0,0:0:0:0:
320,192,138568,1,0,0:0:0:0:
192,192,138685,1,0,0:0:0:0:
448,192,138802,1,0,0:0:0:0:
320,192,138920,1,0,0:0:0:0:
64,192,138920,1,0,0:0:0:0:
192,192,139037,1,0,0:0:0:0:
320,192,139154,1,0,0:0:0:0:
64,192,139271,1,0,0:0:0:0:
192,192,139388,1,0,0:0:0:0:
448,192,139505,1,0,0:0:0:0:
192,192,139623,1,0,0:0:0:0:
320,192,139740,1,0,0:0:0:0:
64,192,139857,1,0,0:0:0:0:
448,192,139974,1,0,0:0:0:0:
320,192,140091,1,0,0:0:0:0:
192,192,140209,1,0,0:0:0:0:
448,192,140326,1,0,0:0:0:0:
64,192,140443,1,0,0:0:0:0:
320,192,140560,1,0,0:0:0:0:
192,192,140619,1,0,0:0:0:0:
64,192,140677,1,0,0:0:0:0:
320,192,140795,1,0,0:0:0:0:
448,192,140795,1,0,0:0:0:0:
192,192,140912,1,0,0:0:0:0:
320,192,141029,1,0,0:0:0:0:
64,192,141146,1,0,0:0:0:0:
448,192,141146,1,0,0:0:0:0:
192,192,141263,1,0,0:0:0:0:
64,192,141380,1,0,0:0:0:0:
320,192,141498,1,0,0:0:0:0:
448,192,141498,1,0,0:0:0:0:
192,192,141615,1,0,0:0:0:0:
320,192,141732,1,0,0:0:0:0:
64,192,141849,1,0,0:0:0:0:
448,192,141849,1,0,0:0:0:0:
192,192,141966,1,0,0:0:0:0:
320,192,142084,1,0,0:0:0:0:
192,192,142201,1,0,0:0:0:0:
64,192,142201,1,0,0:0:0:0:
448,192,142318,1,0,0:0:0:0:
64,192,142435,1,0,0:0:0:0:
320,192,142552,1,0,0:0:0:0:
448,192,142670,1,0,0:0:0:0:
64,192,142670,1,0,0:0:0:0:
192,192,142787,1,0,0:0:0:0:
320,192,142904,1,0,0:0:0:0:
64,192,143021,1,0,0:0:0:0:
448,192,143138,1,0,0:0:0:0:
192,192,143255,1,0,0:0:0:0:
320,192,143373,1,0,0:0:0:0:
64,192,143490,1,0,0:0:0:0:
320,192,143607,1,0,0:0:0:0:
192,192,143724,1,0,0:0:0:0:
448,192,143841,1,0,0:0:0:0:
64,192,143959,1,0,0:0:0:0:
320,192,144076,1,0,0:0:0:0:
448,192,144193,1,0,0:0:0:0:
192,192,144310,1,0,0:0:0:0:
320,192,144369,1,0,0:0:0:0:
448,192,144427,1,0,0:0:0:0:
192,192,144545,1,0,0:0:0:0:
64,192,144545,1,0,0:0:0:0:
320,192,144662,1,0,0:0:0:0:
64,192,144779,1,0,0:0:0:0:
448,192,144896,1,0,0:0:0:0:
192,192,144896,1,0,0:0:0:0:
320,192,145013,1,0,0:0:0:0:
192,192,145130,1,0,0:0:0:0:
448,192,145248,1,0,0:0:0:0:
64,192,145248,1,0,0:0:0:0:
320,192,145365,1,0,0:0:0:0:
192,192,145482,1,0,0:0:0:0:
448,192,145599,1,0,0:0:0:0:
320,192,145599,1,0,0:0:0:0:
64,192,145716,1,0,0:0:0:0:
448,192,145834,1,0,0:0:0:0:
64,192,145951,1,0,0:0:0:0:
192,192,145951,1,0,0:0:0:0:
320,192,146068,1,0,0:0:0:0:
448,192,146185,1,0,0:0:0:0:
192,192,146302,1,0,0:0:0:0:
448,192,146420,1,0,0:0:0:0:
320,192,146420,128,0,146771:0:0:0:0:
64,192,146537,1,0,0:0:0:0:
448,192,146654,1,0,0:0:0:0:
192,192,146771,128,0,147123:0:0:0:0:
64,192,146888,1,0,0:0:0:0:
320,192,147005,1,0,0:0:0:0:
448,192,147123,128,0,147474:0:0:0:0:
64,192,147240,1,0,0:0:0:0:
320,192,147357,1,0,0:0:0:0:
64,192,147474,128,0,147826:0:0:0:0:
192,192,147591,1,0,0:0:0:0:
448,192,147709,1,0,0:0:0:0:
320,192,147826,128,0,148177:0:0:0:0:
192,192,147943,1,0,0:0:0:0:
448,192,148060,1,0,0:0:0:0:
192,192,148177,128,0,148529:0:0:0:0:
448,192,148295,1,0,0:0:0:0:
64,192,148295,1,0,0:0:0:0:
320,192,148412,1,0,0:0:0:0:
448,192,148529,128,0,148880:0:0:0:0:
64,192,148646,1,0,0:0:0:0:
320,192,148763,1,0,0:0:0:0:
64,192,148880,128,0,149232:0:0:0:0:
192,192,148998,1,0,0:0:0:0:
448,192,149115,1,0,0:0:0:0:
192,192,149232,128,0,149466:0:0:0:0:
448,192,149349,1,0,0:0:0:0:
320,192,149466,1,0,0:0:0:0:
64,192,149584,1,0,0:0:0:0:
192,192,149584,1,2,0:0:0:0:
320,192,149642,1,2,0:0:0:0:
448,192,149701,1,2,0:0:0:0:
64,192,149701,1,0,0:0:0:0:
448,192,149818,1,0,0:0:0:0:
320,192,149818,1,2,0:0:0:0:
64,192,149935,1,0,0:0:0:0:
192,192,149935,1,2,0:0:0:0:
192,192,150052,1,2,0:0:0:0:
64,192,150170,1,0,0:0:0:0:
320,192,150170,1,0,0:0:0:0:
448,192,150170,1,0,0:0:0:70:finish.wav
320,192,150287,1,0,0:0:0:0:
192,192,150404,1,0,0:0:0:0:
448,192,150521,1,0,0:0:0:0:
448,192,150638,1,0,0:0:0:0:
64,192,150755,1,0,0:0:0:0:
448,192,150873,1,0,0:0:0:0:
448,192,150990,1,0,0:0:0:0:
64,192,151107,1,0,0:0:0:0:
448,192,151224,1,0,0:0:0:0:
448,192,151341,1,0,0:0:0:0:
64,192,151459,1,0,0:0:0:0:
448,192,151576,1,0,0:0:0:0:
448,192,151693,1,0,0:0:0:0:
192,192,151810,1,0,0:0:0:0:
192,192,151927,1,0,0:0:0:0:
320,192,152045,1,0,0:0:0:0:
320,192,152162,1,0,0:0:0:0:
64,192,152279,1,0,0:0:0:0:
320,192,152396,1,0,0:0:0:0:
320,192,152513,1,0,0:0:0:0:
64,192,152630,1,0,0:0:0:0:
320,192,152748,1,0,0:0:0:0:
320,192,152865,1,0,0:0:0:0:
64,192,152982,1,0,0:0:0:0:
320,192,153099,1,0,0:0:0:0:
320,192,153216,1,0,0:0:0:0:
64,192,153334,1,0,0:0:0:0:
448,192,153451,1,0,0:0:0:0:
448,192,153568,1,0,0:0:0:0:
192,192,153685,1,0,0:0:0:0:
192,192,153802,1,0,0:0:0:0:
448,192,153920,1,0,0:0:0:0:
448,192,154037,1,0,0:0:0:0:
64,192,154154,1,0,0:0:0:0:
448,192,154271,1,0,0:0:0:0:
448,192,154388,1,0,0:0:0:0:
64,192,154505,1,0,0:0:0:0:
448,192,154623,1,0,0:0:0:0:
448,192,154740,1,0,0:0:0:0:
64,192,154857,1,0,0:0:0:0:
448,192,154974,1,0,0:0:0:0:
448,192,155091,1,0,0:0:0:0:
64,192,155209,1,0,0:0:0:0:
320,192,155326,1,0,0:0:0:0:
320,192,155443,1,0,0:0:0:0:
192,192,155560,1,0,0:0:0:0:
192,192,155677,1,0,0:0:0:0:
448,192,155795,1,0,0:0:0:0:
448,192,155912,1,0,0:0:0:0:
192,192,156029,1,0,0:0:0:0:
448,192,156146,1,0,0:0:0:0:
448,192,156263,1,0,0:0:0:0:
192,192,156380,1,0,0:0:0:0:
448,192,156498,1,0,0:0:0:0:
448,192,156615,1,0,0:0:0:0:
192,192,156732,1,0,0:0:0:0:
448,192,156849,1,0,0:0:0:0:
448,192,156966,1,0,0:0:0:0:
192,192,157084,1,0,0:0:0:0:
320,192,157201,1,0,0:0:0:0:
320,192,157318,1,0,0:0:0:0:
64,192,157435,1,0,0:0:0:0:
64,192,157552,1,0,0:0:0:0:
448,192,157670,1,0,0:0:0:0:
192,192,157787,1,0,0:0:0:0:
192,192,157904,1,0,0:0:0:0:
448,192,158021,1,0,0:0:0:0:
192,192,158138,1,0,0:0:0:0:
192,192,158255,1,0,0:0:0:0:
448,192,158373,1,0,0:0:0:0:
192,192,158490,1,0,0:0:0:0:
192,192,158607,1,0,0:0:0:0:
448,192,158724,1,0,0:0:0:0:
192,192,158841,1,0,0:0:0:0:
192,192,158959,1,0,0:0:0:0:
320,192,159076,1,0,0:0:0:0:
320,192,159193,1,0,0:0:0:0:
192,192,159310,1,0,0:0:0:0:
192,192,159427,1,0,0:0:0:0:
320,192,159545,1,0,0:0:0:0:
64,192,159662,1,0,0:0:0:0:
64,192,159779,1,0,0:0:0:0:
320,192,159896,1,0,0:0:0:0:
64,192,160013,1,0,0:0:0:0:
64,192,160130,1,0,0:0:0:0:
320,192,160248,1,0,0:0:0:0:
64,192,160365,1,0,0:0:0:0:
64,192,160482,1,0,0:0:0:0:
320,192,160599,1,0,0:0:0:0:
64,192,160716,1,0,0:0:0:0:
64,192,160834,1,0,0:0:0:0:
448,192,160951,1,0,0:0:0:0:
448,192,161068,1,0,0:0:0:0:
192,192,161185,1,0,0:0:0:0:
192,192,161302,1,0,0:0:0:0:
320,192,161420,1,0,0:0:0:0:
320,192,161537,1,0,0:0:0:0:
64,192,161654,1,0,0:0:0:0:
320,192,161771,1,0,0:0:0:0:
320,192,161888,1,0,0:0:0:0:
64,192,162005,1,0,0:0:0:0:
320,192,162123,1,0,0:0:0:0:
320,192,162240,1,0,0:0:0:0:
64,192,162357,1,0,0:0:0:0:
320,192,162474,1,0,0:0:0:0:
320,192,162591,1,0,0:0:0:0:
64,192,162709,1,0,0:0:0:0:
448,192,162826,1,0,0:0:0:0:
448,192,162943,1,0,0:0:0:0:
64,192,163060,1,0,0:0:0:0:
64,192,163177,1,0,0:0:0:0:
448,192,163295,1,0,0:0:0:0:
192,192,163412,1,0,0:0:0:0:
192,192,163529,1,0,0:0:0:0:
448,192,163646,1,0,0:0:0:0:
192,192,163763,1,0,0:0:0:0:
192,192,163880,1,0,0:0:0:0:
448,192,163998,1,0,0:0:0:0:
192,192,164115,1,0,0:0:0:0:
192,192,164232,1,0,0:0:0:0:
448,192,164349,1,0,0:0:0:0:
192,192,164466,1,0,0:0:0:0:
192,192,164584,1,0,0:0:0:0:
320,192,164701,1,0,0:0:0:0:
320,192,164818,1,0,0:0:0:0:
192,192,164935,1,0,0:0:0:0:
192,192,165052,1,0,0:0:0:0:
64,192,165170,1,0,0:0:0:0:
320,192,165170,1,0,0:0:0:0:
448,192,165170,1,0,0:0:0:70:finish.wav
192,192,165287,1,0,0:0:0:0:
320,192,165404,1,0,0:0:0:0:
192,192,165521,1,0,0:0:0:0:
64,192,165638,1,0,0:0:0:40:Muted Snare.wav
448,192,165638,1,0,0:0:0:0:
320,192,165755,1,0,0:0:0:0:
448,192,165873,1,0,0:0:0:0:
64,192,165990,1,0,0:0:0:0:
192,192,166107,1,0,0:0:0:0:
64,192,166224,1,0,0:0:0:0:
448,192,166341,1,0,0:0:0:0:
320,192,166459,1,0,0:0:0:0:
448,192,166576,1,0,0:0:0:0:
192,192,166576,1,0,0:0:0:40:Muted Snare.wav
64,192,166693,1,0,0:0:0:0:
320,192,166810,1,0,0:0:0:0:
192,192,166927,1,0,0:0:0:0:
320,192,167045,1,0,0:0:0:0:
448,192,167045,1,0,0:0:0:70:kick.wav
64,192,167162,1,0,0:0:0:0:
320,192,167279,1,0,0:0:0:0:
192,192,167396,1,0,0:0:0:0:
448,192,167513,1,0,0:0:0:0:
320,192,167513,1,0,0:0:0:40:Muted Snare.wav
192,192,167630,1,0,0:0:0:0:
448,192,167748,1,0,0:0:0:0:
64,192,167865,1,0,0:0:0:0:
192,192,167865,1,0,0:0:0:70:kick.wav
448,192,167982,1,0,0:0:0:0:
64,192,168099,1,0,0:0:0:0:
320,192,168216,1,0,0:0:0:0:
64,192,168334,1,0,0:0:0:0:
320,192,168451,1,0,0:0:0:40:Muted Snare.wav
448,192,168451,1,0,0:0:0:0:
192,192,168568,1,0,0:0:0:70:kick.wav
64,192,168568,1,0,0:0:0:0:
320,192,168685,1,0,0:0:0:0:
192,192,168802,1,0,0:0:0:0:
64,192,168920,1,0,0:0:0:70:kick.wav
448,192,168920,1,0,0:0:0:0:
320,192,169037,1,0,0:0:0:0:
448,192,169154,1,0,0:0:0:0:
64,192,169271,1,0,0:0:0:70:kick.wav
192,192,169271,1,0,0:0:0:0:
448,192,169388,1,0,0:0:0:0:
320,192,169388,1,0,0:0:0:40:Muted Snare.wav
192,192,169505,1,0,0:0:0:0:
64,192,169623,1,0,0:0:0:0:
320,192,169740,1,0,0:0:0:70:kick.wav
448,192,169740,1,0,0:0:0:0:
192,192,169857,1,0,0:0:0:0:
448,192,169974,1,0,0:0:0:0:
64,192,170091,1,0,0:0:0:0:
320,192,170209,1,0,0:0:0:0:
64,192,170326,1,0,0:0:0:0:
192,192,170326,1,0,0:0:0:40:Muted Snare.wav
448,192,170443,1,0,0:0:0:0:
320,192,170560,1,0,0:0:0:0:
192,192,170677,1,0,0:0:0:0:
64,192,170795,1,0,0:0:0:70:kick.wav
448,192,170795,1,0,0:0:0:0:
320,192,170912,1,0,0:0:0:0:
448,192,171029,1,0,0:0:0:0:
64,192,171146,1,0,0:0:0:0:
192,192,171263,1,0,0:0:0:0:
320,192,171263,1,0,0:0:0:40:Muted Snare.wav
64,192,171380,1,0,0:0:0:0:
448,192,171498,1,0,0:0:0:0:
320,192,171615,1,0,0:0:0:0:
192,192,171615,1,0,0:0:0:70:kick.wav
448,192,171732,1,0,0:0:0:0:
64,192,171849,1,0,0:0:0:0:
320,192,171966,1,0,0:0:0:0:
192,192,171966,1,0,0:0:0:70:kick.wav
64,192,172084,1,0,0:0:0:0:
320,192,172201,1,0,0:0:0:40:Muted Snare.wav
448,192,172201,1,0,0:0:0:0:
192,192,172318,1,0,0:0:0:70:kick.wav
64,192,172318,1,0,0:0:0:0:
448,192,172435,1,0,0:0:0:0:
320,192,172552,1,0,0:0:0:0:
192,192,172670,1,0,0:0:0:0:
448,192,172670,1,2,0:0:0:0:
64,192,172787,1,0,0:0:0:0:
448,192,172787,1,2,0:0:0:0:
64,192,172904,1,0,0:0:0:0:
320,192,172904,1,2,0:0:0:0:
320,192,173021,1,2,0:0:0:0:
448,192,173021,1,0,0:0:0:0:
192,192,173138,1,2,0:0:0:0:
64,192,173138,1,0,0:0:0:0:
192,192,173255,1,2,0:0:0:0:
448,192,173255,1,0,0:0:0:0:
448,192,173373,1,0,0:0:0:0:
320,192,173373,1,2,0:0:0:0:
320,192,173490,1,2,0:0:0:0:
64,192,173490,1,0,0:0:0:0:
192,192,173607,1,2,0:0:0:0:
448,192,173607,1,0,0:0:0:0:
64,192,173724,1,0,0:0:0:0:
192,192,173724,1,2,0:0:0:0:
448,192,173841,1,2,0:0:0:0:
64,192,173841,1,0,0:0:0:0:
448,192,173959,1,2,0:0:0:0:
320,192,173959,1,0,0:0:0:0:
64,192,174076,1,0,0:0:0:0:
192,192,174076,1,2,0:0:0:0:
448,192,174193,1,0,0:0:0:0:
192,192,174193,1,2,0:0:0:0:
448,192,174310,1,0,0:0:0:0:
64,192,174310,1,2,0:0:0:0:
64,192,174427,1,2,0:0:0:0:
320,192,174427,1,0,0:0:0:0:
448,192,174545,1,2,0:0:0:0:
192,192,174545,1,0,0:0:0:0:
64,192,174662,1,0,0:0:0:0:
448,192,174662,1,2,0:0:0:0:
192,192,174779,1,2,0:0:0:0:
64,192,174779,1,0,0:0:0:0:
448,192,174896,1,0,0:0:0:0:
320,192,174896,1,2,0:0:0:0:
64,192,175013,1,0,0:0:0:0:
192,192,175013,1,2,0:0:0:0:
64,192,175130,1,0,0:0:0:0:
192,192,175130,1,2,0:0:0:0:
448,192,175248,1,0,0:0:0:0:
320,192,175248,1,2,0:0:0:0:
448,192,175365,1,0,0:0:0:0:
320,192,175365,1,2,0:0:0:0:
192,192,175482,1,2,0:0:0:0:
64,192,175482,1,0,0:0:0:0:
192,192,175599,1,2,0:0:0:0:
64,192,175599,1,0,0:0:0:0:
320,192,175716,1,2,0:0:0:0:
448,192,175716,1,0,0:0:0:0:
448,192,175834,1,0,0:0:0:0:
320,192,175834,1,2,0:0:0:0:
64,192,175951,1,0,0:0:0:0:
192,192,175951,1,2,0:0:0:0:
192,192,176068,1,2,0:0:0:0:
64,192,176068,1,0,0:0:0:0:
320,192,176185,1,2,0:0:0:0:
448,192,176185,1,0,0:0:0:0:
448,192,176302,1,0,0:0:0:0:
320,192,176302,1,2,0:0:0:0:
192,192,176420,1,0,0:0:0:70:snare1.wav
64,192,176420,1,0,0:0:0:0:
448,192,176478,1,0,0:0:0:70:snare1.wav
320,192,176537,1,0,0:0:0:70:snare1.wav
192,192,176595,1,0,0:0:0:70:snare1.wav
64,192,176654,1,0,0:0:0:70:snare1.wav
448,192,176712,1,0,0:0:0:70:snare1.wav
320,192,176771,1,0,0:0:0:70:snare1.wav
64,192,176830,1,0,0:0:0:70:snare1.wav
192,192,176888,1,0,0:0:0:70:snare1.wav
320,192,176947,1,0,0:0:0:70:snare1.wav
448,192,177005,1,0,0:0:0:70:snare1.wav
192,192,177064,1,0,0:0:0:70:snare1.wav
64,192,177123,1,0,0:0:0:70:snare1.wav
448,192,177181,1,0,0:0:0:70:snare1.wav
320,192,177240,1,0,0:0:0:70:snare1.wav
64,192,177298,1,0,0:0:0:70:snare1.wav
192,192,177357,1,0,0:0:0:70:snare1.wav
320,192,177416,1,0,0:0:0:70:snare1.wav
64,192,177474,1,0,0:0:0:70:snare1.wav
192,192,177533,1,0,0:0:0:70:snare1.wav
448,192,177591,1,0,0:0:0:70:snare1.wav
64,192,177650,1,0,0:0:0:70:snare1.wav
320,192,177709,1,0,0:0:0:70:snare1.wav
448,192,177767,1,0,0:0:0:70:snare1.wav
192,192,177826,1,0,0:0:0:70:snare1.wav
320,192,177884,1,0,0:0:0:70:snare1.wav
64,192,177943,1,0,0:0:0:70:snare1.wav
192,192,178002,1,0,0:0:0:70:snare1.wav
448,192,178060,1,0,0:0:0:70:snare1.wav
64,192,178119,1,0,0:0:0:70:snare1.wav
320,192,178177,1,0,0:0:0:70:snare1.wav
448,192,178236,1,0,0:0:0:70:snare1.wav
64,192,178295,1,2,0:0:0:0:
192,192,178295,1,0,0:0:0:0:
192,192,178529,128,0,179349:0:0:0:0:
448,192,178529,128,0,179115:0:0:0:0:
320,192,178763,128,0,179466:0:0:0:0:
64,192,178998,128,0,179349:0:0:0:0:
448,192,179232,128,0,179466:0:0:0:0:
64,192,179466,1,0,0:0:0:0:
192,192,179466,1,0,0:0:0:70:Tom1.wav
448,192,179584,1,0,0:0:0:0:
192,192,179584,1,0,0:0:0:70:Tom1.wav
320,192,179701,128,0,179818:0:0:0:70:Tom2.wav
448,192,179701,128,0,179818:0:0:0:0:
192,192,179818,1,0,0:0:0:70:Tom1.wav
64,192,179818,1,0,0:0:0:0:
64,192,179935,128,0,180052:0:0:0:0:
448,192,179935,128,0,180052:0:0:0:0:
320,192,179935,128,0,180052:0:0:0:70:Tom3.wav
448,192,180170,1,0,0:0:0:0:
192,192,180170,128,0,180521:0:0:0:100:Bassdrop.wav
64,192,180170,128,0,180521:0:0:0:0:
320,192,180170,1,2,0:0:0:0:
448,192,180638,1,8,0:0:0:0:
192,192,180638,1,0,0:0:0:0:
64,192,180638,1,0,0:0:0:0:
320,192,180638,1,0,0:0:0:70:finish.wav
64,192,180755,1,0,0:0:0:0:
192,192,180755,1,0,0:0:0:0:
448,192,180873,1,0,0:0:0:0:
320,192,180873,1,0,0:0:0:0:
320,192,180990,1,0,0:0:0:0:
448,192,180990,1,0,0:0:0:0:
64,192,180990,1,2,0:0:0:0:
64,192,181107,1,0,0:0:0:0:
192,192,181107,1,0,0:0:0:0:
448,192,181224,1,0,0:0:0:0:
320,192,181224,1,0,0:0:0:0:
64,192,181341,1,0,0:0:0:0:
448,192,181341,1,0,0:0:0:0:
192,192,181459,1,0,0:0:0:0:
320,192,181459,1,0,0:0:0:0:
192,192,181576,1,8,0:0:0:0:
448,192,181576,1,0,0:0:0:0:
64,192,181576,1,0,0:0:0:0:
448,192,181693,1,0,0:0:0:0:
320,192,181693,1,0,0:0:0:0:
64,192,181810,1,0,0:0:0:0:
192,192,181810,1,0,0:0:0:0:
192,192,181927,1,0,0:0:0:0:
448,192,181927,1,0,0:0:0:0:
64,192,182045,128,0,182162:0:0:0:70:Growl3.wav
320,192,182045,128,0,182162:0:0:0:0:
448,192,182045,128,2,182162:0:0:0:0:
64,192,182279,128,0,182396:0:0:0:70:Growl3.wav
192,192,182279,128,0,182396:0:0:0:0:
448,192,182279,128,0,182396:0:0:0:0:
64,192,182513,1,8,0:0:0:0:
448,192,182513,1,0,0:0:0:0:
320,192,182513,1,0,0:0:0:0:
320,192,182630,1,0,0:0:0:0:
448,192,182630,1,0,0:0:0:0:
64,192,182748,1,0,0:0:0:0:
192,192,182748,1,0,0:0:0:0:
64,192,182865,1,0,0:0:0:0:
320,192,182865,1,2,0:0:0:0:
448,192,182865,1,0,0:0:0:0:
192,192,182982,1,0,0:0:0:0:
320,192,182982,1,0,0:0:0:0:
64,192,183099,1,0,0:0:0:0:
448,192,183099,1,0,0:0:0:0:
320,192,183216,1,0,0:0:0:0:
448,192,183216,1,0,0:0:0:0:
192,192,183334,1,0,0:0:0:0:
64,192,183334,1,0,0:0:0:0:
64,192,183451,1,0,0:0:0:0:
320,192,183451,1,0,0:0:0:0:
448,192,183451,1,8,0:0:0:0:
192,192,183568,1,0,0:0:0:0:
320,192,183568,1,2,0:0:0:0:
64,192,183685,1,0,0:0:0:0:
448,192,183685,1,0,0:0:0:0:
192,192,183744,1,0,0:0:0:0:
320,192,183802,1,0,0:0:0:0:
448,192,183861,1,0,0:0:0:0:
64,192,183920,128,2,184154:0:0:0:0:
192,192,183920,128,0,184154:0:0:0:100:Bassdrop.wav
64,192,184271,1,0,0:0:0:0:
192,192,184271,1,2,0:0:0:0:
320,192,184330,1,2,0:0:0:0:
64,192,184388,1,0,0:0:0:0:
192,192,184388,1,8,0:0:0:0:
448,192,184388,1,0,0:0:0:0:
320,192,184505,128,0,184623:0:0:0:0:
448,192,184505,128,0,184623:0:0:0:0:
64,192,184740,1,0,0:0:0:0:
192,192,184740,1,2,0:0:0:0:
448,192,184740,1,0,0:0:0:0:
64,192,184857,128,0,184916:0:0:0:0:
192,192,184857,128,0,184916:0:0:0:0:
448,192,184974,128,0,185033:0:0:0:0:
320,192,184974,128,0,185033:0:0:0:0:
448,192,185091,128,0,185150:0:0:0:0:
320,192,185091,128,0,185150:0:0:0:0:
64,192,185209,128,0,185267:0:0:0:0:
192,192,185209,128,0,185267:0:0:0:0:
64,192,185326,1,0,0:0:0:0:
320,192,185326,1,0,0:0:0:0:
448,192,185326,1,8,0:0:0:0:
448,192,185443,128,0,185560:0:0:0:0:
320,192,185443,128,0,185560:0:0:0:0:
64,192,185560,1,0,0:0:0:0:
192,192,185599,1,0,0:0:0:0:
320,192,185638,1,0,0:0:0:0:
448,192,185677,1,0,0:0:0:0:
192,192,185795,128,0,186029:0:0:0:70:Growl.wav
64,192,185795,128,0,186029:0:0:0:0:
320,192,185795,1,2,0:0:0:0:
320,192,186029,128,0,186087:0:0:0:0:
448,192,186029,128,0,186087:0:0:0:0:
320,192,186146,128,0,186205:0:0:0:0:
448,192,186146,128,0,186205:0:0:0:0:
448,192,186263,1,8,0:0:0:0:
64,192,186263,1,0,0:0:0:0:
192,192,186263,1,0,0:0:0:0:
192,192,186380,128,0,186498:0:0:0:0:
64,192,186380,128,0,186498:0:0:0:0:
64,192,186615,1,0,0:0:0:0:
320,192,186615,1,2,0:0:0:0:
448,192,186615,1,0,0:0:0:0:
192,192,186732,128,0,186791:0:0:0:0:
64,192,186732,128,0,186791:0:0:0:0:
320,192,186849,128,0,186908:0:0:0:0:
448,192,186849,128,0,186908:0:0:0:0:
320,192,186966,128,0,187025:0:0:0:0:
448,192,186966,128,0,187025:0:0:0:0:
64,192,186966,1,2,0:0:0:0:
64,192,187084,128,0,187142:0:0:0:0:
192,192,187084,128,0,187142:0:0:0:0:
192,192,187201,1,0,0:0:0:0:
320,192,187201,1,8,0:0:0:0:
448,192,187201,1,0,0:0:0:0:
64,192,187318,1,2,0:0:0:0:
448,192,187318,128,0,187435:0:0:0:100:Bassdrop.wav
192,192,187435,1,0,0:0:0:70:Tom1.wav
64,192,187494,1,0,0:0:0:70:Tom1.wav
320,192,187552,1,0,0:0:0:70:Tom1.wav
192,192,187611,1,0,0:0:0:70:Tom1.wav
320,192,187670,128,0,187904:0:0:0:0:
448,192,187670,128,8,187904:0:0:0:0:
64,192,187670,128,0,187904:0:0:0:0:
320,192,188021,1,2,0:0:0:0:
448,192,188021,1,0,0:0:0:0:
448,192,188138,1,0,0:0:0:0:
192,192,188138,1,8,0:0:0:0:
64,192,188138,1,0,0:0:0:0:
64,192,188255,1,0,0:0:0:0:
192,192,188255,1,0,0:0:0:0:
448,192,188373,1,0,0:0:0:0:
320,192,188373,1,0,0:0:0:0:
448,192,188490,1,0,0:0:0:0:
64,192,188490,1,0,0:0:0:0:
320,192,188490,1,2,0:0:0:0:
64,192,188607,1,0,0:0:0:0:
192,192,188607,1,0,0:0:0:0:
448,192,188724,1,0,0:0:0:0:
320,192,188724,1,0,0:0:0:0:
64,192,188841,1,0,0:0:0:0:
448,192,188841,1,0,0:0:0:0:
192,192,188959,1,0,0:0:0:0:
320,192,188959,1,0,0:0:0:0:
64,192,189076,1,8,0:0:0:0:
192,192,189076,1,0,0:0:0:0:
448,192,189076,1,0,0:0:0:0:
64,192,189193,1,0,0:0:0:0:
192,192,189222,1,0,0:0:0:0:
448,192,189310,1,0,0:0:0:0:
320,192,189339,1,0,0:0:0:0:
64,192,189427,1,0,0:0:0:0:
192,192,189457,1,0,0:0:0:0:
448,192,189545,1,2,0:0:0:0:
320,192,189545,128,0,189779:0:0:0:0:
64,192,189545,1,0,0:0:0:70:Growl.wav
192,192,189662,128,0,189779:0:0:0:0:
64,192,189701,128,0,189779:0:0:0:0:
448,192,189779,128,0,190013:0:0:0:0:
320,192,190013,1,8,0:0:0:0:
192,192,190013,1,0,0:0:0:0:
64,192,190013,1,0,0:0:0:0:
64,192,190130,1,0,0:0:0:0:
448,192,190130,1,0,0:0:0:0:
192,192,190248,1,0,0:0:0:0:
320,192,190248,1,0,0:0:0:0:
64,192,190365,1,2,0:0:0:0:
448,192,190365,1,0,0:0:0:0:
192,192,190365,1,0,0:0:0:0:
320,192,190482,1,0,0:0:0:0:
448,192,190482,1,0,0:0:0:0:
192,192,190599,1,0,0:0:0:0:
64,192,190599,1,0,0:0:0:0:
448,192,190716,1,0,0:0:0:0:
64,192,190716,1,0,0:0:0:0:
192,192,190834,1,0,0:0:0:0:
320,192,190834,1,0,0:0:0:0:
64,192,190951,1,0,0:0:0:0:
320,192,190951,1,0,0:0:0:0:
448,192,190951,1,8,0:0:0:0:
192,192,191068,1,2,0:0:0:0:
64,192,191068,1,0,0:0:0:0:
320,192,191185,1,0,0:0:0:0:
448,192,191244,1,0,0:0:0:0:
192,192,191302,1,0,0:0:0:0:
320,192,191361,1,0,0:0:0:0:
64,192,191420,128,8,191654:0:0:0:0:
448,192,191420,128,0,191654:0:0:0:0:
192,192,191420,128,0,191654:0:0:0:100:Bassdrop.wav
320,192,191771,1,2,0:0:0:0:
448,192,191771,1,0,0:0:0:0:
192,192,191830,1,2,0:0:0:0:
64,192,191888,128,8,192123:0:0:0:0:
320,192,191888,128,0,192123:0:0:0:0:
448,192,191888,128,0,192123:0:0:0:70:Growl.wav
192,192,192005,128,0,192123:0:0:0:0:
192,192,192240,128,0,192591:0:0:0:0:
64,192,192240,128,0,192591:0:0:0:100:Bassdrop.wav
448,192,192240,1,2,0:0:0:0:
448,192,192591,1,0,0:0:0:0:
320,192,192630,1,0,0:0:0:0:
192,192,192670,1,0,0:0:0:0:
64,192,192709,1,0,0:0:0:0:
448,192,192748,1,0,0:0:0:0:
320,192,192787,1,0,0:0:0:0:
192,192,192826,1,8,0:0:0:0:
64,192,192826,1,0,0:0:0:0:
320,192,192943,1,0,0:0:0:0:
448,192,192943,1,0,0:0:0:0:
192,192,193002,1,0,0:0:0:0:
64,192,193060,1,0,0:0:0:0:
448,192,193060,1,0,0:0:0:0:
64,192,193177,1,0,0:0:0:0:
320,192,193177,1,0,0:0:0:0:
192,192,193295,1,0,0:0:0:0:
448,192,193295,128,8,193529:0:0:0:0:
320,192,193295,128,0,193529:0:0:0:0:
64,192,193529,1,0,0:0:0:0:
192,192,193568,1,0,0:0:0:0:
320,192,193607,1,0,0:0:0:0:
448,192,193646,1,0,0:0:0:0:
64,192,193646,1,8,0:0:0:0:
320,192,193880,128,0,193939:0:0:0:0:
448,192,193880,128,0,193939:0:0:0:0:
64,192,193998,1,0,0:0:0:0:
192,192,193998,1,8,0:0:0:0:
448,192,193998,1,0,0:0:0:0:
64,192,194115,128,0,195052:0:0:0:0:
320,192,194115,1,0,0:0:0:0:
448,192,194349,1,0,0:0:0:0:
320,192,194349,1,8,0:0:0:0:
192,192,194349,1,0,0:0:0:70:Tom1.wav
192,192,194466,1,0,0:0:0:70:Tom1.wav
448,192,194584,1,0,0:0:0:70:Tom1.wav
448,192,194701,1,0,0:0:0:0:
320,192,194701,1,8,0:0:0:0:
192,192,194701,1,0,0:0:0:70:Tom2.wav
320,192,194818,1,0,0:0:0:70:Tom2.wav
192,192,194935,128,0,195052:0:0:0:0:
448,192,194935,128,0,195052:0:0:0:70:Tom3.wav
320,192,195170,1,8,0:0:0:0:
448,192,195170,1,0,0:0:0:0:
192,192,195170,128,0,195521:0:0:0:70:finish.wav
64,192,195170,128,0,195521:0:0:0:0:
448,192,195521,1,0,0:0:0:0:
320,192,195521,1,2,0:0:0:0:
64,192,195638,1,0,0:0:0:0:
192,192,195638,1,8,0:0:0:0:
448,192,195638,1,0,0:0:0:0:
192,192,195755,1,0,0:0:0:0:
64,192,195755,1,0,0:0:0:0:
320,192,195873,1,0,0:0:0:0:
448,192,195873,1,0,0:0:0:0:
64,192,195990,1,0,0:0:0:0:
448,192,195990,1,0,0:0:0:0:
320,192,195990,1,2,0:0:0:0:
192,192,196107,1,0,0:0:0:0:
64,192,196107,1,0,0:0:0:0:
320,192,196224,1,0,0:0:0:0:
448,192,196224,1,0,0:0:0:0:
448,192,196341,1,0,0:0:0:0:
64,192,196341,1,0,0:0:0:0:
320,192,196459,1,0,0:0:0:0:
192,192,196459,1,0,0:0:0:0:
64,192,196576,1,0,0:0:0:0:
448,192,196576,1,0,0:0:0:0:
192,192,196576,1,8,0:0:0:0:
320,192,196693,1,0,0:0:0:0:
448,192,196693,1,0,0:0:0:0:
192,192,196810,1,0,0:0:0:0:
64,192,196810,1,0,0:0:0:0:
192,192,196927,1,0,0:0:0:0:
448,192,196927,1,0,0:0:0:0:
64,192,197045,128,0,197162:0:0:0:70:Growl3.wav
320,192,197045,128,2,197162:0:0:0:0:
448,192,197045,128,0,197162:0:0:0:0:
64,192,197279,128,0,197396:0:0:0:70:Growl3.wav
448,192,197279,128,0,197396:0:0:0:0:
192,192,197279,128,0,197396:0:0:0:0:
64,192,197513,1,0,0:0:0:0:
448,192,197513,1,8,0:0:0:0:
320,192,197513,1,0,0:0:0:0:
320,192,197630,1,0,0:0:0:0:
448,192,197630,1,0,0:0:0:0:
64,192,197748,1,0,0:0:0:0:
192,192,197748,1,0,0:0:0:0:
64,192,197865,1,2,0:0:0:0:
320,192,197865,1,0,0:0:0:0:
448,192,197865,1,0,0:0:0:0:
192,192,197982,1,0,0:0:0:0:
320,192,197982,1,0,0:0:0:0:
64,192,198099,1,0,0:0:0:0:
448,192,198099,1,0,0:0:0:0:
320,192,198216,1,0,0:0:0:0:
448,192,198216,1,0,0:0:0:0:
192,192,198334,1,0,0:0:0:0:
64,192,198334,1,0,0:0:0:0:
64,192,198451,1,0,0:0:0:0:
320,192,198451,1,8,0:0:0:0:
448,192,198451,1,0,0:0:0:0:
192,192,198568,1,2,0:0:0:0:
320,192,198568,1,0,0:0:0:0:
64,192,198685,1,0,0:0:0:0:
448,192,198685,1,0,0:0:0:0:
192,192,198744,1,0,0:0:0:0:
320,192,198802,1,0,0:0:0:0:
448,192,198861,1,0,0:0:0:0:
64,192,198920,128,0,199154:0:0:0:100:Bassdrop.wav
192,192,198920,128,2,199154:0:0:0:0:
64,192,199271,1,0,0:0:0:0:
192,192,199271,1,2,0:0:0:0:
320,192,199330,1,2,0:0:0:0:
64,192,199388,1,0,0:0:0:0:
192,192,199388,1,8,0:0:0:0:
448,192,199388,1,0,0:0:0:0:
320,192,199505,128,0,199623:0:0:0:0:
448,192,199505,128,0,199623:0:0:0:0:
64,192,199740,1,2,0:0:0:0:
192,192,199740,1,0,0:0:0:0:
448,192,199740,1,0,0:0:0:0:
192,192,199857,128,0,199916:0:0:0:0:
64,192,199857,128,0,199916:0:0:0:0:
320,192,199974,128,0,200033:0:0:0:0:
448,192,199974,128,0,200033:0:0:0:0:
320,192,200091,128,0,200150:0:0:0:0:
448,192,200091,128,0,200150:0:0:0:0:
192,192,200209,128,0,200267:0:0:0:0:
64,192,200209,128,0,200267:0:0:0:0:
64,192,200326,1,0,0:0:0:0:
320,192,200326,1,8,0:0:0:0:
448,192,200326,1,0,0:0:0:0:
320,192,200443,128,0,200560:0:0:0:0:
448,192,200443,128,0,200560:0:0:0:0:
64,192,200560,1,0,0:0:0:0:
192,192,200599,1,0,0:0:0:0:
448,192,200638,1,0,0:0:0:0:
320,192,200677,1,0,0:0:0:0:
192,192,200795,128,0,201029:0:0:0:70:Growl.wav
64,192,200795,128,0,201029:0:0:0:0:
448,192,200795,1,2,0:0:0:0:
320,192,201029,128,0,201087:0:0:0:0:
448,192,201029,128,0,201087:0:0:0:0:
320,192,201146,128,0,201205:0:0:0:0:
448,192,201146,128,0,201205:0:0:0:0:
448,192,201263,1,8,0:0:0:0:
64,192,201263,1,0,0:0:0:0:
192,192,201263,1,0,0:0:0:0:
192,192,201380,128,0,201498:0:0:0:0:
64,192,201380,128,0,201498:0:0:0:0:
64,192,201615,1,0,0:0:0:0:
320,192,201615,1,2,0:0:0:0:
448,192,201615,1,0,0:0:0:0:
192,192,201732,128,0,201791:0:0:0:0:
64,192,201732,128,0,201791:0:0:0:0:
320,192,201849,128,0,201908:0:0:0:0:
448,192,201849,128,0,201908:0:0:0:0:
320,192,201966,128,0,202025:0:0:0:0:
448,192,201966,128,0,202025:0:0:0:0:
64,192,201966,1,2,0:0:0:0:
64,192,202084,128,0,202142:0:0:0:0:
192,192,202084,128,0,202142:0:0:0:0:
192,192,202201,1,0,0:0:0:0:
320,192,202201,1,8,0:0:0:0:
448,192,202201,1,0,0:0:0:0:
64,192,202318,1,2,0:0:0:0:
448,192,202318,128,0,202435:0:0:0:100:Bassdrop.wav
192,192,202435,1,0,0:0:0:70:Tom1.wav
64,192,202494,1,0,0:0:0:70:Tom1.wav
320,192,202552,1,0,0:0:0:70:Tom1.wav
192,192,202611,1,0,0:0:0:70:Tom1.wav
320,192,202670,128,0,203021:0:0:0:0:
448,192,202670,128,8,203021:0:0:0:0:
64,192,202670,128,0,203021:0:0:0:0:
448,192,203138,1,0,0:0:0:0:
320,192,203138,1,8,0:0:0:0:
192,192,203138,1,0,0:0:0:0:
64,192,203138,1,0,0:0:0:0:
64,192,203255,1,0,0:0:0:0:
320,192,203373,1,2,0:0:0:0:
448,192,203373,1,0,0:0:0:0:
192,192,203490,1,0,0:0:0:0:
64,192,203607,1,8,0:0:0:0:
192,192,203607,1,0,0:0:0:0:
320,192,203607,1,0,0:0:0:0:
448,192,203607,1,0,0:0:0:0:
448,192,203724,1,0,0:0:0:0:
192,192,203841,1,0,0:0:0:0:
64,192,203841,1,2,0:0:0:0:
320,192,203959,1,0,0:0:0:0:
64,192,204076,1,0,0:0:0:0:
192,192,204076,1,0,0:0:0:0:
448,192,204076,1,8,0:0:0:0:
320,192,204076,1,0,0:0:0:0:
64,192,204193,1,0,0:0:0:0:
448,192,204310,1,2,0:0:0:0:
320,192,204310,1,0,0:0:0:0:
192,192,204427,1,0,0:0:0:0:
320,192,204545,1,8,0:0:0:0:
448,192,204545,128,0,204896:0:0:0:70:Growl.wav
192,192,204545,128,0,204896:0:0:0:0:
64,192,204545,128,0,204896:0:0:0:0:
64,192,205013,1,0,0:0:0:0:
192,192,205013,1,8,0:0:0:0:
320,192,205013,1,0,0:0:0:0:
448,192,205013,1,0,0:0:0:0:
448,192,205130,1,0,0:0:0:0:
192,192,205248,1,2,0:0:0:0:
64,192,205248,1,0,0:0:0:0:
320,192,205365,1,0,0:0:0:0:
448,192,205482,1,8,0:0:0:0:
320,192,205482,1,0,0:0:0:0:
192,192,205482,1,0,0:0:0:0:
64,192,205482,1,0,0:0:0:0:
64,192,205599,1,0,0:0:0:0:
320,192,205716,1,0,0:0:0:0:
448,192,205716,1,2,0:0:0:0:
192,192,205834,1,0,0:0:0:0:
448,192,205951,1,0,0:0:0:0:
320,192,205951,1,0,0:0:0:0:
64,192,205951,1,8,0:0:0:0:
192,192,205951,1,0,0:0:0:0:
448,192,206068,1,0,0:0:0:0:
320,192,206127,1,0,0:0:0:0:
64,192,206185,1,2,0:0:0:0:
192,192,206185,1,0,0:0:0:0:
320,192,206302,1,0,0:0:0:0:
192,192,206361,1,0,0:0:0:0:
64,192,206420,1,0,0:0:0:0:
320,192,206420,1,0,0:0:0:0:
448,192,206420,1,8,0:0:0:0:
64,192,206537,1,2,0:0:0:0:
192,192,206537,128,0,206771:0:0:0:0:
320,192,206654,128,0,206771:0:0:0:0:
64,192,206771,1,0,0:0:0:0:
448,192,206771,1,2,0:0:0:0:
192,192,206888,1,0,0:0:0:0:
320,192,206947,1,0,0:0:0:0:
192,192,207005,1,2,0:0:0:0:
448,192,207005,1,0,0:0:0:0:
64,192,207123,1,0,0:0:0:0:
320,192,207123,1,8,0:0:0:0:
448,192,207123,1,0,0:0:0:0:
192,192,207240,1,2,0:0:0:0:
64,192,207240,128,0,207474:0:0:0:0:
448,192,207474,1,2,0:0:0:0:
192,192,207474,1,0,0:0:0:0:
320,192,207591,1,0,0:0:0:0:
192,192,207630,1,0,0:0:0:0:
64,192,207670,1,0,0:0:0:0:
448,192,207709,1,2,0:0:0:0:
320,192,207709,1,0,0:0:0:0:
64,192,207826,1,0,0:0:0:0:
192,192,207826,1,8,0:0:0:0:
448,192,207826,1,0,0:0:0:0:
192,192,207943,1,0,0:0:0:0:
320,192,207943,1,2,0:0:0:0:
64,192,208060,1,0,0:0:0:0:
448,192,208060,1,2,0:0:0:0:
320,192,208177,1,2,0:0:0:0:
192,192,208177,1,0,0:0:0:0:
64,192,208295,128,0,208529:0:0:0:0:
192,192,208295,128,0,208529:0:0:0:0:
448,192,208295,1,8,0:0:0:0:
448,192,208529,1,0,0:0:0:0:
320,192,208568,1,0,0:0:0:0:
192,192,208607,1,0,0:0:0:0:
64,192,208646,1,0,0:0:0:0:
448,192,208685,1,0,0:0:0:0:
320,192,208724,1,0,0:0:0:0:
64,192,208763,1,0,0:0:0:0:
192,192,208763,1,0,0:0:0:0:
320,192,208998,1,0,0:0:0:0:
320,192,209115,1,0,0:0:0:0:
192,192,209232,128,0,209701:0:0:0:0:
64,192,209232,1,0,0:0:0:0:
64,192,209466,1,0,0:0:0:0:
448,192,209466,1,0,0:0:0:70:Tom3.wav
448,192,209701,1,0,0:0:0:0:
320,192,209701,1,0,0:0:0:70:Tom1.wav
64,192,209818,1,0,0:0:0:0:
320,192,209818,1,0,0:0:0:70:Tom1.wav
192,192,209935,1,0,0:0:0:70:Tom1.wav
64,192,209994,1,0,0:0:0:70:Tom1.wav
320,192,210052,1,0,0:0:0:70:Tom1.wav
192,192,210111,1,0,0:0:0:70:Tom1.wav
320,192,210170,128,0,210521:0:0:0:70:finish.wav
448,192,210170,128,0,210521:0:0:0:0:
64,192,210170,128,8,210638:0:0:0:0:
192,192,210404,128,0,210638:0:0:0:0:
320,192,210638,128,0,210990:0:0:0:0:
448,192,210638,128,0,210990:0:0:0:0:
64,192,210990,1,0,0:0:0:0:
192,192,210990,1,2,0:0:0:0:
64,192,211107,1,8,0:0:0:0:
320,192,211107,1,0,0:0:0:0:
448,192,211107,1,0,0:0:0:0:
64,192,212045,1,0,0:0:0:0:
448,192,212045,128,2,212865:0:0:0:0:
192,192,212045,128,0,212279:0:0:0:0:
320,192,212279,128,0,212865:0:0:0:0:
192,192,212748,128,2,212865:0:0:0:0:
64,192,212748,128,0,212865:0:0:0:0:
64,192,212982,1,0,0:0:0:40:pew2.wav
320,192,212982,1,0,0:0:0:0:
448,192,212982,1,8,0:0:0:0:
192,192,213041,1,0,0:0:0:40:pew2.wav
320,192,213099,1,0,0:0:0:40:pew2.wav
64,192,213158,1,0,0:0:0:40:pew2.wav
192,192,213216,1,0,0:0:0:40:pew2.wav
448,192,213275,1,0,0:0:0:40:pew2.wav
320,192,213334,1,0,0:0:0:40:pew2.wav
192,192,213392,1,0,0:0:0:40:pew2.wav
448,192,213451,1,0,0:0:0:0:
64,192,213451,1,2,0:0:0:0:
192,192,213568,1,0,0:0:0:40:pew2.wav
320,192,213627,1,0,0:0:0:40:pew2.wav
448,192,213685,1,0,0:0:0:40:pew2.wav
64,192,213744,1,0,0:0:0:40:pew2.wav
192,192,213802,1,0,0:0:0:40:pew2.wav
320,192,213861,1,0,0:0:0:40:pew2.wav
448,192,213920,128,2,214154:0:0:0:0:
192,192,213920,1,0,0:0:0:0:
64,192,213920,128,0,214154:0:0:0:0:
320,192,214037,128,0,214388:0:0:0:0:
192,192,214154,128,0,214388:0:0:0:0:
64,192,214388,128,0,214466:0:0:0:0:
448,192,214388,128,0,214466:0:0:0:70:pew.wav
448,192,214545,128,0,214623:0:0:0:70:pew.wav
64,192,214545,128,0,214623:0:0:0:0:
64,192,214701,128,0,214779:0:0:0:0:
448,192,214701,128,0,214779:0:0:0:70:pew.wav
448,192,214857,1,8,0:0:0:0:
64,192,214857,1,0,0:0:0:0:
320,192,214857,1,0,0:0:0:0:
192,192,214974,128,0,215033:0:0:0:40:pew2.wav
192,192,215091,128,0,215150:0:0:0:40:pew2.wav
192,192,215209,128,0,215267:0:0:0:40:pew2.wav
448,192,215326,128,0,215443:0:0:0:0:
64,192,215326,128,0,215443:0:0:0:0:
192,192,215502,128,0,215619:0:0:0:0:
448,192,215502,128,0,215619:0:0:0:0:
448,192,215677,128,0,215795:0:0:0:0:
320,192,215677,128,0,215795:0:0:0:0:
192,192,215795,1,0,0:0:0:0:
64,192,215795,1,2,0:0:0:0:
320,192,215912,1,0,0:0:0:0:
448,192,215912,1,0,0:0:0:0:
192,192,215970,1,0,0:0:0:0:
64,192,216029,1,0,0:0:0:0:
448,192,216029,1,0,0:0:0:0:
64,192,216146,128,0,216498:0:0:0:0:
192,192,216146,128,0,216498:0:0:0:0:
320,192,216146,1,0,0:0:0:0:
448,192,216498,1,0,0:0:0:0:
320,192,216498,1,0,0:0:0:0:
192,192,216615,1,2,0:0:0:0:
64,192,216615,1,0,0:0:0:0:
320,192,216673,1,2,0:0:0:0:
448,192,216732,1,0,0:0:0:0:
192,192,216732,1,8,0:0:0:0:
64,192,216732,1,0,0:0:0:0:
320,192,216849,1,2,0:0:0:0:
448,192,216849,1,0,0:0:0:0:
64,192,216966,1,0,0:0:0:0:
192,192,217005,1,0,0:0:0:0:
320,192,217045,1,0,0:0:0:0:
448,192,217084,1,0,0:0:0:0:
64,192,217084,1,2,0:0:0:0:
192,192,217201,1,0,0:0:0:70:Tom3.wav
320,192,217201,1,0,0:0:0:0:
192,192,217318,1,0,0:0:0:70:Tom3.wav
448,192,217435,1,0,0:0:0:70:Tom2.wav
64,192,217435,1,2,0:0:0:0:
448,192,217552,1,0,0:0:0:70:Tom1.wav
64,192,217670,1,8,0:0:0:0:
192,192,217670,128,0,218021:0:0:0:0:
320,192,217670,128,0,218021:0:0:0:0:
448,192,217904,128,0,218021:0:0:0:0:
320,192,218138,1,0,0:0:0:0:
192,192,218138,1,0,0:0:0:0:
64,192,218138,128,8,218373:0:0:0:0:
320,192,218373,1,2,0:0:0:0:
192,192,218431,1,2,0:0:0:0:
448,192,218490,1,2,0:0:0:0:
320,192,218548,1,2,0:0:0:0:
64,192,218607,1,0,0:0:0:0:
192,192,218607,1,8,0:0:0:0:
448,192,218666,1,2,0:0:0:0:
320,192,218724,1,2,0:0:0:0:
64,192,218783,1,2,0:0:0:0:
448,192,218841,1,2,0:0:0:0:
192,192,218900,1,2,0:0:0:0:
64,192,218959,1,2,0:0:0:0:
320,192,219017,1,2,0:0:0:0:
192,192,219076,1,2,0:0:0:0:
448,192,219134,1,2,0:0:0:0:
320,192,219193,1,2,0:0:0:0:
192,192,219252,1,2,0:0:0:0:
64,192,219310,1,2,0:0:0:0:
448,192,219369,1,2,0:0:0:0:
320,192,219427,1,2,0:0:0:0:
192,192,219486,1,2,0:0:0:0:
448,192,219545,1,0,0:0:0:0:
64,192,219545,128,2,220365:0:0:0:0:
320,192,219545,128,0,219779:0:0:0:0:
192,192,219779,128,0,220365:0:0:0:0:
320,192,220248,128,2,220365:0:0:0:0:
448,192,220248,128,0,220365:0:0:0:0:
64,192,220482,1,0,0:0:0:40:pew2.wav
320,192,220482,1,0,0:0:0:0:
448,192,220482,1,8,0:0:0:0:
192,192,220541,1,0,0:0:0:40:pew2.wav
320,192,220599,1,0,0:0:0:40:pew2.wav
64,192,220658,1,0,0:0:0:40:pew2.wav
192,192,220716,1,0,0:0:0:40:pew2.wav
448,192,220775,1,0,0:0:0:40:pew2.wav
320,192,220834,1,0,0:0:0:40:pew2.wav
192,192,220892,1,0,0:0:0:40:pew2.wav
64,192,220951,1,0,0:0:0:40:pew2.wav
448,192,220951,1,2,0:0:0:0:
320,192,221068,1,0,0:0:0:40:pew2.wav
448,192,221127,1,0,0:0:0:40:pew2.wav
192,192,221185,1,0,0:0:0:40:pew2.wav
64,192,221244,1,0,0:0:0:40:pew2.wav
448,192,221302,1,0,0:0:0:40:pew2.wav
320,192,221361,1,0,0:0:0:40:pew2.wav
192,192,221420,128,2,221654:0:0:0:0:
64,192,221420,1,0,0:0:0:0:
448,192,221537,128,0,221888:0:0:0:0:
320,192,221654,128,0,221888:0:0:0:0:
192,192,221888,1,0,0:0:0:70:pew.wav
64,192,221888,1,0,0:0:0:0:
192,192,221966,1,0,0:0:0:70:pew.wav
64,192,221966,1,0,0:0:0:0:
448,192,222045,1,0,0:0:0:0:
320,192,222045,1,0,0:0:0:70:pew.wav
320,192,222123,1,0,0:0:0:70:pew.wav
448,192,222123,1,0,0:0:0:0:
192,192,222201,1,0,0:0:0:70:pew.wav
64,192,222201,1,0,0:0:0:0:
320,192,222357,1,0,0:0:0:0:
64,192,222357,128,8,222591:0:0:0:0:
448,192,222357,1,0,0:0:0:0:
448,192,222591,1,0,0:0:0:0:
320,192,222591,1,0,0:0:0:0:
192,192,222650,1,0,0:0:0:0:
64,192,222709,128,0,223060:0:0:0:0:
448,192,222709,128,0,222943:0:0:0:0:
192,192,222943,128,0,223060:0:0:0:0:
320,192,222943,128,0,223236:0:0:0:0:
448,192,223060,128,0,223236:0:0:0:0:
192,192,223177,128,0,223236:0:0:0:0:
64,192,223177,128,0,223236:0:0:0:0:
64,192,223295,1,0,0:0:0:0:
192,192,223295,1,2,0:0:0:0:
320,192,223295,1,0,0:0:0:0:
320,192,223412,1,0,0:0:0:0:
448,192,223412,1,0,0:0:0:0:
192,192,223470,1,0,0:0:0:0:
64,192,223529,1,0,0:0:0:0:
448,192,223529,1,0,0:0:0:0:
192,192,223646,128,0,223705:0:0:0:0:
64,192,223646,128,0,223705:0:0:0:0:
448,192,223763,128,0,223822:0:0:0:0:
320,192,223763,128,0,223822:0:0:0:0:
320,192,223880,128,0,224115:0:0:0:0:
448,192,223880,128,0,224115:0:0:0:0:
192,192,224115,1,2,0:0:0:0:
64,192,224115,1,0,0:0:0:0:
320,192,224173,1,2,0:0:0:0:
448,192,224232,1,0,0:0:0:0:
192,192,224232,1,8,0:0:0:0:
64,192,224232,1,0,0:0:0:0:
320,192,224349,1,2,0:0:0:0:
448,192,224349,1,0,0:0:0:70:Tom2.wav
320,192,224466,1,0,0:0:0:70:Tom2.wav
192,192,224584,1,0,0:0:0:70:Tom2.wav
64,192,224584,1,2,0:0:0:0:
192,192,224701,1,0,0:0:0:70:Tom3.wav
448,192,224818,1,0,0:0:0:70:Tom3.wav
320,192,224935,1,0,0:0:0:70:Tom3.wav
64,192,224935,1,2,0:0:0:0:
320,192,225052,1,0,0:0:0:70:Tom3.wav
448,192,225170,128,0,225638:0:0:0:100:Bassdrop.wav
192,192,225170,128,2,225638:0:0:0:0:
64,192,225170,128,0,225638:0:0:0:0:
448,192,225990,1,0,0:0:0:0:
320,192,225990,1,2,0:0:0:0:
64,192,226107,1,0,0:0:0:0:
192,192,226107,1,8,0:0:0:0:
448,192,226107,1,0,0:0:0:0:
192,192,226341,1,0,0:0:0:0:
320,192,226341,1,2,0:0:0:0:
64,192,226576,1,0,0:0:0:0:
448,192,226576,1,8,0:0:0:0:
320,192,226576,1,0,0:0:0:0:
192,192,226810,1,2,0:0:0:0:
64,192,226810,1,0,0:0:0:0:
64,192,227045,1,0,0:0:0:0:
448,192,227045,1,0,0:0:0:0:
192,192,227045,1,8,0:0:0:0:
320,192,227162,1,0,0:0:0:40:pew2.wav
192,192,227220,1,0,0:0:0:40:pew2.wav
64,192,227279,1,0,0:0:0:40:pew2.wav
448,192,227337,1,0,0:0:0:40:pew2.wav
320,192,227396,1,0,0:0:0:40:pew2.wav
192,192,227455,1,0,0:0:0:40:pew2.wav
64,192,227513,128,0,227748:0:0:0:40:pew2.wav
320,192,227748,1,2,0:0:0:0:
448,192,227748,1,0,0:0:0:0:
192,192,227865,1,0,0:0:0:40:pew2.wav
320,192,227923,1,0,0:0:0:40:pew2.wav
64,192,227982,1,0,0:0:0:0:
192,192,227982,1,0,0:0:0:0:
448,192,227982,1,8,0:0:0:0:
320,192,228099,1,0,0:0:0:40:pew2.wav
192,192,228158,1,0,0:0:0:40:pew2.wav
448,192,228216,1,0,0:0:0:40:pew2.wav
320,192,228275,1,0,0:0:0:40:pew2.wav
192,192,228334,128,0,228451:0:0:0:40:pew2.wav
448,192,228451,1,2,0:0:0:0:
64,192,228451,128,0,228802:0:0:0:0:
320,192,228685,128,0,228802:0:0:0:0:
192,192,228685,128,0,228802:0:0:0:40:pew2.wav
192,192,228920,128,0,229154:0:0:0:0:
448,192,228920,128,0,229154:0:0:0:0:
64,192,228920,128,2,229154:0:0:0:0:
320,192,229154,1,0,0:0:0:0:
192,192,229212,1,0,0:0:0:0:
320,192,229271,1,0,0:0:0:0:
192,192,229330,1,0,0:0:0:0:
64,192,229388,128,0,229505:0:0:0:0:
448,192,229388,128,0,229505:0:0:0:0:
448,192,229564,128,0,229681:0:0:0:0:
64,192,229564,128,0,229681:0:0:0:0:
320,192,229740,128,0,229798:0:0:0:0:
192,192,229740,128,2,229798:0:0:0:0:
448,192,229857,1,0,0:0:0:0:
64,192,229857,1,0,0:0:0:0:
320,192,229857,1,8,0:0:0:0:
192,192,229974,1,0,0:0:0:0:
192,192,230091,1,0,0:0:0:0:
320,192,230091,1,0,0:0:0:0:
64,192,230209,1,0,0:0:0:0:
320,192,230209,128,0,230443:0:0:0:0:
192,192,230443,1,0,0:0:0:0:
448,192,230443,1,0,0:0:0:0:
64,192,230560,1,0,0:0:0:0:
320,192,230560,1,2,0:0:0:0:
448,192,230560,128,0,231029:0:0:0:100:Bassdrop.wav
320,192,230912,128,0,231146:0:0:0:0:
192,192,231029,128,0,231263:0:0:0:0:
64,192,231146,128,0,231263:0:0:0:0:
448,192,231263,128,0,231498:0:0:0:70:Growl.wav
320,192,231263,128,0,231498:0:0:0:0:
192,192,231498,1,0,0:0:0:0:
64,192,231498,1,0,0:0:0:0:
320,192,231615,1,2,0:0:0:0:
448,192,231615,1,0,0:0:0:0:
192,192,231673,1,2,0:0:0:0:
448,192,231732,1,0,0:0:0:0:
64,192,231732,1,0,0:0:0:0:
320,192,231732,1,8,0:0:0:0:
64,192,231849,1,0,0:0:0:0:
192,192,231849,1,2,0:0:0:0:
320,192,231966,128,0,232084:0:0:0:0:
448,192,231966,128,0,232084:0:0:0:0:
192,192,232084,1,2,0:0:0:0:
64,192,232084,1,0,0:0:0:0:
64,192,232201,1,2,0:0:0:0:
448,192,232201,1,0,0:0:0:70:Tom1.wav
320,192,232318,1,0,0:0:0:0:
448,192,232318,1,0,0:0:0:70:Tom1.wav
64,192,232435,1,2,0:0:0:0:
192,192,232435,1,0,0:0:0:70:Tom2.wav
64,192,232552,1,0,0:0:0:0:
448,192,232552,1,0,0:0:0:70:Tom3.wav
320,192,232670,1,8,0:0:0:0:
448,192,232670,1,0,0:0:0:0:
192,192,232670,128,0,233138:0:0:0:100:Bassdrop.wav
64,192,232904,128,0,233138:0:0:0:0:
320,192,233138,128,0,233197:0:0:0:0:
448,192,233138,128,0,233197:0:0:0:0:
320,192,233255,128,0,233314:0:0:0:0:
448,192,233255,128,0,233314:0:0:0:0:
320,192,233373,128,0,233431:0:0:0:0:
448,192,233373,128,0,233431:0:0:0:0:
64,192,233490,1,0,0:0:0:0:
192,192,233490,1,2,0:0:0:0:
448,192,233607,1,0,0:0:0:0:
192,192,233607,1,8,0:0:0:0:
64,192,233607,1,0,0:0:0:0:
320,192,233685,1,0,0:0:0:0:
192,192,233763,1,0,0:0:0:0:
64,192,233763,1,0,0:0:0:0:
320,192,233841,1,0,0:0:0:0:
448,192,233841,1,0,0:0:0:0:
192,192,233920,1,0,0:0:0:0:
64,192,233920,1,0,0:0:0:0:
320,192,233998,1,0,0:0:0:0:
448,192,233998,1,0,0:0:0:0:
64,192,234076,1,0,0:0:0:0:
192,192,234076,1,0,0:0:0:0:
320,192,234154,1,0,0:0:0:0:
448,192,234154,1,0,0:0:0:0:
192,192,234232,1,0,0:0:0:0:
64,192,234232,1,0,0:0:0:0:
320,192,234310,1,0,0:0:0:0:
448,192,234310,1,0,0:0:0:0:
192,192,234388,1,0,0:0:0:0:
64,192,234388,1,0,0:0:0:0:
320,192,234466,1,0,0:0:0:0:
448,192,234545,1,2,0:0:0:0:
192,192,234545,128,0,234896:0:0:0:100:Bassdrop.wav
64,192,234545,128,0,234896:0:0:0:0:
448,192,234779,128,0,235013:0:0:0:0:
320,192,234837,128,0,235013:0:0:0:0:
192,192,235013,128,0,235072:0:0:0:0:
64,192,235013,128,0,235072:0:0:0:0:
192,192,235130,128,0,235248:0:0:0:0:
64,192,235130,128,0,235248:0:0:0:0:
320,192,235248,1,2,0:0:0:0:
448,192,235248,1,0,0:0:0:0:
64,192,235365,128,0,235423:0:0:0:0:
192,192,235365,128,0,235423:0:0:0:0:
448,192,235482,128,0,235716:0:0:0:0:
64,192,235482,1,0,0:0:0:0:
320,192,235482,1,8,0:0:0:0:
192,192,235716,1,0,0:0:0:0:
64,192,235755,1,0,0:0:0:0:
448,192,235795,1,0,0:0:0:0:
320,192,235834,1,0,0:0:0:0:
192,192,235873,1,0,0:0:0:0:
64,192,235912,1,0,0:0:0:0:
448,192,235951,1,2,0:0:0:0:
320,192,235951,128,0,236244:0:0:0:0:
192,192,236244,128,0,236537:0:0:0:0:
448,192,236420,128,8,236537:0:0:0:0:
320,192,236420,128,2,236537:0:0:0:0:
64,192,236420,128,0,236537:0:0:0:0:
64,192,236654,128,8,236888:0:0:0:0:
320,192,236654,128,2,236888:0:0:0:0:
192,192,236654,128,0,236888:0:0:0:0:
320,192,237005,128,2,237240:0:0:0:0:
448,192,237005,128,8,237240:0:0:0:0:
64,192,237005,128,0,237240:0:0:0:0:
64,192,237357,1,0,0:0:0:0:
192,192,237357,128,0,239232:0:0:0:0:
320,192,237357,128,2,239232:0:0:0:0:
448,192,237357,128,8,238763:0:0:0:0:
192,192,239466,1,0,0:0:0:70:Tom1.wav
64,192,239466,1,0,0:0:0:0:
448,192,239584,1,0,0:0:0:0:
192,192,239584,1,0,0:0:0:70:Tom1.wav
448,192,239701,128,0,239818:0:0:0:0:
320,192,239701,128,0,239818:0:0:0:70:Tom2.wav
192,192,239818,1,0,0:0:0:70:Tom1.wav
64,192,239818,1,0,0:0:0:0:
320,192,239935,128,0,240052:0:0:0:70:Tom3.wav
448,192,239935,128,0,240052:0:0:0:0:
64,192,239935,128,0,240052:0:0:0:0:
448,192,240170,1,0,0:0:0:0:
192,192,240170,1,8,0:0:0:0:
64,192,240170,1,0,0:0:0:70:sweep.wav
320,192,240170,128,0,241107:0:0:0:70:finish.wav
192,192,240873,1,0,0:0:0:0:
448,192,241107,128,0,242982:0:0:0:0:
192,192,241224,1,0,0:0:0:0:
192,192,241576,1,0,0:0:0:0:
192,192,241927,1,0,0:0:0:0:
64,192,242279,1,0,0:0:0:0:
64,192,242630,1,0,0:0:0:0:
64,192,242982,128,0,243920:0:0:0:0:
320,192,243334,1,0,0:0:0:0:
320,192,243685,1,0,0:0:0:0:
448,192,243920,1,0,0:0:0:0:
192,192,243920,128,0,244857:0:0:0:0:
448,192,244271,1,0,0:0:0:0:
448,192,244623,1,0,0:0:0:0:
320,192,244857,128,0,246732:0:0:0:0:
448,192,244974,1,0,0:0:0:0:
448,192,245326,1,0,0:0:0:0:
192,192,245677,1,0,0:0:0:0:
192,192,246029,1,0,0:0:0:0:
192,192,246380,1,0,0:0:0:0:
192,192,246732,128,0,247670:0:0:0:0:
320,192,247084,1,0,0:0:0:0:
320,192,247435,1,0,0:0:0:0:
448,192,247670,1,0,0:0:0:0:
64,192,247670,128,0,248607:0:0:0:0:
448,192,248021,1,0,0:0:0:0:
448,192,248373,1,0,0:0:0:0:
320,192,248607,128,0,250482:0:0:0:0:
192,192,248724,1,0,0:0:0:0:
192,192,249076,1,0,0:0:0:0:
192,192,249427,1,0,0:0:0:0:
192,192,249779,1,0,0:0:0:0:
192,192,250130,1,0,0:0:0:0:
192,192,250482,128,0,251420:0:0:0:0:
448,192,250834,1,0,0:0:0:0:
448,192,251185,1,0,0:0:0:0:
64,192,251420,1,0,0:0:0:0:
320,192,251420,128,0,252357:0:0:0:0:
64,192,251771,1,0,0:0:0:0:
64,192,252123,1,0,0:0:0:0:
448,192,252357,128,0,254232:0:0:0:0:
192,192,252474,1,0,0:0:0:0:
192,192,252826,1,0,0:0:0:0:
192,192,253177,1,0,0:0:0:0:
64,192,253295,1,0,0:0:0:0:
320,192,253295,1,0,0:0:0:0:
64,192,253529,1,0,0:0:0:0:
64,192,253880,1,0,0:0:0:0:
64,192,254232,128,0,255170:0:0:0:0:
320,192,254584,1,0,0:0:0:0:
320,192,254935,1,0,0:0:0:0:
320,192,255170,128,0,256107:0:0:0:0:
448,192,255170,1,0,0:0:0:0:
192,192,255521,1,0,0:0:0:0:
192,192,255873,1,0,0:0:0:0:
448,192,256107,128,0,257982:0:0:0:0:
64,192,256224,1,0,0:0:0:0:
64,192,256576,1,0,0:0:0:0:
64,192,256927,1,0,0:0:0:0:
64,192,257279,1,0,0:0:0:0:
64,192,257630,1,0,0:0:0:0:
64,192,257982,128,0,258920:0:0:0:0:
320,192,258334,1,0,0:0:0:0:
320,192,258685,1,0,0:0:0:0:
448,192,258920,1,0,0:0:0:0:
192,192,258920,128,0,259857:0:0:0:0:
448,192,259271,1,0,0:0:0:0:
448,192,259623,1,0,0:0:0:0:
320,192,259857,128,0,261732:0:0:0:0:
192,192,259974,1,0,0:0:0:0:
192,192,260326,1,0,0:0:0:0:
192,192,260677,1,0,0:0:0:0:
192,192,261029,1,0,0:0:0:0:
192,192,261380,1,0,0:0:0:0:
192,192,261732,128,0,262670:0:0:0:0:
320,192,262084,1,0,0:0:0:0:
320,192,262435,1,0,0:0:0:0:
64,192,262670,1,0,0:0:0:0:
320,192,262670,128,0,263607:0:0:0:0:
64,192,263021,1,0,0:0:0:0:
64,192,263373,1,0,0:0:0:0:
448,192,263607,128,0,265482:0:0:0:0:
192,192,263724,1,0,0:0:0:0:
192,192,264076,1,0,0:0:0:0:
192,192,264427,1,0,0:0:0:0:
192,192,264779,1,0,0:0:0:0:
192,192,265130,1,0,0:0:0:0:
192,192,265482,128,0,266420:0:0:0:0:
320,192,265834,1,0,0:0:0:0:
320,192,266185,1,0,0:0:0:0:
64,192,266420,1,0,0:0:0:0:
448,192,266420,128,0,268295:0:0:0:0:
64,192,266771,1,0,0:0:0:0:
64,192,267123,1,0,0:0:0:0:
64,192,267474,1,0,0:0:0:0:
64,192,267826,1,0,0:0:0:0:
64,192,268177,1,0,0:0:0:0:
192,192,268295,1,0,0:0:0:0:
320,192,268295,128,0,269232:0:0:0:0:
192,192,268529,1,0,0:0:0:0:
192,192,268880,1,0,0:0:0:0:
192,192,269232,128,0,272279:0:0:0:0:
448,192,269584,1,0,0:0:0:0:
448,192,269935,1,0,0:0:0:0:
448,192,270404,1,0,0:0:0:0:
448,192,270873,1,0,0:0:0:0:
448,192,271341,1,0,0:0:0:0:
448,192,271810,1,0,0:0:0:0:
448,192,272279,1,0,0:0:0:0:
