osu file format v14

[General]
AudioFilename: audio.mp3
AudioLeadIn: 0
PreviewTime: 258653
Countdown: 0
SampleSet: Normal
StackLeniency: 0.2
Mode: 0
LetterboxInBreaks: 0
EpilepsyWarning: 1
WidescreenStoryboard: 1

[Editor]
Bookmarks: 18953,38153,57353,76553,76645,76703,76740,76778,76815,76853,76909,76946,76984,77003,77021,77078,77115,77153,77171,77209,77246,77303,77340,77396,77434,77453,77471,77528,77565,77603,77621,77659,77715,77753,77809,77865,77903,77959,77996,78053,78090,78128,78146,78184,78240,78278,78296,78334,78390,78428,78484,78521,78578,78615,78671,78728,78765,78821,78878,78915,78971,79028,79084,79121,79178,79234,79290,79328,79365,79421,79478,79515,79571,79628,79665,79721,79778,79834,79871,79928,79984,80003,80021,80078,80134,80153,80190,80228,80284,80340,80378,80434,80453,80490,80528,80584,80603,80640,80678,80734,80753,80771,80828,80865,80921,80959,81015,81053,81071,81090,81109,81146,81165,81221,81259,95753,105353,124553,134153,143753,162953,182153,191753,201353,220553,239753,249353,258953,278153,297353,314153,333354
DistanceSpacing: 2.1
BeatDivisor: 4
GridSize: 16
TimelineZoom: 2.799999

[Metadata]
Title:Reality Distortion
TitleUnicode:Reality Distortion
Artist:Camellia vs Akira Complex
ArtistUnicode:かめりあ vs Akira Complex
Creator:rrtyui
Version:rrtyui x Sing's Transference
Source:
Tags:REALITY DISTORTION C91 S2TB Recording Cametek KamelCamellia Dubstep Drumstep Collab Sing
BeatmapID:1480798
BeatmapSetID:582089

[Difficulty]
HPDrainRate:5
CircleSize:4
OverallDifficulty:9
ApproachRate:9.7
SliderMultiplier:2
SliderTickRate:1

[Events]
//Background and Video events
0,0,"evolved.jpg",0,0
//Break Periods
//Storyboard Layer 0 (Background)
Sprite,Background,Centre,"evolved.jpg",320,240
//Storyboard Layer 1 (Fail)
//Storyboard Layer 2 (Pass)
//Storyboard Layer 3 (Foreground)
//Storyboard Sound Samples

[TimingPoints]
953,300,4,1,0,30,1,0
18953,-333.333333333333,4,2,3,35,0,0
28553,-250,4,2,3,40,0,0
37553,-100,4,2,3,40,0,0
37853,-133.333333333333,4,2,3,45,0,0
38153,-200,4,2,3,50,0,0
57353,-133.333333333333,4,2,3,50,0,0
80753,-133.333333333333,4,2,3,5,0,0
86153,-133.333333333333,4,2,3,25,0,0
87353,-200,4,2,3,25,0,0
87803,-100,4,2,3,25,0,0
88253,-66.6666666666667,4,2,3,25,0,0
88403,-66.6666666666667,4,2,3,25,0,0
88553,-133.333333333333,4,2,3,35,0,0
89753,-200,4,2,3,35,0,0
90053,-100,4,2,3,35,0,0
90653,-66.6666666666667,4,2,3,35,0,0
90803,-66.6666666666667,4,2,3,35,0,0
91028,-66.6666666666667,4,2,3,5,0,0
94553,-66.6666666666667,4,2,3,60,0,0
94778,-133.333333333333,4,2,3,5,0,0
95003,-100,4,2,3,60,0,0
95453,-50,4,2,3,60,0,0
95753,-86.9565217391304,4,2,3,65,0,0
96953,-80,4,2,3,65,0,0
98153,-74.0740740740741,4,2,3,65,0,0
99353,-68.9655172413793,4,2,3,65,0,0
100553,-66.6666666666667,4,2,3,65,0,0
101753,-100,4,2,3,50,0,0
102053,-100,4,2,3,45,0,0
102353,-100,4,2,3,40,0,0
102653,-100,4,2,3,35,0,0
102953,-100,4,2,3,30,0,0
104153,-111.111111111111,4,2,3,40,0,0
105053,-133.333333333333,4,2,3,50,0,0
105353,-66.6666666666667,4,2,4,60,0,1
105428,-66.6666666666667,4,2,3,60,0,1
105953,-100,4,2,3,60,0,0
106028,-100,4,2,3,60,0,0
107153,-100,4,2,3,60,0,0
107453,-50,4,2,3,60,0,0
107753,-66.6666666666667,4,2,3,60,0,0
108353,-50,4,2,3,60,0,0
108503,-100,4,2,3,60,0,0
109553,-100,4,2,3,60,0,0
109853,-50,4,2,3,60,0,0
110153,-50,4,2,4,60,0,1
110228,-50,4,2,3,60,0,1
110753,-100,4,2,3,60,0,0
112103,-80,4,2,3,60,0,0
112553,-66.6666666666667,4,2,3,60,0,0
113153,-80,4,2,3,60,0,0
113303,-100,4,2,3,60,0,0
114353,-80,4,2,3,60,0,0
114953,-66.6666666666667,4,2,4,60,0,1
115028,-66.6666666666667,4,2,3,60,0,1
115553,-100,4,2,3,60,0,0
116753,-80,4,2,3,60,0,0
117053,-50,4,2,3,60,0,0
117353,-66.6666666666667,4,2,3,60,0,0
117953,-100,4,2,3,60,0,0
119153,-28.5714285714286,4,2,3,60,0,0
119303,-50,4,2,3,60,0,0
119453,-66.6666666666667,4,2,3,60,0,0
119753,-100,4,2,3,60,0,0
120053,-100,4,2,3,60,0,0
120353,-50,4,2,4,60,0,1
120428,-50,4,2,3,60,0,1
120653,-100,4,2,3,60,0,0
122153,-66.6666666666667,4,2,3,60,0,0
122453,-133.333333333333,4,2,3,60,0,0
122753,-57.1428571428571,4,2,3,60,0,0
123053,-158.730158730159,4,2,3,60,0,0
123353,-50,4,2,3,60,0,0
123953,-50,4,2,3,60,0,0
124178,-100,4,2,3,60,0,0
124553,-133.333333333333,4,2,4,60,0,1
124628,-133.333333333333,4,2,3,50,0,0
124853,-200,4,2,3,50,0,0
126353,-133.333333333333,4,2,3,50,0,0
129203,-100,4,2,3,50,0,0
129353,-66.6666666666667,4,2,4,60,0,1
129428,-66.6666666666667,4,2,3,60,0,0
129803,-80,4,2,4,60,0,1
129878,-80,4,2,3,60,0,0
130403,-200,4,2,3,60,0,0
130853,-133.333333333333,4,2,3,60,0,0
131453,-100,4,2,3,60,0,0
131753,-66.6666666666667,4,2,3,60,0,0
132653,-80,4,2,3,60,0,0
133253,-100,4,2,3,60,0,0
133553,-66.6666666666667,4,2,3,60,0,0
133853,-57.1428571428571,4,2,3,60,0,0
134153,-66.6666666666667,4,1,0,60,0,1
134228,-66.6666666666667,4,1,0,60,0,0
134453,-50,4,1,0,60,0,0
134753,-200,4,1,0,60,0,0
135353,-66.6666666666667,4,1,0,60,0,0
135653,-33.3333333333333,4,1,0,60,0,0
135953,-100,4,1,0,60,0,0
136553,-50,4,1,0,60,0,0
137003,-50,4,1,0,60,0,0
137153,-66.6666666666667,4,1,0,60,0,0
137753,-57.1428571428571,4,1,0,60,0,0
138053,-36.3636363636364,4,1,0,60,0,0
138353,-50,4,1,0,60,0,0
138653,-44.4444444444445,4,1,0,60,0,0
140153,-44.4444444444445,4,1,0,50,0,0
140453,-44.4444444444445,4,1,0,45,0,0
140753,-44.4444444444445,4,1,0,40,0,0
141053,-44.4444444444445,4,1,0,35,0,0
141353,-66.6666666666667,4,1,0,30,0,0
142553,-100,4,1,0,40,0,0
143153,-100,4,1,0,45,0,0
143303,-100,4,1,0,50,0,0
143453,-133.333333333333,4,1,0,55,0,0
143753,-50,4,2,4,60,0,1
143828,-50,4,2,3,60,0,1
144053,-66.6666666666667,4,2,3,60,0,1
144353,-100,4,2,3,60,0,0
145703,-50,4,2,3,60,0,0
145853,-33.3333333333333,4,2,3,60,0,0
146153,-50,4,2,3,60,0,0
146453,-200,4,2,3,60,0,0
146753,-100,4,2,3,60,0,0
147953,-40,4,2,3,60,0,0
148253,-36.3636363636364,4,2,3,60,0,0
148553,-50,4,2,4,60,0,1
148628,-50,4,2,3,60,0,1
148853,-66.6666666666667,4,2,3,60,0,1
149153,-57.1428571428571,4,2,3,60,0,0
150353,-66.6666666666667,4,2,3,60,0,0
150503,-33.3333333333333,4,2,3,60,0,0
150953,-57.1428571428571,4,2,3,60,0,0
151253,-50,4,2,3,60,0,0
151553,-200,4,2,3,60,0,0
152753,-100,4,2,3,60,0,0
153053,-33.3333333333333,4,2,3,60,0,0
153353,-50,4,2,4,60,0,1
153428,-50,4,2,3,60,0,1
153653,-66.6666666666667,4,2,3,60,0,1
153953,-100,4,2,3,60,0,0
155303,-50,4,2,3,60,0,0
155453,-33.3333333333333,4,2,3,60,0,0
155753,-50,4,2,3,60,0,0
156053,-200,4,2,3,60,0,0
156353,-33.3333333333333,4,2,3,60,0,0
156653,-66.6666666666667,4,2,3,60,0,0
156953,-40,4,2,3,60,0,0
157253,-80,4,2,3,60,0,0
157553,-33.3333333333333,4,2,3,60,0,0
158153,-33.3333333333333,4,2,4,60,0,1
158228,-33.3333333333333,4,2,3,60,0,1
158453,-83.3333333333333,4,2,3,60,0,0
159053,-76.9230769230769,4,2,3,60,0,0
159353,-71.4285714285714,4,2,3,60,0,0
159653,-66.6666666666667,4,2,3,60,0,0
159953,-50,4,2,3,60,0,0
160553,-44.4444444444445,4,2,3,60,0,0
160853,-40,4,2,3,60,0,0
161153,-36.3636363636364,4,2,3,60,0,0
161753,-200,4,2,3,60,0,0
162203,-222.222222222222,4,2,3,60,0,0
162653,-200,4,2,3,60,0,0
162953,-50,4,2,4,60,0,1
163028,-50,4,2,3,60,0,1
163253,-66.6666666666667,4,2,3,60,0,1
163553,-50,4,2,3,60,0,1
163778,-34.4827586206897,4,2,3,60,0,1
164003,-36.3636363636364,4,2,3,60,0,1
164303,-133.333333333333,4,2,3,60,0,1
164603,-80,4,2,3,60,0,1
164903,-50,4,2,3,60,0,1
165053,-50,4,2,3,60,0,1
165353,-44.4444444444445,4,2,3,60,0,1
165503,-57.1428571428571,4,2,3,60,0,1
165653,-80,4,2,3,60,0,1
165953,-66.6666666666667,4,2,3,60,0,1
166253,-44.4444444444445,4,2,3,60,0,1
166403,-50,4,2,3,60,0,1
166703,-133.333333333333,4,2,3,60,0,1
166778,-100,4,2,3,60,0,1
166853,-66.6666666666667,4,2,3,60,0,1
167153,-33.3333333333333,4,2,3,60,0,1
167453,-40,4,2,3,60,0,1
167753,-50,4,2,4,60,0,1
167828,-50,4,2,3,60,0,1
168053,-66.6666666666667,4,2,3,60,0,1
168353,-50,4,2,3,60,0,1
168578,-33.3333333333333,4,2,3,60,0,1
168803,-40,4,2,3,60,0,1
169103,-133.333333333333,4,2,3,60,0,1
169403,-80,4,2,3,60,0,1
169703,-40,4,2,3,60,0,1
169853,-50,4,2,3,60,0,1
170153,-57.1428571428571,4,2,3,60,0,1
170303,-40,4,2,3,60,0,1
170453,-66.6666666666667,4,2,3,60,0,1
170753,-57.1428571428571,4,2,3,60,0,1
170978,-40,4,2,3,60,0,1
171203,-44.4444444444445,4,2,3,60,0,1
171353,-33.3333333333333,4,2,3,60,0,1
171653,-36.3636363636364,4,2,3,60,0,1
171953,-33.3333333333333,4,2,3,60,0,1
172253,-36.3636363636364,4,2,3,60,0,1
172553,-200,4,2,3,60,0,0
172853,-50,4,2,4,60,0,1
172928,-50,4,2,3,60,0,1
173153,-50,4,2,3,60,0,1
173453,-33.3333333333333,4,2,3,60,0,1
173603,-50,4,2,3,60,0,1
173903,-133.333333333333,4,2,3,60,0,1
174203,-80,4,2,3,60,0,1
174503,-40,4,2,3,60,0,1
174653,-50,4,2,3,60,0,1
174953,-44.4444444444445,4,2,3,60,0,1
175103,-57.1428571428571,4,2,3,60,0,1
175553,-80,4,2,3,60,0,1
175778,-44.4444444444445,4,2,3,60,0,1
176003,-51.2820512820513,4,2,3,60,0,1
176303,-133.333333333333,4,2,3,60,0,1
176378,-100,4,2,3,60,0,1
176453,-66.6666666666667,4,2,3,60,0,1
176753,-33.3333333333333,4,2,3,60,0,1
177053,-40,4,2,3,60,0,1
177353,-40,4,2,4,60,0,1
177428,-40,4,2,3,60,0,1
177578,-66.6666666666667,4,2,3,60,0,1
178253,-153.846153846154,4,2,3,60,0,1
178553,-40,4,2,4,60,0,1
178628,-40,4,2,3,60,0,1
178778,-66.6666666666667,4,2,3,60,0,1
179453,-153.846153846154,4,2,3,60,0,1
179753,-40,4,2,4,60,0,1
179828,-40,4,2,3,60,0,1
179978,-66.6666666666667,4,2,3,60,0,1
180653,-66.6666666666667,4,2,3,60,0,1
180953,-133.333333333333,4,2,3,50,0,0
182153,-133.333333333333,4,2,3,50,0,0
182228,-66.6666666666667,4,2,3,50,0,0
186953,-200,4,2,3,50,0,0
210953,-181.818181818182,4,2,3,50,0,0
213353,-166.666666666667,4,2,3,50,0,0
215753,-153.846153846154,4,2,3,50,0,0
218153,-142.857142857143,4,2,3,50,0,0
219953,-100,4,2,3,50,0,0
220103,-80,4,2,3,50,0,0
220253,-66.6666666666667,4,2,3,50,0,0
220403,-50,4,2,3,50,0,0
220553,-80,4,2,4,50,0,0
220628,-80,4,2,3,50,0,0
221003,-133.333333333333,4,2,3,50,0,0
222203,-133.333333333333,4,2,3,50,0,0
222953,-200,4,2,3,50,0,0
223253,-133.333333333333,4,2,3,50,0,0
224603,-80,4,2,3,50,0,0
225053,-80,4,2,3,50,0,0
225353,-91.743119266055,4,2,3,50,0,0
230153,-133.333333333333,4,2,3,50,0,0
230603,-100,4,2,3,50,0,0
231803,-133.333333333333,4,2,3,50,0,0
233003,-105.263157894737,4,2,3,50,0,0
234203,-100,4,2,3,50,0,0
234653,-100,4,2,3,50,0,0
234953,-80,4,2,3,50,0,0
236153,-100,4,2,3,50,0,0
237053,-75.187969924812,4,2,3,50,0,0
237353,-66.6666666666667,4,2,3,50,0,0
239153,-200,4,2,3,50,0,0
239303,-80,4,2,3,50,0,0
239453,-50,4,2,3,50,0,0
239603,-33.3333333333333,4,2,3,50,0,0
239753,-76.9230769230769,4,2,4,50,0,1
239828,-76.9230769230769,4,2,3,50,0,0
240803,-200,4,2,3,50,0,0
240953,-76.9230769230769,4,2,3,50,0,0
241853,-200,4,2,3,50,0,0
242153,-76.9230769230769,4,2,3,50,0,0
243203,-200,4,2,3,50,0,0
243353,-76.9230769230769,4,2,3,50,0,0
245453,-133.333333333333,4,2,3,50,0,0
245753,-76.9230769230769,4,2,3,50,0,0
246653,-133.333333333333,4,2,3,50,0,0
246953,-76.9230769230769,4,2,3,50,0,0
248753,-71.4285714285714,4,2,3,50,0,0
249053,-66.6666666666667,4,2,3,50,0,0
249353,-100,4,2,4,50,0,0
249428,-100,4,2,3,50,0,0
250553,-76.9230769230769,4,2,3,50,0,0
251753,-66.6666666666667,4,2,3,50,0,0
252953,-55.5555555555556,4,2,3,50,0,0
255053,-50,4,2,3,50,0,0
257753,-111.111111111111,4,2,3,50,0,0
258503,-133.333333333333,4,2,0,5,0,0
258653,-100,4,1,0,60,0,0
258953,-50,4,2,4,70,0,1
259028,-50,4,2,3,70,0,1
259253,-66.6666666666667,4,2,3,70,0,1
260603,-50,4,2,3,70,0,1
260753,-66.6666666666667,4,2,3,70,0,1
261353,-50,4,2,3,70,0,1
263753,-66.6666666666667,4,2,3,70,0,1
264653,-50,4,2,3,70,0,1
265253,-66.6666666666667,4,2,3,70,0,1
265553,-100,4,2,3,70,0,1
265703,-50,4,2,3,70,0,1
267353,-40,4,2,3,70,0,1
268478,-100,4,2,3,70,0,0
268553,-50,4,2,4,70,0,1
268628,-50,4,2,3,70,0,1
269153,-66.6666666666667,4,2,3,70,0,1
270203,-50,4,2,3,70,0,1
270353,-66.6666666666667,4,2,3,70,0,1
270953,-50,4,2,3,70,0,1
273278,-50,4,2,3,70,0,0
273353,-66.6666666666667,4,2,4,70,0,1
273428,-66.6666666666667,4,2,3,70,0,0
273953,-86.9565217391304,4,2,3,70,0,0
274553,-80,4,2,4,70,0,1
274628,-80,4,2,3,70,0,0
275153,-100,4,2,3,70,0,0
275753,-100,4,2,3,70,0,1
276353,-66.6666666666667,4,2,3,70,0,1
276953,-50,4,2,3,70,0,1
277553,-50,4,2,3,70,0,0
278153,-133.333333333333,4,2,3,60,0,0
278453,-50,4,2,4,70,0,1
278528,-50,4,2,3,70,0,1
278603,-66.6666666666667,4,2,3,70,0,1
278753,-66.6666666666667,4,2,3,70,0,1
279353,-50,4,2,3,70,0,1
279503,-66.6666666666667,4,2,3,70,0,1
279953,-50,4,2,3,70,0,1
280553,-50,4,2,3,70,0,1
280703,-66.6666666666667,4,2,3,70,0,1
281153,-66.6666666666667,4,2,3,70,0,1
281753,-50,4,2,3,70,0,1
281903,-66.6666666666667,4,2,3,70,0,1
282203,-50,4,2,3,70,0,1
282953,-66.6666666666667,4,2,3,70,0,1
283853,-66.6666666666667,4,2,3,70,0,1
284453,-66.6666666666667,4,2,3,70,0,1
284753,-50,4,2,3,70,0,1
284903,-57.1428571428571,4,2,3,70,0,1
285353,-50,4,2,3,70,0,1
286515,-50,4,2,3,70,0,0
286553,-40,4,2,3,70,0,1
287003,-26.6666666666667,4,2,3,70,0,1
287303,-40,4,2,3,70,0,1
287603,-26.6666666666667,4,2,3,70,0,0
287678,-100,4,2,3,70,0,0
287753,-57.1428571428571,4,2,4,70,0,1
287828,-57.1428571428571,4,2,3,70,0,1
288053,-100,4,2,3,70,0,1
288353,-50,4,2,3,70,0,1
288953,-66.6666666666667,4,2,3,70,0,1
289178,-100,4,2,3,70,0,1
289253,-100,4,2,3,70,0,1
289553,-50,4,2,3,70,0,1
290453,-100,4,2,3,70,0,1
290753,-50,4,2,3,70,0,1
291953,-100,4,2,3,70,0,0
292553,-57.1428571428571,4,2,3,70,0,1
292778,-66.6666666666667,4,2,3,70,0,1
293003,-57.1428571428571,4,2,3,70,0,1
293228,-50,4,2,3,70,0,1
293678,-50,4,2,3,70,0,1
293978,-57.1428571428571,4,2,3,70,0,1
294203,-44.4444444444445,4,2,3,70,0,1
294428,-40,4,2,3,70,0,1
294953,-100,4,2,3,70,0,1
295103,-80,4,2,3,70,0,1
295253,-66.6666666666667,4,2,3,70,0,1
295703,-57.1428571428571,4,2,3,70,0,1
295928,-50,4,2,3,70,0,1
296153,-200,4,2,3,70,0,1
296228,-200,4,2,3,40,0,1
296453,-200,4,2,3,50,0,1
296603,-200,4,2,3,60,0,1
296753,-200,4,2,3,70,0,1
296903,-200,4,2,3,60,0,1
297053,-40,4,2,3,70,0,1
297278,-100,4,2,3,70,0,0
297353,-133.333333333333,4,2,3,70,0,1
297371,-133.333333333333,4,2,3,55,0,0
314153,-400,4,2,3,40,0,0
318953,-400,4,2,3,35,0,0
323753,-400,4,2,3,30,0,0
328553,-400,4,2,3,25,0,0
330953,-400,4,2,3,20,0,0
333353,-400,4,2,3,15,0,0

[Colours]
Combo1 : 27,225,241
Combo2 : 235,226,199
Combo3 : 203,179,80
Combo4 : 192,235,231
Combo5 : 88,119,199
Combo6 : 95,233,54
Combo7 : 57,242,164

[HitObjects]
12,308,18953,6,0,P|45:315|61:343,1,59.9999981689454,4|0,0:2|0:0,0:0:0:0:
59,352,19403,2,0,P|131:361|211:228,1,239.999992675781
151,187,20753,1,0,0:0:0:0:
304,22,21353,6,0,P|291:46|283:87,1,59.9999981689454,0|0,0:0|0:0,0:0:0:0:
291,90,21803,1,0,0:0:0:0:
291,90,21953,2,0,P|241:55|94:33,1,209.999993591309,0|0,0:0|0:0,0:0:0:0:
359,186,23303,2,0,L|353:156,2,29.9999990844727
379,71,23753,85,0,0:0:0:0:
379,71,23903,1,0,0:0:0:0:
289,235,24053,2,0,P|279:207|265:179,1,59.9999981689454,0|0,0:0|0:0,0:0:0:0:
458,31,24653,2,0,L|463:60,2,29.9999990844727
495,125,25103,5,0,0:0:0:0:
431,174,25253,1,0,0:0:0:0:
353,156,25403,2,0,P|340:137|337:117,1,29.9999990844727
275,67,25703,85,0,0:0:0:0:
275,67,25853,2,0,P|280:45|310:14,1,59.9999981689454
212,235,26453,6,0,P|196:219|183:178,1,59.9999981689454
50,158,27053,85,0,0:0:0:0:
31,233,27203,1,0,0:0:0:0:
12,308,27353,1,0,0:0:0:0:
65,369,27503,2,0,P|82:345|92:316,1,59.9999981689454,0|0,0:0|0:0,0:0:0:0:
31,233,27953,6,0,L|67:224,1,29.9999990844727,0|0,0:0|0:0,0:0:0:0:
265,179,28253,2,0,L|235:186,1,29.9999990844727,0|0,0:0|0:0,0:0:0:0:
137,207,28553,86,0,P|140:168|168:141,1,80,4|0,0:0|0:0,0:0:0:0:
156,127,29003,2,0,P|298:150|359:2,1,320
382,8,30353,2,0,P|414:27|417:109,1,120
308,357,30953,6,0,L|298:319,1,40
396,377,31253,2,0,L|373:286,2,80
464,319,32003,2,0,L|474:357,1,40
297,318,32303,85,0,0:0:0:0:
217,291,32453,1,0,0:0:0:0:
145,335,32603,2,0,P|137:363|142:389,1,40
303,308,32903,5,0,0:0:0:0:
214,277,33053,1,0,0:0:0:0:
134,324,33203,2,0,P|124:351|128:377,1,40
291,90,33653,86,0,P|303:62|313:10,1,80
100,160,34253,5,0,0:0:0:0:
178,176,34403,1,0,0:0:0:0:
256,192,34553,1,0,0:0:0:0:
256,192,34628,12,0,37403,0:0:0:0:
458,31,37553,6,0,L|466:66,1,25
396,378,37703,2,0,L|390:353,1,25,0|0,0:0|0:0,0:0:0:0:
291,90,37853,6,0,L|299:125,1,18.7500007152558,0|0,0:0|0:0,0:0:0:0:
220,316,38003,2,0,L|215:297,1,18.7500007152558,0|0,0:0|0:0,0:0:0:0:
114,150,38153,54,0,P|114:99|99:52,2,100,4|2|0,1:0|0:0|0:0,0:0:0:0:
183,198,38903,1,2,0:0:0:0:
164,279,39053,2,0,P|194:288|214:286,1,50,0|0,0:0|0:0,0:0:0:0:
363,218,39353,6,0,P|362:168|377:120,2,100,0|2|0,0:0|0:0|0:0,0:0:0:0:
294,266,40103,1,2,0:0:0:0:
313,347,40253,2,0,P|283:356|263:354,1,50,0|0,0:0|0:0,0:0:0:0:
212,286,40553,85,0,0:0:0:0:
439,316,40853,1,2,0:0:0:0:
294,179,41153,5,0,0:0:0:0:
350,223,41303,1,2,0:0:0:0:
344,173,41453,1,0,0:0:0:0:
300,229,41603,1,0,0:0:0:0:
432,268,41753,86,0,P|433:218|446:171,1,100,0|2,0:0|0:0,0:0:0:0:
383,4,42203,2,0,P|384:54|397:101,1,100,0|2,0:0|0:0,0:0:0:0:
397,102,42653,2,0,P|423:89|452:87,1,50,0|0,0:0|0:0,0:0:0:0:
511,124,42953,5,0,0:0:0:0:
351,254,43253,1,2,0:0:0:0:
222,93,43553,1,0,0:0:0:0:
253,169,43703,1,2,0:0:0:0:
232,175,43853,1,0,0:0:0:0:
210,175,44003,1,0,0:0:0:0:
222,93,44153,85,0,0:0:0:0:
359,179,44453,1,2,0:0:0:0:
273,316,44753,1,0,0:0:0:0:
347,347,44903,1,2,0:0:0:0:
352,308,45053,1,0,0:0:0:0:
340,270,45203,1,0,0:0:0:0:
220,252,45353,5,0,0:0:0:0:
105,343,45653,1,2,0:0:0:0:
14,228,45953,1,0,0:0:0:0:
66,174,46103,1,2,0:0:0:0:
85,101,46253,1,0,0:0:0:0:
137,155,46403,1,0,0:0:0:0:
208,177,46553,85,0,0:0:0:0:
323,86,46853,1,2,0:0:0:0:
414,201,47153,1,0,0:0:0:0:
362,255,47303,1,2,0:0:0:0:
343,328,47453,1,0,0:0:0:0:
291,274,47603,1,0,0:0:0:0:
219,252,47753,6,0,P|230:204|228:153,2,100,0|2|0,0:0|0:0|0:0,0:0:0:0:
234,333,48503,1,2,0:0:0:0:
108,314,48653,2,0,P|136:311|156:304,1,50,0|0,0:0|0:0,0:0:0:0:
325,114,48953,86,0,P|314:66|316:15,2,100,0|2|0,0:0|0:0|0:0,0:0:0:0:
310,195,49703,1,2,0:0:0:0:
436,176,49853,2,0,P|407:173|387:166,1,50,0|0,0:0|0:0,0:0:0:0:
400,85,50153,5,0,0:0:0:0:
448,262,50453,1,2,0:0:0:0:
278,45,50753,85,0,0:0:0:0:
322,101,50903,1,2,0:0:0:0:
328,51,51053,1,0,0:0:0:0:
272,95,51203,1,0,0:0:0:0:
430,174,51353,6,0,P|416:125|415:76,1,100,0|2,0:0|0:0,0:0:0:0:
380,241,51803,2,0,P|366:289|365:338,1,100,0|2,0:0|0:0,0:0:0:0:
365,339,52253,2,0,P|391:326|420:322,1,50,0|0,0:0|0:0,0:0:0:0:
489,320,52553,85,0,0:0:0:0:
341,137,52853,1,2,0:0:0:0:
158,285,53153,1,0,0:0:0:0:
207,220,53303,1,2,0:0:0:0:
167,204,53453,1,0,0:0:0:0:
123,210,53603,1,0,0:0:0:0:
158,285,53753,5,0,0:0:0:0:
252,149,54053,1,2,0:0:0:0:
388,243,54353,1,0,0:0:0:0:
356,171,54503,1,2,0:0:0:0:
376,165,54653,1,0,0:0:0:0:
397,165,54803,1,0,0:0:0:0:
388,243,54953,85,0,0:0:0:0:
268,377,55253,1,2,0:0:0:0:
116,264,55553,1,0,0:0:0:0:
239,191,55703,1,2,0:0:0:0:
168,210,55853,1,0,0:0:0:0:
310,213,56003,1,0,0:0:0:0:
187,137,56153,5,0,0:0:0:0:
204,58,56453,1,2,0:0:0:0:
10,7,56753,1,0,0:0:0:0:
133,80,56903,1,2,0:0:0:0:
62,61,57053,1,0,0:0:0:0:
204,58,57203,1,0,0:0:0:0:
78,140,57353,86,0,P|46:213|36:303,1,150.000005722046,4|0,1:0|0:0,0:0:0:0:
155,202,57803,2,0,P|177:278|227:353,1,150.000005722046
214,338,58253,6,0,P|250:297|280:282,1,75.0000028610231,2|0,0:0|0:0,0:0:0:0:
134,371,58553,2,0,P|134:317|147:286,1,75.0000028610231,2|0,0:0|0:0,0:0:0:0:
298,365,58853,2,0,P|351:356|383:363,1,75.0000028610231,0|2,0:0|0:0,0:0:0:0:
489,371,59153,85,0,0:0:0:0:
475,294,59303,1,0,0:0:0:0:
475,294,59378,1,0,0:0:0:0:
475,294,59453,1,0,0:0:0:0:
462,217,59603,1,0,0:0:0:0:
264,270,59753,6,0,P|320:240|402:267,1,150.000005722046,0|0,0:0|0:0,0:0:0:0:
462,217,60203,1,0,0:0:0:0:
462,217,60278,1,0,0:0:0:0:
462,217,60353,2,0,P|488:182|494:148,1,75.0000028610231,0|0,0:0|0:0,0:0:0:0:
387,167,60653,1,0,0:0:0:0:
387,167,60728,1,0,0:0:0:0:
387,167,60803,2,0,P|385:123|369:94,1,75.0000028610231
280,15,61103,85,0,0:0:0:0:
280,15,61178,1,0,0:0:0:0:
280,15,61253,1,0,0:0:0:0:
311,148,61403,5,2,0:0:0:0:
371,97,61553,2,0,P|422:69|517:63,1,150.000005722046,0|2,0:0|0:0,0:0:0:0:
266,266,62153,85,0,0:0:0:0:
204,58,62453,1,0,0:0:0:0:
163,237,62753,5,0,0:0:0:0:
189,69,62903,1,2,0:0:0:0:
93,160,63053,85,0,0:0:0:0:
171,74,63203,1,0,0:0:0:0:
150,78,63353,6,0,P|107:69|76:48,1,75.0000028610231,0|0,0:0|0:0,0:0:0:0:
302,47,63653,2,0,P|331:14|364:-2,1,75.0000028610231,0|0,0:0|0:0,0:0:0:0:
253,193,63953,2,0,P|266:234|264:272,1,75.0000028610231,0|2,0:0|0:0,0:0:0:0:
179,384,64253,86,0,P|164:316|198:229,2,150.000005722046,0|0|0,0:0|0:0|0:0,0:0:0:0:
27,275,65003,2,0,P|64:293|94:330,1,75.0000028610231,0|0,0:0|0:0,0:0:0:0:
337,328,65303,1,2,0:0:0:0:
262,373,65453,2,0,P|295:357|321:330,1,75.0000028610231,0|0,0:0|0:0,0:0:0:0:
377,82,65753,6,0,L|404:253,1,150.000005722046,0|2,0:0|0:0,0:0:0:0:
481,250,66203,1,0,0:0:0:0:
481,250,66353,2,0,L|459:116,1,112.500004291535,2|0,0:0|0:0,0:0:0:0:
484,119,66653,85,0,0:0:0:0:
487,97,66728,1,0,0:0:0:0:
490,76,66803,1,0,0:0:0:0:
494,54,66878,1,0,0:0:0:0:
413,10,66953,6,0,P|359:4|296:88,1,150.000005722046,2|0,0:0|0:0,0:0:0:0:
225,91,67403,2,0,P|209:143|281:219,1,150.000005722046,2|0,0:0|0:0,0:0:0:0:
262,215,67853,86,0,P|289:182|323:156,1,75.0000028610231,2|0,0:0|0:0,0:0:0:0:
200,275,68153,2,0,P|158:268|118:252,1,75.0000028610231,2|0,0:0|0:0,0:0:0:0:
283,300,68453,2,0,P|298:339|304:381,1,75.0000028610231,0|2,0:0|0:0,0:0:0:0:
114,335,68753,5,0,0:0:0:0:
127,257,68903,1,0,0:0:0:0:
127,257,68978,1,0,0:0:0:0:
127,257,69053,1,0,0:0:0:0:
141,179,69203,1,0,0:0:0:0:
71,130,69353,86,0,P|138:141|224:97,1,150.000005722046,2|0,0:0|0:0,0:0:0:0:
211,109,69803,2,0,L|229:24,1,75.0000028610231,2|0,0:0|0:0,0:0:0:0:
262,215,70103,5,0,0:0:0:0:
262,215,70178,1,0,0:0:0:0:
262,215,70253,2,0,P|317:202|359:204,1,75.0000028610231,0|0,0:0|0:0,0:0:0:0:
114,335,70553,85,0,0:0:0:0:
114,335,70628,1,0,0:0:0:0:
114,335,70703,2,0,P|59:348|17:346,1,75.0000028610231,0|0,0:0|0:0,0:0:0:0:
305,283,71003,5,2,0:0:0:0:
249,227,71153,1,0,0:0:0:0:
179,263,71303,1,0,0:0:0:0:
192,341,71453,1,2,0:0:0:0:
270,354,71603,1,0,0:0:0:0:
481,250,71753,86,0,P|430:316|397:399,2,150.000005722046,2|0|0,0:0|0:0|0:0,0:0:0:0:
512,173,72503,2,0,P|504:136|493:100,1,75.0000028610231,0|0,0:0|0:0,0:0:0:0:
211,109,72803,5,0,0:0:0:0:
211,109,72878,1,0,0:0:0:0:
211,109,72953,2,0,L|391:142,1,150.000005722046,2|0,0:0|0:0,0:0:0:0:
359,136,73403,2,0,P|366:172|377:208,1,75.0000028610231,0|2,0:0|0:0,0:0:0:0:
512,16,73703,85,0,0:0:0:0:
434,32,73853,1,2,0:0:0:0:
357,49,74003,1,0,0:0:0:0:
288,207,74153,5,2,0:0:0:0:
226,0,74453,1,0,0:0:0:0:
271,225,74753,85,0,0:0:0:0:
192,79,74903,1,0,0:0:0:0:
192,79,74978,1,0,0:0:0:0:
192,79,75053,1,0,0:0:0:0:
260,247,75203,5,0,0:0:0:0:
169,173,75353,2,0,L|121:195,2,37.5000014305115,2|0|0,0:0|0:0|0:0,0:0:0:0:
0,218,75653,85,2,0:0:0:0:
91,292,75803,2,0,L|139:270,2,37.5000014305115,0|0|2,0:0|0:0|0:0,0:0:0:0:
260,247,76103,5,0,0:0:0:0:
253,283,76178,1,0,0:0:0:0:
246,319,76253,1,2,0:0:0:0:
335,201,76403,85,0,0:0:0:0:
345,280,76478,1,0,0:0:0:0:
356,359,76553,1,4,0:0:0:0:
256,192,81353,12,0,85853,0:0:0:0:
12,117,86153,21,4,0:3:0:0:
35,36,86303,1,0,0:0:0:0:
163,144,86453,2,0,L|190:313,1,150.000005722046,0|4,0:0|0:3,0:0:0:0:
85,185,86903,2,0,L|112:354,1,150.000005722046
337,290,87353,6,0,P|345:273|345:292,1,50,4|0,0:3|0:0,0:0:0:0:
420,330,87653,1,0,0:0:0:0:
312,186,87803,2,0,P|334:159|319:190,1,100,0|4,0:0|0:3,0:0:0:0:
420,330,88103,1,0,0:0:0:0:
328,66,88253,2,0,P|369:36|333:71,1,150.000005722046
238,236,88553,85,4,0:3:0:0:
222,158,88703,1,0,0:0:0:0:
116,308,88853,2,0,L|143:139,1,150.000005722046,0|4,0:0|0:3,0:0:0:0:
30,330,89303,2,0,L|57:161,1,150.000005722046
78,17,89753,6,0,P|86:0|86:18,1,50,4|0,0:3|0:0,0:0:0:0:
10,68,90053,1,0,0:0:0:0:
180,34,90203,2,0,P|190:3|188:38,1,100,0|4,0:0|0:3,0:0:0:0:
10,68,90503,1,0,0:0:0:0:
272,98,90653,2,0,P|321:86|276:106,1,150.000005722046
126,239,90953,85,4,0:3:0:0:
256,192,91028,12,0,94253,0:0:0:0:
164,218,94553,70,0,B|199:98|119:7|-18:33|-18:33|51:43|68:112,1,450.000017166138,4|0,0:0|0:0,0:0:0:0:
87,285,95153,6,0,L|109:293,1,25,4|0,0:3|0:0,0:0:0:0:
72,298,95228,2,0,L|96:313,1,25
50,299,95303,2,0,L|60:322,1,25,4|0,0:3|0:0,0:0:0:0:
32,292,95378,2,0,L|25:317,1,25,4|0,3:0|0:0,0:0:0:0:
57,208,95453,86,0,P|201:180|327:253,1,300,8|0,0:3|0:0,0:0:0:0:
328,254,95753,22,0,P|402:277|462:238,1,115.000002193451,0|0,1:0|0:0,0:0:0:0:
244,296,96053,2,0,P|258:350|303:384,1,115.000002193451,0|0,1:0|0:0,0:0:0:0:
156,259,96353,2,0,P|120:328|148:393,1,115.000002193451,0|0,1:0|0:0,0:0:0:0:
244,296,96653,2,0,L|232:181,1,115.000002193451,0|0,1:0|0:0,0:0:0:0:
24,55,96953,6,0,P|80:65|146:119,1,125,0|0,1:0|0:0,0:0:0:0:
378,111,97253,2,0,P|321:119|253:171,1,125,0|0,1:0|0:0,0:0:0:0:
0,195,97553,2,0,P|53:175|138:189,1,125,0|0,1:0|0:0,0:0:0:0:
293,0,97853,2,0,P|247:35|215:114,1,125,0|0,1:0|0:0,0:0:0:0:
126,361,98153,86,0,B|27:390|27:390|66:339,1,135.000000514984,0|0,1:0|0:0,0:0:0:0:
217,94,98453,2,0,B|118:65|118:65|157:116,1,135.000000514984,0|0,1:0|0:0,0:0:0:0:
323,292,98753,2,0,B|224:321|224:321|263:270,1,135.000000514984,0|0,1:0|0:0,0:0:0:0:
412,147,99053,2,0,B|313:118|313:118|352:169,1,135.000000514984,0|0,1:0|0:0,0:0:0:0:
472,342,99353,5,0,1:0:0:0:
426,139,99653,1,0,1:0:0:0:
472,342,99953,85,0,1:0:0:0:
426,139,100253,1,0,1:0:0:0:
426,139,100553,6,0,P|458:107|491:95,1,75.0000028610231,0|0,1:0|0:0,0:0:0:0:
347,157,100703,2,0,P|350:111|369:80,1,75.0000028610231,0|0,1:0|0:0,0:0:0:0:
264,296,100853,86,0,P|275:340|268:374,1,75.0000028610231,0|0,1:0|0:0,0:0:0:0:
286,217,101003,2,0,P|323:243|340:274,1,75.0000028610231,0|0,1:0|0:0,0:0:0:0:
209,77,101153,6,0,P|165:64|138:41,1,75.0000028610231,0|0,1:0|0:0,0:0:0:0:
265,135,101303,2,0,P|223:154|188:153,1,75.0000028610231,0|0,1:0|0:0,0:0:0:0:
0,11,101453,86,0,L|23:107,1,75.0000028610231,0|0,1:0|0:0,0:0:0:0:
77,333,101603,2,0,L|59:260,1,75.0000028610231,0|0,1:0|0:0,0:0:0:0:
50,161,101753,6,0,P|27:170|-1:200,1,50,0|0,1:0|0:0,0:0:0:0:
89,228,101903,2,0,P|70:244|47:253,1,50,0|0,1:0|0:0,0:0:0:0:
131,159,102053,86,0,L|194:128,1,50,0|0,1:0|0:0,0:0:0:0:
373,47,102203,2,0,L|328:69,1,50,0|0,1:0|0:0,0:0:0:0:
222,288,102353,5,0,1:0:0:0:
271,0,102503,1,0,1:0:0:0:
269,224,102653,85,0,1:0:0:0:
223,64,102803,1,0,1:0:0:0:
284,334,102953,5,0,1:0:0:0:
332,359,103028,1,0,1:0:0:0:
382,372,103103,1,0,1:0:0:0:
431,360,103178,1,0,1:0:0:0:
468,328,103253,1,0,1:0:0:0:
490,283,103328,1,0,1:0:0:0:
491,233,103403,1,0,1:0:0:0:
472,187,103478,1,0,1:0:0:0:
436,153,103553,1,0,1:0:0:0:
397,147,103628,1,0,1:0:0:0:
370,159,103703,1,0,1:0:0:0:
358,181,103778,1,0,1:0:0:0:
358,200,103853,1,0,1:0:0:0:
362,213,103928,1,0,1:0:0:0:
367,221,104003,1,0,1:0:0:0:
372,225,104078,1,0,1:0:0:0:
491,233,104153,86,0,B|394:257|394:257|387:267|387:267|274:291|274:291|253:180|253:180|257:168|257:168|233:48,1,449.99998626709,0|0,1:0|0:0,0:0:0:0:
368,310,105053,2,0,L|356:360,3,37.5000014305115,0|0|0|0,0:0|0:0|0:0|0:0,0:0:0:0:
372,225,105353,54,0,B|418:237|443:271|443:271|457:159|390:89|390:89|368:201|269:224|269:224|294:195|289:153,1,525.000020027161,6|0,0:3|2:0,0:1:0:0:
173,13,105953,2,0,L|238:22,1,50,8|0,0:3|0:0,0:0:0:0:
287,97,106103,5,2,0:0:0:0:
272,99,106178,1,2,0:0:0:0:
230,105,106253,2,0,L|165:114,1,50,2|0,0:0|2:0,0:0:0:0:
403,164,106403,5,2,0:0:0:0:
388,166,106478,1,2,0:0:0:0:
346,172,106553,1,6,0:3:0:0:
331,174,106628,1,2,0:0:0:0:
289,180,106703,2,0,L|224:189,1,50,2|0,0:0|2:0,0:0:0:0:
503,234,106853,85,2,0:0:0:0:
488,236,106928,1,2,0:0:0:0:
446,242,107003,2,0,L|381:251,1,50,2|0,0:0|2:0,0:0:0:0:
167,377,107153,6,0,B|148:286|191:331|171:231,1,150,8|0,0:3|2:0,0:0:0:0:
122,164,107453,86,0,B|162:145|157:103|157:103|143:111|142:121,1,100,2|0,0:0|2:0,0:0:0:0:
54,39,107603,2,0,B|47:31|51:16|51:16|84:42|70:84,1,100,2|0,0:0|2:0,0:0:0:0:
347,129,107753,6,0,B|296:80|323:9|323:9|238:36|243:149|330:132|325:226|317:282|317:282|320:233|357:211,1,525.000020027161,4|0,0:3|2:0,0:0:0:0:
474,251,108353,2,0,P|445:289|399:281,1,100,8|0,0:3|2:0,0:0:0:0:
188,59,108503,85,2,0:0:0:0:
190,76,108578,1,2,0:0:0:0:
195,119,108653,2,0,L|200:171,1,50,2|0,0:0|2:0,0:0:0:0:
431,6,108803,5,2,0:0:0:0:
433,23,108878,1,2,0:0:0:0:
438,66,108953,1,4,0:3:0:0:
440,83,109028,1,2,0:0:0:0:
445,126,109103,2,0,L|450:178,1,50,2|0,0:0|2:0,0:0:0:0:
265,4,109253,85,2,0:0:0:0:
267,19,109328,1,2,0:0:0:0:
273,61,109403,2,0,L|282:126,1,50,2|0,0:0|2:0,0:0:0:0:
350,30,109553,5,8,0:3:0:0:
294,334,109703,86,0,P|317:333|339:317,1,50,2|0,0:0|0:0,0:0:0:0:
474,375,109853,2,2,B|498:294|437:219|347:234|347:234|385:240|406:271,1,300,2|0,0:2|0:2,0:2:0:0:
338,317,110153,86,2,B|233:331|233:331|189:266|189:266|90:254|90:254|33:360|33:360|169:387|169:387|126:324,1,600,6|0,0:3|0:0,0:1:0:0:
42,40,110753,1,8,0:3:0:0:
128,160,110903,5,2,2:0:0:0:
189,152,110978,1,2,2:0:0:0:
250,145,111053,1,2,2:0:0:0:
115,177,111203,5,2,2:0:0:0:
125,115,111278,1,2,2:0:0:0:
180,87,111353,1,4,0:3:0:0:
240,101,111428,1,2,2:0:0:0:
267,156,111503,1,2,2:0:0:0:
102,194,111653,85,2,2:0:0:0:
155,163,111728,1,2,2:0:0:0:
182,107,111803,1,2,2:0:0:0:
225,150,111878,1,2,2:0:0:0:
284,167,111953,1,8,0:3:0:0:
138,329,112103,6,0,L|148:255,1,62.5,0|0,0:0|0:0,0:0:0:0:
302,314,112253,2,0,L|312:240,1,62.5,0|0,0:0|0:0,0:0:0:0:
466,299,112403,2,0,L|476:225,1,62.5,0|0,0:0|0:0,0:0:0:0:
512,368,112553,86,0,B|531:297|474:243|399:276|396:349,1,225.000008583069,4|0,0:3|0:0,0:0:0:0:
341,39,112853,6,2,B|383:126|421:134|453:118|470:25,1,225.000008583069,2|0,2:0|2:0,0:1:0:0:
428,200,113153,2,0,P|394:193|350:190,1,62.5,8|0,0:3|0:0,0:0:0:0:
159,59,113303,85,2,0:0:0:0:
165,120,113378,1,2,0:0:0:0:
171,181,113453,1,2,0:0:0:0:
142,45,113603,5,2,0:0:0:0:
113,100,113678,1,2,0:0:0:0:
60,133,113753,1,4,0:3:0:0:
117,155,113828,1,2,0:0:0:0:
160,198,113903,1,2,0:0:0:0:
125,32,114053,85,2,0:0:0:0:
155,85,114128,1,2,0:0:0:0:
210,113,114203,1,2,0:0:0:0:
166,155,114278,1,2,0:0:0:0:
148,214,114353,2,2,B|43:166|43:166|164:182|164:182|198:206|198:206|293:218,1,375,8|0,0:3|0:0,0:1:0:0:
430,52,114953,86,0,B|335:7|335:7|373:221|373:221|440:177|440:177|444:129,1,450.000017166138,6|0,0:3|0:0,0:0:0:0:
475,364,115553,2,0,L|397:353,1,50,8|0,0:3|0:0,0:0:0:0:
290,199,115703,5,2,0:0:0:0:
293,218,115778,1,2,0:0:0:0:
300,260,115853,2,0,L|309:316,1,50,2|0,0:0|0:0,0:0:0:0:
188,82,116003,5,2,0:0:0:0:
191,101,116078,1,2,0:0:0:0:
198,143,116153,1,6,0:3:0:0:
201,162,116228,1,2,0:0:0:0:
208,204,116303,2,0,L|217:260,1,50,2|0,0:0|0:0,0:0:0:0:
96,26,116453,85,2,0:0:0:0:
99,45,116528,1,2,0:0:0:0:
106,87,116603,2,0,L|115:143,1,50,2|0,0:0|0:0,0:0:0:0:
480,28,116753,6,0,B|497:66|497:66|352:45,1,187.5,8|0,0:3|0:0,0:0:0:0:
270,1,117053,86,0,B|277:32|277:32|256:56|257:96,1,100,2|0,0:0|0:0,0:0:0:0:
489,143,117203,2,0,B|482:174|482:174|505:199|502:237,1,100,2|0,0:0|0:0,0:0:0:0:
339,350,117353,6,2,B|304:248|304:248|348:140|348:140|422:229|422:229|416:339,1,450.000017166138,4|0,0:3|0:0,0:1:0:0:
186,138,117953,2,0,P|185:164|176:185,1,50,8|0,0:3|2:0,0:0:0:0:
76,313,118103,86,0,L|49:318,1,25,0|0,0:3|3:0,0:0:0:0:
69,273,118178,2,0,L|45:268,1,25,0|0,0:3|3:0,0:0:0:0:
89,239,118253,2,0,L|67:226,1,25,0|0,0:3|3:0,0:0:0:0:
330,228,118403,6,0,L|354:237,1,25,0|0,0:3|3:0,0:0:0:0:
307,274,118478,2,0,L|324:292,1,25,0|0,0:3|3:0,0:0:0:0:
263,299,118553,2,0,L|268:323,1,25,4|0,0:3|3:0,0:0:0:0:
211,297,118628,2,0,L|205:321,1,25,0|0,0:3|3:0,0:0:0:0:
168,271,118703,2,0,L|152:289,1,25,0|0,0:3|3:0,0:0:0:0:
503,36,118853,86,0,L|510:61,1,25,0|0,0:0|3:0,0:0:0:0:
446,62,118928,2,0,L|465:80,1,25,0|0,0:0|3:0,0:0:0:0:
419,117,119003,2,0,L|445:123,1,25,0|0,0:0|3:0,0:0:0:0:
424,182,119078,2,0,L|449:170,1,25,0|0,0:0|3:0,0:0:0:0:
494,236,119153,6,0,B|414:224|414:224|425:229|425:229|343:217,1,175.00000166893,8|0,0:3|2:0,0:0:0:0:
291,62,119303,86,0,P|327:90|345:140,1,100,2|0,0:0|0:0,0:0:0:0:
238,352,119453,2,0,B|248:389|248:389|197:346|204:265|268:233,1,225.000008583069,2|0,0:0|0:0,0:0:0:0:
344,217,119753,6,0,P|311:251|268:233,1,100,4|0,0:3|2:0,0:0:0:0:
71,24,120053,2,0,B|105:13|155:33|126:54|173:72|208:59,1,150,2|0,0:0|0:0,0:0:0:0:
308,8,120353,70,0,B|260:114|283:241|283:241|222:251,1,300,10|0,0:3|0:0,0:0:0:0:
144,260,120653,2,0,L|150:211,1,50,2|0,0:0|2:0,0:0:0:0:
356,190,120803,5,2,0:0:0:0:
399,232,120878,1,2,0:0:0:0:
409,291,120953,1,6,0:3:0:0:
382,344,121028,1,2,0:0:0:0:
329,372,121103,1,2,0:0:0:0:
368,208,121253,5,2,0:0:0:0:
422,234,121328,1,2,0:0:0:0:
436,294,121403,1,2,0:0:0:0:
408,350,121478,1,2,0:0:0:0:
346,359,121553,1,10,0:3:0:0:
386,192,121703,86,0,P|396:170|399:140,1,50,0|0,0:0|0:0,0:0:0:0:
454,295,121853,2,0,P|443:273|440:246,1,50,0|0,0:0|0:0,0:0:0:0:
362,374,122003,2,0,P|375:353|382:328,1,50,0|0,0:0|0:0,0:0:0:0:
276,96,122153,6,0,P|308:203|304:315,1,225.000008583069,4|0,0:3|0:3,0:0:0:0:
212,46,122453,86,0,B|246:3|246:3|299:19,1,112.500004291535,8|0,0:3|2:0,0:0:0:0:
436,110,122753,6,0,B|473:150|473:150|387:89|275:96,1,262.500002503395,4|0,0:3|2:0,0:0:0:0:
75,167,123053,86,0,B|47:129|47:129|57:81,1,94.499997116089,8|0,0:3|2:0,0:0:0:0:
188,28,123353,6,0,P|153:120|170:217,1,200,4|0,0:3|2:0,0:0:0:0:
469,348,123653,86,0,P|473:235|397:324,1,300.000011444092,8|0,0:3|2:0,0:0:0:0:
310,358,123953,6,0,P|352:303|326:164,1,200,6|0,0:3|0:0,0:0:0:0:
344,99,124178,2,0,P|297:108|265:147,1,100,2|0,2:0|0:0,0:0:0:0:
185,138,124403,2,0,P|186:167|194:186,1,50,2|0,2:0|0:0,0:0:0:0:
261,230,124553,5,2,2:3:0:0:
58,68,124853,1,0,0:0:0:0:
58,68,125003,2,0,P|71:121|75:167,1,100,0|0,0:0|0:0,0:0:0:0:
48,246,125453,5,0,0:0:0:0:
48,246,125603,2,0,L|-14:259,1,50,0|0,0:0|0:0,0:0:0:0:
230,211,125903,1,0,0:0:0:0:
230,211,126053,2,0,L|278:200,1,50,0|0,0:0|0:0,0:0:0:0:
137,219,126353,86,0,L|140:239,8,18.7500007152558,2|2|2|2|2|2|2|0|0,0:0|0:0|0:0|0:0|0:0|0:0|0:0|0:0|0:0,0:0:0:0:
152,321,126803,1,2,0:0:0:0:
152,321,126878,1,0,0:0:0:0:
152,321,126953,1,0,0:0:0:0:
135,33,127253,6,0,P|149:10|171:-7,1,37.5000014305115,0|0,0:0|0:0,0:0:0:0:
172,7,127403,2,0,P|235:-3|337:130,1,225.000008583069,2|0,0:0|0:0,0:0:0:0:
444,31,128003,85,0,0:0:0:0:
436,110,128153,2,0,L|432:136,8,18.7500007152558,2|2|2|2|2|2|2|0|0,0:0|0:0|0:0|0:0|0:0|0:0|0:0|0:0|0:0,0:0:0:0:
498,220,128603,6,0,P|468:222|447:240,1,37.5000014305115,2|0,0:0|0:0,0:0:0:0:
453,215,128753,2,0,P|403:260|376:352,1,150.000005722046,2|2,0:0|0:0,0:0:0:0:
119,374,129203,2,0,L|193:362,1,50,0|0,0:0|0:0,0:0:0:0:
288,365,129353,38,0,B|334:257|284:161|183:172|173:260|231:283,1,300.000011444092,4|0,2:2|1:0,0:0:0:0:
53,127,129803,2,0,B|21:168|21:168|357:99,1,375,4|0,2:2|1:0,0:0:0:0:
410,34,130403,38,0,P|419:80|328:93,1,150,4|0,0:3|1:0,0:0:0:0:
143,58,131003,2,0,L|179:50,2,37.5000014305115,4|0|0,0:3|0:0|0:0,0:0:0:0:
67,76,131303,1,0,0:0:0:0:
296,24,131453,6,0,L|270:211,1,150,0|0,1:0|0:0,0:0:0:0:
275,172,131753,86,0,P|315:219|392:243,1,100.000003814697,4|2,0:3|0:0,0:0:0:0:
203,199,131953,2,0,P|203:260|247:327,1,100.000003814697,2|0,0:0|1:0,0:0:0:0:
10,231,132203,5,4,0:3:0:0:
7,245,132278,2,0,P|101:179|219:211,1,225.000008583069
371,316,132653,86,0,P|437:313|504:261,1,125,0|4,1:0|0:3,0:0:0:0:
349,236,132878,1,0,0:0:0:0:
349,236,132953,2,0,P|402:204|464:203,1,125,0|0,0:0|0:0,0:0:0:0:
236,349,133253,6,0,L|220:271,1,50,0|0,1:0|0:0,0:0:0:0:
207,222,133403,2,0,L|199:186,4,25,4|0|0|0|0,0:3|0:0|0:0|0:0|0:0,0:0:0:0:
335,138,133703,85,0,0:0:0:0:
335,138,133778,1,0,0:0:0:0:
335,138,133853,2,0,B|318:131|293:114|293:114|333:338,1,262.500002503395,0|0,1:0|0:0,0:0:0:0:
349,59,134153,70,0,B|305:21|246:46|246:46|215:103|150:89,1,225.000008583069,4|0,0:2|2:0,0:0:0:0:
79,1,134453,1,0,0:0:0:0:
79,1,134603,6,0,P|134:-7|173:12,1,100,2|0,2:0|2:0,0:0:0:0:
294,121,134753,86,0,P|302:143|301:170,1,50,0|0,0:0|2:0,0:0:0:0:
246,298,135053,2,0,P|223:314|176:318,1,75,0|0,0:0|2:0,0:0:0:0:
46,134,135353,6,0,P|155:141|193:237,1,225.000008583069,0|0,0:0|2:0,0:0:0:0:
99,325,135653,1,0,0:0:0:0:
99,325,135803,86,0,B|94:344|82:363|82:363|120:323|178:318,1,150.000005722046,2|0,2:0|2:0,0:0:0:0:
352,272,135953,6,0,P|324:311|335:358,1,100,0|0,0:0|2:0,0:0:0:0:
462,369,136253,2,0,P|436:301|440:224,1,150,0|0,0:0|2:0,0:0:0:0:
483,5,136553,86,0,P|474:121|410:25,1,300,0|0,0:0|2:0,0:0:0:0:
512,191,136853,1,0,0:0:0:0:
512,191,137003,6,0,P|478:155|430:145,1,100,2|0,2:0|2:0,0:0:0:0:
208,105,137153,86,0,P|220:177|284:208,1,150.000005722046,0|0,0:0|2:0,0:0:0:0:
391,339,137453,2,0,P|362:270|367:196,1,150.000005722046,0|0,0:0|2:0,0:0:0:0:
131,0,137753,6,0,B|302:42|302:42|286:126,1,262.500002503395,0|0,0:0|2:0,0:0:0:0:
256,332,138053,1,0,0:0:0:0:
256,332,138203,86,0,B|245:275|245:275|250:256|250:256|240:197,1,137.500001311302,2|0,2:0|2:0,0:0:0:0:
9,44,138353,6,0,B|11:97|60:139|122:129|155:84,1,200,0|0,0:0|2:0,0:0:0:0:
350,175,138653,2,0,P|235:162|132:194,1,225.000008583069,0|0,0:0|2:0,0:0:0:0:
0,344,138953,85,0,1:2:0:0:
89,38,139103,1,0,0:0:0:0:
181,361,139253,5,0,0:0:0:0:
167,57,139403,1,0,0:0:0:0:
380,312,139553,85,0,0:0:0:0:
245,45,139703,1,0,0:0:0:0:
505,200,139853,5,0,0:0:0:0:
310,1,140003,1,0,0:0:0:0:
472,277,140153,85,0,0:0:0:0:
399,6,140303,1,0,0:0:0:0:
386,304,140453,5,0,0:0:0:0:
411,42,140603,1,0,0:0:0:0:
302,288,140753,85,0,0:0:0:0:
409,79,140903,1,0,0:0:0:0:
239,232,141053,5,0,0:0:0:0:
395,115,141203,1,0,0:0:0:0:
218,152,141353,85,0,0:0:0:0:
260,140,141428,1,0,0:0:0:0:
304,148,141503,1,0,0:0:0:0:
339,176,141578,1,0,0:0:0:0:
359,214,141653,1,0,0:0:0:0:
358,260,141728,1,0,0:0:0:0:
347,301,141803,1,0,0:0:0:0:
363,343,141878,1,0,0:0:0:0:
402,365,141953,1,0,0:0:0:0:
447,365,142028,1,0,0:0:0:0:
474,338,142103,1,0,0:0:0:0:
474,313,142178,1,0,0:0:0:0:
463,304,142253,1,0,0:0:0:0:
455,306,142328,1,0,0:0:0:0:
452,314,142403,1,0,0:0:0:0:
455,319,142478,1,0,0:0:0:0:
512,382,142553,5,4,2:3:0:0:
511,378,142628,1,4,2:3:0:0:
510,374,142703,1,4,2:3:0:0:
455,319,142853,1,4,2:3:0:0:
333,299,143003,1,4,2:3:0:0:
108,384,143153,1,4,2:3:0:0:
272,358,143303,1,4,2:3:0:0:
181,65,143453,86,0,B|175:32|197:7|197:7|206:41|190:59,1,112.500004291535,0|0,0:0|2:0,0:0:0:0:
151,273,143753,86,0,P|169:128|348:49,1,300,6|0,0:3|0:0,0:0:0:0:
381,87,144053,2,0,P|303:141|290:48,1,225.000008583069,8|0,0:3|0:0,0:0:0:0:
466,16,144353,37,2,0:0:0:0:
489,92,144428,1,2,0:0:0:0:
476,170,144503,2,0,P|440:199|417:206,1,50,6|2,0:3|0:0,0:0:0:0:
181,65,144653,1,8,0:3:0:0:
452,23,144803,5,2,0:0:0:0:
469,55,144878,1,2,0:0:0:0:
478,92,144953,1,2,0:0:0:0:
475,129,145028,1,2,0:0:0:0:
463,164,145103,1,4,0:3:0:0:
380,87,145253,86,0,P|383:62|376:38,1,50,8|2,0:3|0:0,0:0:0:0:
294,96,145403,2,0,P|287:72|289:47,1,50,2|2,0:0|0:0,0:0:0:0:
346,165,145553,1,2,0:0:0:0:
148,13,145703,6,0,B|169:-6|169:-6|183:84,1,100,4|0,0:3|0:0,0:0:0:0:
99,248,145853,86,0,P|61:341|57:217,2,300.000011444092,8|2|2,0:3|2:3|0:0,0:0:0:0:
180,64,146303,2,0,P|151:110|159:188,1,100,4|0,0:3|0:0,0:0:0:0:
161,287,146453,6,0,P|123:272|91:233,1,75,8|0,0:3|0:0,0:0:0:0:
230,175,146753,85,2,0:0:0:0:
264,247,146828,1,2,0:0:0:0:
260,326,146903,2,0,P|246:369|229:388,1,50,4|2,0:3|0:0,0:0:0:0:
20,268,147053,1,8,0:3:0:0:
241,157,147203,5,2,0:0:0:0:
272,195,147278,1,2,0:0:0:0:
290,241,147353,1,2,0:0:0:0:
291,291,147428,1,2,0:0:0:0:
275,338,147503,1,4,0:3:0:0:
22,218,147653,86,0,P|23:245|11:294,3,50,8|2|2|2,0:3|0:0|0:0|0:0,0:0:0:0:
127,373,147953,6,0,P|171:330|186:263,1,125,0|0,0:3|0:0,0:0:0:0:
275,338,148103,2,0,P|281:276|249:215,1,125,4|0,0:3|0:0,0:0:0:0:
356,67,148253,86,0,B|317:40|317:40|233:52|193:173|283:253,1,275.000002622604,8|4,0:3|0:3,0:0:0:0:
474,376,148553,54,0,B|518:286|518:286|231:253,1,300,6|0,0:3|0:0,0:0:0:0:
254,220,148853,2,0,B|242:280|242:280|303:340|303:340|332:206,1,225.000008583069,8|0,0:3|0:0,0:0:0:0:
237,47,149153,37,2,2:0:0:0:
152,30,149228,1,2,2:0:0:0:
70,58,149303,2,0,P|14:124|0:209,1,175.00000166893,6|10,2:3|2:3,0:0:0:0:
225,62,149603,5,2,2:0:0:0:
151,46,149678,1,2,2:0:0:0:
81,70,149753,1,2,2:0:0:0:
32,127,149828,1,2,2:0:0:0:
18,202,149903,2,0,P|70:211|112:181,1,87.500000834465,6|0,2:3|0:0,0:0:0:0:
225,62,150053,86,0,P|219:108|255:172,1,87.500000834465,10|2,2:3|2:0,0:0:0:0:
424,111,150203,2,0,P|407:151|375:180,1,87.500000834465,2|2,2:0|2:0,0:0:0:0:
338,27,150353,6,0,L|315:132,1,75.0000028610231,0|0,0:0|0:0,0:0:0:0:
512,245,150503,86,0,B|466:189|363:168|285:233|285:233|318:242|364:289,2,300.000011444092,6|8|2,0:3|0:3|0:0,0:0:0:0:
225,340,150953,2,0,P|281:323|229:349,1,175.00000166893,0|4,0:0|0:3,0:0:0:0:
152,384,151253,6,0,P|230:270|204:80,1,300,8|2,0:3|0:0,0:0:0:0:
222,114,151553,86,0,L|227:92,1,12.5
148,91,151703,2,0,L|152:68,1,12.5,4|0,0:3|0:0,0:0:0:0:
75,303,151853,6,0,L|79:325,1,12.5,8|0,0:3|0:0,0:0:0:0:
0,326,152003,2,0,L|4:348,1,12.5,0|0,0:0|0:0,0:0:0:0:
2,175,152153,86,0,L|-3:152,1,12.5,0|0,0:0|0:0,0:0:0:0:
76,151,152303,2,0,L|71:128,1,12.5,4|0,0:3|0:0,0:0:0:0:
163,252,152453,6,0,L|158:274,1,12.5,8|0,0:3|0:0,0:0:0:0:
238,275,152603,2,0,L|233:297,1,12.5,0|0,0:0|0:0,0:0:0:0:
465,31,152753,86,0,B|446:28|419:12|419:12|438:38|446:79,1,100,0|4,0:0|0:3,0:0:0:0:
380,357,153053,2,0,P|392:164|348:48,1,300.000011444092,8|0,0:3|0:0,0:0:0:0:
260,22,153353,54,0,P|225:74|355:57,1,300,6|0,0:3|0:0,0:0:0:0:
235,211,153653,2,0,B|188:195|157:132|157:132|160:205|122:260,1,225.000008583069,8|0,0:3|0:0,0:0:0:0:
10,354,153953,37,2,0:0:0:0:
85,314,154028,1,2,0:0:0:0:
167,333,154103,2,0,P|200:353|224:371,1,50,4|2,0:3|0:0,0:0:0:0:
60,121,154253,1,8,0:3:0:0:
3,375,154403,5,2,0:0:0:0:
39,341,154478,1,2,0:0:0:0:
86,325,154553,1,2,0:0:0:0:
135,330,154628,1,2,0:0:0:0:
178,354,154703,1,4,0:3:0:0:
389,308,154853,86,0,P|386:332|379:356,1,50,8|2,0:3|0:0,0:0:0:0:
310,289,155003,2,0,P|301:317|302:362,1,50,2|2,0:0|0:0,0:0:0:0:
471,347,155153,1,2,0:0:0:0:
241,237,155303,6,0,B|218:276|218:276|201:212,1,100,4|0,0:3|0:0,0:0:0:0:
56,280,155453,86,0,B|113:172|113:172|166:366,2,300.000011444092,8|0|0,0:3|0:0|0:0,0:0:0:0:
310,289,155903,2,0,B|330:244|330:244|318:181,1,100,4|0,0:3|0:0,0:0:0:0:
227,0,156053,6,0,L|212:91,1,75,8|0,0:3|0:0,0:0:0:0:
188,146,156353,86,0,P|307:41|459:65,1,300.000011444092,2|4,0:0|0:3,0:0:0:0:
439,53,156653,2,0,P|472:94|514:110,1,75.0000028610231,8|0,0:3|0:0,0:0:0:0:
364,82,156803,2,0,P|380:130|414:160,1,75.0000028610231,0|0,0:0|0:0,0:0:0:0:
443,369,156953,6,0,P|456:222|376:136,1,250,2|4,0:0|0:3,0:0:0:0:
396,147,157253,2,0,P|368:187|368:231,1,62.5,8|0,0:3|0:0,0:0:0:0:
293,195,157403,2,0,P|304:242|338:270,1,62.5,0|0,0:0|0:0,0:0:0:0:
120,321,157553,86,0,P|126:281|133:329,1,150.000005722046,2|0,0:0|0:0,0:0:0:0:
203,223,157703,2,0,P|240:312|224:369,1,150.000005722046,4|0,0:3|0:0,0:0:0:0:
34,384,157853,2,0,P|122:219|105:93,1,300.000011444092,8|4,0:3|0:3,0:0:0:0:
26,48,158153,54,0,B|75:40|75:40|105:14|105:14|175:58|175:58|497:22,1,450.000017166138,6|0,0:3|0:0,0:0:0:0:
451,27,158453,6,0,P|471:59|473:83,1,59.9999981689454,8|0,0:3|0:0,0:0:0:0:
377,60,158603,2,0,P|381:89|398:114,1,59.9999981689454,4|0,0:3|0:0,0:0:0:0:
425,278,158753,6,0,P|463:191|455:124,1,119.999996337891,8|0,0:3|0:0,0:0:0:0:
262,278,159053,2,0,P|215:195|216:127,1,129.999994049073,8|4,0:3|0:3,0:0:0:0:
346,239,159353,86,0,P|325:153|269:106,1,139.999995727539,8|0,0:3|0:0,0:0:0:0:
236,363,159653,2,0,P|147:329|104:277,1,150.000005722046,8|4,0:3|0:3,0:0:0:0:
26,48,159953,6,0,B|73:3|73:3|109:175,1,200,8|0,0:3|0:0,0:0:0:0:
30,173,160178,1,0,0:0:0:0:
30,173,160253,2,0,L|5:55,1,100,8|0,0:3|0:0,0:0:0:0:
149,0,160403,2,0,L|169:97,1,100,4|0,0:3|0:0,0:0:0:0:
0,310,160553,86,0,P|38:269|91:254,1,112.500004291535,8|0,0:3|0:0,0:0:0:0:
339,343,160703,1,4,0:3:0:0:
30,173,160853,6,0,P|88:166|151:197,1,125,8|0,0:3|0:0,0:0:0:0:
265,381,161003,1,4,0:3:0:0:
148,36,161153,86,0,P|197:72|223:142,1,137.500001311302,8|0,0:3|0:0,0:0:0:0:
182,368,161303,1,4,0:3:0:0:
316,35,161453,5,8,0:3:0:0:
352,107,161528,1,4,0:3:0:0:
339,186,161603,1,4,0:3:0:0:
282,243,161678,1,4,0:3:0:0:
203,256,161753,86,0,P|141:281|112:324,1,100,4|0,0:3|0:0,0:0:0:0:
339,186,162203,6,0,P|292:149|246:146,1,89.9999972534181,4|0,0:3|0:0,0:0:0:0:
407,301,162653,86,0,P|414:263|405:232,1,50,4|0,0:3|0:0,0:0:0:0:
453,152,162953,86,0,B|372:189|343:288|368:371|413:378|439:341|407:300,1,300,6|0,0:3|0:0,0:0:0:0:
281,49,163253,2,0,B|296:8|345:15|345:15|374:58|356:115|299:129,1,225.000008583069,8|0,0:3|0:0,0:0:0:0:
242,239,163553,70,0,B|234:253|234:268|234:268|296:198|381:196,1,200,0|4,0:0|0:3,0:0:0:0:
457,189,163778,1,0,0:0:0:0:
472,199,163853,2,0,B|514:173|514:136|514:136|467:149|469:212,1,145.000004425049,8|0,0:3|0:0,0:0:0:0:
138,111,164003,6,0,B|232:164|241:291|181:367|181:367|183:304|145:257,1,412.500003933907,4|0,0:0|0:0,0:0:0:0:
85,208,164303,22,0,L|62:204,1,18.7500007152558,4|0,0:3|0:0,0:0:0:0:
73,284,164378,2,0,L|50:280,1,18.7500007152558,2|0,0:0|0:0,0:0:0:0:
61,360,164453,2,0,L|38:356,1,18.7500007152558,8|0,0:3|0:0,0:0:0:0:
224,165,164603,6,0,L|261:159,1,31.25,2|0,0:0|0:0,0:0:0:0:
212,89,164678,2,0,L|249:83,1,31.25,2|0,0:0|0:0,0:0:0:0:
200,13,164753,2,0,L|237:7,1,31.25,2|0,0:0|0:0,0:0:0:0:
427,111,164903,38,0,P|389:82|337:78,1,100,4|0,0:3|0:0,0:0:0:0:
340,316,165053,6,0,B|373:350|373:350|424:250|358:163|358:163|331:208,1,300,8|0,0:3|0:0,0:0:0:0:
477,345,165353,86,0,P|481:289|496:235,1,112.500004291535,2|0,0:0|0:0,0:0:0:0:
427,111,165503,2,0,P|422:75|404:27,1,87.500000834465,4|0,0:3|0:0,0:0:0:0:
86,285,165653,6,0,B|177:274|177:274|194:277|194:277|272:268,1,187.5,10|0,0:3|0:0,0:0:0:0:
340,316,165953,86,0,B|293:271|293:271|316:190,1,150.000005722046,0|4,0:0|0:3,0:0:0:0:
429,58,166178,1,0,0:0:0:0:
425,76,166253,6,0,P|435:127|390:160,1,112.500004291535,8|0,0:3|0:0,0:0:0:0:
91,2,166403,2,0,B|326:32|326:32|345:92,1,300,4|0,0:0|2:0,0:0:0:0:
354,297,166703,22,0,L|352:277,1,18.7500007152558,4|0,0:3|2:0,0:0:0:0:
431,291,166778,2,0,L|428:262,1,25,2|0,0:0|2:0,0:0:0:0:
508,285,166853,6,0,L|504:240,6,37.5000014305115,8|0|2|0|2|0|2,0:3|0:0|0:0|0:0|0:0|0:0|0:0,0:0:0:0:
337,16,167153,38,0,B|322:78|322:78|326:101|326:101|311:164,1,150.000005722046,4|0,0:2|0:0,0:0:0:0:
259,334,167303,2,0,B|197:289|197:289|248:236,1,150.000005722046,4|0,0:3|0:0,0:0:0:0:
87,88,167453,6,0,B|174:75|217:150|217:150|312:162,1,250,8|4,0:3|0:3,0:0:0:0:
511,32,167753,6,0,B|474:26|436:-18|436:-18|489:79|481:206,1,300,6|0,0:3|0:0,0:0:0:0:
414,336,168053,2,0,B|470:291|421:237|421:237|348:229|345:293,1,225.000008583069,8|0,0:3|0:0,0:0:0:0:
132,322,168353,70,0,B|120:332|112:353|112:353|190:309|269:327,1,200,0|4,0:0|0:3,0:0:0:0:
345,292,168578,1,0,0:0:0:0:
356,273,168653,2,0,B|383:240|374:193|374:193|352:217|351:252,1,150.000005722046,8|0,0:3|0:0,0:0:0:0:
228,12,168803,6,0,B|206:104|289:177|289:177|335:76|273:-1,1,375,4|0,0:0|0:0,0:0:0:0:
486,93,169103,22,0,L|488:73,1,18.7500007152558,4|0,0:3|0:0,0:0:0:0:
410,84,169178,2,0,L|412:64,1,18.7500007152558,2|0,0:0|0:0,0:0:0:0:
334,75,169253,2,0,L|336:55,1,18.7500007152558,8|0,0:3|0:0,0:0:0:0:
174,267,169403,6,0,L|169:228,1,31.25,2|0,0:0|0:0,0:0:0:0:
252,258,169478,2,0,L|247:219,1,31.25,2|0,0:0|0:0,0:0:0:0:
330,249,169553,2,0,L|325:210,1,31.25,2|0,0:0|0:0,0:0:0:0:
78,46,169703,38,0,P|138:35|174:83,1,125,4|0,0:3|0:0,0:0:0:0:
202,161,169853,6,0,B|175:102|220:45|276:50|276:50|279:100|323:130|377:113,1,300,10|0,0:3|0:0,0:0:0:0:
463,0,170153,86,0,B|434:35|385:31|385:31|434:38|452:82,1,175.00000166893,2|4,0:0|0:3,0:0:0:0:
478,313,170453,2,0,B|484:355|484:355|532:311|537:239|498:190,1,225.000008583069,10|0,0:3|0:0,0:0:0:0:
427,155,170753,6,0,B|301:183|301:183|262:159,1,175.00000166893,0|4,0:0|0:3,0:0:0:0:
277,26,170978,1,0,0:0:0:0:
293,19,171053,2,0,B|325:5|325:5|315:98,1,125,8|0,0:3|0:0,0:0:0:0:
378,289,171203,2,0,P|402:237|366:203,1,112.500004291535,4|0,0:2|0:0,0:0:0:0:
46,325,171353,54,0,B|32:346|55:366|85:353|97:316|93:283|70:247,1,150.000005722046,4|0,0:3|0:0,0:0:0:0:
134,101,171503,2,0,B|148:80|125:60|95:73|83:110|87:143|110:179,1,150.000005722046
303,254,171653,6,0,P|238:234|169:230,1,137.500001311302
192,25,171803,2,0,P|263:5|340:3,1,137.500001311302
484,101,171953,86,0,B|453:123|419:123|382:113|367:80|388:58|410:74,1,150.000005722046
170,230,172103,2,0,B|200:252|234:252|271:242|286:209|265:187|243:203,1,150.000005722046
339,3,172253,6,0,P|303:61|310:127,1,137.500001311302
482,365,172403,2,0,P|495:292|458:229,1,137.500001311302
392,191,172553,85,0,0:0:0:0:
379,193,172628,1,0,0:0:0:0:
366,195,172703,1,4,0:3:0:0:
57,252,172853,54,0,P|214:264|356:276,1,300,10|0,0:3|0:0,0:0:0:0:
502,169,173153,70,0,B|530:189|526:218|526:218|470:172|392:191,1,200,0|4,0:0|0:3,0:0:0:0:
377,268,173378,1,0,0:0:0:0:
375,289,173453,2,0,B|365:328|332:345|332:345|328:302|357:276,1,150.000005722046,8|0,0:3|0:0,0:0:0:0:
490,78,173603,6,0,B|544:135|536:230|476:291|476:291|478:257|459:230,1,300,4|0,0:0|0:0,0:0:0:0:
251,67,173903,22,0,L|248:86,1,18.7500007152558,4|0,0:3|2:0,0:0:0:0:
327,79,173978,2,0,L|324:98,1,18.7500007152558,2|0,0:0|2:0,0:0:0:0:
403,91,174053,2,0,L|400:110,1,18.7500007152558,8|0,0:3|2:0,0:0:0:0:
130,268,174203,6,0,L|124:230,1,31.25,2|0,0:0|2:0,0:0:0:0:
206,256,174278,2,0,L|200:218,1,31.25,2|0,0:0|2:0,0:0:0:0:
282,244,174353,2,0,L|276:206,1,31.25,2|0,0:0|2:0,0:0:0:0:
53,101,174503,38,0,P|114:112|152:160,1,125,4|0,0:3|0:0,0:0:0:0:
262,338,174653,6,0,P|237:248|228:124,1,200,8|0,0:3|0:0,0:0:0:0:
366,26,174878,1,0,0:0:0:0:
359,41,174953,86,0,P|319:79|304:132,1,112.500004291535,2|0,0:0|0:0,0:0:0:0:
483,104,175103,2,0,P|440:96|399:112,1,87.500000834465,4|0,0:3|0:0,0:0:0:0:
183,353,175253,6,0,B|247:283|344:321|344:321|299:312|262:338,1,262.500002503395,10|0,0:3|0:0,0:0:0:0:
440,369,175553,86,0,P|422:309|419:245,1,125,0|4,0:0|0:3,0:0:0:0:
465,33,175778,1,0,0:0:0:0:
484,31,175853,6,0,P|483:84|437:113,1,112.500004291535,8|0,0:3|0:0,0:0:0:0:
321,182,176003,2,0,B|375:164|413:205|413:205|450:244|499:230,1,195.000000743866,4|0,0:2|0:0,0:0:0:0:
189,39,176303,22,0,L|208:36,1,18.7500007152558,4|0,0:3|2:0,0:0:0:0:
198,118,176378,2,0,L|222:115,1,25,2|0,0:0|2:0,0:0:0:0:
207,197,176453,6,0,L|243:192,6,37.5000014305115,8|0|2|0|2|0|2,0:3|0:0|0:0|0:0|0:0|0:0|0:0,0:0:0:0:
347,108,176753,38,0,P|333:182|332:257,1,150.000005722046,4|0,0:2|0:0,0:0:0:0:
454,241,176903,2,0,P|470:191|413:218,1,150.000005722046,4|0,0:3|0:0,0:0:0:0:
219,347,177053,6,0,L|468:321,1,250,8|4,0:3|0:3,0:0:0:0:
32,48,177353,6,0,B|60:6|60:6|148:82|87:184,1,250,6|0,0:3|0:0,0:0:0:0:
119,262,177578,38,0,P|115:188|144:118,1,150.000005722046,8|0,0:3|0:0,0:0:0:0:
222,88,177803,2,0,P|271:32|341:4,1,150.000005722046,4|0,0:3|0:0,0:0:0:0:
418,37,178028,2,0,P|428:113|412:183,1,150.000005722046,4|0,0:3|0:0,0:0:0:0:
307,355,178253,6,0,P|286:313|292:263,1,97.4999955368044,8|0,0:3|0:0,0:0:0:0:
490,306,178553,38,0,B|550:298|580:363|483:382|477:315|428:283|363:297,1,250,6|0,0:3|0:0,0:0:0:0:
176,376,178778,38,0,P|203:303|206:232,1,150.000005722046,8|0,0:3|0:0,0:0:0:0:
63,71,179003,2,0,P|131:100|179:155,1,150.000005722046,4|0,0:3|0:0,0:0:0:0:
310,2,179228,2,0,P|268:71|258:142,1,150.000005722046,4|0,0:3|0:0,0:0:0:0:
410,307,179453,6,0,P|417:258|395:218,1,97.4999955368044,8|0,0:3|0:0,0:0:0:0:
328,174,179753,38,0,P|370:71|411:142,1,250,6|0,0:3|0:0,0:0:0:0:
394,217,179978,38,0,P|324:201|245:201,1,150.000005722046,8|0,0:3|0:0,0:0:0:0:
91,365,180203,2,0,P|139:312|179:243,1,150.000005722046,4|0,0:3|0:0,0:0:0:0:
115,28,180428,2,0,P|136:96|175:165,1,150.000005722046,4|0,0:3|0:0,0:0:0:0:
246,201,180653,5,8,0:3:0:0:
255,177,180728,1,4,0:3:0:0:
276,166,180803,1,4,0:3:0:0:
460,148,180953,85,4,0:3:0:0:
256,192,181028,12,0,182003,2:0:0:0:
84,87,182153,70,0,B|66:37|19:21|19:21|175:49|172:251|116:323|3:316|3:316|-16:209|54:108|177:165|206:188|286:100|267:15|267:15|308:74|274:134|274:134|201:165|183:250|211:339|324:367|390:308|415:222|366:159|366:159|465:180|505:282|458:376|458:376|545:286|490:128|448:231|393:103|455:8,1,2250.00008583069,4|0,1:0|0:0,0:0:0:0:
454,9,186953,6,0,P|399:13|336:98,1,150,2|2,0:0|0:0,0:0:0:0:
254,152,187853,2,0,P|236:80|271:17,1,150,2|2,0:0|0:0,0:0:0:0:
512,129,188753,2,0,P|486:103|411:95,1,100,2|2,0:0|0:0,0:0:0:0:
395,218,189353,86,0,P|416:294|392:379,1,150,2|2,0:0|0:0,0:0:0:0:
401,362,189953,2,0,P|362:354|341:343,1,50,0|0,0:0|0:0,0:0:0:0:
243,261,190253,2,0,P|299:316|320:401,1,150,2|2,0:0|0:0,0:0:0:0:
243,261,190853,6,0,P|208:284|183:290,1,50,0|0,0:0|0:0,0:0:0:0:
184,186,191153,2,0,P|209:143|219:94,1,100,2|2,0:0|0:0,0:0:0:0:
220,95,191753,86,0,P|264:66|314:59,1,100,2|0,0:0|0:0,0:0:0:0:
310,58,192203,2,0,P|318:36|319:6,1,50,2|0,0:0|0:0,0:0:0:0:
512,115,192653,6,0,P|458:133|425:175,1,100,2|0,0:0|0:0,0:0:0:0:
354,132,193103,2,0,P|329:183|334:235,1,100,2|0,0:0|0:0,0:0:0:0:
475,384,193553,86,0,P|475:354|466:333,1,50,2|0,0:0|0:0,0:0:0:0:
502,263,193853,2,0,P|480:241|459:233,1,50,2|0,0:0|0:0,0:0:0:0:
320,310,194153,6,0,P|278:328|224:322,1,100,2|0,0:0|0:0,0:0:0:0:
225,322,194603,2,0,P|237:289|234:266,1,50,2|0,0:0|0:0,0:0:0:0:
23,375,195053,86,0,P|21:316|1:279,1,100,2|0,0:0|0:0,0:0:0:0:
107,353,195503,2,0,P|126:308|122:257,1,100,2|0,0:0|0:0,0:0:0:0:
48,7,195953,2,0,P|34:36|34:54,1,50,2|0,0:0|0:0,0:0:0:0:
80,125,196253,1,2,0:0:0:0:
80,125,196553,6,0,P|128:120|176:140,1,100,2|0,0:0|0:0,0:0:0:0:
174,139,197003,2,0,P|177:113|165:88,1,50,2|0,0:0|0:0,0:0:0:0:
274,337,197453,86,0,P|272:285|297:243,1,100,2|0,0:0|0:0,0:0:0:0:
432,256,197903,2,0,P|384:269|351:306,1,100,2|0,0:0|0:0,0:0:0:0:
476,380,198353,6,0,P|476:350|467:329,1,50,2|0,0:0|0:0,0:0:0:0:
432,255,198653,2,0,P|437:231|452:211,1,50,2|0,0:0|0:0,0:0:0:0:
339,18,198953,86,0,P|361:61|358:112,1,100,2|0,0:0|0:0,0:0:0:0:
358,111,199403,2,0,P|337:100|309:98,1,50,2|0,0:0|0:0,0:0:0:0:
73,231,199853,6,0,P|94:184|93:137,1,100,2|0,0:0|0:0,0:0:0:0:
195,202,200303,2,0,P|194:148|170:109,1,100,2|0,0:0|0:0,0:0:0:0:
104,1,200753,86,0,P|106:25|96:50,1,50,2|0,0:0|0:0,0:0:0:0:
20,89,201053,1,2,0:0:0:0:
20,89,201353,22,0,P|65:144|67:237,1,150,2|2,0:0|0:0,0:0:0:0:
155,228,201953,2,0,P|137:274|90:308,1,100,0|2,0:0|0:0,0:0:0:0:
104,384,202403,2,0,P|68:378|41:361,1,50,0|2,0:0|0:0,0:0:0:0:
155,228,202703,5,0,0:0:0:0:
223,190,202853,2,0,P|259:196|286:213,1,50,0|2,0:0|0:0,0:0:0:0:
497,304,203153,85,0,0:0:0:0:
429,266,203303,2,0,P|393:272|366:289,1,50,0|2,0:0|0:0,0:0:0:0:
20,89,203753,6,0,P|69:49|168:57,1,150,2|2,0:0|0:0,0:0:0:0:
227,18,204353,2,0,P|228:75|199:123,1,100,0|2,0:0|0:0,0:0:0:0:
265,166,204803,2,0,P|236:186|216:191,1,50,0|2,0:0|0:0,0:0:0:0:
104,384,205103,86,0,P|103:327|132:279,1,100,0|2,0:0|0:0,0:0:0:0:
66,236,205553,2,0,P|95:216|115:211,1,50,0|0,0:0|0:0,0:0:0:0:
208,112,205853,1,2,0:0:0:0:
208,112,206153,6,0,B|234:151|234:151|216:271,1,150,2|2,0:0|0:0,0:0:0:0:
183,352,206753,2,0,L|291:319,1,100,0|2,0:0|0:0,0:0:0:0:
314,208,207203,2,0,L|377:227,1,50,0|2,0:0|0:0,0:0:0:0:
477,310,207503,85,0,0:0:0:0:
491,231,207653,1,0,0:0:0:0:
508,153,207803,1,2,0:0:0:0:
392,333,207953,5,0,0:0:0:0:
406,254,208103,1,0,0:0:0:0:
423,176,208253,1,2,0:0:0:0:
99,0,208553,86,0,P|135:48|127:142,1,150,2|2,0:0|0:0,0:0:0:0:
0,254,209153,2,0,P|35:199|83:185,1,100,0|2,0:0|0:0,0:0:0:0:
187,245,209603,2,0,P|155:227|140:200,1,50,0|2,0:0|0:0,0:0:0:0:
25,49,209903,6,0,L|12:110,2,50,0|0|2,0:0|0:0|0:0,0:0:0:0:
222,164,210353,2,0,L|232:115,2,50,0|0|2,0:0|0:0|0:0,0:0:0:0:
105,343,210953,86,0,P|97:255|57:176,1,165.000005035401,2|2,0:0|0:0,0:0:0:0:
178,378,211553,2,0,P|201:331|211:258,1,110.000003356934,0|2,0:0|0:0,0:0:0:0:
25,368,212003,2,0,P|11:334|-6:309,1,55.0000016784668,0|2,0:0|0:0,0:0:0:0:
211,274,212303,5,0,0:0:0:0:
287,299,212453,2,0,P|300:322|310:348,1,55.0000016784668,0|2,0:0|0:0,0:0:0:0:
448,188,212753,85,0,0:0:0:0:
490,256,212903,2,0,P|485:283|476:309,1,55.0000016784668,0|2,0:0|0:0,0:0:0:0:
356,85,213353,6,0,P|452:52|514:-8,1,179.999994506836,2|2,0:0|0:0,0:0:0:0:
232,115,213953,2,0,P|274:154|307:224,1,119.999996337891,0|2,0:0|0:0,0:0:0:0:
282,40,214403,2,0,P|314:13|333:-10,1,59.9999981689454,0|0,0:0|0:0,0:0:0:0:
215,210,214703,86,0,P|168:172|111:152,1,119.999996337891,2|0,0:0|0:0,0:0:0:0:
113,152,215153,2,0,L|86:226,1,59.9999981689454,2|0,0:0|0:0,0:0:0:0:
20,384,215453,2,0,L|40:327,1,59.9999981689454,2|0,0:0|0:0,0:0:0:0:
292,311,215753,6,0,B|341:340|341:340|493:305,1,194.999991073609,2|2,0:0|0:0,0:0:0:0:
512,147,216353,2,0,B|473:136|473:136|501:230,1,129.999994049073,0|2,0:0|0:0,0:0:0:0:
490,372,216803,2,0,L|474:305,1,64.9999970245363,0|2,0:0|0:0,0:0:0:0:
373,147,217103,85,0,0:0:0:0:
313,209,217253,1,0,0:0:0:0:
397,229,217403,1,2,0:0:0:0:
375,135,217553,5,0,0:0:0:0:
302,212,217703,1,0,0:0:0:0:
405,236,217853,1,2,0:0:0:0:
13,0,218153,86,0,P|70:36|126:178,1,209.999993591309,2|2,0:0|0:0,0:0:0:0:
215,101,218753,2,0,P|211:187|164:253,1,139.999995727539,0|2,0:0|0:0,0:0:0:0:
253,278,219203,2,0,P|217:312|175:325,1,69.9999978637696,0|2,0:0|0:0,0:0:0:0:
9,187,219503,5,0,0:0:0:0:
62,136,219653,2,0,P|109:149|142:179,1,69.9999978637696,0|2,0:0|0:0,0:0:0:0:
127,384,219953,86,0,L|116:326,1,50,0|0,0:0|0:0,0:0:0:0:
114,100,220103,2,0,L|125:161,1,62.5,0|0,0:0|0:0,0:0:0:0:
266,351,220253,6,0,L|250:269,1,75.0000028610231,2|0,0:0|0:0,0:0:0:0:
239,0,220403,2,0,L|258:105,1,100,0|0,0:0|0:0,0:0:0:0:
348,188,220553,54,0,B|410:122|383:35|383:35|341:69|356:122,1,250,2|0,0:3|0:0,0:0:0:0:
492,357,221003,6,0,B|439:273|354:237|223:228|187:278|184:351|238:385|292:375|314:320|307:261|267:205,1,525.000020027161
67,48,222203,86,0,P|32:68|73:65,1,112.500004291535
143,27,222503,1,0,0:0:0:0:
220,54,222653,1,0,0:0:0:0:
265,127,222803,1,0,0:0:0:0:
343,33,222953,6,0,P|387:12|436:17,1,100
497,205,223403,2,0,B|480:121|378:84|300:134|300:134|348:168|353:226|331:275|289:299|237:290|217:233|255:202,1,525.000020027161,0|0,0:0|0:0,0:0:0:0:
489,334,224603,86,0,B|414:341|414:341|397:336|397:336|364:347|364:347|178:366,1,312.5
6,120,225053,6,0,B|66:104|143:162|127:230,1,187.5
10,381,225353,70,0,B|5:190|156:16|336:-19|493:41|493:41|354:20|337:118|212:146|212:146|381:122|365:173|507:119|507:119|461:265|265:339|106:284|106:284|212:191|405:204|487:277|487:277|391:376|224:405|91:366,1,2616.00002794189
91,366,229553,5,0,0:0:0:0:
99,353,229628,1,0,0:0:0:0:
105,331,229703,1,0,0:0:0:0:
101,299,229778,1,0,0:0:0:0:
84,270,229853,1,0,0:0:0:0:
60,241,229928,1,0,0:0:0:0:
48,200,230003,1,0,0:0:0:0:
64,150,230078,1,0,0:0:0:0:
126,99,230153,6,0,B|204:83|191:140|269:122,1,150.000005722046,0|0,0:0|0:0,0:0:0:0:
463,11,230603,2,0,B|363:38|348:142|348:142|359:80|305:48|305:48|455:142|367:306|367:306|376:249|329:218,1,700,0|0,0:0|0:0,0:0:0:0:
474,337,231803,86,0,P|396:265|289:289,1,225.000008583069
44,368,232553,6,0,P|65:291|67:219,1,150.000005722046
24,29,233003,2,0,B|9:82|36:126|86:140|86:140|147:159|148:226|148:226|167:164|137:109|66:148|47:28|92:-43|206:-60|236:-8|227:59|179:68,1,664.999982242585,0|0,0:0|0:0,0:0:0:0:
411,172,234203,86,0,P|337:131|223:140,1,200
178,68,234653,2,0,P|241:38|292:89,1,150,0|0,0:0|0:0,0:0:0:0:
225,139,234953,6,0,B|277:215|258:323|258:323|291:352|332:333|332:333|333:252|407:210|407:210|267:174|290:265|229:306|161:285|142:234|159:193,1,750
444,283,236003,2,0,P|434:313|416:338,1,62.5,0|0,0:0|0:0,0:0:0:0:
39,351,236153,86,0,P|74:248|64:158,1,200,0|0,0:0|0:0,0:0:0:0:
184,266,236603,2,0,P|151:173|158:74,1,200,0|0,0:0|0:0,0:0:0:0:
5,35,237053,2,0,B|59:57|100:19|100:19|140:-18|189:-1,1,199.499991780854,0|0,0:0|0:0,0:0:0:0:
423,151,237353,86,0,B|345:84|240:117|240:117|330:54|462:52|544:156|527:295|413:355|413:355|431:274|395:169|305:154|240:157|224:241|258:280|319:274|319:274|345:308|332:350|332:350|289:361|192:350|154:261|188:179|188:179|220:111|158:73|158:73|125:96|123:134,1,1650.00006294251
6,346,239153,6,0,L|3:322,1,25,0|0,0:0|0:0,0:0:0:0:
79,292,239303,2,0,L|87:353,1,62.5
170,360,239453,2,0,L|157:260,1,100,0|0,0:0|0:0,0:0:0:0:
235,224,239603,2,0,L|253:372,1,150.000005722046
380,363,239753,22,0,P|466:360|517:309,1,129.999994049073,2|0,0:3|0:0,0:0:0:0:
364,277,239978,1,2,0:0:0:0:
364,277,240053,2,0,P|419:244|483:249,1,129.999994049073,4|2,0:3|0:0,0:0:0:0:
253,372,240353,2,0,P|328:305|295:122,1,259.999988098145,4|6,0:3|0:3,0:0:0:0:
277,95,240728,1,2,0:0:0:0:
277,95,240803,2,0,L|283:55,1,25,2|2,0:0|0:0,0:0:0:0:
340,26,240953,6,0,L|323:155,1,129.999994049073,6|0,0:3|0:0,0:0:0:0:
323,155,241178,1,2,0:0:0:0:
323,155,241253,1,4,0:3:0:0:
75,69,241403,2,0,P|15:123|4:184,1,129.999994049073,0|6,0:0|0:3,0:0:0:0:
123,133,241628,2,0,P|111:211|142:266,1,129.999994049073
132,255,241853,2,0,L|126:292,1,25,6|2,0:3|0:0,0:0:0:0:
207,277,242003,2,0,L|200:313,1,25,0|0,0:0|0:0,0:0:0:0:
19,384,242153,86,0,L|162:355,1,129.999994049073,4|0,0:3|0:0,0:0:0:0:
146,358,242378,1,2,0:0:0:0:
146,358,242453,1,4,0:3:0:0:
195,183,242603,2,0,L|338:212,1,129.999994049073,2|4,0:0|0:3,0:0:0:0:
322,208,242828,2,0,B|286:187|286:187|307:363,1,194.999991073609,2|6,0:0|0:3,0:0:0:0:
380,363,243128,1,2,0:0:0:0:
380,363,243203,2,0,L|377:323,1,25,2|2,0:0|0:0,0:0:0:0:
322,208,243353,6,0,P|364:119|460:68,1,194.999991073609,4|2,0:3|0:0,0:0:0:0:
444,71,243653,2,0,P|457:26|448:0,1,64.9999970245363,4|0,0:3|0:0,0:0:0:0:
363,33,243803,2,0,P|367:93|436:184,1,129.999994049073,2|4,0:0|0:3,0:0:0:0:
288,0,244028,2,0,P|261:53|275:167,1,129.999994049073,2|0,0:0|0:0,0:0:0:0:
322,208,244253,1,6,0:3:0:0:
321,215,244328,1,2,0:0:0:0:
320,222,244403,1,2,0:0:0:0:
319,229,244478,1,2,0:0:0:0:
404,242,244553,86,0,L|166:295,1,194.999991073609,6|2,0:3|0:0,0:0:0:0:
214,284,244853,2,0,B|241:268|241:268|221:380,1,129.999994049073,4|2,0:3|0:0,0:0:0:0:
22,265,245153,1,4,0:3:0:0:
22,265,245228,2,0,B|-5:281|-5:281|14:168,1,129.999994049073,2|0,0:0|0:0,0:0:0:0:
7,0,245453,2,0,P|0:19|4:57,1,37.5000014305115,6|2,0:3|0:0,0:0:0:0:
88,14,245603,2,0,P|86:32|80:50,1,37.5000014305115,2|2,0:0|0:0,0:0:0:0:
11,183,245753,6,0,P|92:122|223:135,1,194.999991073609,6|2,0:3|0:0,0:0:0:0:
182,118,246053,1,4,0:3:0:0:
316,52,246203,2,0,P|245:40|198:-10,1,129.999994049073,2|4,0:0|0:3,0:0:0:0:
369,115,246428,2,0,P|314:161|245:165,1,129.999994049073,2|0,0:0|0:0,0:0:0:0:
399,39,246653,2,0,P|419:47|439:57,3,37.5000014305115,6|2|2|2,0:3|0:0|0:0|0:0,0:0:0:0:
498,0,246953,86,0,P|457:111|454:225,1,194.999991073609,6|2,0:3|0:0,0:0:0:0:
374,244,247253,2,0,P|435:244|450:183,1,129.999994049073,4|2,0:3|0:0,0:0:0:0:
298,55,247553,1,4,0:3:0:0:
297,54,247628,2,0,P|316:119|316:52,1,194.999991073609,2|6,0:0|0:3,0:0:0:0:
221,30,247928,1,2,0:0:0:0:
221,30,248003,2,0,P|206:77|210:119,1,64.9999970245363,2|2,0:0|0:0,0:0:0:0:
189,211,248153,6,0,P|165:89|108:2,1,194.999991073609,6|2,0:3|0:0,0:0:0:0:
131,28,248453,2,0,P|86:57|38:66,1,64.9999970245363,4|0,0:3|0:0,0:0:0:0:
118,281,248603,2,0,P|67:264|29:233,1,64.9999970245363,2|0,0:0|0:0,0:0:0:0:
0,167,248753,86,0,L|129:143,1,69.9999978637696,6|0,0:3|0:0,0:0:0:0:
234,129,248903,2,0,L|298:117,2,34.9999989318848,4|0|6,0:3|0:0|0:3,0:0:0:0:
189,211,249053,6,0,B|173:227|173:227|126:4,1,225.000008583069,8|0,0:3|1:0,0:0:0:0:
313,253,249353,54,0,L|301:357,1,100,2|0,1:3|0:0,0:0:0:0:
385,371,249578,1,2,0:0:0:0:
380,346,249653,1,0,1:0:0:0:
263,147,249803,1,2,0:0:0:0:
268,122,249878,1,0,0:0:0:0:
234,48,249953,2,0,P|289:43|327:66,1,100,0|0,1:0|0:0,0:0:0:0:
464,172,250253,1,2,1:2:0:0:
454,179,250328,1,2,0:0:0:0:
442,184,250403,1,2,0:0:0:0:
430,187,250478,1,2,0:0:0:0:
417,187,250553,6,0,P|404:126|440:74,1,129.999994049073,0|0,1:0|0:0,0:0:0:0:
497,263,250778,1,2,0:0:0:0:
491,277,250853,2,0,P|425:287|375:253,1,129.999994049073,0|2,1:0|0:0,0:0:0:0:
240,80,251153,1,0,1:0:0:0:
254,81,251228,2,0,P|307:115|324:177,1,129.999994049073,0|0,0:0|2:0,0:0:0:0:
287,251,251453,1,2,1:2:0:0:
271,254,251528,1,2,0:2:0:0:
256,260,251603,1,2,0:2:0:0:
243,270,251678,1,2,0:2:0:0:
198,342,251753,86,0,L|213:193,1,150.000005722046,2|0,1:2|0:0,0:0:0:0:
263,103,251978,1,2,0:2:0:0:
270,132,252053,1,0,1:0:0:0:
463,156,252203,1,2,0:2:0:0:
470,185,252278,1,0,0:0:0:0:
427,257,252353,2,0,L|447:103,1,150.000005722046,0|0,1:0|0:0,0:0:0:0:
273,45,252653,1,2,1:2:0:0:
262,57,252728,1,2,0:2:0:0:
257,72,252803,1,2,0:2:0:0:
256,88,252878,1,2,0:2:0:0:
261,104,252953,6,0,P|334:132|352:48,1,179.999994506836,2|0,1:2|0:0,0:0:0:0:
137,0,253178,1,2,0:2:0:0:
146,11,253253,2,0,P|181:108|170:182,1,179.999994506836,0|0,1:0|0:0,0:0:0:0:
38,326,253553,1,0,1:0:0:0:
50,331,253628,2,0,B|148:347|128:287|224:305,1,179.999994506836,2|0,0:2|0:0,0:0:0:0:
334,232,253853,85,2,1:2:0:0:
304,282,253928,1,2,0:2:0:0:
315,337,254003,1,2,0:2:0:0:
363,373,254078,1,2,0:2:0:0:
440,363,254153,22,0,B|426:235|426:235|451:221|460:197,1,179.999994506836,2|0,1:2|0:0,0:0:0:0:
399,40,254378,2,0,B|356:51|356:51|350:142|350:142|390:163,1,179.999994506836,2|0,1:2|0:0,0:0:0:0:
508,269,254603,2,0,B|379:242|379:242|336:270,1,179.999994506836,2|0,1:2|0:0,0:0:0:0:
271,368,254828,2,0,B|264:301|264:301|255:280|255:280|259:256|259:256|252:190,1,179.999994506836,2|0,1:2|0:0,0:0:0:0:
181,36,255053,2,0,B|211:51|211:51|219:117,1,100,2|0,1:2|0:0,0:0:0:0:
59,191,255203,1,0,1:3:0:0:
78,175,255278,1,0,1:3:0:0:
70,151,255353,6,0,B|147:144|193:202|193:202|252:191,1,200,2|0,1:2|0:0,0:0:0:0:
359,106,255578,2,0,P|329:201|335:300,1,200,2|0,1:2|0:0,0:0:0:0:
463,345,255803,2,0,P|378:320|408:236,1,200,2|0,1:2|0:0,0:0:0:0:
292,54,256028,2,0,B|313:4|376:-17|429:19|436:76,1,200,2|0,1:2|0:0,0:0:0:0:
489,226,256253,2,0,P|465:177|421:155,1,100,2|0,1:2|0:0,0:0:0:0:
241,115,256403,1,0,1:0:0:0:
248,164,256478,1,0,1:0:0:0:
286,196,256553,37,2,1:2:0:0:
235,141,256628,1,0,1:0:0:0:
166,120,256703,1,0,1:0:0:0:
104,125,256778,1,2,1:2:0:0:
56,154,256853,1,0,1:0:0:0:
31,199,256928,1,0,1:0:0:0:
27,242,257003,1,2,1:2:0:0:
41,280,257078,1,0,1:0:0:0:
67,301,257153,1,2,1:2:0:0:
98,307,257228,1,0,1:0:0:0:
123,303,257303,1,0,1:0:0:0:
140,293,257378,1,2,1:2:0:0:
152,280,257453,1,0,0:0:0:0:
156,268,257528,1,0,0:0:0:0:
158,257,257603,1,0,0:0:0:0:
156,249,257678,1,0,0:0:0:0:
120,178,257753,6,0,B|104:260|104:260|97:268|97:268|79:357|79:357|195:335|195:335|208:338|208:338|317:318|317:318|300:304,1,449.99998626709,0|0,1:0|0:0,0:0:0:0:
120,178,258653,22,0,P|108:155|108:130,1,50,2|2,2:2|2:2,0:0:0:0:
199,159,258803,2,0,P|198:133|187:111,1,50,2|2,2:2|2:2,0:0:0:0:
242,0,258953,22,0,P|153:93|0:57,1,300,6|2,0:3|0:0,0:0:0:0:
0,57,259253,2,0,B|41:41|41:41|7:181,1,150.000005722046,8|2,0:3|0:0,0:0:0:0:
338,203,259553,6,0,B|310:244|317:311|317:311|296:246|228:225,1,225.000008583069,4|0,0:3|0:0,0:0:0:0:
61,229,259853,5,8,0:3:0:0:
81,306,259928,1,2,0:0:0:0:
152,343,260003,1,2,0:0:0:0:
227,316,260078,1,2,0:0:0:0:
243,231,260153,70,0,P|293:125|403:138,1,225.000008583069,4|2,0:3|0:0,0:0:0:0:
466,120,260453,2,0,P|460:159|441:189,1,75.0000028610231,8|0,0:3|0:0,0:0:0:0:
348,41,260603,2,0,P|381:80|384:146,1,100,2|0,0:0|0:0,0:0:0:0:
348,337,260753,6,0,P|401:376|386:276,1,225.000008583069,4|0,0:3|0:0,0:0:0:0:
338,203,261053,5,8,0:3:0:0:
263,213,261128,1,2,0:0:0:0:
189,181,261203,1,2,0:0:0:0:
140,112,261278,1,2,0:0:0:0:
142,24,261353,70,0,B|90:-29|0:-7|-36:147|84:216,1,300,4|2,0:3|0:0,0:0:0:0:
57,299,261653,2,0,P|118:239|41:202,1,200,8|2,0:3|0:0,0:0:0:0:
201,318,261953,5,4,0:3:0:0:
191,332,262028,2,0,P|74:344|-19:388,1,200,2|0,0:0|0:0,0:0:0:0:
41,202,262253,5,8,0:3:0:0:
120,195,262328,1,2,0:0:0:0:
173,136,262403,1,2,0:0:0:0:
172,56,262478,1,2,0:0:0:0:
244,13,262553,70,0,B|281:15|307:44|307:44|432:21,1,200,4|0,0:3|0:0,0:0:0:0:
493,97,262778,1,2,0:0:0:0:
493,97,262853,2,0,P|515:31|507:-15,1,100,8|0,0:3|0:0,0:0:0:0:
248,93,263003,2,0,P|247:142|267:188,1,100,2|0,0:0|0:0,0:0:0:0:
502,241,263153,5,4,0:3:0:0:
512,230,263228,2,0,P|458:123|371:117,1,200,2|0,0:0|0:0,0:0:0:0:
294,21,263453,5,8,0:3:0:0:
338,81,263528,1,2,0:0:0:0:
363,151,263603,1,2,0:0:0:0:
367,226,263678,1,2,0:0:0:0:
351,299,263753,70,0,B|379:357|456:346|488:285|436:204,1,225.000008583069,4|2,0:3|0:0,0:0:0:0:
433,22,264053,2,0,P|409:93|362:151,1,150.000005722046,8|2,0:3|0:0,0:0:0:0:
319,375,264353,5,4,0:3:0:0:
306,381,264428,2,0,P|213:337|144:326,1,150.000005722046,2|0,0:0|0:0,0:0:0:0:
96,366,264653,6,0,P|91:307|127:259,1,100,8|2,0:3|0:0,0:0:0:0:
245,11,264803,2,0,P|195:14|157:45,1,100,2|2,0:0|0:0,0:0:0:0:
0,285,264953,70,0,B|104:311|178:191|132:117|132:117|105:139,1,300,4|2,0:3|0:0,0:0:0:0:
59,194,265253,2,0,P|8:165|-11:125,1,75.0000028610231,8|0,0:3|0:0,0:0:0:0:
108,137,265403,2,0,P|70:92|65:48,1,75.0000028610231,2|0,0:0|0:0,0:0:0:0:
332,8,265553,6,0,L|315:76,1,50,4|2,0:3|0:0,0:0:0:0:
376,118,265703,2,0,B|310:145|310:145|352:-8,1,200,0|8,0:0|0:3,0:0:0:0:
512,83,265928,5,0,0:0:0:0:
512,83,266003,2,0,B|524:54|524:54|462:83,1,100,2|2,0:0|0:0,0:0:0:0:
293,234,266153,70,0,L|505:155,1,200,4|0,0:3|0:0,0:0:0:0:
426,0,266378,1,2,0:0:0:0:
426,0,266453,2,0,P|426:50|458:97,1,100,8|0,0:3|0:0,0:0:0:0:
363,333,266603,2,0,L|385:214,1,100,2|0,0:0|0:0,0:0:0:0:
245,11,266753,5,4,0:3:0:0:
230,20,266828,2,0,P|280:103|376:118,1,200,2|0,0:0|0:0,0:0:0:0:
511,237,267053,5,8,0:3:0:0:
439,206,267128,1,2,0:0:0:0:
356,219,267203,1,2,0:0:0:0:
284,276,267278,1,2,0:0:0:0:
241,369,267353,38,0,B|206:207|206:207|152:208|100:153,1,250,8|4,0:3|0:3,0:0:0:0:
297,83,267578,2,0,B|211:176|121:136|127:43|194:35|226:62,1,250,8|4,0:3|0:3,0:0:0:0:
115,195,267803,2,0,P|85:119|30:81,1,125,8|0,0:3|0:0,0:0:0:0:
28,381,267953,6,0,P|161:315|183:172,1,250,8|4,0:3|0:3,0:0:0:0:
297,83,268178,2,0,B|323:51|323:51|408:70|415:177|380:223,1,250,8|4,0:3|0:3,0:0:0:0:
191,226,268403,2,0,P|241:173|303:204,1,125,8|0,0:3|0:0,0:0:0:0:
512,262,268553,6,0,P|390:244|325:393,1,300,6|2,0:3|0:0,0:0:0:0:
322,384,268853,2,0,P|350:359|355:287,1,100,8|0,0:3|0:0,0:0:0:0:
55,254,269003,2,0,P|95:281|109:328,1,100,2|0,0:0|0:0,0:0:0:0:
224,379,269153,5,4,0:3:0:0:
238,370,269228,2,0,P|270:299|251:176,1,150.000005722046,2|0,0:0|0:0,0:0:0:0:
297,83,269453,5,8,0:3:0:0:
297,156,269528,1,2,0:0:0:0:
251,213,269603,1,2,0:0:0:0:
180,229,269678,1,2,0:0:0:0:
115,195,269753,70,0,P|60:135|-18:146,1,150.000005722046,4|0,0:3|0:0,0:0:0:0:
99,0,269978,1,2,0:0:0:0:
99,0,270053,2,0,P|132:49|134:100,1,75.0000028610231,8|0,0:3|0:0,0:0:0:0:
210,22,270203,2,0,P|214:89|183:136,1,100,2|0,0:0|0:0,0:0:0:0:
76,262,270353,6,0,B|133:280|157:336|157:336|146:268|196:206,1,225.000008583069,4|0,0:3|0:0,0:0:0:0:
302,39,270653,5,8,3:0:0:0:
315,113,270728,1,2,0:0:0:0:
360,179,270803,1,2,0:0:0:0:
423,225,270878,1,2,0:0:0:0:
500,243,270953,70,0,B|374:275|374:275|437:211,1,200,4|0,0:3|0:0,0:0:0:0:
282,350,271178,1,2,0:0:0:0:
282,350,271253,2,0,L|294:251,1,100,8|0,0:3|0:0,0:0:0:0:
417,14,271403,2,0,B|431:55|431:55|404:115,1,100,2|0,0:0|0:0,0:0:0:0:
200,117,271553,5,4,0:3:0:0:
208,128,271628,2,0,L|-2:97,1,200,2|0,0:0|0:0,0:0:0:0:
10,99,271853,6,0,B|38:119|38:119|27:25,1,100,8|2,0:3|0:0,0:0:0:0:
311,69,272003,69,2,0:0:0:0:
311,69,272078,1,2,0:0:0:0:
255,15,272153,2,0,P|178:73|213:216,1,200,4|0,0:3|0:0,0:0:0:0:
200,291,272378,1,2,0:0:0:0:
200,291,272453,2,0,B|177:189|80:189|80:189|35:269,1,200,8|2,0:3|0:0,0:0:0:0:
14,343,272753,5,4,0:3:0:0:
1,333,272828,2,0,P|101:317|270:309,1,200,2|0,0:0|0:0,0:0:0:0:
282,350,273053,5,8,0:3:0:0:
347,305,273128,1,2,0:0:0:0:
397,231,273203,1,2,0:0:0:0:
419,117,273278,1,2,0:0:0:0:
368,25,273353,6,0,B|421:7|421:7|397:195,2,225.000008583069,6|2|2,0:3|0:0|0:0,0:0:0:0:
327,328,273953,6,0,P|398:344|385:273,1,172.500003290176,8|0,0:3|0:0,0:0:0:0:
262,370,274253,2,0,P|252:329|238:290,1,57.5000010967255,2|2,0:0|0:0,0:0:0:0:
66,212,274403,85,2,0:0:0:0:
66,212,274478,1,2,0:0:0:0:
131,254,274553,2,0,P|212:201|217:106,2,187.5,6|2|2,0:3|0:0|0:0,0:0:0:0:
66,212,275153,6,0,P|106:289|72:365,1,150,8|0,0:3|0:0,0:0:0:0:
89,345,275453,2,0,L|15:363,1,50,2|2,0:0|0:0,0:0:0:0:
336,315,275603,2,0,L|384:303,1,50,2|2,0:0|0:0,0:0:0:0:
458,334,275753,6,0,P|481:270|462:205,1,100,8|0,0:3|0:0,0:0:0:0:
512,173,275978,2,0,P|477:114|415:87,1,100,8|0,0:3|0:0,0:0:0:0:
423,28,276203,2,0,P|377:20|335:40,1,50,8|0,0:3|0:0,0:0:0:0:
262,0,276353,6,0,B|232:40|232:40|256:168,1,150.000005722046,8|0,0:3|0:0,0:0:0:0:
327,152,276578,2,0,B|345:250|345:250|315:290,1,150.000005722046,8|0,0:3|0:0,0:0:0:0:
240,288,276803,2,0,L|258:390,1,75.0000028610231,8|0,0:3|0:0,0:0:0:0:
253,361,276953,86,0,P|143:367|91:290,1,200,8|0,0:3|0:0,0:0:0:0:
17,256,277178,2,0,P|-8:148|59:83,1,200,8|0,0:3|0:0,0:0:0:0:
100,11,277403,2,0,P|131:49|140:97,1,100,8|0,0:3|0:0,0:0:0:0:
21,344,277553,5,4,0:3:0:0:
32,248,277628,1,2,0:0:0:0:
77,160,277703,1,2,0:0:0:0:
141,98,277778,1,2,0:0:0:0:
214,63,277853,1,2,0:0:0:0:
284,52,277928,1,2,0:0:0:0:
324,52,278003,1,2,0:0:0:0:
344,55,278078,1,2,0:0:0:0:
375,124,278153,54,0,B|325:148|325:148|380:162,1,112.500004291535,4|0,0:3|2:0,0:0:0:0:
507,107,278453,54,0,P|494:153|459:135,1,100,8|0,2:3|0:0,0:0:0:0:
296,2,278603,2,0,P|326:14|323:52,1,75.0000028610231,2|0,0:0|0:0,0:0:0:0:
99,204,278753,6,0,P|154:90|240:102,1,225.000008583069,4|0,0:3|2:0,0:0:0:0:
375,125,279053,5,8,0:3:0:0:
345,196,279128,1,2,0:0:0:0:
271,214,279203,1,2,0:0:0:0:
202,178,279278,1,2,0:0:0:0:
166,50,279353,70,0,P|214:55|235:99,1,100,4|0,0:3|0:0,0:0:0:0:
124,286,279503,1,0,0:0:0:0:
124,286,279578,1,2,0:0:0:0:
124,286,279653,2,0,P|83:295|49:297,1,75.0000028610231,8|0,0:3|0:0,0:0:0:0:
342,332,279803,2,0,P|304:322|266:321,1,75.0000028610231,2|0,0:0|0:0,0:0:0:0:
164,169,279953,5,4,0:3:0:0:
180,167,280028,2,0,L|156:368,1,200,2|0,0:0|0:0,0:0:0:0:
203,249,280253,5,8,0:3:0:0:
260,195,280328,1,2,0:0:0:0:
335,185,280403,1,2,0:0:0:0:
404,219,280478,1,2,0:0:0:0:
459,318,280553,70,0,P|491:280|487:232,1,100,4|0,0:3|0:0,0:0:0:0:
321,41,280703,1,0,0:0:0:0:
321,41,280778,1,2,0:0:0:0:
321,41,280853,2,0,P|360:39|392:56,1,75.0000028610231,8|0,0:3|0:0,0:0:0:0:
504,157,281003,2,0,P|464:156|434:174,1,75.0000028610231,2|0,0:0|0:0,0:0:0:0:
214,292,281153,6,0,P|316:318|372:229,1,225.000008583069,4|0,0:3|2:0,0:0:0:0:
247,19,281453,5,8,0:3:0:0:
203,83,281528,1,2,0:0:0:0:
214,158,281603,1,2,0:0:0:0:
275,205,281678,1,2,0:0:0:0:
371,228,281753,70,0,P|328:211|284:233,1,100,4|0,0:3|0:0,0:0:0:0:
131,367,281903,1,0,0:0:0:0:
131,367,281978,1,2,0:0:0:0:
131,367,282053,2,0,P|141:328|141:293,1,75.0000028610231,8|0,0:3|0:0,0:0:0:0:
87,37,282203,6,0,B|54:20|8:46|3:108|75:139|126:104,1,200,2|4,0:0|0:3,0:0:0:0:
234,20,282428,2,0,P|203:110|207:214,1,200,2|0,0:0|0:0,0:0:0:0:
434,74,282653,5,8,0:3:0:0:
340,105,282728,1,2,0:0:0:0:
295,169,282803,1,2,0:0:0:0:
287,200,282878,1,2,0:0:0:0:
289,218,282953,70,0,P|358:188|430:198,1,150.000005722046,4|0,0:3|0:0,0:0:0:0:
504,302,283178,1,2,0:0:0:0:
498,318,283253,2,0,B|485:355|485:355|540:312|549:245|510:190,1,225.000008583069,8|0,0:3|0:0,0:0:0:0:
512,37,283553,6,0,P|460:89|386:97,1,150.000005722046,4|0,0:3|0:0,0:0:0:0:
155,5,283853,5,8,0:3:0:0:
165,81,283928,1,2,0:0:0:0:
175,157,284003,1,2,0:0:0:0:
185,233,284078,1,2,0:0:0:0:
205,323,284153,70,0,P|202:211|251:111,1,225.000008583069,4|2,0:3|0:0,0:0:0:0:
441,231,284453,2,0,P|372:203|324:147,1,150.000005722046,8|2,0:3|0:0,0:0:0:0:
89,16,284753,6,0,P|92:136|159:50,1,300,4|0,0:3|0:0,0:0:0:0:
257,6,285053,5,8,0:3:0:0:
247,82,285128,1,2,0:0:0:0:
237,158,285203,1,2,0:0:0:0:
227,234,285278,1,2,0:0:0:0:
216,325,285353,70,0,B|274:326|303:283|303:283|341:316|396:306,1,200,4|0,0:3|0:0,0:0:0:0:
488,227,285578,1,2,0:0:0:0:
488,227,285653,2,0,B|470:357|470:357|513:301,1,200,8|2,0:3|0:0,0:0:0:0:
448,28,285953,5,4,0:3:0:0:
452,46,286028,2,0,B|399:26|360:65|360:65|318:107|269:90,1,200,2|0,0:0|0:0,0:0:0:0:
181,12,286253,6,0,B|164:60|164:60|190:101,1,100,8|2,0:3|0:0,0:0:0:0:
409,131,286403,2,0,B|426:179|426:179|399:220,1,100,2|2,0:0|0:0,0:0:0:0:
240,350,286553,38,0,B|308:355|308:355|322:174,1,250,8|4,0:3|0:3,0:0:0:0:
96,15,286778,2,0,B|27:20|27:20|40:200,1,250,8|4,0:3|0:3,0:0:0:0:
235,269,287003,2,0,B|186:257|186:257|172:176|172:176|118:163,1,187.500004470348,8|0,0:3|2:0,0:0:0:0:
33,212,287153,6,0,B|-8:273|-8:273|108:261,1,187.500004470348,8|0,0:3|2:0,0:0:0:0:
326,77,287303,1,4,0:3:0:0:
325,93,287378,2,0,B|214:106|214:106|171:44|171:44|231:62,1,250,8|4,0:3|0:3,0:0:0:0:
413,24,287603,2,0,B|407:84|407:84|413:104|413:104|402:123|402:123|394:206,1,187.500004470348,8|0,0:3|2:0,0:0:0:0:
455,358,287753,6,0,B|501:326|501:326|388:286,1,175.00000166893,10|0,0:3|0:0,0:0:0:0:
322,241,287978,1,2,0:0:0:0:
322,241,288053,2,0,B|287:247|287:247|275:239,1,50,8|0,0:3|0:0,0:0:0:0:
180,311,288203,2,0,B|215:317|215:317|228:309,1,50,2|0,0:0|0:0,0:0:0:0:
63,41,288353,6,0,B|146:0|146:0|112:205,1,300,8|0,0:3|0:0,0:0:0:0:
94,300,288653,5,8,0:3:0:0:
88,289,288728,1,2,0:0:0:0:
97,283,288803,1,2,0:0:0:0:
105,292,288878,1,2,0:0:0:0:
180,311,288953,70,0,P|253:266|232:198,1,150.000005722046,8|0,0:3|0:0,0:0:0:0:
160,119,289178,1,2,0:0:0:0:
154,134,289253,2,0,P|156:158|173:177,1,50,8|0,0:3|0:0,0:0:0:0:
301,153,289403,2,0,P|311:130|305:106,1,50,2|0,0:0|0:0,0:0:0:0:
448,230,289553,6,0,P|490:120|388:173,1,300,8|0,0:3|0:0,0:0:0:0:
412,326,289853,5,8,0:3:0:0:
406,337,289928,1,2,0:0:0:0:
415,343,290003,1,2,0:0:0:0:
423,334,290078,1,2,0:0:0:0:
500,314,290153,70,0,P|394:309|302:294,1,200,8|0,0:3|0:0,0:0:0:0:
224,277,290378,1,2,0:0:0:0:
224,277,290453,2,0,P|217:253|214:229,1,50,8|0,0:3|0:0,0:0:0:0:
192,102,290603,2,0,P|199:126|202:150,1,50,2|0,0:0|0:0,0:0:0:0:
73,353,290753,6,0,P|106:221|110:56,1,300,8|0,0:3|0:0,0:0:0:0:
38,24,291053,5,8,0:3:0:0:
23,33,291128,1,2,0:0:0:0:
26,21,291203,1,2,0:0:0:0:
35,36,291278,1,2,0:0:0:0:
110,58,291353,70,0,B|215:76|187:-9|296:11,1,200,8|0,0:3|0:0,0:0:0:0:
374,39,291578,1,6,0:3:0:0:
374,39,291653,2,0,B|383:92|353:81|363:137,1,100,8|0,0:3|0:0,0:0:0:0:
445,273,291803,2,0,B|454:220|424:231|434:175,1,100,6|0,0:3|0:0,0:0:0:0:
512,0,291953,5,4,0:3:0:0:
127,329,292253,5,2,0:0:0:0:
142,333,292328,1,2,0:0:0:0:
158,330,292403,1,2,0:0:0:0:
171,319,292478,1,2,0:0:0:0:
186,240,292553,38,0,B|160:208|155:160|155:160|158:208|138:246,1,175.00000166893,8|0,0:3|0:0,0:0:0:0:
171,319,292778,2,0,B|205:350|205:350|309:344,1,150.000005722046,8|0,0:3|0:0,0:0:0:0:
414,338,293003,2,0,B|385:381|385:381|398:259,1,175.00000166893,8|0,0:3|0:0,0:0:0:0:
303,12,293228,2,0,B|401:0|401:0|414:100,1,200,8|0,0:3|0:0,0:0:0:0:
503,188,293453,2,0,B|459:182|459:182|451:186|451:186|405:179,1,100,8|0,0:3|0:0,0:0:0:0:
28,93,293603,1,4,0:3:0:0:
22,106,293678,1,4,0:3:0:0:
45,138,293753,6,0,B|132:131|132:131|145:124|145:124|242:116,1,200,8|0,0:3|0:0,0:0:0:0:
375,36,293978,2,0,B|354:-10|354:-10|321:109,1,175.00000166893,8|0,0:3|0:0,0:0:0:0:
413,352,294203,2,0,B|453:241|453:241|378:164,1,225.000008583069,8|0,0:3|0:0,0:0:0:0:
109,55,294428,2,0,B|146:108|146:108|211:107|211:107|262:133|262:133|320:109,1,250,8|0,0:3|0:0,0:0:0:0:
454,48,294653,2,0,B|481:35|481:35|450:132,1,125,8|0,0:3|0:0,0:0:0:0:
359,262,294803,5,4,0:3:0:0:
359,262,294878,1,4,0:3:0:0:
359,262,294953,2,0,P|335:261|310:256,2,50,8|0|0,0:3|0:0|0:0,0:0:0:0:
126,185,295178,2,0,P|159:184|188:178,2,62.5,8|0|0,0:3|0:0|0:0,0:0:0:0:
417,116,295403,2,0,P|377:113|343:104,1,75.0000028610231,8|0,0:3|0:0,0:0:0:0:
66,49,295553,6,0,P|72:85|74:123,2,75.0000028610231,8|0|0,0:3|0:0|0:0,0:0:0:0:
209,347,295778,2,0,P|217:300|218:259,2,87.500000834465,8|0|0,0:3|0:0|0:0,0:0:0:0:
333,6,296003,2,0,P|342:54|343:104,1,100,8|0,0:3|0:0,0:0:0:0:
494,379,296153,5,4,0:3:0:0:
499,367,296228,1,2,0:0:0:0:
502,347,296303,1,2,0:0:0:0:
498,321,296378,1,2,0:0:0:0:
485,298,296453,1,2,0:0:0:0:
460,278,296528,1,2,0:0:0:0:
421,274,296603,1,2,0:0:0:0:
382,292,296678,1,2,0:0:0:0:
330,285,296753,1,2,0:0:0:0:
292,242,296828,1,2,0:0:0:0:
359,181,296903,37,4,0:3:0:0:
361,196,296978,1,4,0:3:0:0:
369,209,297053,2,0,P|373:178|385:150,6,62.5,8|0|0|0|0|0|0,0:3|0:0|0:0|0:0|0:0|0:0|0:0,0:0:0:0:
459,90,297353,70,0,B|524:155|524:155|319:95|319:95|295:-4|295:-4|497:2|497:2|212:41|212:41|177:163|177:163|52:219|52:219|-12:340|-12:340|284:205|284:205|155:29|155:29|36:11|36:11|-15:156|-15:156|109:104,1,2250.00008583069,4|0,1:0|0:0,0:0:0:0:
109,104,302153,6,0,P|139:139|145:190,1,75.0000028610231
240,126,302453,2,0,P|204:60|140:23,1,150.000005722046
356,224,303053,2,0,L|346:150,1,75.0000028610231
459,191,303353,86,0,P|452:228|433:259,1,75.0000028610231
244,357,303653,2,0,P|280:369|316:365,1,75.0000028610231
497,320,303953,6,0,P|464:339|427:345,1,75.0000028610231
254,223,304253,2,0,P|268:257|294:283,1,75.0000028610231
356,224,304553,85,0,0:0:0:0:
37,370,304853,2,0,L|0:225,1,150.000005722046
0,225,305453,2,0,P|17:184|62:152,1,75.0000028610231
218,183,305753,6,0,P|180:206|124:205,1,75.0000028610231,0|0,0:0|0:0,0:0:0:0:
18,88,306053,2,0,P|62:91|106:124,1,75.0000028610231,0|0,0:0|0:0,0:0:0:0:
125,283,306353,86,0,P|91:254|74:201,1,75.0000028610231,0|0,0:0|0:0,0:0:0:0:
153,62,306653,2,0,P|163:105|145:157,1,75.0000028610231,0|0,0:0|0:0,0:0:0:0:
37,371,306953,6,0,P|103:319|244:328,1,225.000008583069,0|0,0:0|0:0,0:0:0:0:
303,369,307553,2,0,B|368:310|417:200|334:98|218:145|232:240|284:258,1,375.000014305115,0|0,0:0|0:0,0:0:0:0:
492,368,308453,85,0,0:0:0:0:
431,318,308603,2,0,P|444:213|525:96,1,225.000008583069,0|0,0:0|0:0,0:0:0:0:
341,17,309353,6,0,P|331:76|413:84,1,150.000005722046,0|0,0:0|0:0,0:0:0:0:
506,113,309803,1,0,0:0:0:0:
506,113,309878,1,0,0:0:0:0:
506,113,309953,2,0,P|421:122|318:237,1,225.000008583069
325,216,310553,86,0,P|363:255|371:297,1,75.0000028610231
195,199,310853,2,0,P|187:145|205:106,1,75.0000028610231,0|0,0:0|0:0,0:0:0:0:
289,289,311153,6,0,P|263:336|226:357,1,75.0000028610231
267,161,311453,2,0,P|315:137|358:142,1,75.0000028610231,0|0,0:0|0:0,0:0:0:0:
209,279,311753,86,0,P|156:268|124:240,1,75.0000028610231
88,105,312053,1,0,0:0:0:0:
28,154,312203,1,0,0:0:0:0:
28,154,312278,1,0,0:0:0:0:
28,154,312353,2,0,P|16:208|69:315,1,150.000005722046
139,256,312803,1,0,0:0:0:0:
139,256,312953,6,0,P|144:309|123:359,1,75.0000028610231
252,225,313253,2,0,P|282:268|289:322,1,75.0000028610231
256,192,313478,12,4,314153,1:0:0:0:
131,89,314453,86,0,L|127:65,1,25
127,64,314753,1,0,0:0:0:0:
127,64,315053,1,0,0:0:0:0:
46,47,315203,1,0,0:0:0:0:
208,81,315353,6,0,L|234:77,1,25,0|0,0:0|0:0,0:0:0:0:
410,50,315653,1,0,0:0:0:0:
370,128,315803,1,0,0:0:0:0:
311,64,315953,86,0,L|314:39,1,25,0|0,0:0|0:0,0:0:0:0:
329,36,316253,2,0,L|326:61,1,25,0|0,0:0|0:0,0:0:0:0:
448,207,316553,5,0,0:0:0:0:
448,207,316703,1,0,0:0:0:0:
390,153,316853,2,0,L|366:157,1,25,0|0,0:0|0:0,0:0:0:0:
292,168,317153,2,0,L|268:172,2,25,0|0|0,0:0|0:0|0:0,0:0:0:0:
212,119,317603,1,0,0:0:0:0:
72,269,317753,86,0,L|74:245,1,25,0|0,0:0|0:0,0:0:0:0:
54,168,318053,1,0,0:0:0:0:
54,168,318203,2,0,L|78:166,1,25,0|0,0:0|0:0,0:0:0:0:
219,267,318503,5,0,0:0:0:0:
200,195,318653,1,0,0:0:0:0:
147,249,318803,1,0,0:0:0:0:
273,212,318953,86,0,L|297:215,1,25,0|0,0:0|0:0,0:0:0:0:
250,100,319253,2,0,L|277:86,1,25,0|0,0:0|0:0,0:0:0:0:
161,25,319553,2,0,L|168:-1,1,25,0|0,0:0|0:0,0:0:0:0:
346,55,319853,1,0,0:0:0:0:
346,55,320003,1,0,0:0:0:0:
426,67,320153,6,0,L|453:71,1,25,0|0,0:0|0:0,0:0:0:0:
361,158,320453,1,0,0:0:0:0:
361,158,320603,2,0,L|356:131,1,25,0|0,0:0|0:0,0:0:0:0:
267,44,320903,1,0,0:0:0:0:
267,44,321053,2,0,L|242:40,1,25,0|0,0:0|0:0,0:0:0:0:
346,55,321353,85,0,0:0:0:0:
375,240,321653,1,0,0:0:0:0:
460,30,321953,6,0,L|457:54,1,25,0|0,0:0|0:0,0:0:0:0:
448,131,322253,2,0,L|445:155,1,25,0|0,0:0|0:0,0:0:0:0:
429,345,322553,1,0,0:0:0:0:
413,270,322853,85,0,0:0:0:0:
485,261,323003,2,0,L|510:257,1,25,0|0,0:0|0:0,0:0:0:0:
360,207,323303,1,0,0:0:0:0:
384,136,323453,2,0,L|393:111,1,25,0|0,0:0|0:0,0:0:0:0:
338,280,323753,6,0,B|340:333|379:360|379:360|232:322|116:315|116:315|167:289|226:314|235:363|235:363|279:306|264:218|191:186|191:186|82:207|14:121|42:22|42:22|107:-13|182:26|191:106|191:106|105:66|-17:125|-13:269|-13:269|77:249,1,1600,0|0,0:0|0:0,0:0:0:0:
