osu file format v14

[General]
AudioFilename: audio.mp3
AudioLeadIn: 0
PreviewTime: 142527
Countdown: 0
SampleSet: Soft
StackLeniency: 0.7
Mode: 0
LetterboxInBreaks: 0
WidescreenStoryboard: 0

[Editor]
Bookmarks: 105327,124527,182127
DistanceSpacing: 0.8
BeatDivisor: 4
GridSize: 4
TimelineZoom: 1.9

[Metadata]
Title:Reality Distortion
TitleUnicode:Reality Distortion
Artist:Camellia vs Akira Complex
ArtistUnicode:かめりあ vs Akira Complex
Creator:Arbane
Version:Deformed
Source:
Tags:
BeatmapID:1232225
BeatmapSetID:582256

[Difficulty]
HPDrainRate:6
CircleSize:4
OverallDifficulty:9
ApproachRate:9.6
SliderMultiplier:2
SliderTickRate:1

[Events]
//Background and Video events
0,0,"Konachan.com - 231309 sample (1).jpg",0,0
//Break Periods
2,23327,28018
2,76727,80818
2,124727,128818
//Storyboard Layer 0 (Background)
//Storyboard Layer 1 (Fail)
//Storyboard Layer 2 (Pass)
//Storyboard Layer 3 (Foreground)
//Storyboard Sound Samples

[TimingPoints]
18927,600,4,2,1,20,1,0
18927,-200,4,2,1,20,0,0
23127,-200,4,2,1,5,0,0
28527,-200,4,2,1,20,0,0
32727,-200,4,2,1,5,0,0
35127,-200,4,2,1,10,0,0
35727,-200,4,2,1,15,0,0
36327,-200,4,2,1,20,0,0
36927,-200,4,2,1,25,0,0
37227,-200,4,2,1,5,0,0
37527,-200,4,2,1,40,0,0
38127,300,4,2,1,65,1,0
38127,-200,4,2,2,65,0,0
38202,-200,4,2,1,40,0,0
57327,-200,4,2,1,65,0,0
57402,-200,4,2,1,45,0,0
76077,-100,4,2,1,55,0,0
76527,-100,4,2,1,65,0,0
81327,-200,4,2,1,10,0,0
81627,-181.818181818182,4,2,1,15,0,0
81927,-153.846153846154,4,2,1,20,0,0
82227,-133.333333333333,4,2,1,25,0,0
82527,-133.333333333333,4,2,1,30,0,0
82827,-133.333333333333,4,2,1,35,0,0
83727,-133.333333333333,4,2,1,30,0,0
84027,-153.846153846153,4,2,1,25,0,0
84327,-181.818181818182,4,2,1,20,0,0
84627,-200,4,2,1,15,0,0
84927,-200,4,2,1,10,0,0
86427,-181.818181818182,4,2,1,15,0,0
86727,-153.846153846154,4,2,1,20,0,0
87027,-133.333333333334,4,2,1,25,0,0
87327,-133.333333333333,4,2,1,30,0,0
87927,-133.333333333333,4,2,1,35,0,0
88527,-133.333333333333,4,2,1,40,0,0
88827,-117.647058823529,4,2,1,40,0,0
89127,-117.64705882353,4,2,1,45,0,0
89727,-117.647058823529,4,2,1,50,0,0
90327,-117.647058823529,4,2,1,55,0,0
90927,-117.647058823529,4,2,1,60,0,0
95427,-83.3333333333333,4,2,2,60,0,0
95727,-100,4,2,1,60,0,0
104127,-200,4,2,1,60,0,0
105327,-74.0740740740741,4,2,2,60,0,0
105627,-100,4,2,2,60,0,0
105927,-100,4,2,1,60,0,0
107277,-74.0740740740741,4,2,2,60,0,0
107727,-100,4,2,2,60,0,0
108327,-100,4,2,1,60,0,0
109527,-100,4,2,2,60,0,0
110127,-74.0740740740741,4,2,2,60,0,0
110427,-100,4,2,2,60,0,0
111927,-133.333333333333,4,2,2,60,0,0
112077,-74.0740740740741,4,2,2,60,0,0
112527,-100,4,2,2,60,0,0
112827,-66.6666666666667,4,2,2,60,0,0
113127,-100,4,2,2,60,0,0
114927,-74.0740740740741,4,2,2,60,0,0
115227,-100,4,2,2,60,0,0
115527,-100,4,2,1,60,0,0
116877,-74.0740740740741,4,2,2,60,0,0
117327,-100,4,2,2,60,0,0
117927,-100,4,2,1,60,0,0
119127,-100,4,2,2,60,0,0
119727,-200,4,2,2,60,0,0
120327,-100,4,2,2,60,0,0
121527,-133.333333333333,4,2,2,60,0,0
121677,-74.0740740740741,4,2,2,60,0,0
123927,-100,4,2,2,60,0,0
124527,-100,4,2,2,60,0,0
129327,-90.9090909090909,4,2,1,60,0,0
130227,-133.333333333333,4,2,1,45,0,0
132027,-100,4,2,1,45,0,0
132277,-133.333333333333,4,2,1,45,0,0
132627,-200,4,2,1,45,0,0
133227,-200,4,2,1,50,0,0
133527,-200,4,2,1,55,0,0
134127,-74.0740740740741,4,2,1,60,0,0
134427,-100,4,2,1,60,0,0
135327,-74.0740740740741,4,2,1,60,0,0
135627,-100,4,2,1,60,0,0
136527,-74.0740740740741,4,2,1,60,0,0
136827,-100,4,2,1,60,0,0
137727,-74.0740740740741,4,2,1,60,0,0
138027,-100,4,2,1,60,0,0
142527,-200,4,2,1,60,0,0
143427,-133.333333333333,4,2,2,60,0,0
143727,-68.9655172413793,4,2,2,60,0,0
144027,-86.9565217391304,4,2,2,60,0,0
144327,-100,4,2,1,60,0,0
145827,-80,4,2,3,60,0,0
146127,-133.333333333333,4,2,2,60,0,0
146427,-90.9090909090909,4,2,3,60,0,0
146727,-100,4,2,1,60,0,0
147927,-74.0740740740741,4,2,3,60,0,0
148077,-74.0740740740741,4,2,2,60,0,0
148227,-74.0740740740741,4,2,2,60,0,0
148527,-68.9655172413793,4,2,2,60,0,0
148827,-90.9090909090909,4,2,2,60,0,0
150627,-74.0740740740741,4,2,2,60,0,0
150927,-86.9565217391304,4,2,2,60,0,0
151227,-60.6060606060606,4,2,3,60,0,0
151527,-133.333333333333,4,2,2,60,0,0
153327,-68.9655172413793,4,2,2,60,0,0
153627,-86.9565217391304,4,2,2,60,0,0
153927,-100,4,2,1,60,0,0
155427,-80,4,2,3,60,0,0
155727,-133.333333333333,4,2,3,60,0,0
156027,-90.9090909090909,4,2,3,60,0,0
156327,-100,4,2,2,60,0,0
156627,-133.333333333333,4,2,2,60,0,0
158127,-68.9655172413792,4,2,2,60,0,0
158427,-86.9565217391304,4,2,2,60,0,0
161727,-133.333333333333,4,2,2,60,0,0
162627,-86.9565217391303,4,2,2,60,0,0
162927,-68.9655172413793,4,2,2,60,0,0
163227,-86.9565217391304,4,2,2,60,0,0
163527,-133.333333333333,4,2,1,60,0,0
164727,-100,4,2,1,60,0,0
165027,-74.0740740740741,4,2,3,60,0,0
165477,-90.9090909090909,4,2,2,60,0,0
165927,-133.333333333333,4,2,1,60,0,0
166977,-133.333333333333,4,2,1,60,0,0
167277,-64.5161290322581,4,2,2,60,0,0
167427,-64.5161290322581,4,2,4,60,0,0
167727,-68.9655172413793,4,2,2,60,0,0
168027,-86.9565217391304,4,2,2,60,0,0
168327,-133.333333333333,4,2,1,60,0,0
169527,-100,4,2,1,60,0,0
169827,-74.0740740740741,4,2,2,60,0,0
170277,-90.9090909090909,4,2,2,60,0,0
170727,-133.333333333333,4,2,1,60,0,0
172527,-100,4,2,1,60,0,0
172827,-68.9655172413793,4,2,2,60,0,0
173127,-133.333333333333,4,2,1,60,0,0
174327,-100,4,2,1,60,0,0
174627,-74.0740740740741,4,2,3,60,0,0
175077,-90.9090909090909,4,2,3,60,0,0
175527,-133.333333333333,4,2,1,60,0,0
176877,-64.5161290322581,4,2,4,60,0,0
177327,-68.9655172413793,4,2,2,60,0,0
177552,-86.9565217391304,4,2,2,60,0,0
177777,-105.263157894737,4,2,2,60,0,0
178527,-68.9655172413793,4,2,2,60,0,0
178752,-86.9565217391304,4,2,2,60,0,0
178977,-105.263157894737,4,2,2,60,0,0
179727,-68.9655172413794,4,2,2,60,0,0
179952,-86.9565217391304,4,2,2,60,0,0
180177,-105.263157894737,4,2,2,60,0,0

[Colours]
Combo1 : 255,196,197
Combo2 : 150,220,254
Combo3 : 255,219,202
Combo4 : 252,254,188

[HitObjects]
110,146,18927,6,0,B|171:113|202:175|264:131|264:131|244:210|309:255|309:255|373:208|350:129|350:129|388:136|428:115|428:115|445:187|424:263|382:296,1,700,4|0,1:0|0:0,0:0:0:0:
223,253,28527,6,0,B|243:221|217:162|217:162|247:172|293:154|293:154|386:109|293:17|209:104|293:154|293:154|330:195|317:263|303:290|303:290|341:303|356:343|356:343|386:308|390:253,1,700,4|0,1:0|0:0,0:0:0:0:
256,192,34527,12,0,37227,0:0:0:0:
186,117,37527,5,0,1:0:0:0:
147,162,37677,1,0,1:0:0:0:
245,126,37827,1,0,1:0:0:0:
165,60,37977,1,0,1:0:0:0:
231,244,38127,6,0,L|341:233,1,100,4|0,1:0|0:0,0:0:0:0:
176,176,38727,2,0,L|118:171,3,50
296,237,39327,6,0,L|285:127,1,100
228,292,39927,2,0,L|223:350,3,50
289,172,40527,6,0,L|179:183,1,100
344,240,41127,2,0,L|402:245,3,50
224,179,41727,6,0,L|235:289,1,100
292,124,42327,2,0,L|297:66,3,50
231,244,42927,6,0,L|286:238,1,50
359,278,43227,2,0,L|414:272,1,50
221,322,43527,2,0,P|190:312|166:287,3,50
359,278,44127,6,0,L|353:223,1,50
393,150,44427,2,0,L|387:95,1,50
437,288,44727,2,0,P|427:318|402:342,3,50
393,150,45327,6,0,L|338:155,1,50
265,116,45627,2,0,L|210:121,1,50
403,72,45927,2,0,P|433:81|457:106,3,50
265,116,46527,6,0,L|270:171,1,50
231,244,46827,2,0,L|236:299,1,50
187,106,47127,2,0,P|196:75|221:51,3,50
231,244,47727,6,0,P|274:264|338:254,1,100
394,172,48327,1,0,0:0:0:0:
394,172,48477,2,0,L|389:106,2,50
383,355,48927,6,0,P|403:312|393:248,1,100
311,192,49527,1,0,0:0:0:0:
311,192,49677,2,0,L|245:197,2,50
494,203,50127,6,0,P|451:183|387:193,1,100
331,275,50727,1,0,0:0:0:0:
331,275,50877,2,0,L|336:341,2,50
342,92,51327,6,0,P|322:135|332:199,1,100
414,255,51927,1,0,0:0:0:0:
414,255,52077,2,0,L|480:250,2,50
215,338,52527,6,0,P|247:355|279:356,1,50
255,225,52827,2,0,P|259:260|276:287,1,50
346,175,53127,1,0,0:0:0:0:
350,160,53277,1,0,0:0:0:0:
336,155,53427,1,0,0:0:0:0:
331,169,53577,1,0,0:0:0:0:
351,306,53727,6,0,P|368:274|369:242,1,50
238,266,54027,2,0,P|273:261|300:244,1,50
188,175,54327,1,0,0:0:0:0:
173,171,54477,1,0,0:0:0:0:
168,185,54627,1,0,0:0:0:0:
182,190,54777,1,0,0:0:0:0:
319,170,54927,6,0,P|287:153|255:152,1,50
279,283,55227,2,0,P|274:247|257:220,1,50
188,333,55527,1,0,0:0:0:0:
184,348,55677,1,0,0:0:0:0:
198,353,55827,1,0,0:0:0:0:
203,339,55977,1,0,0:0:0:0:
183,202,56127,6,0,P|166:234|165:266,1,50
296,242,56427,2,0,P|260:246|233:263,1,50
346,333,56727,1,0,0:0:0:0:
361,337,56877,1,0,0:0:0:0:
366,323,57027,1,0,0:0:0:0:
352,318,57177,1,0,0:0:0:0:
143,336,57327,6,0,B|208:381|279:357|279:357|197:308|211:223|211:223|241:211|272:219|272:219|219:163|238:92,1,500,4|0,1:0|0:0,0:0:0:0:
403,124,58977,2,0,P|370:170|355:78,1,200
469,184,59727,6,0,B|430:256|347:252|347:252|301:296|301:296|272:205|184:180|98:211|73:295,1,500
224,343,61377,2,0,P|194:283|148:338,1,150
374,372,62127,6,0,B|328:285|423:251|371:160|371:160|316:164|271:140|271:140|171:77|282:-10|378:94|271:140|271:140|228:165|213:200|213:200|130:127|155:53|175:26|175:26|120:10|80:54|80:54|58:138|104:222|173:271,1,1200,0|2,0:0|0:3,0:0:0:0:
171,287,66777,6,0,L|203:279,1,25
215,283,66927,2,0,B|67:270|67:270|174:248|165:146|165:146|62:106|9:219,1,500
93,289,68577,2,0,B|240:302|240:302|216:248,1,200
113,90,69327,6,0,B|119:147|194:163|232:125|232:125|266:179|266:179|314:86|432:112|432:112|463:157|441:217,1,500
278,52,70977,2,0,P|330:33|434:34,1,150
419,288,71727,6,0,B|244:362|262:189|81:275,1,350
156,178,72852,1,0,0:0:0:0:
156,178,72927,2,0,P|174:140|151:72,1,100
253,162,73377,6,0,L|353:170,1,100
512,108,73827,2,0,L|437:102,1,75
417,100,74127,6,0,B|458:139|463:221|395:259|395:259|410:283|444:294|444:294|422:356|359:369|359:369|301:299|231:324|231:324|171:346|118:307,1,625
62,244,76077,5,2,0:0:0:0:
74,164,76152,1,2,0:0:0:0:
125,116,76227,1,2,0:0:0:0:
184,117,76302,1,2,0:0:0:0:
219,152,76377,1,2,0:0:0:0:
219,191,76452,1,2,0:0:0:0:
195,209,76527,5,4,1:0:0:0:
103,161,81327,6,0,L|97:105,1,50
193,131,81627,2,0,L|187:75,1,55.0000016784668
242,254,81927,6,0,L|234:322,1,64.9999970245363
332,284,82227,2,0,L|323:359,1,75.0000028610231
381,161,82527,5,0,1:0:0:0:
324,91,82677,1,0,0:0:0:0:
293,175,82827,1,0,0:0:0:0:
381,161,82977,1,0,0:0:0:0:
234,103,83127,5,0,1:0:0:0:
259,258,83277,1,0,0:0:0:0:
205,70,83427,1,0,0:0:0:0:
162,221,83577,1,0,0:0:0:0:
315,183,83727,6,0,L|396:187,1,75.0000028610231,0|0,1:0|0:0,0:0:0:0:
347,276,84027,2,0,L|428:280,1,64.9999970245363
248,251,84327,6,0,L|167:255,1,55.0000016784668,0|0,1:0|0:0,0:0:0:0:
216,344,84627,2,0,L|153:347,1,50
60,306,84927,6,0,P|52:274|56:247,3,50,0|0|0|0,1:0|0:0|0:0|0:0,0:0:0:0:
112,189,85527,2,0,P|112:164|105:140,3,50,0|0|0|0,1:0|0:0|0:0|0:0,0:0:0:0:
56,64,86127,6,0,L|119:56,1,50,0|0,1:0|0:0,0:0:0:0:
182,143,86427,2,0,L|245:135,1,55.0000016784668
480,208,86727,6,0,L|410:199,1,64.9999970245363,0|0,1:0|0:0,0:0:0:0:
354,287,87027,2,0,L|275:277,1,75.0000028610231
73,323,87327,5,0,1:0:0:0:
56,234,87477,1,0,0:0:0:0:
161,308,87627,1,0,0:0:0:0:
144,219,87777,1,0,0:0:0:0:
340,315,87927,5,0,1:0:0:0:
360,208,88077,1,0,0:0:0:0:
446,333,88227,1,0,0:0:0:0:
466,226,88377,1,0,0:0:0:0:
161,308,88527,6,0,L|73:301,1,75.0000028610231,0|0,1:0|0:0,0:0:0:0:
381,219,88827,2,0,L|465:225,1,85.0000016212464
248,290,89127,5,0,1:0:0:0:
218,173,89277,1,0,0:0:0:0:
219,367,89427,1,0,0:0:0:0:
246,95,89577,1,0,0:0:0:0:
328,360,89727,6,0,B|368:371|368:371|432:353,1,85.0000016212464,0|0,1:0|0:0,0:0:0:0:
105,224,90027,2,0,B|64:212|64:212|0:230,1,85.0000016212464
366,278,90327,2,0,B|406:266|406:266|451:218,3,85.0000016212464,0|0|0|0,1:0|0:0|0:0|0:0,0:0:0:0:
359,196,90927,6,0,P|351:146|353:92,1,85.0000016212464,0|0,1:0|0:0,0:0:0:0:
160,137,91227,2,0,P|159:179|151:221,1,85.0000016212464
404,304,91527,2,0,P|417:255|442:207,1,85.0000016212464,0|0,1:0|0:0,0:0:0:0:
84,256,91827,2,0,P|101:294|112:335,1,85.0000016212464
325,155,92127,5,0,1:0:0:0:
206,143,92277,1,0,0:0:0:0:
193,262,92427,1,0,0:0:0:0:
311,274,92577,1,0,0:0:0:0:
344,139,92727,5,0,1:0:0:0:
326,293,92877,1,0,0:0:0:0:
190,123,93027,1,0,0:0:0:0:
173,277,93177,1,0,0:0:0:0:
273,86,93327,6,0,L|264:-3,1,85.0000016212464,0|0,1:0|0:0,0:0:0:0:
250,280,93627,2,0,L|258:364,1,85.0000016212464
364,84,93927,2,0,L|355:-5,1,85.0000016212464,0|0,1:0|0:0,0:0:0:0:
341,278,94227,2,0,L|349:362,1,85.0000016212464
491,202,94527,6,0,B|463:199|441:173|441:173|405:196|405:196|359:165|359:165|337:187|303:188,1,212.500004053116,0|0,1:0|0:0,0:0:0:0:
234,170,94977,5,2,0:0:0:0:
232,204,95052,1,2,0:0:0:0:
224,162,95127,1,2,1:2:0:0:
222,196,95202,1,2,0:0:0:0:
214,154,95277,6,0,L|213:97,1,42.5000008106232,0|0,1:0|1:0,0:0:0:0:
29,257,95427,2,0,B|33:377|33:377|93:323,1,179.999994506836,8|0,1:3|0:0,0:0:0:0:
145,275,95727,6,0,L|154:381,1,100,4|0,1:2|0:0,0:0:0:0:
367,275,96027,2,0,L|358:381,1,100,8|0,1:0|0:0,0:0:0:0:
99,213,96327,2,0,L|80:317,1,100,0|0,1:0|0:0,0:0:0:0:
413,213,96627,2,0,L|431:317,1,100,8|0,1:0|0:0,0:0:0:0:
60,116,96927,6,0,P|43:70|61:14,1,100,0|0,1:0|0:0,0:0:0:0:
194,291,97227,2,0,P|211:337|193:393,1,100,8|0,1:0|0:0,0:0:0:0:
318,115,97527,2,0,P|301:69|319:13,1,100,0|0,1:0|0:0,0:0:0:0:
452,290,97827,2,0,P|469:336|451:392,1,100,8|0,1:0|0:0,0:0:0:0:
122,341,98127,6,0,B|72:354|72:354|-1:331,1,100,0|0,1:0|0:0,0:0:0:0:
155,35,98427,2,0,B|205:22|205:22|251:36,1,100,8|0,1:0|0:0,0:0:0:0:
383,342,98727,2,0,B|333:355|333:355|260:332,1,100,0|0,1:0|0:0,0:0:0:0:
416,36,99027,2,0,B|466:23|466:23|512:37,1,100,8|0,1:0|0:0,0:0:0:0:
73,99,99327,6,0,L|66:-11,1,100,0|0,1:0|0:0,0:0:0:0:
439,99,99627,2,0,L|446:-11,1,100,8|0,1:0|0:0,0:0:0:0:
48,149,99927,2,0,L|41:39,1,100,0|0,1:0|0:0,0:0:0:0:
464,149,100227,2,0,L|471:39,1,100,8|0,1:0|1:0,1:0:0:0:
212,257,100527,5,8,1:0:0:0:
302,257,100677,1,0,1:0:0:0:
256,179,100827,1,8,1:0:0:0:
256,350,100977,1,0,1:0:0:0:
370,155,101127,1,8,1:0:0:0:
146,155,101277,1,0,1:0:0:0:
401,312,101427,1,8,1:0:0:0:
409,12,101577,1,0,1:0:0:0:
146,155,101727,5,8,1:0:0:0:
398,217,101877,1,0,1:0:0:0:
122,152,102027,5,8,1:0:0:0:
355,147,102177,1,0,1:0:0:0:
96,148,102327,5,8,1:0:0:0:
295,90,102477,1,0,1:0:0:0:
69,142,102627,5,8,1:0:0:0:
224,48,102777,1,0,1:0:0:0:
111,242,102927,5,0,1:0:0:0:
105,281,103002,1,0,0:0:0:0:
118,318,103077,1,0,0:0:0:0:
150,341,103152,1,0,0:0:0:0:
189,347,103227,1,0,0:0:0:0:
226,332,103302,1,0,0:0:0:0:
245,296,103377,1,0,0:0:0:0:
245,256,103452,1,0,0:0:0:0:
225,220,103527,5,0,0:0:0:0:
218,170,103602,1,0,0:0:0:0:
235,123,103677,1,0,0:0:0:0:
277,96,103752,1,0,0:0:0:0:
326,93,103827,1,0,0:0:0:0:
370,115,103902,1,0,0:0:0:0:
398,156,103977,1,0,0:0:0:0:
396,205,104052,1,0,0:0:0:0:
367,246,104127,6,0,B|322:210|322:210|276:248|276:248|201:219|201:219|137:240,1,250,4|0,1:3|0:0,0:0:0:0:
18,173,105027,5,0,0:0:0:0:
11,168,105102,1,0,0:0:0:0:
12,161,105177,1,0,0:0:0:0:
21,160,105252,1,0,0:0:0:0:
23,167,105327,6,0,B|160:154|160:154|141:244,1,202.500000772476,4|0,1:0|0:0,0:0:0:0:
55,270,105627,6,0,B|95:270|95:270|111:290|111:290|199:290,1,150,8|0,0:3|0:0,0:0:0:0:
295,286,105927,5,8,1:0:0:0:
342,270,106002,1,2,0:0:0:0:
342,220,106077,1,2,0:0:0:0:
295,205,106152,1,2,0:0:0:0:
265,245,106227,1,2,0:0:0:0:
426,360,106377,5,2,0:0:0:0:
455,358,106452,1,2,0:0:0:0:
177,321,106602,5,2,0:0:0:0:
148,323,106677,1,2,0:0:0:0:
420,243,106827,5,2,0:0:0:0:
434,205,106902,1,2,0:0:0:0:
414,170,106977,1,2,0:0:0:0:
394,134,107052,1,2,0:0:0:0:
406,96,107127,1,8,1:0:0:0:
467,313,107277,6,0,P|432:326|383:318,1,67.5000002574921
300,204,107427,2,0,L|294:136,1,67.5000002574921
221,338,107577,2,0,P|189:350|156:349,1,67.5000002574921
45,245,107727,6,0,B|43:189|43:189|61:152|61:152|58:64|58:64|-3:38|-3:38|-2:91|-2:91|44:108,1,350,4|0,1:3|0:0,0:0:0:0:
155,113,108327,5,8,1:0:0:0:
183,84,108402,1,2,0:0:0:0:
143,90,108477,1,2,0:0:0:0:
179,109,108552,1,2,0:0:0:0:
161,73,108627,1,2,0:0:0:0:
154,253,108777,5,2,0:0:0:0:
158,282,108852,1,2,0:0:0:0:
293,138,109002,5,2,0:0:0:0:
297,109,109077,1,2,0:0:0:0:
367,332,109227,5,2,0:0:0:0:
399,355,109302,1,2,0:0:0:0:
419,320,109377,1,2,0:0:0:0:
443,351,109452,1,2,0:0:0:0:
470,323,109527,6,0,B|508:268|508:268|469:196|469:196|499:90|499:90|456:62|456:62|458:125,1,350,8|0,1:2|0:0,0:0:0:0:
369,161,110127,6,0,B|293:154|293:154|251:174|251:174|171:167,1,202.500000772476,4|0,1:0|0:0,0:0:0:0:
89,137,110427,6,0,B|141:119|141:119|132:237,1,150,8|0,0:3|0:0,0:0:0:0:
98,312,110727,5,8,1:0:0:0:
127,315,110802,1,0,1:0:0:0:
156,318,110877,1,0,1:0:0:0:
185,321,110952,1,0,1:0:0:0:
214,325,111027,1,2,1:0:0:0:
416,180,111177,5,0,1:0:0:0:
387,183,111252,1,0,1:0:0:0:
358,186,111327,1,0,1:0:0:0:
329,189,111402,1,0,1:0:0:0:
300,193,111477,1,2,1:0:0:0:
94,156,111627,5,0,1:0:0:0:
67,140,111702,1,0,1:0:0:0:
49,115,111777,1,0,1:0:0:0:
47,85,111852,1,0,1:0:0:0:
58,57,111927,6,0,L|115:50,1,37.5000014305115,8|0,1:0|0:0,0:0:0:0:
250,58,112077,6,0,P|268:87|268:144,1,67.5000002574921,2|0,0:3|0:0,0:0:0:0:
328,210,112227,2,0,P|314:241|267:274,1,67.5000002574921,2|0,0:3|0:0,0:0:0:0:
248,361,112377,2,0,P|214:367|161:348,1,67.5000002574921,2|0,0:3|0:0,0:0:0:0:
78,383,112527,6,0,P|52:327|121:341,1,150,4|0,1:3|0:0,0:0:0:0:
84,346,112827,2,0,B|34:231|132:252|84:129,1,225.000008583069,8|0,0:3|0:0,0:0:0:0:
55,38,113127,5,8,1:0:0:0:
84,33,113202,1,0,1:0:0:0:
114,38,113277,1,0,1:0:0:0:
140,52,113352,1,0,1:0:0:0:
162,73,113427,1,2,1:0:0:0:
143,311,113577,5,0,1:0:0:0:
126,287,113652,1,0,1:0:0:0:
115,259,113727,1,0,1:0:0:0:
113,229,113802,1,0,1:0:0:0:
120,201,113877,1,2,1:0:0:0:
336,98,114027,5,0,1:0:0:0:
324,125,114102,1,0,1:0:0:0:
305,148,114177,1,0,1:0:0:0:
280,165,114252,1,0,1:0:0:0:
252,173,114327,6,0,B|176:163|118:93|134:12|134:12|142:97|227:132,1,350,8|0,1:2|0:0,0:0:0:0:
346,123,114927,6,0,B|486:115|486:115|456:185,1,202.500000772476,4|0,1:0|0:0,0:0:0:0:
423,260,115227,6,0,B|381:256|381:256|348:265|348:265|317:250|317:250|261:245,1,150,8|0,0:3|0:0,0:0:0:0:
170,213,115527,5,8,1:0:0:0:
139,173,115602,1,2,0:0:0:0:
168,132,115677,1,2,0:0:0:0:
216,146,115752,1,2,0:0:0:0:
217,196,115827,1,2,0:0:0:0:
30,284,115977,5,2,0:0:0:0:
0,276,116052,1,2,0:0:0:0:
276,264,116202,5,2,0:0:0:0:
306,272,116277,1,2,0:0:0:0:
94,215,116427,5,2,0:0:0:0:
67,185,116502,1,2,0:0:0:0:
61,145,116577,1,2,0:0:0:0:
73,106,116652,1,2,0:0:0:0:
104,81,116727,1,8,1:0:0:0:
276,264,116877,6,0,P|274:303|281:356,1,67.5000002574921
66,252,117027,2,0,P|68:218|66:184,1,67.5000002574921
323,122,117177,2,0,P|321:161|328:214,1,67.5000002574921
10,128,117327,6,0,B|55:102|55:102|128:121|128:121|206:90|206:90|200:37|200:37|144:53|144:53|172:84,1,350,4|0,1:3|0:0,0:0:0:0:
283,99,117927,5,8,1:0:0:0:
330,83,118002,1,2,0:0:0:0:
330,33,118077,1,2,0:0:0:0:
283,18,118152,1,2,0:0:0:0:
253,58,118227,1,2,0:0:0:0:
424,203,118377,5,2,0:0:0:0:
463,195,118452,1,2,0:0:0:0:
201,127,118602,5,2,0:0:0:0:
162,135,118677,1,2,0:0:0:0:
373,318,118827,6,0,P|367:286|369:254,1,50,2|2,0:0|0:0,0:0:0:0:
351,241,118977,2,0,P|350:265|345:290,1,50,2|2,0:0|0:0,0:0:0:0:
299,355,119127,6,0,B|235:363|235:363|205:320|205:320|142:353|142:353|62:327|62:327|87:279|87:279|103:314,1,350,8|0,1:2|0:0,0:0:0:0:
20,242,119727,6,0,B|10:199|10:199|42:144|42:144|49:217,1,175,0|0,1:0|0:0,0:0:0:0:
127,165,120327,5,12,1:0:0:0:
146,129,120402,1,0,1:0:0:0:
182,113,120477,1,0,1:0:0:0:
222,113,120552,1,0,1:0:0:0:
256,132,120627,1,2,1:1:0:0:
350,307,120777,5,0,1:0:0:0:
316,326,120852,1,0,1:0:0:0:
276,326,120927,1,0,1:0:0:0:
240,310,121002,1,0,1:0:0:0:
221,274,121077,1,2,1:0:0:0:
407,74,121227,5,0,1:0:0:0:
412,113,121302,1,0,1:0:0:0:
417,152,121377,1,0,1:0:0:0:
422,191,121452,1,0,1:0:0:0:
427,230,121527,6,0,L|423:278,1,37.5000014305115,8|0,1:0|0:0,0:0:0:0:
235,376,121677,6,0,P|198:369|153:326,1,67.5000002574921,2|0,0:3|0:0,0:0:0:0:
242,157,121827,2,0,P|253:188|253:221,1,67.5000002574921,2|0,0:3|0:0,0:0:0:0:
41,245,121977,2,0,P|62:218|91:202,1,67.5000002574921,2|0,0:3|0:0,0:0:0:0:
333,191,122127,6,0,B|461:217|461:217|413:294,1,202.500000772476,8|0,1:3|0:0,0:0:0:0:
360,331,122427,6,0,P|324:330|267:296,1,67.5000002574921,8|0,1:0|0:0,0:0:0:0:
93,329,122577,2,0,P|129:328|186:294,1,67.5000002574921,2|0,0:3|0:0,0:0:0:0:
334,289,122727,2,0,P|301:272|264:217,1,67.5000002574921,0|0,1:0|0:0,0:0:0:0:
120,291,122877,2,0,P|152:274|189:219,1,67.5000002574921,2|0,0:3|0:0,0:0:0:0:
328,243,123027,2,0,P|305:214|295:149,1,67.5000002574921,8|0,1:0|0:0,0:0:0:0:
125,244,123177,2,0,P|147:215|157:150,1,67.5000002574921,2|0,0:3|0:0,0:0:0:0:
353,175,123327,2,0,P|344:139|362:76,1,67.5000002574921,0|0,1:0|0:0,0:0:0:0:
102,171,123477,2,0,P|110:135|92:72,1,67.5000002574921,2|0,0:3|0:0,0:0:0:0:
427,134,123627,2,0,P|434:98|477:48,1,67.5000002574921,8|0,1:0|0:0,0:0:0:0:
29,130,123777,2,0,P|21:94|-21:44,1,67.5000002574921,2|0,0:3|0:0,0:0:0:0:
234,0,123927,6,0,B|234:64|234:64|214:104|214:104|254:136|254:136|234:168|234:168|261:241|261:241|238:320,1,350,4|0,1:3|0:0,0:0:0:0:
240,312,124527,1,4,1:0:0:0:
194,321,129327,6,0,P|140:213|165:151,1,165.000005035401,4|0,1:2|0:0,0:0:0:0:
149,176,129627,1,8,1:0:0:0:
449,193,129777,2,0,B|377:243|377:243|208:221,1,220.000006713867,4|0,1:2|0:0,0:0:0:0:
255,246,130227,5,8,1:0:0:0:
335,56,130377,1,0,1:0:0:0:
320,38,130827,5,8,1:0:0:0:
399,228,130977,1,0,1:0:0:0:
377,234,131427,6,0,P|436:194|486:208,1,112.500004291535,8|0,1:0|0:0,0:0:0:0:
443,185,131727,6,0,P|420:186|386:208,2,50.0000019073487,4|0|0,1:0|0:0|0:0,0:0:0:0:
446,284,132027,2,0,L|440:385,1,100,8|0,1:0|1:0,0:0:0:0:
357,325,132277,6,0,P|323:306|270:307,1,75.0000028610231
263,310,132477,2,0,L|265:368,1,50.0000019073487
187,336,132627,6,0,L|126:331,1,50,8|0,1:0|1:0,0:0:0:0:
25,185,132927,6,0,P|20:141|45:95,1,83.3333333333333
80,107,133227,2,0,P|56:113|38:130,1,50,8|0,1:0|1:0,0:0:0:0:
212,221,133527,6,0,P|235:199|202:196,1,75
179,289,133827,6,0,P|226:296|269:281,1,75,8|0,1:0|0:0,0:0:0:0:
323,238,134127,6,0,L|317:98,1,135.000000514984,4|0,1:2|0:0,0:0:0:0:
52,74,134427,6,0,P|51:123|78:186,1,100,8|0,1:0|0:0,0:0:0:0:
249,242,134727,2,0,P|207:216|139:208,1,100,0|0,1:0|0:0,0:0:0:0:
5,328,135027,2,0,P|47:304|88:249,1,100,8|0,1:0|0:0,0:0:0:0:
37,10,135327,6,0,B|7:48|7:48|31:175,1,135.000000514984,4|0,1:2|0:0,0:0:0:0:
364,111,135627,6,0,L|244:72,1,100,8|0,1:0|0:0,0:0:0:0:
202,273,135927,2,0,L|294:188,1,100,0|0,1:0|0:0,0:0:0:0:
141,51,136227,2,0,L|167:173,1,100,8|0,1:0|0:0,0:0:0:0:
466,247,136527,6,0,B|496:201|496:201|485:104,1,135.000000514984,4|0,1:2|0:0,0:0:0:0:
168,200,136827,6,0,P|153:250|171:320,1,100,8|0,1:0|0:0,0:0:0:0:
167,82,137127,2,0,P|134:46|88:27,1,100,0|0,1:0|0:0,0:0:0:0:
269,142,137426,2,0,P|317:131|356:101,1,100,8|0,1:0|0:0,0:0:0:0:
47,31,137727,6,0,L|31:200,1,135.000000514984,4|0,1:2|0:0,0:0:0:0:
324,328,138027,6,0,B|355:289|355:289|340:215,1,100,8|0,1:0|0:0,0:0:0:0:
115,184,138327,2,0,B|133:230|133:230|180:246,1,100,0|0,1:0|0:0,0:0:0:0:
349,86,138628,2,0,B|299:78|299:78|262:111,1,100,8|0,1:0|0:0,0:0:0:0:
479,310,138927,5,4,1:2:0:0:
488,86,139077,1,0,1:0:0:0:
288,220,139227,5,8,1:0:0:0:
512,229,139377,1,0,1:0:0:0:
226,304,139527,5,8,1:0:0:0:
414,182,139677,1,0,1:0:0:0:
218,86,139827,5,8,1:0:0:0:
340,274,139977,1,0,1:0:0:0:
59,207,140127,5,8,1:0:0:0:
296,173,140277,1,0,1:0:0:0:
91,125,140427,5,8,1:0:0:0:
263,254,140577,1,0,1:0:0:0:
163,94,140727,5,8,1:0:0:0:
191,285,140877,1,0,1:0:0:0:
229,120,141027,5,8,1:0:0:0:
125,259,141177,1,0,1:0:0:0:
315,159,141327,5,0,0:0:0:0:
365,151,141402,1,0,0:0:0:0:
404,182,141477,1,0,0:0:0:0:
411,232,141552,1,0,0:0:0:0:
380,271,141627,1,0,0:0:0:0:
331,278,141702,1,0,0:0:0:0:
292,248,141777,1,0,0:0:0:0:
284,198,141852,1,0,0:0:0:0:
328,181,141927,5,0,0:0:0:0:
358,176,142002,1,0,0:0:0:0:
381,195,142077,1,0,0:0:0:0:
385,225,142152,1,0,0:0:0:0:
367,248,142227,1,0,0:0:0:0:
337,252,142302,1,0,0:0:0:0:
314,234,142377,1,0,0:0:0:0:
309,204,142452,1,0,0:0:0:0:
348,214,142527,6,0,B|346:331|346:331|264:289|271:359|189:326,1,275,4|0,1:3|0:0,0:0:0:0:
138,275,143427,2,0,B|166:326|166:326|132:372,1,112.500004291535,4|0,1:2|0:0,0:0:0:0:
27,310,143727,6,0,B|32:236|32:236|16:182|16:182|24:83,1,217.500006637573,4|0,1:0|0:0,0:0:0:0:
101,18,144027,2,0,P|105:86|210:111,1,172.500003290176,8|0,1:3|0:0,0:0:0:0:
285,74,144327,5,2,0:0:0:0:
288,44,144402,1,2,0:0:0:0:
206,304,144552,5,2,0:0:0:0:
209,334,144627,1,8,1:2:0:0:
478,190,144777,5,2,0:0:0:0:
429,178,144852,1,2,0:0:0:0:
385,202,144927,1,2,0:0:0:0:
340,226,145002,1,2,0:0:0:0:
292,211,145077,1,2,1:2:0:0:
107,65,145227,5,8,1:2:0:0:
86,20,145302,1,2,0:0:0:0:
78,70,145377,1,2,0:0:0:0:
57,25,145452,1,2,0:0:0:0:
50,75,145527,1,2,0:0:0:0:
331,135,145677,1,0,1:0:0:0:
22,189,145827,6,0,B|0:258|39:309|39:309|82:316|111:288,1,187.5,10|0,1:0|0:0,0:0:0:0:
130,225,146127,2,0,L|84:220,1,37.5000014305115
223,384,146277,5,0,1:0:0:0:
294,126,146427,2,0,B|285:13|285:13|218:40,1,165.000005035401,10|0,1:2|0:0,0:0:0:0:
205,116,146727,5,2,0:0:0:0:
175,110,146802,1,2,0:0:0:0:
417,40,146952,5,2,0:0:0:0:
447,46,147027,1,8,0:0:0:0:
350,307,147177,5,2,0:0:0:0:
304,287,147252,1,2,0:0:0:0:
272,249,147327,1,2,0:0:0:0:
262,201,147402,1,2,0:0:0:0:
276,153,147477,1,2,1:2:0:0:
259,374,147627,5,8,1:0:0:0:
209,369,147702,1,2,0:0:0:0:
159,364,147777,1,2,0:0:0:0:
109,360,147852,1,2,0:0:0:0:
59,356,147927,6,0,B|44:326|44:326|52:270,1,67.5000002574921,2|0,0:3|0:0,0:0:0:0:
193,209,148077,2,0,B|208:239|208:239|200:295,1,67.5000002574921,2|0,1:2|0:0,0:0:0:0:
0,114,148227,6,0,L|100:105,1,67.5000002574921,10|0,1:3|0:0,0:0:0:0:
256,148,148377,2,0,L|356:139,1,67.5000002574921,2|0,1:3|0:0,0:0:0:0:
498,122,148527,6,0,B|452:176|452:176|481:335,1,217.500006637573,4|0,1:0|0:0,0:0:0:0:
423,384,148827,2,0,P|381:323|269:331,1,165.000005035401,8|0,1:3|0:0,0:0:0:0:
211,383,149127,5,0,1:0:0:0:
156,376,149202,1,0,1:0:0:0:
115,339,149277,1,0,1:0:0:0:
99,286,149352,1,0,1:0:0:0:
114,233,149427,1,10,1:0:0:0:
321,111,149577,5,0,1:0:0:0:
342,162,149652,1,0,1:0:0:0:
330,216,149727,1,0,1:0:0:0:
292,256,149802,1,0,1:0:0:0:
239,270,149877,1,2,1:0:0:0:
28,68,150027,5,8,1:0:0:0:
79,48,150102,1,0,1:0:0:0:
130,68,150177,1,0,1:0:0:0:
181,48,150252,1,0,1:0:0:0:
231,70,150327,1,2,1:1:0:0:
176,347,150477,1,0,1:0:0:0:
21,210,150627,6,0,P|9:172|20:122,1,67.5000002574921,2|0,0:3|0:0,0:0:0:0:
280,211,150777,2,0,P|281:244|270:276,1,67.5000002574921,2|0,0:3|0:0,0:0:0:0:
91,110,150927,6,0,B|94:66|94:66|80:44|80:44|84:-2,1,115.000002193451,4|0,0:3|1:0,0:0:0:0:
290,351,151227,2,0,B|242:349|242:349|234:341|234:341|226:348|226:348|42:342,1,247.500002360344,10|0,1:2|0:0,0:0:0:0:
12,268,151527,6,0,L|7:223,1,37.5000014305115,2|0,1:3|0:0,0:0:0:0:
53,72,151677,2,0,L|58:117,1,37.5000014305115,2|0,1:3|0:0,0:0:0:0:
138,236,151827,2,0,L|100:240,1,37.5000014305115,8|0,1:0|0:0,0:0:0:0:
204,143,151977,2,0,L|199:105,1,37.5000014305115,2|0,1:3|0:0,0:0:0:0:
219,315,152127,2,0,L|223:352,1,37.5000014305115,2|0,1:3|0:0,0:0:0:0:
321,218,152277,2,0,L|283:222,1,37.5000014305115,2|0,1:3|0:0,0:0:0:0:
418,324,152427,2,0,L|455:319,1,37.5000014305115,8|0,1:0|0:0,0:0:0:0:
382,131,152577,2,0,L|377:93,1,37.5000014305115,2|0,1:3|0:0,0:0:0:0:
335,316,152727,6,0,L|409:307,1,75.0000028610231,4|0,0:3|1:0,0:0:0:0:
274,67,153027,1,8,1:0:0:0:
273,377,153177,1,0,1:0:0:0:
493,148,153327,6,0,B|479:6|479:6|371:47,1,217.500006637573,4|0,1:0|0:0,0:0:0:0:
330,116,153627,2,0,B|262:113|262:113|226:96|226:96|150:93,1,172.500003290176,8|0,1:3|0:0,0:0:0:0:
60,128,153927,5,2,0:0:0:0:
30,123,154002,1,2,0:0:0:0:
286,201,154152,5,2,0:0:0:0:
316,196,154227,1,8,1:0:0:0:
69,247,154377,5,2,0:0:0:0:
44,290,154452,1,2,0:0:0:0:
80,325,154527,1,2,0:0:0:0:
124,302,154602,1,2,0:0:0:0:
116,253,154677,1,2,1:2:0:0:
321,381,154827,5,8,1:0:0:0:
370,373,154902,1,2,0:0:0:0:
409,342,154977,1,2,0:0:0:0:
430,296,155052,1,2,0:0:0:0:
431,246,155127,1,2,0:0:0:0:
340,0,155277,1,0,1:0:0:0:
231,247,155427,6,0,B|242:366|242:366|252:319|304:300,1,187.5,10|0,1:0|0:0,0:0:0:0:
351,344,155727,2,0,P|356:326|358:308,1,37.5000014305115
247,57,155877,5,0,1:0:0:0:
130,319,156027,2,0,B|165:317|165:317|189:303|189:303|214:326|214:326|237:313|237:313|281:311,1,165.000005035401,10|0,1:2|0:0,0:0:0:0:
358,308,156327,6,0,P|391:256|377:192,1,100,2|0,0:0|1:0,0:0:0:0:
314,0,156627,1,8,1:0:0:0:
268,167,156777,2,0,L|271:217,1,37.5000014305115,2|0,0:0|0:0,0:0:0:0:
406,122,156927,2,0,L|409:72,1,37.5000014305115,2|0,0:0|0:0,0:0:0:0:
181,62,157077,5,0,1:0:0:0:
201,337,157227,1,8,1:0:0:0:
284,223,157377,2,0,L|287:173,1,37.5000014305115,2|0,0:0|0:0,0:0:0:0:
130,214,157527,2,0,L|133:264,1,37.5000014305115,2|0,0:0|0:0,0:0:0:0:
361,297,157677,5,0,1:0:0:0:
115,269,157827,1,8,1:0:0:0:
379,269,157977,1,0,1:0:0:0:
91,354,158127,6,0,B|15:331|15:331|48:175,1,217.500006637573,4|0,1:0|0:0,0:0:0:0:
103,133,158427,1,8,1:0:0:0:
169,384,158577,1,0,1:0:0:0:
232,70,158727,6,0,B|295:67|295:67|335:50|335:50|435:46,1,172.500003290176,8|0,1:0|0:0,0:0:0:0:
477,90,159027,1,8,1:0:0:0:
455,366,159177,1,0,0:0:0:0:
242,175,159327,6,0,B|232:70|232:70|311:91,1,172.500003290176,8|0,1:0|0:0,0:0:0:0:
330,166,159627,5,8,1:0:0:0:
125,271,159777,1,0,1:0:0:0:
36,58,159927,1,8,1:0:0:0:
250,191,160077,1,0,1:0:0:0:
34,322,160227,1,8,1:0:0:0:
143,93,160377,1,0,1:0:0:0:
287,300,160527,5,8,1:0:0:0:
43,229,160677,1,0,1:0:0:0:
288,322,160827,1,8,1:0:0:0:
116,171,160977,1,0,1:0:0:0:
289,345,161127,1,8,1:0:0:0:
206,156,161277,1,0,1:0:0:0:
163,384,161427,5,8,1:0:0:0:
163,384,161502,1,8,1:0:0:0:
163,384,161577,1,8,1:0:0:0:
341,273,161727,6,0,B|311:203|311:203|262:259,1,150.000005722046,8|0,1:3|0:0,0:0:0:0:
116,320,162177,6,0,B|66:375|66:375|37:306,1,150.000005722046,8|0,1:3|0:0,0:0:0:0:
106,116,162627,6,0,B|173:113|173:113|205:96|205:96|290:93,1,172.500003290176,0|0,1:0|0:0,0:0:0:0:
468,180,162927,6,0,P|459:245|304:234,1,217.500006637573,4|0,1:0|0:0,0:0:0:0:
263,181,163227,2,0,B|215:182|215:182|207:176|207:176|199:183|199:183|91:187,1,172.500003290176,8|0,1:3|0:0,0:0:0:0:
19,191,163527,6,0,P|16:170|25:133,1,37.5000014305115,2|0,0:0|0:0,0:0:0:0:
109,347,163677,2,0,P|112:368|103:405,1,37.5000014305115
127,100,163827,6,0,L|89:100,1,37.5000014305115,8|0,1:0|0:0,0:0:0:0:
178,294,163977,2,0,L|215:293,1,37.5000014305115,2|0,0:2|0:0,0:0:0:0:
347,216,164127,5,2,0:0:0:0:
364,173,164202,1,2,0:0:0:0:
356,127,164277,1,2,1:2:0:0:
328,90,164352,1,2,0:0:0:0:
285,73,164427,2,0,P|261:71|228:82,1,37.5000014305115,8|0,1:0|0:0,0:0:0:0:
308,307,164577,5,2,0:0:0:0:
388,305,164652,1,2,0:0:0:0:
468,303,164727,2,0,L|519:297,1,50,2|0,0:0|0:0,0:0:0:0:
270,208,164877,2,0,L|217:201,1,50,2|0,1:2|0:0,0:0:0:0:
512,110,165027,6,0,B|468:87|419:101|394:133|394:133|337:96|337:96|253:114,1,270.000001029968,10|0,1:0|0:0,0:0:0:0:
296,346,165477,2,0,L|361:357,1,55.0000016784668,0|0,1:0|0:0,0:0:0:0:
411,280,165627,2,0,L|388:218,1,55.0000016784668,8|0,1:0|0:0,0:0:0:0:
293,215,165777,2,0,L|250:265,1,55.0000016784668
475,224,165927,6,0,P|486:206|496:165,1,37.5000014305115,2|0,0:0|0:0,0:0:0:0:
211,144,166077,2,0,P|212:163|216:182,1,37.5000014305115,2|0,1:2|0:0,0:0:0:0:
372,76,166227,6,0,L|378:39,1,37.5000014305115,8|0,1:0|0:0,0:0:0:0:
332,288,166377,2,0,L|325:324,1,37.5000014305115,2|0,0:0|0:0,0:0:0:0:
232,152,166527,5,2,0:0:0:0:
189,138,166602,1,2,0:0:0:0:
147,156,166677,1,2,1:2:0:0:
106,174,166752,1,2,0:0:0:0:
62,162,166827,2,0,L|1:142,1,37.5000014305115,8|0,1:0|0:0,0:0:0:0:
273,16,166977,5,2,0:0:0:0:
273,16,167052,1,2,0:0:0:0:
273,16,167127,2,0,L|279:76,1,37.5000014305115,2|0,0:0|0:0,0:0:0:0:
201,304,167277,6,0,P|201:269|195:224,1,77.5000005912781,2|0,1:2|0:0,0:0:0:0:
390,187,167427,2,0,P|384:225|384:264,1,77.5000005912781,10|0,1:2|0:0,0:0:0:0:
118,169,167577,1,0,1:0:0:0:
373,23,167727,6,0,B|512:36|512:36|474:122,1,217.500006637573,4|0,1:0|0:0,0:0:0:0:
366,222,168027,2,0,B|328:229|300:206|300:206|272:227|272:227|237:202|189:215,1,172.500003290176,8|0,1:3|0:0,0:0:0:0:
134,230,168327,6,0,L|131:290,1,37.5000014305115,2|0,0:0|0:0,0:0:0:0:
88,37,168477,2,0,L|89:0,1,37.5000014305115,2|0,1:2|0:0,0:0:0:0:
263,135,168627,6,0,L|225:133,1,37.5000014305115,8|0,1:0|0:0,0:0:0:0:
413,29,168777,2,0,L|450:30,1,37.5000014305115,2|0,0:0|0:0,0:0:0:0:
350,268,168927,5,2,0:0:0:0:
346,222,169002,1,2,0:0:0:0:
342,177,169077,1,2,1:2:0:0:
340,132,169152,1,2,0:0:0:0:
337,87,169227,2,0,L|340:34,1,37.5000014305115,8|0,1:0|0:0,0:0:0:0:
251,273,169377,5,0,0:0:0:0:
186,318,169452,1,0,0:0:0:0:
110,297,169527,2,0,L|100:233,1,50,2|0,0:0|0:0,0:0:0:0:
259,92,169677,2,0,L|249:156,1,50,2|0,1:2|0:0,0:0:0:0:
35,199,169827,6,0,B|109:160|109:160|198:228|198:228|234:218|234:218|290:228,1,270.000001029968,4|0,1:3|0:0,0:0:0:0:
507,260,170277,6,0,P|498:224|502:180,1,55.0000016784668,0|0,1:0|0:0,0:0:0:0:
407,103,170427,2,0,P|398:139|402:183,1,55.0000016784668,8|0,1:0|0:0,0:0:0:0:
371,329,170577,2,0,P|355:295|352:251,1,55.0000016784668
345,33,170727,6,0,L|395:28,1,37.5000014305115,2|0,0:0|0:0,0:0:0:0:
278,252,170877,2,0,L|228:247,1,37.5000014305115,2|0,1:2|0:0,0:0:0:0:
164,37,171027,6,0,L|169:-13,1,37.5000014305115,8|0,1:0|0:0,0:0:0:0:
112,279,171177,2,0,L|117:329,1,37.5000014305115,2|0,0:0|0:0,0:0:0:0:
49,102,171327,5,0,1:0:0:0:
55,107,171477,1,0,0:0:0:0:
55,114,171627,1,0,0:0:0:0:
50,120,171777,1,0,0:0:0:0:
43,120,171927,1,0,0:0:0:0:
37,115,172077,1,0,0:0:0:0:
37,107,172227,1,0,0:0:0:0:
42,102,172377,1,0,0:0:0:0:
105,208,172527,6,0,L|94:339,1,100,0|0,0:0|1:0,0:0:0:0:
357,165,172827,6,0,B|341:27|341:27|260:66,1,217.500006637573,4|0,1:0|0:0,0:0:0:0:
220,126,173127,2,0,L|218:177,1,37.5000014305115,2|0,0:0|0:0,0:0:0:0:
293,365,173277,2,0,L|295:314,1,37.5000014305115,2|0,1:2|0:0,0:0:0:0:
357,165,173427,2,0,L|306:163,1,37.5000014305115,8|0,1:0|0:0,0:0:0:0:
389,350,173577,2,0,L|426:351,1,37.5000014305115,2|0,0:0|0:0,0:0:0:0:
489,207,173727,5,2,0:0:0:0:
505,165,173802,1,2,0:0:0:0:
483,125,173877,1,2,1:2:0:0:
499,83,173952,1,2,0:0:0:0:
480,42,174027,2,0,L|502:3,1,37.5000014305115,8|0,1:0|0:0,0:0:0:0:
282,93,174177,5,2,0:0:0:0:
260,172,174252,1,2,0:0:0:0:
300,243,174327,2,0,L|363:252,1,50,2|0,0:0|0:0,0:0:0:0:
107,265,174477,2,0,L|44:256,1,50,2|0,1:2|0:0,0:0:0:0:
260,172,174627,6,0,B|327:168|327:168|354:147|354:147|404:184|404:184|431:162|431:162|503:159,1,270.000001029968,10|0,1:0|0:0,0:0:0:0:
207,256,175077,6,0,P|184:236|168:210,1,55.0000016784668,0|0,1:0|0:0,0:0:0:0:
208,69,175227,2,0,P|203:96|191:120,1,55.0000016784668,8|0,1:0|0:0,0:0:0:0:
46,162,175377,2,0,P|71:152|99:150,1,55.0000016784668
216,343,175527,6,0,L|167:340,1,37.5000014305115,2|0,0:0|0:0,0:0:0:0:
274,110,175677,2,0,L|311:107,1,37.5000014305115,2|0,1:2|0:0,0:0:0:0:
297,354,175827,2,0,L|295:317,1,37.5000014305115,8|0,1:0|0:0,0:0:0:0:
193,83,175977,2,0,L|190:120,1,37.5000014305115,2|0,0:0|0:0,0:0:0:0:
370,236,176127,5,2,0:0:0:0:
422,229,176202,1,2,0:0:0:0:
462,195,176277,1,2,1:2:0:0:
475,144,176352,1,2,0:0:0:0:
466,92,176427,2,0,L|418:84,1,37.5000014305115,8|0,1:0|0:0,0:0:0:0:
248,198,176577,5,2,0:0:0:0:
248,198,176652,1,2,0:0:0:0:
248,198,176727,2,0,L|296:190,1,37.5000014305115
97,0,176877,6,0,B|81:37|81:37|95:89,1,77.5000005912781,2|0,1:2|0:0,0:0:0:0:
156,273,177027,2,0,B|172:236|172:236|158:184,1,77.5000005912781,10|0,1:2|0:0,0:0:0:0:
0,111,177177,1,0,1:0:0:0:
294,149,177327,6,0,B|353:145|353:145|377:132|377:132|449:128,1,145.000004425049,4|0,1:0|0:0,0:0:0:0:
329,69,177552,2,0,L|214:74,1,115.000002193451,8|0,1:0|0:0,0:0:0:0:
131,149,177777,6,0,P|171:178|231:182,1,94.9999974632264,0|0,1:0|0:0,0:0:0:0:
104,106,178002,2,0,P|111:154|151:200,1,94.9999974632264,0|0,1:0|0:0,0:0:0:0:
290,204,178227,6,0,B|266:136|266:136|203:195,1,142.49999619484,8|0,1:0|0:0,0:0:0:0:
215,357,178527,6,0,L|403:350,1,145.000004425049,4|0,1:0|0:0,0:0:0:0:
487,263,178752,2,0,P|509:211|481:136,1,115.000002193451,8|0,1:0|0:0,0:0:0:0:
398,111,178977,6,0,B|383:157|383:157|404:222,1,94.9999974632264,0|0,1:0|0:0,0:0:0:0:
380,277,179202,2,0,B|395:231|395:231|374:166,1,94.9999974632264,0|0,1:0|0:0,0:0:0:0:
227,130,179427,6,0,B|129:134|129:134|171:197,1,142.49999619484,8|0,1:0|0:0,0:0:0:0:
380,186,179727,6,0,B|402:102|402:102|381:34,1,145.000004425049,4|0,1:0|0:0,0:0:0:0:
302,159,179952,2,0,P|302:216|367:267,1,115.000002193451
433,255,180177,6,0,L|293:258,1,94.9999974632264,0|0,1:0|0:0,0:0:0:0:
251,315,180402,2,0,L|111:312,1,94.9999974632264,0|0,1:0|0:0,0:0:0:0:
57,277,180627,5,8,1:0:0:0:
34,246,180702,1,8,1:0:0:0:
31,208,180777,1,0,1:0:0:0:
45,172,180852,1,0,1:0:0:0:
77,151,180927,1,0,1:0:0:0:
256,192,181002,12,0,181977,0:0:0:0:
256,192,182127,5,4,1:0:0:0:
