osu file format v14

[General]
AudioFilename: audio.mp3
AudioLeadIn: 0
PreviewTime: 60040
Countdown: 0
SampleSet: Normal
StackLeniency: 0.2
Mode: 0
LetterboxInBreaks: 0
EpilepsyWarning: 1
WidescreenStoryboard: 1

[Editor]
Bookmarks: 30040,45040,52540,60040,75040,90039,105977,120040
DistanceSpacing: 0.4
BeatDivisor: 16
GridSize: 32
TimelineZoom: 1.9

[Metadata]
Title:Railgun Roulette
TitleUnicode:Railgun Roulette
Artist:Camellia vs Akira Complex
ArtistUnicode:かめりあ vs Akira Complex
Creator:Livstvichka
Version:The Last Shoot
Source:
Tags:
BeatmapID:1300906
BeatmapSetID:616911

[Difficulty]
HPDrainRate:6.5
CircleSize:3.5
OverallDifficulty:8
ApproachRate:9.5
SliderMultiplier:1.4
SliderTickRate:1

[Events]
//Background and Video events
0,0,"art-guweiz-devushka-pistolet.jpg",0,0
//Break Periods
//Storyboard Layer 0 (Background)
//Storyboard Layer 1 (Fail)
//Storyboard Layer 2 (Pass)
//Storyboard Layer 3 (Foreground)
//Storyboard Sound Samples

[TimingPoints]
40,468.75,4,1,0,25,1,0
40,-200,4,1,0,25,0,0
1915,-133.333333333333,4,1,0,25,0,0
2266,-100,4,1,0,25,0,0
2618,-76.9230769230769,4,1,0,25,0,0
2969,-66.6666666666667,4,1,0,25,0,0
3790,-200,4,1,0,25,0,0
5665,-133.333333333333,4,1,0,25,0,0
6016,-100,4,1,0,25,0,0
6368,-76.9230769230769,4,1,0,25,0,0
6719,-66.6666666666667,4,1,0,25,0,0
7540,-200,4,1,0,25,0,0
9415,-133.333333333333,4,1,0,25,0,0
9766,-100,4,1,0,25,0,0
10118,-76.9230769230769,4,1,0,25,0,0
10469,-66.6666666666667,4,1,0,25,0,0
11290,-133.333333333333,4,1,0,25,0,0
12227,-100,4,1,0,25,0,0
13165,-76.9230769230769,4,1,0,25,0,0
13516,-66.6666666666667,4,1,0,25,0,0
15743,-58.8235294117647,4,1,0,25,0,0
18321,-66.6666666666667,4,1,0,25,0,0
18790,-58.8235294117647,4,1,0,25,0,0
27696,-55.5555555555556,4,1,0,25,0,0
28399,-52.6315789473684,4,1,0,25,0,0
29102,-50,4,1,0,25,0,0
30040,-200,4,1,0,25,0,0
42227,-133.333333333333,4,1,0,25,0,0
44102,-200,4,1,0,25,0,0
45040,-100,4,1,0,35,0,0
46915,-90.9090909090909,4,1,0,45,0,0
48790,-83.3333333333333,4,1,0,45,0,0
50665,-76.9230769230769,4,1,0,45,0,0
52540,-71.4285714285714,4,1,0,50,0,0
53477,-66.6666666666667,4,1,0,50,0,0
54415,-58.8235294117647,4,1,0,50,0,0
55352,-52.6315789473684,4,1,0,50,0,0
56290,-50,4,1,0,50,0,0
58399,-50,4,1,0,50,0,0
59571,234.375,4,1,0,50,1,0
59571,-50,4,1,0,50,0,0
60039,-50,4,1,0,50,0,1
60625,-58.8235294117647,4,1,0,50,0,1
61914,-50,4,1,0,50,0,1
62383,-58.8235294117647,4,1,0,50,0,1
63555,-50,4,1,0,50,0,1
63789,-66.6666666666667,4,1,0,50,0,1
65430,-50,4,1,0,50,0,1
65899,-66.6666666666667,4,1,0,50,0,1
67305,-50,4,1,0,50,0,1
68125,-58.8235294117647,4,1,0,50,0,1
71289,-66.6666666666667,4,1,0,50,0,1
72110,-100,4,1,0,50,0,1
72461,-50,4,1,0,50,0,1
72930,-58.8235294117647,4,1,0,50,0,1
73164,-50,4,1,0,50,0,1
73750,-58.8235294117647,4,1,0,50,0,1
73985,-100,4,1,0,50,0,0
75039,-50,4,1,0,50,0,1
75625,-58.8235294117647,4,1,0,50,0,1
76914,-50,4,1,0,50,0,1
77383,-58.8235294117647,4,1,0,50,0,1
78555,-50,4,1,0,50,0,1
78789,-66.6666666666667,4,1,0,50,0,1
80430,-50,4,1,0,50,0,1
80899,-66.6666666666667,4,1,0,50,0,1
82305,-50,4,1,0,50,0,1
83125,-58.8235294117647,4,1,0,50,0,1
86289,-66.6666666666667,4,1,0,50,0,1
87110,-100,4,1,0,50,0,1
87461,-50,4,1,0,50,0,1
88164,-50,4,1,0,50,0,0
88399,-66.6666666666667,4,1,0,50,0,0
90039,-66.6666666666667,4,1,0,50,0,1
90977,-58.8235294117647,4,1,0,50,0,0
91914,-50,4,1,0,50,0,0
92852,-58.8235294117647,4,1,0,50,0,0
93321,-66.6666666666667,4,1,0,50,0,0
93789,-50,4,1,0,50,0,0
94258,-58.8235294117647,4,1,0,50,0,0
96133,-50,4,1,0,50,0,0
97539,-66.6666666666667,4,1,0,50,0,1
98477,-58.8235294117647,4,1,0,50,0,0
99414,-50,4,1,0,50,0,0
100352,-58.8235294117647,4,1,0,50,0,0
101289,-50,4,1,0,50,0,0
101758,-58.8235294117647,4,1,0,50,0,0
102461,-50,4,1,0,50,0,0
102578,-58.8235294117647,4,1,0,50,0,0
103047,-50,4,1,0,50,0,0
103164,-58.8235294117647,4,1,0,50,0,0
103399,-50,4,1,0,50,0,0
103633,-58.8235294117647,4,1,0,50,0,0
104102,-50,4,1,0,50,0,0
105977,-55.5555555555556,4,1,0,50,0,0
106914,-50,4,1,0,50,0,0
107852,-58.8235294117647,4,1,0,50,0,0
108321,-66.6666666666667,4,1,0,50,0,0
108789,-50,4,1,0,50,0,0
109258,-58.8235294117647,4,1,0,50,0,0
110430,-52.6315789473684,4,1,0,50,0,0
113008,-62.5,4,1,0,50,0,0
113477,-55.5555555555556,4,1,0,50,0,0
114414,-50,4,1,0,50,0,0
114883,-55.5555555555556,4,1,0,50,0,0
115352,-58.8235294117647,4,1,0,50,0,0
115821,-66.6666666666667,4,1,0,50,0,0
116289,-50,4,1,0,50,0,0
116524,-55.5555555555556,4,1,0,50,0,0
116875,-66.6666666666667,4,1,0,50,0,0
117227,-200,4,1,0,50,0,0
119571,-66.6666666666667,4,1,0,50,0,0
119805,-50,4,1,0,50,0,0
120039,937.5,4,1,0,50,1,0

[Colours]
Combo1 : 207,254,65
Combo2 : 253,184,2
Combo3 : 128,255,255
Combo4 : 242,74,79
SliderBorder : 128,64,64
SliderTrackOverride : 0,0,0

[HitObjects]
152,300,40,6,0,B|103:256|130:178|130:178|207:189|231:251,1,256.666666666667,4|8,0:0|0:0,0:0:0:0:
159,321,1915,2,0,L|100:318,1,52.5000020027161,2|0,0:0|0:0,0:0:0:0:
238,269,2266,2,0,L|314:274,1,70,2|0,0:0|0:0,0:0:0:0:
215,166,2618,2,0,L|112:157,1,90.9999958343508,2|0,0:0|0:0,0:0:0:0:
288,89,2969,2,0,P|351:95|392:72,1,105.000004005432,2|0,0:0|0:0,0:0:0:0:
328,10,3321,1,10,0:0:0:0:
328,10,3790,6,0,B|349:55|339:93|339:93|364:137|348:186|348:186|328:155|294:144,1,245,2|8,0:0|0:0,0:0:0:0:
271,221,5508,1,0,0:0:0:0:
271,221,5586,1,0,0:0:0:0:
271,221,5665,2,0,P|236:210|210:212,1,52.5000020027161,2|0,0:0|0:0,0:0:0:0:
289,334,6016,2,0,P|314:336|365:317,1,70,2|0,0:0|0:0,0:0:0:0:
170,291,6368,2,0,P|159:323|170:386,1,90.9999958343508,2|0,0:0|0:0,0:0:0:0:
84,229,6719,2,0,P|95:197|80:124,1,105.000004005432,2|0,0:0|0:0,0:0:0:0:
4,182,7071,1,8,0:0:0:0:
4,182,7540,6,0,B|37:172|71:191|71:191|125:172|125:172|151:188|151:188|194:209|241:184,1,245,2|8,0:0|0:0,0:0:0:0:
191,109,9258,1,0,0:0:0:0:
191,109,9336,1,0,0:0:0:0:
191,109,9415,2,0,P|220:98|256:99,1,52.5000020027161,2|0,0:0|0:0,0:0:0:0:
413,238,9766,2,0,P|382:231|336:244,1,70,2|0,0:0|0:0,0:0:0:0:
151,333,10118,2,0,L|255:340,1,90.9999958343508,2|0,0:0|0:0,0:0:0:0:
85,254,10469,2,0,P|51:295|47:355,1,105.000004005432,2|0,0:0|0:0,0:0:0:0:
151,333,10821,1,8,0:0:0:0:
128,156,11055,1,0,0:0:0:0:
213,176,11290,6,0,P|202:112|117:73,1,157.500006008148,2|0,0:0|0:0,0:0:0:0:
128,156,12110,1,8,0:0:0:0:
155,235,12227,2,0,P|212:261|232:259,1,70,2|0,0:0|0:0,0:0:0:0:
322,175,12579,1,0,0:0:0:0:
322,175,12637,1,0,0:0:0:0:
322,175,12696,2,0,P|300:196|291:240,1,70,2|0,0:0|0:0,0:0:0:0:
379,235,13047,1,0,0:0:0:0:
403,154,13165,6,0,P|391:126|336:89,1,90.9999958343508,2|0,0:0|0:0,0:0:0:0:
169,131,13516,2,0,P|203:137|267:101,1,105.000004005432
195,49,13868,1,2,0:0:0:0:
113,66,13985,1,8,0:0:0:0:
86,147,14102,2,0,L|96:262,1,105.000004005432,2|0,0:0|0:0,0:0:0:0:
219,296,14454,1,0,0:0:0:0:
219,296,14512,1,0,0:0:0:0:
219,296,14571,2,0,P|185:296|128:344,1,105.000004005432,2|0,0:0|0:0,0:0:0:0:
208,377,14922,5,0,0:0:0:0:
306,309,15040,2,0,L|299:241,1,52.5000020027161,2|0,0:0|0:0,0:0:0:0:
290,175,15274,1,0,0:0:0:0:
389,75,15391,2,0,L|382:143,1,52.5000020027161,2|0,0:0|0:0,0:0:0:0:
373,209,15625,1,0,0:0:0:0:
201,174,15743,2,0,P|205:142|239:100,1,59.5000011348725,2|0,0:0|0:0,0:0:0:0:
243,254,15977,6,0,P|210:264|169:260,1,59.5000011348725,0|2,0:0|0:0,0:0:0:0:
114,208,16211,1,0,0:0:0:0:
30,110,16329,2,0,L|33:184,1,59.5000011348725,0|2,0:0|0:0,0:0:0:0:
36,258,16563,1,0,0:0:0:0:
124,117,16680,2,0,L|123:43,1,59.5000011348725,2|0,0:0|0:0,0:0:0:0:
250,143,16915,6,0,P|225:164|180:175,2,59.5000011348725,2|0|0,0:0|0:0|0:0,0:0:0:0:
306,77,17266,2,0,P|327:102|338:147,2,59.5000011348725,2|0|0,0:0|0:0|0:0,0:0:0:0:
401,182,17618,2,0,P|376:203|331:214,2,59.5000011348725,2|0|0,0:0|0:0|0:0,0:0:0:0:
296,277,17969,2,0,P|275:252|264:207,2,59.5000011348725,2|0|0,0:0|0:0|0:0,0:0:0:0:
361,340,18321,6,0,P|333:358|302:366,1,52.5000020027161,2|0,0:0|0:0,0:0:0:0:
426,277,18555,2,0,P|454:295|485:303,1,52.5000020027161,2|0,0:0|0:0,0:0:0:0:
401,182,18790,6,0,L|336:219,1,59.5000011348725,2|0,0:0|0:0,0:0:0:0:
278,256,19024,1,0,0:0:0:0:
144,270,19141,2,0,L|209:307,1,59.5000011348725,2|0,0:0|0:0,0:0:0:0:
267,344,19375,1,0,0:0:0:0:
204,206,19493,2,0,P|168:186|134:185,1,59.5000011348725,2|0,0:0|0:0,0:0:0:0:
71,222,19727,1,0,0:0:0:0:
21,112,19844,6,0,P|57:132|91:133,1,59.5000011348725,2|0,0:0|0:0,0:0:0:0:
154,96,20078,1,0,0:0:0:0:
272,25,20196,2,0,P|306:15|386:43,1,119.000002269745,2|2,0:0|0:0,0:0:0:0:
316,107,20547,1,0,0:0:0:0:
252,171,20665,2,0,P|242:201|268:289,1,119.000002269745,2|0,0:0|0:0,0:0:0:0:
336,221,21016,2,0,L|400:207,2,59.5000011348725,2|0|0,0:0|0:0|0:0,0:0:0:0:
279,368,21368,6,0,L|215:354,2,59.5000011348725,2|0|0,0:0|0:0|0:0,0:0:0:0:
354,309,21719,1,2,0:0:0:0:
201,278,21836,2,0,P|168:293|147:324,1,59.5000011348725
53,193,22071,2,0,P|86:208|107:239,1,59.5000011348725,2|0,0:0|0:0,0:0:0:0:
25,273,22305,1,2,0:0:0:0:
53,193,22422,1,0,0:0:0:0:
81,111,22540,6,0,L|145:108,1,59.5000011348725,2|0,0:0|0:0,0:0:0:0:
225,104,22774,1,0,0:0:0:0:
323,185,22891,2,0,L|259:182,1,59.5000011348725,2|0,0:0|0:0,0:0:0:0:
179,178,23125,1,0,0:0:0:0:
335,95,23243,2,0,P|369:106|396:128,1,59.5000011348725,2|0,0:0|0:0,0:0:0:0:
312,276,23477,2,0,P|278:265|251:243,2,59.5000011348725,0|2|0,0:0|0:0|0:0,0:0:0:0:
323,185,23829,5,0,0:0:0:0:
176,266,23946,2,0,L|99:270,1,59.5000011348725,2|0,0:0|0:0,0:0:0:0:
75,77,24180,2,0,L|152:81,1,59.5000011348725,2|0,0:0|0:0,0:0:0:0:
238,206,24415,2,0,P|261:248|234:333,1,119.000002269745,2|0,0:0|0:0,0:0:0:0:
176,141,24766,2,0,P|218:118|303:145,1,119.000002269745,2|0,0:0|0:0,0:0:0:0:
110,205,25118,2,0,P|87:163|114:78,1,119.000002269745,2|0,0:0|0:0,0:0:0:0:
172,273,25469,2,0,P|130:296|45:269,1,119.000002269745,2|0,0:0|0:0,0:0:0:0:
208,186,25821,2,0,L|350:191,1,119.000002269745,2|0,0:0|0:0,0:0:0:0:
349,191,26290,6,0,P|337:151|359:71,1,119.000002269745,2|0,0:0|0:0,0:0:0:0:
383,270,26641,2,0,P|423:258|503:280,1,119.000002269745,2|0,0:0|0:0,0:0:0:0:
331,340,26993,2,0,P|291:328|211:350,1,119.000002269745,2|0,0:0|0:0,0:0:0:0:
45,288,27344,2,0,P|85:300|165:278,1,119.000002269745,2|0,0:0|0:0,0:0:0:0:
139,89,27696,6,0,L|95:209,1,125.999996154785,2|0,0:0|0:0,0:0:0:0:
269,134,28047,2,0,L|220:10,1,125.999996154785,2|0,0:0|0:0,0:0:0:0:
230,226,28399,2,0,P|272:235|354:191,1,132.999996448517,2|0,0:0|0:0,0:0:0:0:
130,186,28750,2,0,P|121:228|165:310,1,132.999996448517,2|0,0:0|0:0,0:0:0:0:
212,115,29102,2,0,P|172:82|74:90,1,140,2|8,0:0|0:0,0:0:0:0:
296,178,29454,5,0,0:0:0:0:
296,178,29512,1,0,0:0:0:0:
296,178,29571,2,0,P|315:142|316:102,1,70,2|0,0:0|0:0,0:0:0:0:
199,213,29805,1,8,0:0:0:0:
381,229,29922,1,8,0:0:0:0:
374,48,30040,6,0,P|348:33|272:40,1,105,6|0,0:0|0:0,0:0:0:0:
228,221,30977,2,0,P|246:235|318:111,1,245,2|0,0:0|0:0,0:0:0:0:
163,166,32852,6,0,P|145:246|154:266,1,105,2|0,0:0|0:0,0:0:0:0:
188,83,33790,2,0,L|80:87,1,105,2|0,0:0|0:0,0:0:0:0:
168,305,34727,2,0,B|229:272|295:308|295:308|352:340|406:314,1,245,2|0,0:0|0:0,0:0:0:0:
386,136,36602,6,0,P|368:148|356:230,1,105,2|0,0:0|0:0,0:0:0:0:
293,50,37540,2,0,L|402:50,1,105,2|0,0:0|0:0,0:0:0:0:
257,166,38477,2,0,B|68:168|68:168|102:158|121:140,1,245,2|0,0:0|0:0,0:0:0:0:
164,250,40352,6,0,L|56:252,1,105,2|0,0:0|0:0,0:0:0:0:
227,346,41290,2,0,P|261:326|287:264,1,105,2|0,0:0|0:0,0:0:0:0:
196,259,42227,6,0,P|244:288|279:97,1,367.500014019013,2|0,0:0|0:0,0:0:0:0:
247,195,44102,2,0,P|278:210|253:178,1,105.000004005432
58,316,45040,6,0,L|173:322,1,105,4|0,0:0|0:0,0:0:0:0:
306,296,45508,2,0,L|225:293,1,70
360,359,45860,2,0,P|385:329|383:260,1,105
385,265,46446,1,0,0:0:0:0:
336,188,46915,6,0,L|214:188,1,115.50000352478
83,118,47383,2,0,P|112:126|166:115,1,77.0000023498536
117,36,47735,1,0,0:0:0:0:
44,198,47969,1,0,0:0:0:0:
92,273,48086,2,0,L|177:273,1,77.0000023498536
256,277,48438,1,0,0:0:0:0:
214,198,48790,6,0,P|248:188|331:226,1,125.999996154785
425,358,49258,2,0,L|417:269,1,83.9999974365235
472,114,49610,2,0,P|414:120|351:84,1,125.999996154785
355,89,50196,1,0,0:0:0:0:
265,42,50665,6,0,L|257:191,1,136.499993751526
172,338,51133,2,0,L|177:240,1,90.9999958343508
150,155,51485,1,0,0:0:0:0:
279,280,51719,1,0,0:0:0:0:
372,247,51836,2,0,P|377:292|361:334,1,90.9999958343508
279,280,52188,1,0,0:0:0:0:
295,189,52540,6,0,P|322:166|351:156,1,48.9999985046387,2|0,0:0|0:0,0:0:0:0:
218,152,52774,2,0,P|238:122|263:105,1,48.9999985046387
131,140,53008,2,0,P|142:106|162:83,1,48.9999985046387
44,149,53243,2,0,P|46:113|60:86,1,48.9999985046387
101,226,53477,5,2,0:0:0:0:
101,226,53594,1,0,0:0:0:0:
101,226,53711,2,0,P|106:266|100:294,1,52.5000020027161
238,340,53946,1,0,0:0:0:0:
238,340,54063,1,0,0:0:0:0:
238,340,54180,2,0,P|233:300|239:272,1,52.5000020027161
382,292,54415,6,0,L|315:313,1,59.5000011348725,2|0,0:0|0:0,0:0:0:0:
356,212,54649,2,0,L|285:214,1,59.5000011348725
359,130,54883,2,0,L|290:114,1,59.5000011348725
394,58,55118,2,0,L|331:25,1,59.5000011348725
451,135,55352,5,2,0:0:0:0:
451,135,55469,1,0,0:0:0:0:
451,135,55586,2,0,P|439:186|421:204,1,66.4999982242585
458,355,55821,1,0,0:0:0:0:
458,355,55938,1,0,0:0:0:0:
458,355,56055,2,0,P|470:304|488:286,1,66.4999982242585
364,288,56290,6,0,P|337:264|332:252,6,35,2|0|0|0|0|0|0,0:0|0:0|0:0|0:0|0:0|0:0|0:0,0:0:0:0:
287,184,56758,6,0,P|263:211|251:216,6,35,2|0|0|0|0|0|0,0:0|0:0|0:0|0:0|0:0|0:0|0:0,0:0:0:0:
210,288,57227,6,0,P|183:264|178:252,6,35,2|0|0|0|0|0|0,0:0|0:0|0:0|0:0|0:0|0:0|0:0,0:0:0:0:
299,316,57696,6,0,P|280:352|260:369,2,35,2|0|0,0:0|0:0|0:0,0:0:0:0:
177,183,57930,1,0,0:0:0:0:
159,186,57989,1,0,0:0:0:0:
141,189,58047,1,0,0:0:0:0:
123,191,58106,1,0,0:0:0:0:
105,194,58165,5,0,0:0:0:0:
310,174,58399,6,0,P|301:131|280:103,1,70,8|0,0:0|0:0,0:0:0:0:
341,254,58633,2,0,P|376:227|392:196,1,70,8|0,0:0|0:0,0:0:0:0:
281,317,58868,2,0,P|319:337|354:339,1,70,8|0,0:0|0:0,0:0:0:0:
252,237,59102,2,0,P|214:262|205:361,1,140,8|8,0:0|0:0,0:0:0:0:
281,317,59454,1,8,0:0:0:0:
216,130,59571,6,0,B|152:141|115:193|115:193|120:169,1,140,8|0,0:0|0:0,0:0:0:0:
219,27,59805,2,0,B|283:38|320:90|320:90|315:66,1,140,8|0,0:0|0:0,0:0:0:0:
197,285,60039,6,0,P|223:250|370:300,1,210,4|0,0:0|0:0,0:0:0:0:
281,317,60274,1,0,0:0:0:0:
326,141,60391,1,0,0:0:0:0:
363,281,60508,1,0,0:0:0:0:
265,71,60625,6,0,P|304:53|389:74,1,119.000002269745,2|0,0:0|0:0,0:0:0:0:
240,164,60860,1,0,0:0:0:0:
175,94,60977,2,0,P|175:45|219:-11,1,119.000002269745,2|0,0:0|0:0,0:0:0:0:
150,184,61211,1,0,0:0:0:0:
265,71,61328,1,2,0:0:0:0:
306,224,61446,5,0,0:0:0:0:
240,164,61563,1,0,0:0:0:0:
328,137,61680,1,2,0:0:0:0:
211,253,61797,1,0,0:0:0:0:
395,198,61914,6,0,B|412:255|363:302|363:302|405:284,1,140,8|0,0:0|0:0,0:0:0:0:
328,137,62149,2,0,B|311:80|360:33|360:33|318:51,1,140,8|0,0:0|0:0,0:0:0:0:
416,109,62383,6,0,P|462:131|489:203,1,119.000002269745,2|0,0:0|0:0,0:0:0:0:
395,198,62617,1,0,0:0:0:0:
346,41,62735,2,0,P|397:15|460:20,1,119.000002269745,2|0,0:0|0:0,0:0:0:0:
416,109,62969,1,0,0:0:0:0:
318,244,63086,2,0,L|192:247,1,119.000002269745,2|0,0:0|0:0,0:0:0:0:
43,174,63321,5,0,0:0:0:0:
190,161,63438,1,2,0:0:0:0:
126,282,63555,2,0,P|117:245|126:206,1,70
268,120,63672,2,0,P|277:157|268:196,1,70
195,74,63789,6,0,B|245:10|336:28|358:110|358:110|340:71|351:32|372:9,1,315.000012016297,2|8,0:0|0:0,0:0:0:0:
434,68,64199,1,0,0:0:0:0:
434,68,64258,2,0,P|445:130|415:178,1,105.000004005432,2|0,0:0|0:0,0:0:0:0:
342,189,64492,1,0,0:0:0:0:
500,215,64610,1,0,0:0:0:0:
357,109,64727,6,0,P|327:111|305:118,1,52.5000020027161,8|0,0:0|0:0,0:0:0:0:
206,174,64844,2,0,P|236:176|258:183,1,52.5000020027161,8|0,0:0|0:0,0:0:0:0:
289,262,64961,1,8,0:0:0:0:
120,195,65078,2,0,P|120:147|160:96,1,105.000004005432,0|2,0:0|0:0,0:0:0:0:
239,91,65313,1,0,0:0:0:0:
181,260,65430,2,0,P|143:283|41:246,1,140,8|0,0:0|0:0,0:0:0:0:
176,31,65664,2,0,P|214:8|316:45,1,140,8|0,0:0|0:0,0:0:0:0:
305,185,65899,6,0,L|313:122,1,52.5000020027161,8|0,0:0|0:0,0:0:0:0:
396,74,66016,2,0,L|404:137,1,52.5000020027161,8|0,0:0|0:0,0:0:0:0:
401,231,66133,1,8,0:0:0:0:
210,231,66250,2,0,L|92:212,1,105.000004005432,0|2,0:0|0:0,0:0:0:0:
39,163,66485,1,0,0:0:0:0:
159,308,66602,6,0,P|165:340|160:372,1,52.5000020027161,8|0,0:0|0:0,0:0:0:0:
75,335,66719,2,0,P|69:303|74:271,1,52.5000020027161,8|0,0:0|0:0,0:0:0:0:
205,179,66836,2,0,P|211:211|206:243,1,52.5000020027161,10|0,0:0|0:0,0:0:0:0:
121,206,66953,2,0,P|115:174|120:142,1,52.5000020027161,8|0,0:0|0:0,0:0:0:0:
181,91,67071,5,0,0:0:0:0:
250,313,67188,1,0,0:0:0:0:
279,121,67305,2,0,B|332:91|387:114|387:114|443:136|497:98,1,210,2|0,0:0|0:0,0:0:0:0:
427,26,67539,2,0,P|390:144|459:203,1,210,6|0,0:0|0:0,0:0:0:0:
481,107,67774,1,0,0:0:0:0:
320,192,67891,1,0,0:0:0:0:
441,197,68008,1,0,0:0:0:0:
279,121,68125,6,0,P|243:161|254:239,1,119.000002269745,2|0,0:0|0:0,0:0:0:0:
364,121,68360,1,0,0:0:0:0:
321,45,68477,2,0,P|263:36|205:69,1,119.000002269745,2|0,0:0|0:0,0:0:0:0:
406,47,68711,1,0,0:0:0:0:
279,121,68828,1,2,0:0:0:0:
406,193,68946,5,0,0:0:0:0:
450,119,69063,1,0,0:0:0:0:
320,192,69180,1,2,0:0:0:0:
492,195,69297,1,0,0:0:0:0:
364,121,69414,2,0,B|338:98|275:89|236:156|236:156|224:290|224:290|223:236|186:201|147:195,1,416.500007944107,8|0,0:0|0:0,0:0:0:0:
129,289,69883,6,0,P|83:311|56:383,1,119.000002269745,2|0,0:0|0:0,0:0:0:0:
150,378,70117,1,0,0:0:0:0:
199,221,70235,2,0,P|148:195|85:200,1,119.000002269745,2|0,0:0|0:0,0:0:0:0:
129,289,70469,1,0,0:0:0:0:
294,251,70586,2,0,P|294:197|247:132,1,119.000002269745,2|0,0:0|0:0,0:0:0:0:
222,320,70821,5,0,0:0:0:0:
316,344,70938,1,2,0:0:0:0:
199,221,71055,1,0,0:0:0:0:
185,209,71113,1,0,0:0:0:0:
168,201,71172,1,0,0:0:0:0:
150,197,71231,1,0,0:0:0:0:
134,197,71289,2,0,B|99:196|59:217|39:253|39:253|86:171|86:171|114:109|60:60,1,315.000012016297,2|8,0:0|0:0,0:0:0:0:
10,133,71699,1,0,0:0:0:0:
10,133,71758,2,0,B|61:133|61:133|106:114|106:114|227:113,1,210.000008010865,2|0,0:0|0:0,0:0:0:0:
408,135,72110,6,0,P|373:118|273:190,1,175,8|0,0:0|0:0,0:0:0:0:
357,202,72461,2,0,P|463:202|490:107,1,210,8|0,0:0|0:0,0:0:0:0:
408,135,72696,1,4,0:0:0:0:
307,273,72813,1,0,0:0:0:0:
307,273,72871,1,0,0:0:0:0:
307,273,72930,2,0,L|175:267,1,119.000002269745,8|0,0:0|0:0,0:0:0:0:
49,338,73164,6,0,P|84:322|101:222,1,140,8|0,0:0|0:0,0:0:0:0:
84,150,73399,2,0,P|49:166|32:266,1,140,8|0,0:0|0:0,0:0:0:0:
168,169,73633,1,2,0:0:0:0:
141,88,73750,1,8,0:0:0:0:
105,230,73867,1,2,0:0:0:0:
251,186,73985,2,0,B|287:133|382:112|450:159|450:159|418:208|424:260|424:260|374:226|313:251|300:304|300:304|255:258|194:283,1,595,6|0,0:0|0:0,0:0:0:0:
234,355,75039,6,0,P|194:266|84:278,1,210,6|0,0:0|0:0,0:0:0:0:
147,339,75274,1,0,0:0:0:0:
175,159,75391,1,0,0:0:0:0:
93,269,75508,1,0,0:0:0:0:
238,93,75625,6,0,P|199:75|114:96,1,119.000002269745
263,186,75860,1,0,0:0:0:0:
328,116,75977,2,0,P|328:67|284:11,1,119.000002269745
353,206,76211,1,0,0:0:0:0:
238,93,76328,1,0,0:0:0:0:
197,246,76446,5,0,0:0:0:0:
263,186,76563,1,0,0:0:0:0:
175,159,76680,1,0,0:0:0:0:
292,275,76797,1,0,0:0:0:0:
108,220,76914,6,0,B|91:277|140:324|140:324|98:306,1,140
175,159,77149,2,0,B|192:102|143:55|143:55|185:73,1,140
87,131,77383,6,0,P|41:153|14:225,1,119.000002269745
108,220,77617,1,0,0:0:0:0:
157,63,77735,2,0,P|106:37|43:42,1,119.000002269745
87,131,77969,1,0,0:0:0:0:
185,266,78086,2,0,L|311:269,1,119.000002269745
461,201,78321,5,0,0:0:0:0:
314,188,78438,1,0,0:0:0:0:
378,309,78555,2,0,P|387:272|378:233,1,70
236,147,78672,2,0,P|227:184|236:223,1,70
309,101,78789,6,0,B|259:37|168:55|146:137|146:137|164:98|153:59|132:36,1,315.000012016297
70,95,79199,1,0,0:0:0:0:
70,95,79258,2,0,P|59:157|89:205,1,105.000004005432
162,216,79492,1,0,0:0:0:0:
4,242,79610,1,0,0:0:0:0:
150,134,79727,6,0,P|180:136|202:143,1,52.5000020027161
301,199,79844,2,0,P|271:201|249:208,1,52.5000020027161
218,287,79961,1,0,0:0:0:0:
387,220,80078,2,0,P|387:172|347:121,1,105.000004005432
268,116,80313,1,0,0:0:0:0:
326,285,80430,2,0,P|364:308|466:271,1,140
331,56,80664,2,0,P|293:33|191:70,1,140
188,190,80899,6,0,L|180:127,1,52.5000020027161
97,79,81016,2,0,L|89:142,1,52.5000020027161
92,236,81133,1,0,0:0:0:0:
283,236,81250,2,0,L|401:217,1,105.000004005432
454,168,81485,1,0,0:0:0:0:
333,313,81602,6,0,P|327:345|332:377,1,52.5000020027161
417,340,81719,2,0,P|423:308|418:276,1,52.5000020027161
287,184,81836,2,0,P|281:216|286:248,1,52.5000020027161
371,211,81953,2,0,P|377:179|372:147,1,52.5000020027161
311,96,82071,5,0,0:0:0:0:
242,318,82188,1,0,0:0:0:0:
217,115,82305,2,0,B|164:85|109:108|109:108|53:130|-1:92,1,210
69,20,82539,2,0,P|106:138|37:197,1,210
15,101,82774,1,0,0:0:0:0:
176,186,82891,1,0,0:0:0:0:
55,191,83008,1,0,0:0:0:0:
217,115,83125,6,0,P|253:155|242:233,1,119.000002269745
132,115,83360,1,0,0:0:0:0:
175,39,83477,2,0,P|233:30|291:63,1,119.000002269745
90,41,83711,1,0,0:0:0:0:
217,115,83828,1,0,0:0:0:0:
90,187,83946,5,0,0:0:0:0:
46,113,84063,1,0,0:0:0:0:
176,186,84180,1,0,0:0:0:0:
4,189,84297,1,0,0:0:0:0:
132,115,84414,2,0,B|158:92|221:83|260:150|260:150|272:284|272:284|273:230|310:195|349:189,1,416.500007944107
369,282,84883,6,0,P|415:304|442:376,1,119.000002269745
348,371,85117,1,0,0:0:0:0:
299,214,85235,2,0,P|350:188|413:193,1,119.000002269745
369,282,85469,1,0,0:0:0:0:
204,244,85586,2,0,P|204:190|251:125,1,119.000002269745
274,311,85821,5,0,0:0:0:0:
180,335,85938,1,0,0:0:0:0:
297,212,86055,1,0,0:0:0:0:
311,200,86113,1,0,0:0:0:0:
328,192,86172,1,0,0:0:0:0:
346,188,86231,1,0,0:0:0:0:
362,188,86289,2,0,B|397:187|437:208|457:244|457:244|410:162|410:162|382:100|436:51,1,315.000012016297
486,124,86699,1,0,0:0:0:0:
486,124,86758,2,0,B|435:124|435:124|390:105|390:105|269:104,1,210.000008010865
99,152,87110,6,0,P|134:135|234:207,1,175
150,219,87461,2,0,P|44:219|17:124,1,210
99,152,87696,1,0,0:0:0:0:
210,291,87813,1,0,0:0:0:0:
210,291,87871,1,0,0:0:0:0:
210,291,87930,2,0,L|342:285,1,119.000002269745
454,41,88164,5,0,0:0:0:0:
454,41,88399,2,0,P|443:83|452:156,1,105.000004005432
503,268,88633,1,0,0:0:0:0:
448,143,88750,1,0,0:0:0:0:
367,253,88867,5,0,0:0:0:0:
367,253,88985,1,0,0:0:0:0:
355,161,89102,2,0,P|283:213|306:324,1,210.000008010865
446,195,89571,2,0,L|449:91,1,105.000004005432
265,90,89805,1,0,0:0:0:0:
249,91,89863,1,0,0:0:0:0:
233,93,89922,1,0,0:0:0:0:
217,94,89981,1,0,0:0:0:0:
201,95,90039,6,0,B|155:79|126:44|112:0|112:0|112:47|88:89|39:118|39:118|66:169|52:235|7:267|7:267|50:284|74:317|74:317|132:244|133:196|130:155|130:155|153:170|174:175,1,735.000028038026
215,0,90977,1,0,0:0:0:0:
236,170,91094,2,0,P|268:151|285:119,1,59.5000011348725
214,247,91211,2,0,P|251:249|283:233,1,59.5000011348725
148,295,91328,2,0,P|176:318|212:323,1,59.5000011348725
138,213,91446,6,0,L|70:220,1,59.5000011348725
0,301,91563,2,0,L|68:308,1,59.5000011348725
271,242,91680,2,0,L|203:249,1,59.5000011348725
138,317,91797,2,0,L|206:324,1,59.5000011348725
350,279,91914,6,0,P|357:239|290:159,1,140
284,334,92149,1,0,0:0:0:0:
284,334,92207,1,0,0:0:0:0:
284,334,92266,2,0,P|325:363|413:341,1,140
369,111,92500,2,0,P|328:82|240:104,1,140
301,162,92735,1,0,0:0:0:0:
457,288,92852,6,0,B|437:259|426:219|450:169|450:169|474:117|466:79|437:37,1,238.00000453949
190,75,93321,2,0,P|165:182|364:283,1,367.500014019013
356,264,93789,6,0,B|300:265|300:265|253:283|253:283|134:286,1,210
20,182,94024,2,0,B|75:183|75:183|122:201|122:201|232:201,1,210
440,215,94258,6,0,P|409:183|321:174,1,119.000002269745
271,313,94434,2,0,P|302:345|390:354,1,119.000002269745
356,264,94610,1,0,0:0:0:0:
48,270,94727,1,0,0:0:0:0:
133,250,94844,2,0,P|119:218|87:194,1,59.5000011348725
162,138,94961,2,0,P|133:117|94:112,1,59.5000011348725
129,27,95078,2,0,P|94:23|57:38,1,59.5000011348725
249,58,95196,6,0,L|390:50,1,119.000002269745
487,186,95371,2,0,L|346:178,1,119.000002269745
277,170,95547,1,0,0:0:0:0:
452,19,95664,1,0,0:0:0:0:
452,19,95723,1,0,0:0:0:0:
452,19,95781,2,0,P|459:56|445:103,2,59.5000011348725
367,51,96016,1,0,0:0:0:0:
310,252,96133,6,0,P|219:240|194:136,1,210
277,170,96367,1,0,0:0:0:0:
348,339,96485,1,0,0:0:0:0:
348,339,96543,1,0,0:0:0:0:
348,339,96602,2,0,L|193:345,1,140
111,102,96836,1,0,0:0:0:0:
193,137,96953,1,0,0:0:0:0:
24,255,97071,5,0,0:0:0:0:
68,179,97188,1,0,0:0:0:0:
208,344,97305,1,0,0:0:0:0:
116,300,97422,1,0,0:0:0:0:
203,247,97539,6,0,B|261:240|317:290|308:364|308:364|405:330|405:330|397:248|359:197|294:164|294:164|362:192|430:197|484:136|484:136|441:130,1,735.000028038026
469,245,98477,1,0,0:0:0:0:
267,87,98594,2,0,P|302:83|335:91,1,59.5000011348725
293,166,98711,2,0,P|320:187|339:219,1,59.5000011348725
257,242,98828,2,0,P|261:276|250:314,1,59.5000011348725
152,182,98946,6,0,L|220:174,1,59.5000011348725
150,299,99063,2,0,L|82:290,1,59.5000011348725
293,166,99180,2,0,L|358:157,1,59.5000011348725
291,283,99297,2,0,L|226:274,1,59.5000011348725
64,205,99414,6,0,P|64:157|130:94,1,140
132,277,99649,1,0,0:0:0:0:
132,277,99707,1,0,0:0:0:0:
132,277,99766,2,0,P|46:303|-14:264,1,140
57,37,100000,2,0,P|143:11|203:50,1,140
64,205,100235,1,0,0:0:0:0:
153,183,100352,6,0,P|219:238|165:363,2,238.00000453949
181,193,100879,1,0,0:0:0:0:
210,194,100938,1,0,0:0:0:0:
237,184,100996,1,0,0:0:0:0:
260,164,101055,1,0,0:0:0:0:
272,137,101113,1,0,0:0:0:0:
274,107,101172,1,0,0:0:0:0:
262,79,101231,1,0,0:0:0:0:
233,59,101289,6,0,B|326:60|326:60|383:76|383:76|450:74,1,210
303,149,101524,2,0,B|210:150|210:150|153:166|153:166|86:164,1,210
155,320,101758,2,0,P|180:287|180:230,2,79.3333348464966
27,224,101992,2,0,P|60:249|117:249,2,79.3333348464966
169,26,102227,6,0,P|126:41|96:176,1,178.500003404617
247,143,102461,2,0,P|215:126|153:136,1,70
261,243,102578,2,0,P|304:228|334:93,1,178.500003404617
159,253,102813,2,0,P|174:296|309:326,1,178.500003404617
343,111,103047,2,0,P|321:75|291:57,1,70
429,251,103164,5,0,0:0:0:0:
369,312,103281,1,0,0:0:0:0:
369,312,103340,1,0,0:0:0:0:
369,312,103399,2,0,P|404:335|439:338,1,70
492,189,103516,2,0,P|456:165|421:162,1,70
219,314,103633,2,0,P|183:337|149:340,1,59.5000011348725
96,191,103750,2,0,P|131:167|163:166,1,59.5000011348725
159,253,103867,5,0,0:0:0:0:
12,371,103985,1,0,0:0:0:0:
12,371,104043,1,0,0:0:0:0:
12,371,104102,2,0,L|-8:208,1,140
270,56,104336,1,0,0:0:0:0:
287,149,104453,1,0,0:0:0:0:
39,82,104571,5,0,0:0:0:0:
155,70,104688,1,0,0:0:0:0:
64,290,104805,2,0,L|37:69,1,210
390,171,105039,2,0,P|341:237|185:164,1,280
186,170,105860,1,0,0:0:0:0:
287,149,105977,6,0,P|286:202|262:242,2,83.9999974365235
115,95,106211,2,0,P|161:69|208:70,2,83.9999974365235
154,267,106446,2,0,P|108:239|85:198,2,83.9999974365235
218,335,106680,2,0,P|169:356|123:351,2,83.9999974365235
287,149,106914,6,0,P|345:126|430:166,1,140
223,213,107149,1,0,0:0:0:0:
223,213,107207,1,0,0:0:0:0:
223,213,107266,2,0,P|200:155|240:70,1,140
480,87,107500,2,0,P|503:145|463:230,1,140
415,150,107735,1,0,0:0:0:0:
285,17,107852,6,0,B|256:-3|216:-14|166:10|166:10|114:34|76:26|34:-3,1,238.00000453949
87,318,108321,2,0,P|154:320|224:84,1,367.500014019013
208,96,108789,6,0,B|212:191|212:191|242:271|242:271|246:375,1,280
271,359,109082,1,0,0:0:0:0:
298,353,109141,1,0,0:0:0:0:
325,357,109199,1,0,0:0:0:0:
347,365,109258,6,0,P|387:380|478:349,1,119.000002269745
457,208,109434,2,0,P|417:193|326:224,1,119.000002269745
402,285,109610,1,0,0:0:0:0:
476,38,109727,1,0,0:0:0:0:
428,115,109844,1,0,0:0:0:0:
457,208,109961,1,0,0:0:0:0:
402,285,110078,6,0,L|151:209,1,238.00000453949
295,138,110430,2,0,P|30:174|224:358,1,664.999982242585
230,175,111133,2,0,P|125:162|140:286,1,265.999992897034
367,188,111485,5,0,0:0:0:0:
367,188,111543,1,0,0:0:0:0:
367,188,111602,1,0,0:0:0:0:
401,95,111719,1,0,0:0:0:0:
328,276,111836,1,0,0:0:0:0:
428,262,111953,1,0,0:0:0:0:
303,108,112071,5,0,0:0:0:0:
265,200,112188,1,0,0:0:0:0:
468,170,112305,1,0,0:0:0:0:
401,95,112422,1,0,0:0:0:0:
234,288,112539,6,0,B|139:288|139:288|84:329|84:329|-31:326,1,265.999992897034
209,199,113008,2,0,L|274:200,1,56
383,275,113125,2,0,L|316:276,1,56
234,288,113242,1,0,0:0:0:0:
401,95,113360,1,0,0:0:0:0:
393,185,113477,6,0,P|443:177|485:129,2,83.9999974365235
485,59,113711,2,0,P|453:19|390:7,2,83.9999974365235
327,44,113946,2,0,P|308:91|329:151,2,83.9999974365235
230,134,114180,2,0,P|249:180|306:209,2,83.9999974365235
458,268,114414,6,0,L|179:295,1,280
480,346,114883,2,0,L|407:353,1,62.9999980773926
199,374,115000,1,0,0:0:0:0:
458,268,115117,2,0,L|384:275,1,62.9999980773926
179,294,115234,1,0,0:0:0:0:
435,187,115352,6,0,L|182:211,1,238.00000453949
119,350,115821,2,0,P|31:214|134:58,1,367.500014019013
179,294,116289,6,0,P|110:229|161:128,1,210
387,57,116524,6,0,P|390:129|180:196,1,314.999990386963
462,157,116875,6,0,P|428:224|260:302,1,262.500010013581
487,276,117227,6,0,P|286:381|-3:157,1,630
373,269,119453,5,0,0:0:0:0:
289,299,119571,2,0,P|247:300|180:277,1,105.000004005432
452,88,119805,2,0,P|450:161|362:275,1,210
417,13,120039,5,0,0:0:0:0:
