osu file format v14

[General]
AudioFilename: audio.mp3
AudioLeadIn: 0
PreviewTime: 64638
Countdown: 0
SampleSet: None
StackLeniency: 0.7
Mode: 1
LetterboxInBreaks: 0
WidescreenStoryboard: 0

[Editor]
DistanceSpacing: 1.1
BeatDivisor: 8
GridSize: 4
TimelineZoom: 2.4

[Metadata]
Title:Railgun Roulette (DnB VIP)
TitleUnicode:Railgun Roulette (DnB VIP)
Artist:Camellia vs Akira Complex
ArtistUnicode:かめりあ vs Akira Complex
Creator:Nofool
Version:Oni
Source:
Tags:
BeatmapID:1707199
BeatmapSetID:814023

[Difficulty]
HPDrainRate:6
CircleSize:6
OverallDifficulty:6
ApproachRate:8
SliderMultiplier:1.4
SliderTickRate:1

[Events]
//Background and Video events
0,0,"BG82.jpg",0,0
//Break Periods
//Storyboard Layer 0 (Background)
//Storyboard Layer 1 (Fail)
//Storyboard Layer 2 (Pass)
//Storyboard Layer 3 (Foreground)
//Storyboard Sound Samples

[TimingPoints]
10,342.857142857143,4,1,0,50,1,0
10,-200,4,1,0,50,0,0
19681,-185.185185185185,4,1,0,50,0,0
19767,-181.818181818182,4,1,0,50,0,0
19852,-178.571428571429,4,1,0,50,0,0
20110,-169.491525423729,4,1,0,50,0,0
20367,-161.290322580645,4,1,0,50,0,0
20538,-156.25,4,1,0,50,0,0
21052,-142.857142857143,4,1,0,50,0,0
21138,-140.845070422535,4,1,0,50,0,0
21224,-138.888888888889,4,1,0,50,0,0
21481,-133.333333333333,4,1,0,50,0,0
21738,-128.205128205128,4,1,0,50,0,0
21910,-125,4,1,0,70,0,0
32881,-125,4,1,0,75,0,0
34081,-123.456790123457,4,1,0,75,0,0
34252,-121.951219512195,4,1,0,75,0,0
34424,-120.481927710843,4,1,0,75,0,0
34595,-119.047619047619,4,1,0,75,0,0
34767,-117.647058823529,4,1,0,75,0,0
34938,-116.279069767442,4,1,0,75,0,0
35110,-114.942528735632,4,1,0,75,0,0
35281,-113.636363636364,4,1,0,75,0,0
35452,-112.359550561798,4,1,0,75,0,0
35624,-111.111111111111,4,1,0,75,0,0
36652,-111.111111111111,4,1,0,75,0,0
36824,-109.89010989011,4,1,0,75,0,0
36995,-108.695652173913,4,1,0,75,0,0
37167,-107.52688172043,4,1,0,75,0,0
37338,-106.382978723404,4,1,0,75,0,0
37510,-105.263157894737,4,1,0,76,0,0
37681,-104.166666666667,4,1,0,76,0,0
37852,-103.092783505155,4,1,0,77,0,0
38024,-102.040816326531,4,1,0,78,0,0
38195,-101.010101010101,4,1,0,79,0,0
38367,-100,4,1,0,80,0,0
38452,-99.009900990099,4,1,0,80,0,0
38538,-98.0392156862745,4,1,0,80,0,0
38624,-97.0873786407767,4,1,0,80,0,0
38710,-96.1538461538461,4,1,0,80,0,0
38795,-95.2380952380952,4,1,0,80,0,0
38881,-94.3396226415094,4,1,0,80,0,0
38967,-93.4579439252336,4,1,0,80,0,0
39052,-92.5925925925926,4,1,0,80,0,0
39138,-91.743119266055,4,1,0,80,0,0
39224,-90.9090909090909,4,1,0,80,0,0
39310,-90.0900900900901,4,1,0,80,0,0
39395,-89.2857142857143,4,1,0,80,0,0
39481,-88.4955752212389,4,1,0,80,0,0
39567,-87.719298245614,4,1,0,80,0,0
39652,-86.9565217391304,4,1,0,80,0,0
39738,-86.2068965517241,4,1,0,80,0,0
39824,-85.4700854700855,4,1,0,80,0,0
39910,-84.7457627118644,4,1,0,80,0,0
39995,-84.0336134453781,4,1,0,80,0,0
40081,-83.3333333333333,4,1,0,80,0,0
40167,-82.6446280991736,4,1,0,80,0,0
40252,-81.9672131147541,4,1,0,80,0,0
40338,-81.3008130081301,4,1,0,80,0,0
40424,-80.6451612903226,4,1,0,80,0,0
40510,-80,4,1,0,80,0,0
40595,-79.3650793650794,4,1,0,80,0,0
40681,-78.7401574803149,4,1,0,80,0,0
40767,-78.125,4,1,0,80,0,0
40852,-77.5193798449612,4,1,0,80,0,0
40938,-76.9230769230769,4,1,0,80,0,0
41024,-76.3358778625954,4,1,0,80,0,0
41110,-75.7575757575758,4,1,0,80,0,0
42652,-80.6451612903226,4,1,0,80,0,0
42738,-82.6446280991736,4,1,0,80,0,0
42910,-86.2068965517241,4,1,0,80,0,0
42995,-87.719298245614,4,1,0,80,0,0
43167,-90.0900900900901,4,1,0,80,0,0
43252,-90.9090909090909,4,1,0,80,0,0
43445,-92.5925925925926,4,1,0,80,0,0
43681,-93.4579439252336,4,1,0,80,0,0
43852,-94.3396226415094,4,1,0,80,0,0
44110,-95.2380952380952,4,1,0,80,0,0
44367,-96.1538461538461,4,1,0,80,0,0
44624,-97.0873786407767,4,1,0,80,0,0
44881,-99.009900990099,4,1,0,80,0,0
45138,-100,4,1,0,80,0,0
45395,-101.010101010101,4,1,0,80,0,0
45652,-102.040816326531,4,1,0,80,0,0
45910,-103.092783505155,4,1,0,80,0,0
46167,-104.166666666667,4,1,0,80,0,0
46424,-105.263157894737,4,1,0,80,0,0
46852,-106.382978723404,4,1,0,80,0,0
47110,-107.52688172043,4,1,0,80,0,0
47367,-108.695652173913,4,1,0,80,0,0
47624,-109.89010989011,4,1,0,80,0,0
47881,-111.111111111111,4,1,0,80,0,0
48138,-112.359550561798,4,1,0,80,0,0
48395,-113.636363636364,4,1,0,80,0,0
48652,-114.942528735632,4,1,0,80,0,0
48910,-116.279069767442,4,1,0,80,0,0
49167,-117.647058823529,4,1,0,80,0,0
49595,-119.047619047619,4,1,0,80,0,0
49852,-120.481927710843,4,1,0,80,0,0
50110,-121.951219512195,4,1,0,80,0,0
50367,-123.456790123457,4,1,0,80,0,0
50624,-125,4,1,0,80,0,0
50881,-126.582278481013,4,1,0,80,0,0
51138,-128.205128205128,4,1,0,80,0,0
51395,-129.87012987013,4,1,0,80,0,0
51652,-131.578947368421,4,1,0,80,0,0
51910,-133.333333333333,4,1,0,80,0,0
54224,-131.578947368421,4,1,0,80,0,0
54481,-129.87012987013,4,1,0,80,0,0
54738,-128.205128205128,4,1,0,80,0,0
54824,-128.205128205128,4,1,0,80,0,0
54995,-126.582278481013,4,1,0,80,0,0
55167,-125,4,1,0,80,0,0
55338,-123.456790123457,4,1,0,80,0,0
55510,-121.951219512195,4,1,0,80,0,0
55681,-120.481927710843,4,1,0,80,0,0
55852,-119.047619047619,4,1,0,80,0,0
56024,-117.647058823529,4,1,0,80,0,0
56195,-116.279069767442,4,1,0,80,0,0
56367,-114.942528735632,4,1,0,80,0,0
56538,-113.636363636364,4,1,0,80,0,0
56710,-112.359550561798,4,1,0,80,0,0
56881,-111.111111111111,4,1,0,80,0,0
57052,-109.89010989011,4,1,0,80,0,0
57224,-108.695652173913,4,1,0,80,0,0
57395,-107.52688172043,4,1,0,80,0,0
57567,-106.382978723404,4,1,0,80,0,0
57738,-105.263157894737,4,1,0,80,0,0
57910,-104.166666666667,4,1,0,80,0,0
58081,-103.092783505155,4,1,0,80,0,0
58252,-102.040816326531,4,1,0,80,0,0
58424,-101.010101010101,4,1,0,80,0,0
58595,-100,4,1,0,80,0,0
58767,-99.009900990099,4,1,0,80,0,0
58938,-98.0392156862745,4,1,0,80,0,0
59110,-97.0873786407767,4,1,0,80,0,0
59281,-96.1538461538461,4,1,0,80,0,0
59452,-95.2380952380952,4,1,0,80,0,0
59624,-94.3396226415094,4,1,0,80,0,0
59795,-93.4579439252336,4,1,0,80,0,0
59967,-92.5925925925926,4,1,0,80,0,0
60138,-91.743119266055,4,1,0,80,0,0
60310,-90.9090909090909,4,1,0,80,0,0
60395,-90.0900900900901,4,1,0,80,0,0
60480,-89.2857142857143,4,1,0,80,0,0
60566,-88.4955752212389,4,1,0,80,0,0
60652,-87.719298245614,4,1,0,80,0,0
60737,-86.9565217391304,4,1,0,80,0,0
60823,-86.2068965517241,4,1,0,80,0,0
60909,-85.4700854700855,4,1,0,80,0,0
60995,-84.7457627118644,4,1,0,80,0,0
61080,-84.0336134453781,4,1,0,80,0,0
61166,-83.3333333333333,4,1,0,80,0,0
61252,-82.6446280991736,4,1,0,80,0,0
61337,-81.9672131147541,4,1,0,80,0,0
61423,-81.3008130081301,4,1,0,80,0,0
61509,-80.6451612903226,4,1,0,80,0,0
61595,-80,4,1,0,80,0,0
61680,-79.3650793650794,4,1,0,80,0,0
61766,-78.7401574803149,4,1,0,80,0,0
61852,-78.125,4,1,0,80,0,0
61937,-77.5193798449612,4,1,0,80,0,0
62023,-76.9230769230769,4,1,0,80,0,0
62109,-76.3358778625954,4,1,0,80,0,0
62195,-75.7575757575758,4,1,0,80,0,0
62281,-75.187969924812,4,1,0,80,0,0
62367,-74.6268656716418,4,1,0,80,0,0
62452,-74.0740740740741,4,1,0,80,0,0
62538,-73.5294117647059,4,1,0,80,0,0
62624,-72.992700729927,4,1,0,80,0,0
62710,-72.463768115942,4,1,0,80,0,0
62795,-71.9424460431655,4,1,0,80,0,0
62881,-71.4285714285714,4,1,0,80,0,0
62967,-70.9219858156028,4,1,0,80,0,0
63052,-70.4225352112676,4,1,0,80,0,0
64767,-100,4,1,0,80,0,0
65838,-100,4,1,0,80,0,1
65867,-96.1538461538461,4,1,0,80,0,1
65924,-92.5925925925926,4,1,0,80,0,1
65981,-89.2857142857143,4,1,0,80,0,1
66052,-87.719298245614,4,1,0,80,0,1
66138,-83.3333333333333,4,1,0,80,0,1
66310,-86.2068965517241,4,1,0,80,0,1
66395,-84.0336134453781,4,1,0,80,0,1
66567,-86.9565217391304,4,1,0,80,0,1
66652,-84.7457627118644,4,1,0,80,0,1
66738,-82.6446280991736,4,1,0,80,0,1
66824,-80.6451612903226,4,1,0,80,0,1
66995,-86.2068965517241,4,1,0,80,0,1
67081,-84.0336134453781,4,1,0,80,0,1
67188,-81.9672131147541,4,1,0,80,0,1
67231,-80,4,1,0,80,0,1
67360,-81.9672131147541,4,1,0,80,0,1
67402,-80,4,1,0,80,0,1
67510,-81.9672131147541,4,1,0,80,0,1
67681,-86.2068965517241,4,1,0,80,0,1
67767,-84.0336134453781,4,1,0,80,0,1
67938,-86.9565217391304,4,1,0,80,0,1
68024,-84.7457627118644,4,1,0,80,0,1
68210,-86.9565217391304,4,1,0,80,0,1
68267,-84.7457627118644,4,1,0,80,0,1
68324,-82.6446280991736,4,1,0,80,0,1
68381,-80.6451612903226,4,1,0,80,0,1
68452,-81.3008130081301,4,1,0,80,0,1
68552,-81.9672131147541,4,1,0,80,0,1
68610,-84.7457627118644,4,1,0,80,0,1
68667,-87.719298245614,4,1,0,80,0,1
68881,-100,4,1,0,80,0,1
71295,-100,4,1,0,80,0,1
71352,-96.1538461538461,4,1,0,80,0,1
71409,-92.5925925925926,4,1,0,80,0,1
71466,-89.2857142857143,4,1,0,80,0,1
71537,-87.719298245614,4,1,0,80,0,1
71623,-83.3333333333333,4,1,0,80,0,1
71795,-86.2068965517241,4,1,0,80,0,1
71880,-84.0336134453781,4,1,0,80,0,1
72052,-86.9565217391304,4,1,0,80,0,1
72137,-84.7457627118644,4,1,0,80,0,1
72309,-80.6451612903226,4,1,0,80,0,1
72395,-81.9672131147541,4,1,0,80,0,1
72481,-83.3333333333333,4,1,0,80,0,1
72567,-84.7457627118644,4,1,0,80,0,1
72667,-86.2068965517241,4,1,0,80,0,1
72724,-84.7457627118644,4,1,0,80,0,1
72781,-83.3333333333333,4,1,0,80,0,1
72838,-81.9672131147541,4,1,0,80,0,1
72910,-82.6446280991736,4,1,0,80,0,1
72995,-83.3333333333333,4,1,0,80,0,1
73167,-86.2068965517241,4,1,0,80,0,1
73253,-84.0336134453781,4,1,0,80,0,1
73424,-86.9565217391304,4,1,0,80,0,1
73510,-84.7457627118644,4,1,0,80,0,1
73695,-86.9565217391304,4,1,0,80,0,1
73752,-84.7457627118644,4,1,0,80,0,1
73809,-82.6446280991736,4,1,0,80,0,1
73866,-80.6451612903226,4,1,0,80,0,1
73937,-81.3008130081301,4,1,0,80,0,1
74037,-81.9672131147541,4,1,0,80,0,1
74095,-84.7457627118644,4,1,0,80,0,1
74152,-87.719298245614,4,1,0,80,0,1
75438,-87.719298245614,4,1,0,80,0,0
75738,-107.52688172043,4,1,0,80,0,0
75995,-112.359550561798,4,1,0,80,0,0
76252,-111.111111111111,4,1,0,80,0,0
76338,-108.695652173913,4,1,0,80,0,0
76424,-106.382978723404,4,1,0,80,0,0
76510,-104.166666666667,4,1,0,80,0,0
76781,-100,4,1,0,80,0,0
76810,-100,4,1,0,80,0,1
76838,-96.1538461538461,4,1,0,80,0,1
76895,-92.5925925925926,4,1,0,80,0,1
76952,-89.2857142857143,4,1,0,80,0,1
77023,-87.719298245614,4,1,0,80,0,1
77109,-83.3333333333333,4,1,0,80,0,1
77281,-86.2068965517241,4,1,0,80,0,1
77366,-84.0336134453781,4,1,0,80,0,1
77538,-86.9565217391304,4,1,0,80,0,1
77623,-84.7457627118644,4,1,0,80,0,1
77709,-82.6446280991736,4,1,0,80,0,1
77795,-80.6451612903226,4,1,0,80,0,1
77867,-81.9672131147541,4,1,0,80,0,1
77924,-83.3333333333333,4,1,0,80,0,1
77981,-84.7457627118644,4,1,0,80,0,1
78052,-84.0336134453781,4,1,0,80,0,1
78159,-81.9672131147541,4,1,0,80,0,1
78202,-80,4,1,0,80,0,1
78331,-81.9672131147541,4,1,0,80,0,1
78373,-80,4,1,0,80,0,1
78481,-81.9672131147541,4,1,0,80,0,1
78652,-86.2068965517241,4,1,0,80,0,1
78738,-84.0336134453781,4,1,0,80,0,1
78909,-86.9565217391304,4,1,0,80,0,1
78995,-86.2068965517241,4,1,0,80,0,1
79095,-85.4700854700855,4,1,0,80,0,1
79181,-86.9565217391304,4,1,0,80,0,1
79238,-84.7457627118644,4,1,0,80,0,1
79295,-82.6446280991736,4,1,0,80,0,1
79352,-80.6451612903226,4,1,0,80,0,1
79423,-81.3008130081301,4,1,0,80,0,1
79523,-81.9672131147541,4,1,0,80,0,1
79581,-84.7457627118644,4,1,0,80,0,1
79638,-87.719298245614,4,1,0,80,0,1
79852,-100,4,1,0,80,0,1
82267,-100,4,1,0,80,0,1
82324,-96.1538461538461,4,1,0,80,0,1
82381,-92.5925925925926,4,1,0,80,0,1
82438,-89.2857142857143,4,1,0,80,0,1
82509,-87.719298245614,4,1,0,80,0,1
82595,-83.3333333333333,4,1,0,80,0,1
82767,-86.2068965517241,4,1,0,80,0,1
82852,-84.0336134453781,4,1,0,80,0,1
83024,-86.9565217391304,4,1,0,80,0,1
83109,-84.7457627118644,4,1,0,80,0,1
83195,-82.6446280991736,4,1,0,80,0,1
83281,-80.6451612903226,4,1,0,80,0,1
83353,-81.9672131147541,4,1,0,80,0,1
83410,-83.3333333333333,4,1,0,80,0,1
83467,-84.7457627118644,4,1,0,80,0,1
83539,-84.7457627118644,4,1,0,80,0,1
83639,-86.2068965517241,4,1,0,80,0,1
83696,-84.7457627118644,4,1,0,80,0,1
83753,-83.3333333333333,4,1,0,80,0,1
83810,-81.9672131147541,4,1,0,80,0,1
83882,-82.6446280991736,4,1,0,80,0,1
83967,-83.3333333333333,4,1,0,80,0,1
84139,-86.2068965517241,4,1,0,80,0,1
84225,-84.0336134453781,4,1,0,80,0,1
84396,-86.9565217391304,4,1,0,80,0,1
84482,-86.2068965517241,4,1,0,80,0,1
84567,-85.4700854700855,4,1,0,80,0,1
84667,-86.9565217391304,4,1,0,80,0,1
84724,-84.7457627118644,4,1,0,80,0,1
84781,-82.6446280991736,4,1,0,80,0,1
84838,-80.6451612903226,4,1,0,80,0,1
84909,-81.3008130081301,4,1,0,80,0,1
85009,-81.9672131147541,4,1,0,80,0,1
85067,-84.7457627118644,4,1,0,80,0,1
85124,-87.719298245614,4,1,0,80,0,1
85210,-89.2857142857143,4,1,0,80,0,1
85324,-90.9090909090909,4,1,0,80,0,1
85510,-92.5925925925926,4,1,0,80,0,1
85595,-93.4579439252336,4,1,0,80,0,1
85767,-95.2380952380952,4,1,0,80,0,1
86410,-95.2380952380952,4,1,0,80,0,0
86538,-97.0873786407767,4,1,0,80,0,0
86710,-99.009900990099,4,1,0,80,0,0
86881,-101.010101010101,4,1,0,80,0,0
86967,-102.040816326531,4,1,0,80,0,0
87052,-103.092783505155,4,1,0,80,0,0
87224,-105.263157894737,4,1,0,80,0,0
87395,-107.52688172043,4,1,0,80,0,0
87481,-108.695652173913,4,1,0,80,0,0
87567,-109.89010989011,4,1,0,80,0,0
87738,-50,4,1,0,80,0,0
88081,-83.3333333333333,4,1,0,80,0,0
91938,-84.0336134453781,4,1,0,80,0,0
92110,-85.4700854700855,4,1,0,80,0,0
92195,-86.2068965517241,4,1,0,80,0,0
92367,-87.719298245614,4,1,0,80,0,0
92452,-88.4955752212389,4,1,0,80,0,0
92538,-89.2857142857143,4,1,0,80,0,0
92624,-90.0900900900901,4,1,0,80,0,0
92710,-90.9090909090909,4,1,0,80,0,0
92795,-91.743119266055,4,1,0,80,0,0
92881,-92.5925925925926,4,1,0,80,0,0
92967,-93.4579439252336,4,1,0,80,0,0
93052,-94.3396226415094,4,1,0,80,0,0
93138,-95.2380952380952,4,1,0,80,0,0
93224,-50,4,1,0,80,0,0
93481,-83.3333333333333,4,1,0,80,0,0
97938,-82.6446280991736,4,1,0,80,0,0
98024,-81.9672131147541,4,1,0,80,0,0
98110,-81.3008130081301,4,1,0,80,0,0
98281,-80,4,1,0,80,0,0
98367,-79.3650793650794,4,1,0,80,0,0
98538,-78.125,4,1,0,80,0,0
98624,-77.5193798449612,4,1,0,80,0,0
98710,-76.9230769230769,4,1,0,80,0,0
99074,-111.111111111111,4,1,0,80,0,1
99117,-108.695652173913,4,1,0,80,0,1
99160,-106.382978723404,4,1,0,80,0,1
99417,-111.111111111111,4,1,0,80,0,1
99460,-108.695652173913,4,1,0,80,0,1
99503,-106.382978723404,4,1,0,80,0,1
99760,-111.111111111111,4,1,0,80,0,1
99803,-108.695652173913,4,1,0,80,0,1
99846,-106.382978723404,4,1,0,80,0,1
100102,-111.111111111111,4,1,0,80,0,1
100145,-108.695652173913,4,1,0,80,0,1
100188,-106.382978723404,4,1,0,80,0,1
100445,-111.111111111111,4,1,0,80,0,1
100488,-108.695652173913,4,1,0,80,0,1
100531,-106.382978723404,4,1,0,80,0,1
100574,-111.111111111111,4,1,0,80,0,0
100767,-76.9230769230769,4,1,0,80,0,0
101817,-111.111111111111,4,1,0,80,0,1
101860,-108.695652173913,4,1,0,80,0,1
101903,-106.382978723404,4,1,0,80,0,1
101988,-111.111111111111,4,1,0,80,0,1
102031,-108.695652173913,4,1,0,80,0,1
102074,-106.382978723404,4,1,0,80,0,1
102160,-111.111111111111,4,1,0,80,0,1
102203,-108.695652173913,4,1,0,80,0,1
102246,-106.382978723404,4,1,0,80,0,1
102481,-111.111111111111,4,1,0,80,0,1
102845,-111.111111111111,4,1,0,80,0,1
102888,-108.695652173913,4,1,0,80,0,1
102931,-106.382978723404,4,1,0,80,0,1
103081,-111.111111111111,4,1,0,80,0,1
103231,-111.111111111111,4,1,0,80,0,0
103338,-76.9230769230769,4,1,0,80,0,0
104560,-111.111111111111,4,1,0,80,0,1
104603,-108.695652173913,4,1,0,80,0,1
104646,-106.382978723404,4,1,0,80,0,1
104902,-111.111111111111,4,1,0,80,0,1
104945,-108.695652173913,4,1,0,80,0,1
104988,-106.382978723404,4,1,0,80,0,1
105074,-108.695652173913,4,1,0,80,0,1
105160,-106.382978723404,4,1,0,80,0,1
105203,-104.166666666667,4,1,0,80,0,1
105246,-102.040816326531,4,1,0,80,0,1
105331,-104.166666666667,4,1,0,80,0,1
105417,-102.040816326531,4,1,0,80,0,1
105460,-100,4,1,0,80,0,1
105503,-98.0392156862745,4,1,0,80,0,1
105545,-98.0392156862745,4,1,0,80,0,0
105931,-102.040816326531,4,1,0,80,0,1
105974,-100,4,1,0,80,0,1
106017,-98.0392156862745,4,1,0,80,0,1
106274,-102.040816326531,4,1,0,80,0,1
106317,-100,4,1,0,80,0,1
106360,-98.0392156862745,4,1,0,80,0,1
106445,-100,4,1,0,80,0,1
106531,-98.0392156862745,4,1,0,80,0,1
106574,-96.1538461538461,4,1,0,80,0,1
106617,-94.3396226415094,4,1,0,80,0,1
106702,-96.1538461538461,4,1,0,80,0,1
106788,-94.3396226415094,4,1,0,80,0,1
106831,-92.5925925925926,4,1,0,80,0,1
106874,-90.9090909090909,4,1,0,80,0,1
106938,-89.2857142857143,4,1,0,80,0,0
107110,-83.3333333333333,4,1,0,80,0,0
107367,-66.6666666666667,4,1,0,80,0,0
107624,-50,4,1,0,80,0,0
109167,-66.6666666666667,4,1,0,80,0,0
109767,-100,4,1,0,50,0,0
111052,-142.857142857143,4,1,0,50,0,0
129395,-135.135135135135,4,1,0,50,0,0
129481,-133.333333333334,4,1,0,50,0,0
129566,-131.578947368421,4,1,0,50,0,0
129824,-126.582278481013,4,1,0,50,0,0
130081,-121.951219512195,4,1,0,50,0,0
130252,-119.047619047619,4,1,0,50,0,0
130766,-111.111111111111,4,1,0,50,0,0
130852,-109.89010989011,4,1,0,50,0,0
130938,-108.695652173913,4,1,0,50,0,0
131195,-105.263157894737,4,1,0,50,0,0
131452,-102.040816326531,4,1,0,50,0,0
131624,-100,4,1,0,70,0,0
131710,-100,4,1,0,40,0,0
134367,-200,4,1,0,60,0,0
151767,-196.078431372549,4,1,0,62,0,0
152024,-192.307692307692,4,1,0,64,0,0
152367,-188.679245283019,4,1,0,66,0,0
152624,-185.185185185185,4,1,0,68,0,0
152881,-181.818181818182,4,1,0,70,0,0
153160,-178.571428571429,4,1,0,70,0,0
153202,-175.438596491228,4,1,0,70,0,0
153245,-172.413793103448,4,1,0,70,0,0
153310,-166.666666666667,4,1,0,70,0,0
153395,-161.290322580645,4,1,0,70,0,0
153481,-156.25,4,1,0,70,0,0
153567,-151.515151515152,4,1,0,80,0,0
153910,-147.058823529412,4,1,0,80,0,0
154081,-144.927536231884,4,1,0,80,0,0
154252,-142.857142857143,4,1,0,80,0,0
154424,-140.845070422535,4,1,0,80,0,0
154595,-138.888888888889,4,1,0,80,0,0
154767,-136.986301369863,4,1,0,80,0,0
154938,-135.135135135135,4,1,0,80,0,0
155110,-133.333333333333,4,1,0,80,0,0
155281,-131.578947368421,4,1,0,80,0,0
155452,-129.87012987013,4,1,0,80,0,0
155624,-128.205128205128,4,1,0,80,0,0
155795,-126.582278481013,4,1,0,80,0,0
155967,-125,4,1,0,80,0,0
156138,-123.456790123457,4,1,0,80,0,0
156310,-121.951219512195,4,1,0,80,0,0
156481,-120.481927710843,4,1,0,80,0,0
156652,-119.047619047619,4,1,0,80,0,0
156824,-117.647058823529,4,1,0,80,0,0
156995,-116.279069767442,4,1,0,80,0,0
157167,-114.942528735632,4,1,0,80,0,0
157338,-113.636363636364,4,1,0,80,0,0
157510,-112.359550561798,4,1,0,80,0,0
157681,-111.111111111111,4,1,0,80,0,0
157852,-109.89010989011,4,1,0,80,0,0
158024,-108.695652173913,4,1,0,80,0,0
158195,-107.52688172043,4,1,0,80,0,0
158367,-106.382978723404,4,1,0,80,0,0
158538,-105.263157894737,4,1,0,80,0,0
158710,-104.166666666667,4,1,0,80,0,0
158881,-103.092783505155,4,1,0,80,0,0
159052,-102.040816326531,4,1,0,80,0,0
159224,-101.010101010101,4,1,0,80,0,0
159395,-99.9999999999999,4,1,0,80,0,0
159567,-99.009900990099,4,1,0,80,0,0
159738,-98.0392156862745,4,1,0,80,0,0
159910,-97.0873786407767,4,1,0,80,0,0
160081,-96.1538461538461,4,1,0,80,0,0
160252,-95.2380952380952,4,1,0,80,0,0
160424,-94.3396226415094,4,1,0,80,0,0
160595,-93.4579439252336,4,1,0,80,0,0
160767,-92.5925925925926,4,1,0,80,0,0
160938,-91.743119266055,4,1,0,80,0,0
161110,-90.9090909090909,4,1,0,80,0,0
161281,-90.0900900900901,4,1,0,80,0,0
161452,-89.2857142857143,4,1,0,80,0,0
161624,-88.4955752212389,4,1,0,80,0,0
161795,-87.719298245614,4,1,0,80,0,0
161967,-86.9565217391304,4,1,0,80,0,0
162138,-86.2068965517241,4,1,0,80,0,0
162310,-85.4700854700855,4,1,0,80,0,0
162481,-84.7457627118644,4,1,0,80,0,0
162652,-84.0336134453781,4,1,0,80,0,0
162824,-83.3333333333333,4,1,0,80,0,0
162995,-82.6446280991736,4,1,0,80,0,0
163167,-81.9672131147541,4,1,0,80,0,0
163338,-81.3008130081301,4,1,0,80,0,0
163510,-80.6451612903226,4,1,0,80,0,0
163681,-80,4,1,0,80,0,0
163852,-79.3650793650794,4,1,0,80,0,0
164024,-78.7401574803149,4,1,0,80,0,0
164195,-78.125,4,1,0,80,0,0
164367,-77.5193798449612,4,1,0,80,0,0
164538,-76.9230769230769,4,1,0,80,0,0
164624,-76.3358778625954,4,1,0,80,0,0
164710,-75.7575757575758,4,1,0,80,0,0
164795,-75.187969924812,4,1,0,80,0,0
164881,-74.6268656716418,4,1,0,80,0,0
164967,-75.187969924812,4,1,0,80,0,0
165052,-75.7575757575758,4,1,0,80,0,0
165138,-76.3358778625954,4,1,0,80,0,0
165224,-76.9230769230769,4,1,0,80,0,0
165310,-76.3358778625954,4,1,0,80,0,0
165395,-75.7575757575758,4,1,0,80,0,0
165480,-75.187969924812,4,1,0,80,0,0
165566,-74.6268656716418,4,1,0,80,0,0
165652,-75.187969924812,4,1,0,80,0,0
165737,-75.7575757575758,4,1,0,80,0,0
165823,-76.3358778625954,4,1,0,80,0,0
165909,-76.9230769230769,4,1,0,80,0,0
165995,-76.3358778625954,4,1,0,80,0,0
166080,-75.7575757575758,4,1,0,80,0,0
166165,-75.187969924812,4,1,0,80,0,0
166252,-76.9230769230769,4,1,0,80,0,0
166338,-76.3358778625954,4,1,0,80,0,0
166423,-75.7575757575758,4,1,0,80,0,0
166508,-75.187969924812,4,1,0,80,0,0
166595,-76.9230769230769,4,1,0,80,0,0
166681,-76.3358778625954,4,1,0,80,0,0
166766,-75.7575757575758,4,1,0,80,0,0
166851,-75.187969924812,4,1,0,80,0,0
166938,-76.9230769230769,4,1,0,80,0,0
167024,-76.3358778625954,4,1,0,80,0,0
167109,-75.7575757575758,4,1,0,80,0,0
167194,-75.187969924812,4,1,0,80,0,0
167281,-76.9230769230769,4,1,0,80,0,0
167367,-76.3358778625954,4,1,0,80,0,0
167453,-75.7575757575758,4,1,0,80,0,0
167538,-75.187969924812,4,1,0,80,0,0
167624,-74.6268656716418,4,1,0,80,0,0
167710,-75.187969924812,4,1,0,80,0,0
167795,-75.7575757575758,4,1,0,80,0,0
167881,-76.3358778625954,4,1,0,80,0,0
167967,-76.9230769230769,4,1,0,80,0,0
168053,-76.3358778625954,4,1,0,80,0,0
168139,-75.7575757575758,4,1,0,80,0,0
168224,-75.187969924812,4,1,0,80,0,0
168310,-74.6268656716418,4,1,0,80,0,0
168396,-75.187969924812,4,1,0,80,0,0
168481,-75.7575757575758,4,1,0,80,0,0
168567,-76.3358778625954,4,1,0,80,0,0
168652,-76.9230769230769,4,1,0,80,0,0
168738,-76.3358778625954,4,1,0,80,0,0
168824,-75.7575757575758,4,1,0,80,0,0
168909,-75.187969924812,4,1,0,80,0,0
168995,-76.9230769230769,4,1,0,80,0,0
169081,-76.3358778625954,4,1,0,80,0,0
169167,-75.7575757575758,4,1,0,80,0,0
169252,-75.187969924812,4,1,0,80,0,0
169328,-76.9230769230769,4,1,0,80,0,0
169414,-76.3358778625954,4,1,0,80,0,0
169500,-75.7575757575758,4,1,0,80,0,0
169585,-75.187969924812,4,1,0,80,0,0
169681,-76.9230769230769,4,1,0,80,0,0
169767,-76.3358778625954,4,1,0,80,0,0
169853,-75.7575757575758,4,1,0,80,0,0
169938,-75.187969924812,4,1,0,80,0,0
170024,-74.6268656716418,4,1,0,80,0,0
174481,-100,4,1,0,80,0,0
175531,-111.111111111111,4,1,0,80,0,0
175574,-107.52688172043,4,1,0,80,0,0
175617,-104.166666666667,4,1,0,80,0,0
175852,-83.3333333333333,4,1,0,80,0,0
175895,-83.3333333333333,4,1,0,80,0,1
176024,-86.2068965517241,4,1,0,80,0,1
176109,-84.0336134453781,4,1,0,80,0,1
176281,-86.9565217391304,4,1,0,80,0,1
176366,-84.7457627118644,4,1,0,80,0,1
176452,-82.6446280991736,4,1,0,80,0,1
176538,-80.6451612903226,4,1,0,80,0,1
176709,-86.2068965517241,4,1,0,80,0,1
176795,-84.0336134453781,4,1,0,80,0,1
176902,-81.9672131147541,4,1,0,80,0,1
176945,-80,4,1,0,80,0,1
177074,-81.9672131147541,4,1,0,80,0,1
177116,-80,4,1,0,80,0,1
177224,-81.9672131147541,4,1,0,80,0,1
177395,-86.2068965517241,4,1,0,80,0,1
177481,-84.0336134453781,4,1,0,80,0,1
177652,-86.9565217391304,4,1,0,80,0,1
177738,-84.7457627118644,4,1,0,80,0,1
177924,-86.9565217391304,4,1,0,80,0,1
177981,-84.7457627118644,4,1,0,80,0,1
178038,-82.6446280991736,4,1,0,80,0,1
178095,-80.6451612903226,4,1,0,80,0,1
178166,-81.3008130081301,4,1,0,80,0,1
178266,-81.9672131147541,4,1,0,80,0,1
178324,-84.7457627118644,4,1,0,80,0,1
178381,-87.719298245614,4,1,0,80,0,1
178595,-100,4,1,0,80,0,1
181010,-100,4,1,0,80,0,1
181067,-96.1538461538461,4,1,0,80,0,1
181124,-92.5925925925926,4,1,0,80,0,1
181181,-89.2857142857143,4,1,0,80,0,1
181252,-87.719298245614,4,1,0,80,0,1
181338,-83.3333333333333,4,1,0,80,0,1
181510,-86.2068965517241,4,1,0,80,0,1
181595,-84.0336134453781,4,1,0,80,0,1
181767,-86.9565217391304,4,1,0,80,0,1
181852,-84.7457627118644,4,1,0,80,0,1
182024,-80.6451612903226,4,1,0,80,0,1
182110,-81.9672131147541,4,1,0,80,0,1
182196,-83.3333333333333,4,1,0,80,0,1
182282,-84.7457627118644,4,1,0,80,0,1
182382,-86.2068965517241,4,1,0,80,0,1
182439,-84.7457627118644,4,1,0,80,0,1
182496,-83.3333333333333,4,1,0,80,0,1
182553,-81.9672131147541,4,1,0,80,0,1
182625,-82.6446280991736,4,1,0,80,0,1
182710,-83.3333333333333,4,1,0,80,0,1
182882,-86.2068965517241,4,1,0,80,0,1
182968,-84.0336134453781,4,1,0,80,0,1
183139,-86.9565217391304,4,1,0,80,0,1
183225,-84.7457627118644,4,1,0,80,0,1
183410,-86.9565217391304,4,1,0,80,0,1
183467,-84.7457627118644,4,1,0,80,0,1
183524,-82.6446280991736,4,1,0,80,0,1
183581,-80.6451612903226,4,1,0,80,0,1
183652,-81.3008130081301,4,1,0,80,0,1
183752,-81.9672131147541,4,1,0,80,0,1
183810,-84.7457627118644,4,1,0,80,0,1
183867,-87.719298245614,4,1,0,80,0,1
185152,-87.719298245614,4,1,0,80,0,0
185452,-107.52688172043,4,1,0,80,0,0
185709,-112.359550561798,4,1,0,80,0,0
185966,-111.111111111111,4,1,0,80,0,0
186052,-108.695652173913,4,1,0,80,0,0
186224,-104.166666666667,4,1,0,80,0,0
186310,-102.040816326531,4,1,0,80,0,0
186495,-100,4,1,0,80,0,0
186524,-100,4,1,0,80,0,1
186552,-96.1538461538461,4,1,0,80,0,1
186609,-92.5925925925926,4,1,0,80,0,1
186666,-89.2857142857143,4,1,0,80,0,1
186737,-87.719298245614,4,1,0,80,0,1
186823,-83.3333333333333,4,1,0,80,0,1
186995,-86.2068965517241,4,1,0,80,0,1
187080,-84.0336134453781,4,1,0,80,0,1
187252,-86.9565217391304,4,1,0,80,0,1
187337,-84.7457627118644,4,1,0,80,0,1
187423,-82.6446280991736,4,1,0,80,0,1
187509,-80.6451612903226,4,1,0,80,0,1
187581,-81.9672131147541,4,1,0,80,0,1
187638,-83.3333333333333,4,1,0,80,0,1
187695,-84.7457627118644,4,1,0,80,0,1
187766,-84.0336134453781,4,1,0,80,0,1
187873,-81.9672131147541,4,1,0,80,0,1
187916,-80,4,1,0,80,0,1
188045,-81.9672131147541,4,1,0,80,0,1
188087,-80,4,1,0,80,0,1
188195,-81.9672131147541,4,1,0,80,0,1
188366,-86.2068965517241,4,1,0,80,0,1
188452,-84.0336134453781,4,1,0,80,0,1
188623,-86.9565217391304,4,1,0,80,0,1
188709,-86.2068965517241,4,1,0,80,0,1
188809,-85.4700854700855,4,1,0,80,0,1
188895,-86.9565217391304,4,1,0,80,0,1
188952,-84.7457627118644,4,1,0,80,0,1
189009,-82.6446280991736,4,1,0,80,0,1
189066,-80.6451612903226,4,1,0,80,0,1
189137,-81.3008130081301,4,1,0,80,0,1
189237,-81.9672131147541,4,1,0,80,0,1
189295,-84.7457627118644,4,1,0,80,0,1
189352,-87.719298245614,4,1,0,80,0,1
189566,-100,4,1,0,80,0,1
191981,-100,4,1,0,80,0,1
192038,-96.1538461538461,4,1,0,80,0,1
192095,-92.5925925925926,4,1,0,80,0,1
192152,-89.2857142857143,4,1,0,80,0,1
192223,-87.719298245614,4,1,0,80,0,1
192309,-83.3333333333333,4,1,0,80,0,1
192481,-86.2068965517241,4,1,0,80,0,1
192566,-84.0336134453781,4,1,0,80,0,1
192738,-86.9565217391304,4,1,0,80,0,1
192823,-84.7457627118644,4,1,0,80,0,1
192909,-82.6446280991736,4,1,0,80,0,1
192995,-80.6451612903226,4,1,0,80,0,1
193067,-81.9672131147541,4,1,0,80,0,1
193124,-83.3333333333333,4,1,0,80,0,1
193181,-84.7457627118644,4,1,0,80,0,1
193253,-84.7457627118644,4,1,0,80,0,1
193353,-86.2068965517241,4,1,0,80,0,1
193410,-84.7457627118644,4,1,0,80,0,1
193467,-83.3333333333333,4,1,0,80,0,1
193524,-81.9672131147541,4,1,0,80,0,1
193596,-82.6446280991736,4,1,0,80,0,1
193681,-83.3333333333333,4,1,0,80,0,1
193853,-86.2068965517241,4,1,0,80,0,1
193939,-84.0336134453781,4,1,0,80,0,1
194110,-86.9565217391304,4,1,0,80,0,1
194196,-86.2068965517241,4,1,0,80,0,1
194281,-85.4700854700855,4,1,0,80,0,1
194381,-86.9565217391304,4,1,0,80,0,1
194438,-84.7457627118644,4,1,0,80,0,1
194495,-82.6446280991736,4,1,0,80,0,1
194552,-80.6451612903226,4,1,0,80,0,1
194623,-81.3008130081301,4,1,0,80,0,1
194723,-81.9672131147541,4,1,0,80,0,1
194781,-84.7457627118644,4,1,0,80,0,1
194838,-87.719298245614,4,1,0,80,0,1
194924,-89.2857142857143,4,1,0,80,0,1
195038,-90.9090909090909,4,1,0,80,0,1
195224,-92.5925925925926,4,1,0,80,0,1
195309,-93.4579439252336,4,1,0,80,0,1
195481,-95.2380952380952,4,1,0,80,0,1
196124,-95.2380952380952,4,1,0,80,0,0
196252,-97.0873786407767,4,1,0,80,0,0
196424,-99.009900990099,4,1,0,80,0,0
196595,-101.010101010101,4,1,0,80,0,0
196681,-102.040816326531,4,1,0,80,0,0
196766,-103.092783505155,4,1,0,80,0,0
196938,-105.263157894737,4,1,0,80,0,0
197109,-107.52688172043,4,1,0,80,0,0
197195,-108.695652173913,4,1,0,80,0,0
197281,-109.89010989011,4,1,0,80,0,0
197452,-66.6666666666667,4,1,0,80,0,0
198138,-71.4285714285714,4,1,0,80,0,0
198224,-73.5294117647059,4,1,0,80,0,0
198288,-75.7575757575758,4,1,0,80,0,0
198374,-78.125,4,1,0,80,0,0
198481,-80.6451612903226,4,1,0,80,0,0
198652,-83.3333333333333,4,1,0,80,0,0
198824,-50,4,1,0,80,0,0
199167,-83.3333333333333,4,1,0,80,0,0
199531,-83.3333333333333,4,1,0,80,0,1
199574,-81.3008130081301,4,1,0,80,0,1
199617,-79.3650793650794,4,1,0,80,0,1
199702,-83.3333333333333,4,1,0,80,0,1
199831,-81.3008130081301,4,1,0,80,0,1
199874,-79.3650793650794,4,1,0,80,0,1
199960,-83.3333333333333,4,1,0,80,0,1
200002,-81.3008130081301,4,1,0,80,0,1
200045,-79.3650793650794,4,1,0,80,0,1
200131,-83.3333333333333,4,1,0,80,0,1
200195,-83.3333333333333,4,1,0,80,0,0
201652,-84.0336134453781,4,1,0,80,0,0
201824,-85.4700854700855,4,1,0,80,0,0
201909,-86.2068965517241,4,1,0,80,0,0
202081,-87.719298245614,4,1,0,80,0,0
202166,-88.4955752212389,4,1,0,80,0,0
202252,-89.2857142857143,4,1,0,80,0,0
202338,-90.0900900900901,4,1,0,80,0,0
202424,-90.9090909090909,4,1,0,80,0,0
202509,-91.743119266055,4,1,0,80,0,0
202595,-92.5925925925926,4,1,0,80,0,0
202681,-93.4579439252336,4,1,0,80,0,0
202766,-94.3396226415094,4,1,0,80,0,0
202852,-95.2380952380952,4,1,0,80,0,0
202938,-50,4,1,0,80,0,0
203195,-95.2380952380952,4,1,0,80,0,0
203281,-94.3396226415094,4,1,0,80,0,0
203467,-92.5925925925926,4,1,0,80,0,0
203524,-91.743119266055,4,1,0,80,0,0
203581,-90.9090909090909,4,1,0,80,0,0
203638,-90.0900900900901,4,1,0,80,0,0
203710,-89.2857142857143,4,1,0,80,0,0
203795,-87.719298245614,4,1,0,80,0,0
203881,-86.2068965517241,4,1,0,80,0,0
203981,-84.7457627118644,4,1,0,80,0,0
204038,-83.3333333333333,4,1,0,80,0,0
204095,-81.9672131147541,4,1,0,80,0,0
204152,-80.6451612903226,4,1,0,80,0,0
204210,-79.3650793650794,4,1,0,80,0,0
204267,-78.125,4,1,0,80,0,0
204324,-76.9230769230769,4,1,0,80,0,0
204652,-83.3333333333333,4,1,0,80,0,0
205017,-83.3333333333333,4,1,0,80,0,1
205060,-81.3008130081301,4,1,0,80,0,1
205103,-79.3650793650794,4,1,0,80,0,1
205188,-83.3333333333333,4,1,0,80,0,1
205317,-81.3008130081301,4,1,0,80,0,1
205360,-79.3650793650794,4,1,0,80,0,1
205446,-83.3333333333333,4,1,0,80,0,1
205488,-81.3008130081301,4,1,0,80,0,1
205531,-79.3650793650794,4,1,0,80,0,1
205617,-83.3333333333333,4,1,0,80,0,1
205681,-83.3333333333333,4,1,0,80,0,0
207652,-82.6446280991736,4,1,0,80,0,0
207738,-81.9672131147541,4,1,0,80,0,0
207824,-81.3008130081301,4,1,0,80,0,0
207995,-80,4,1,0,80,0,0
208081,-79.3650793650794,4,1,0,80,0,0
208252,-78.125,4,1,0,80,0,0
208338,-77.5193798449612,4,1,0,80,0,0
208424,-76.9230769230769,4,1,0,80,0,0
208767,-104.166666666667,4,1,0,80,0,0
208938,-100,4,1,0,80,0,0
209110,-96.1538461538461,4,1,0,80,0,0
209281,-92.5925925925926,4,1,0,80,0,0
209452,-89.2857142857143,4,1,0,80,0,0
209624,-86.2068965517241,4,1,0,80,0,0
209795,-83.3333333333333,4,1,0,80,0,0
209838,-83.3333333333333,4,1,0,80,0,1
209902,-85.4700854700855,4,1,0,80,0,1
209945,-83.3333333333333,4,1,0,80,0,1
209988,-81.3008130081301,4,1,0,80,0,1
210074,-83.3333333333333,4,1,0,80,0,1
210417,-85.4700854700855,4,1,0,80,0,1
210460,-83.3333333333333,4,1,0,80,0,1
210502,-81.3008130081301,4,1,0,80,0,1
210588,-83.3333333333333,4,1,0,80,0,1
210652,-81.3008130081301,4,1,0,80,0,1
210738,-83.3333333333333,4,1,0,80,0,1
210824,-81.3008130081301,4,1,0,80,0,1
211017,-85.4700854700855,4,1,0,80,0,1
211060,-83.3333333333333,4,1,0,80,0,1
211102,-81.3008130081301,4,1,0,80,0,1
211145,-83.3333333333333,4,1,0,80,0,0
211531,-83.3333333333333,4,1,0,80,0,1
211574,-81.9672131147541,4,1,0,80,0,1
211617,-80.6451612903224,4,1,0,80,0,1
211702,-83.3333333333333,4,1,0,80,0,1
211745,-81.9672131147541,4,1,0,80,0,1
211788,-80.6451612903224,4,1,0,80,0,1
211874,-83.3333333333333,4,1,0,80,0,1
211917,-81.9672131147541,4,1,0,80,0,1
211960,-80.6451612903224,4,1,0,80,0,1
212195,-83.3333333333333,4,1,0,80,0,1
212559,-83.3333333333333,4,1,0,80,0,1
212602,-81.9672131147541,4,1,0,80,0,1
212645,-80.6451612903224,4,1,0,80,0,1
212795,-83.3333333333333,4,1,0,80,0,1
212945,-83.3333333333333,4,1,0,80,0,0
214274,-83.3333333333333,4,1,0,80,0,1
214317,-81.9672131147541,4,1,0,80,0,1
214360,-80.6451612903224,4,1,0,80,0,1
214616,-83.3333333333333,4,1,0,80,0,1
214659,-81.9672131147541,4,1,0,80,0,1
214702,-80.6451612903224,4,1,0,80,0,1
214788,-81.9672131147541,4,1,0,80,0,1
214874,-80.6451612903224,4,1,0,80,0,1
214917,-79.3650793650796,4,1,0,80,0,1
214960,-78.1250000000002,4,1,0,80,0,1
215045,-79.3650793650796,4,1,0,80,0,1
215131,-78.1250000000002,4,1,0,80,0,1
215174,-76.9230769230769,4,1,0,80,0,1
215217,-75.7575757575758,4,1,0,80,0,1
215259,-75.7575757575758,4,1,0,80,0,0
215645,-78.1250000000002,4,1,0,80,0,1
215688,-76.9230769230769,4,1,0,80,0,1
215731,-75.7575757575758,4,1,0,80,0,1
215988,-78.1250000000002,4,1,0,80,0,1
216031,-76.9230769230769,4,1,0,80,0,1
216074,-75.7575757575758,4,1,0,80,0,1
216159,-76.9230769230769,4,1,0,80,0,1
216245,-75.7575757575758,4,1,0,80,0,1
216288,-74.6268656716418,4,1,0,80,0,1
216331,-73.5294117647059,4,1,0,80,0,1
216416,-74.6268656716418,4,1,0,80,0,1
216502,-73.5294117647059,4,1,0,80,0,1
216545,-72.463768115942,4,1,0,80,0,1
216588,-71.4285714285714,4,1,0,80,0,1
216652,-70.4225352112676,4,1,0,80,0,0
216824,-66.6666666666667,4,1,0,80,0,0
217081,-60.6060606060606,4,1,0,80,0,0
217338,-50,4,1,0,80,0,0
218881,-66.6666666666667,4,1,0,80,0,0
219481,-100,4,1,0,50,0,0
222138,-111.111111111111,4,1,0,50,0,0
224881,-125,4,1,0,50,0,0
227624,-142.857142857143,4,1,0,50,0,0

[HitObjects]
256,192,10,5,4,0:0:0:0:
256,192,1381,1,8,0:0:0:0:
256,192,1638,1,8,0:0:0:0:
256,192,1895,1,0,0:0:0:0:
256,192,2152,1,0,0:0:0:0:
256,192,2410,1,8,0:0:0:0:
256,192,2752,1,4,0:0:0:0:
256,192,4124,1,8,0:0:0:0:
256,192,4381,1,0,0:0:0:0:
256,192,4638,1,8,0:0:0:0:
256,192,4895,1,8,0:0:0:0:
256,192,5152,1,0,0:0:0:0:
256,192,5495,1,4,0:0:0:0:
256,192,6867,1,8,0:0:0:0:
256,192,7124,1,0,0:0:0:0:
256,192,7381,1,8,0:0:0:0:
256,192,7638,1,0,0:0:0:0:
256,192,7895,1,8,0:0:0:0:
256,192,8238,1,4,0:0:0:0:
256,192,8924,1,8,0:0:0:0:
256,192,9267,1,8,0:0:0:0:
256,192,9610,1,4,0:0:0:0:
256,192,10295,1,8,0:0:0:0:
256,192,10638,1,0,0:0:0:0:
256,192,10981,1,4,0:0:0:0:
256,192,11495,1,0,0:0:0:0:
256,192,12010,1,0,0:0:0:0:
256,192,12352,1,8,0:0:0:0:
256,192,12610,1,8,0:0:0:0:
256,192,12867,1,0,0:0:0:0:
256,192,13124,1,0,0:0:0:0:
256,192,13381,1,8,0:0:0:0:
256,192,13724,1,4,0:0:0:0:
256,192,14238,1,0,0:0:0:0:
256,192,14752,1,0,0:0:0:0:
256,192,15095,1,8,0:0:0:0:
256,192,15352,1,0,0:0:0:0:
256,192,15610,1,8,0:0:0:0:
256,192,15867,1,8,0:0:0:0:
256,192,16124,1,0,0:0:0:0:
256,192,16467,1,4,0:0:0:0:
256,192,16981,1,0,0:0:0:0:
256,192,17495,1,0,0:0:0:0:
256,192,17838,1,8,0:0:0:0:
256,192,18095,1,0,0:0:0:0:
256,192,18352,1,8,0:0:0:0:
256,192,18610,1,0,0:0:0:0:
256,192,18867,1,8,0:0:0:0:
256,192,19210,1,4,0:0:0:0:
256,192,19724,1,0,0:0:0:0:
256,192,19810,1,0,0:0:0:0:
256,192,19895,1,0,0:0:0:0:
256,192,20152,1,8,0:0:0:0:
256,192,20410,1,8,0:0:0:0:
256,192,20581,1,4,0:0:0:0:
256,192,21095,1,0,0:0:0:0:
256,192,21181,1,0,0:0:0:0:
256,192,21267,1,8,0:0:0:0:
256,192,21524,1,0,0:0:0:0:
256,192,21781,1,8,0:0:0:0:
256,192,21952,1,4,0:0:0:0:
256,192,22295,1,8,0:0:0:0:
256,192,22810,1,0,0:0:0:0:
256,192,22981,1,8,0:0:0:0:
256,192,23152,1,8,0:0:0:0:
256,192,23238,1,8,0:0:0:0:
256,192,23324,1,0,0:0:0:0:
256,192,23581,1,0,0:0:0:0:
256,192,23667,1,8,0:0:0:0:
256,192,23838,1,0,0:0:0:0:
256,192,24095,1,0,0:0:0:0:
256,192,24352,1,8,0:0:0:0:
256,192,24695,1,0,0:0:0:0:
256,192,25038,1,8,0:0:0:0:
256,192,25552,1,0,0:0:0:0:
256,192,25724,1,8,0:0:0:0:
256,192,25895,1,0,0:0:0:0:
256,192,25981,1,0,0:0:0:0:
256,192,26067,1,8,0:0:0:0:
256,192,26324,1,8,0:0:0:0:
256,192,26410,1,0,0:0:0:0:
256,192,26581,1,8,0:0:0:0:
256,192,26838,1,0,0:0:0:0:
256,192,27095,1,8,0:0:0:0:
256,192,27267,1,8,0:0:0:0:
256,192,27438,1,0,0:0:0:0:
256,192,27781,1,8,0:0:0:0:
256,192,27952,1,0,0:0:0:0:
256,192,28295,1,0,0:0:0:0:
256,192,28467,1,8,0:0:0:0:
256,192,28638,1,0,0:0:0:0:
256,192,28724,1,8,0:0:0:0:
256,192,28810,1,0,0:0:0:0:
256,192,29067,1,8,0:0:0:0:
256,192,29152,1,8,0:0:0:0:
256,192,29324,1,0,0:0:0:0:
256,192,29581,1,8,0:0:0:0:
256,192,29667,1,0,0:0:0:0:
256,192,29838,1,8,0:0:0:0:
256,192,30181,1,0,0:0:0:0:
256,192,30524,1,8,0:0:0:0:
256,192,30695,1,8,0:0:0:0:
256,192,30781,1,8,0:0:0:0:
256,192,31038,1,0,0:0:0:0:
256,192,31210,1,8,0:0:0:0:
256,192,31552,1,0,0:0:0:0:
256,192,31724,1,0,0:0:0:0:
256,192,31895,1,8,0:0:0:0:
256,192,32067,1,0,0:0:0:0:
256,192,32152,1,0,0:0:0:0:
256,192,32238,1,8,0:0:0:0:
256,192,32410,1,0,0:0:0:0:
256,192,32581,1,8,0:0:0:0:
256,192,32667,1,0,0:0:0:0:
256,192,32924,1,0,0:0:0:0:
256,192,33267,1,8,0:0:0:0:
256,192,33438,1,0,0:0:0:0:
256,192,33781,1,0,0:0:0:0:
256,192,33952,1,8,0:0:0:0:
256,192,34124,1,8,0:0:0:0:
256,192,34210,1,8,0:0:0:0:
256,192,34295,1,0,0:0:0:0:
256,192,34552,1,0,0:0:0:0:
256,192,34638,1,8,0:0:0:0:
256,192,34810,1,0,0:0:0:0:
256,192,35067,1,8,0:0:0:0:
256,192,35152,1,0,0:0:0:0:
256,192,35324,1,8,0:0:0:0:
256,192,35667,1,0,0:0:0:0:
256,192,36010,1,8,0:0:0:0:
256,192,36181,1,8,0:0:0:0:
256,192,36524,1,0,0:0:0:0:
256,192,36695,1,8,0:0:0:0:
256,192,36867,1,0,0:0:0:0:
256,192,36952,1,0,0:0:0:0:
256,192,37038,1,8,0:0:0:0:
256,192,37295,1,8,0:0:0:0:
256,192,37381,1,0,0:0:0:0:
256,192,37552,1,8,0:0:0:0:
256,192,37810,1,0,0:0:0:0:
256,192,37895,1,8,0:0:0:0:
256,192,38067,1,0,0:0:0:0:
256,192,38238,1,8,0:0:0:0:
256,192,38410,1,0,0:0:0:0:
256,192,38495,1,0,0:0:0:0:
256,192,38581,1,8,0:0:0:0:
256,192,38667,1,0,0:0:0:0:
256,192,38752,1,8,0:0:0:0:
256,192,38838,1,0,0:0:0:0:
256,192,38924,1,0,0:0:0:0:
256,192,39010,1,8,0:0:0:0:
256,192,39095,1,0,0:0:0:0:
256,192,39181,1,8,0:0:0:0:
256,192,39267,1,0,0:0:0:0:
256,192,39352,1,0,0:0:0:0:
256,192,39438,1,8,0:0:0:0:
256,192,39524,1,0,0:0:0:0:
256,192,39610,1,8,0:0:0:0:
256,192,39695,1,8,0:0:0:0:
256,192,39781,1,0,0:0:0:0:
256,192,39867,1,0,0:0:0:0:
256,192,39952,1,8,0:0:0:0:
256,192,40038,1,0,0:0:0:0:
256,192,40124,1,8,0:0:0:0:
256,192,40210,1,0,0:0:0:0:
256,192,40295,1,0,0:0:0:0:
256,192,40381,1,0,0:0:0:0:
256,192,40467,1,8,0:0:0:0:
256,192,40552,1,8,0:0:0:0:
256,192,40638,1,0,0:0:0:0:
256,192,40724,1,0,0:0:0:0:
256,192,40810,1,8,0:0:0:0:
256,192,40895,1,0,0:0:0:0:
256,192,40981,1,8,0:0:0:0:
256,192,41067,1,8,0:0:0:0:
256,192,41152,1,0,0:0:0:0:
256,192,41210,1,0,0:0:0:0:
256,192,41267,1,0,0:0:0:0:
256,192,41324,1,8,0:0:0:0:
256,192,41381,1,0,0:0:0:0:
256,192,41438,1,0,0:0:0:0:
256,192,41495,1,8,0:0:0:0:
256,192,41581,1,8,0:0:0:0:
256,192,41667,1,0,0:0:0:0:
256,192,41752,1,8,0:0:0:0:
256,192,41838,1,0,0:0:0:0:
256,192,41895,1,0,0:0:0:0:
256,192,41952,1,8,0:0:0:0:
256,192,42010,1,0,0:0:0:0:
256,192,42067,1,0,0:0:0:0:
256,192,42124,1,0,0:0:0:0:
256,192,42181,1,8,0:0:0:0:
256,192,42267,1,8,0:0:0:0:
256,192,42352,1,0,0:0:0:0:
256,192,42438,1,0,0:0:0:0:
256,192,42524,1,8,0:0:0:0:
256,192,42695,1,0,0:0:0:0:
256,192,42781,1,0,0:0:0:0:
256,192,42952,1,0,0:0:0:0:
256,192,43038,1,8,0:0:0:0:
256,192,43210,1,0,0:0:0:0:
256,192,43295,1,0,0:0:0:0:
256,192,43467,1,0,0:0:0:0:
256,192,43510,1,0,0:0:0:0:
256,192,43552,1,8,0:0:0:0:
256,192,43724,1,0,0:0:0:0:
256,192,43895,1,12,0:0:0:0:
256,192,44152,1,8,0:0:0:0:
256,192,44410,1,0,0:0:0:0:
256,192,44667,1,8,0:0:0:0:
256,192,44924,1,8,0:0:0:0:
256,192,45181,1,0,0:0:0:0:
256,192,45438,1,8,0:0:0:0:
256,192,45695,1,8,0:0:0:0:
256,192,45952,1,0,0:0:0:0:
256,192,46210,1,8,0:0:0:0:
256,192,46467,1,0,0:0:0:0:
256,192,46638,1,8,0:0:0:0:
256,192,46895,1,0,0:0:0:0:
256,192,47152,1,0,0:0:0:0:
256,192,47410,1,8,0:0:0:0:
256,192,47667,1,0,0:0:0:0:
256,192,47924,1,0,0:0:0:0:
256,192,48181,1,8,0:0:0:0:
256,192,48438,1,0,0:0:0:0:
256,192,48695,1,0,0:0:0:0:
256,192,48952,1,8,0:0:0:0:
256,192,49210,1,0,0:0:0:0:
256,192,49381,1,8,0:0:0:0:
256,192,49638,1,8,0:0:0:0:
256,192,49895,1,0,0:0:0:0:
256,192,50152,1,8,0:0:0:0:
256,192,50410,1,8,0:0:0:0:
256,192,50667,1,0,0:0:0:0:
256,192,50924,1,8,0:0:0:0:
256,192,51181,1,8,0:0:0:0:
256,192,51438,1,0,0:0:0:0:
256,192,51695,1,8,0:0:0:0:
256,192,51952,1,0,0:0:0:0:
256,192,52124,1,8,0:0:0:0:
256,192,52381,1,0,0:0:0:0:
256,192,52638,1,0,0:0:0:0:
256,192,52895,1,8,0:0:0:0:
256,192,53152,1,8,0:0:0:0:
256,192,53410,1,0,0:0:0:0:
256,192,53495,1,8,0:0:0:0:
256,192,53752,1,0,0:0:0:0:
256,192,54010,1,0,0:0:0:0:
256,192,54267,1,8,0:0:0:0:
256,192,54524,1,0,0:0:0:0:
256,192,54781,1,0,0:0:0:0:
256,192,54867,1,8,0:0:0:0:
256,192,55038,1,8,0:0:0:0:
256,192,55210,1,0,0:0:0:0:
256,192,55381,1,8,0:0:0:0:
256,192,55467,1,8,0:0:0:0:
256,192,55552,1,0,0:0:0:0:
256,192,55724,1,0,0:0:0:0:
256,192,55895,1,8,0:0:0:0:
256,192,56067,1,0,0:0:0:0:
256,192,56152,1,0,0:0:0:0:
256,192,56238,1,8,0:0:0:0:
256,192,56410,1,8,0:0:0:0:
256,192,56581,1,0,0:0:0:0:
256,192,56752,1,8,0:0:0:0:
256,192,56838,1,0,0:0:0:0:
256,192,56924,1,0,0:0:0:0:
256,192,57095,1,0,0:0:0:0:
256,192,57267,1,8,0:0:0:0:
256,192,57438,1,8,0:0:0:0:
256,192,57524,1,8,0:0:0:0:
256,192,57610,1,0,0:0:0:0:
256,192,57781,1,0,0:0:0:0:
256,192,57952,1,8,0:0:0:0:
256,192,58124,1,0,0:0:0:0:
256,192,58210,1,0,0:0:0:0:
256,192,58295,1,0,0:0:0:0:
256,192,58467,1,8,0:0:0:0:
256,192,58638,1,8,0:0:0:0:
256,192,58810,1,0,0:0:0:0:
256,192,58895,1,8,0:0:0:0:
256,192,58981,1,0,0:0:0:0:
256,192,59152,1,0,0:0:0:0:
256,192,59324,1,8,0:0:0:0:
256,192,59495,1,0,0:0:0:0:
256,192,59581,1,0,0:0:0:0:
256,192,59667,1,8,0:0:0:0:
256,192,59752,1,0,0:0:0:0:
256,192,59924,1,0,0:0:0:0:
256,192,60010,1,8,0:0:0:0:
256,192,60181,1,8,0:0:0:0:
256,192,60352,1,0,0:0:0:0:
256,192,60438,1,8,0:0:0:0:
256,192,60524,1,0,0:0:0:0:
256,192,60610,1,0,0:0:0:0:
256,192,60695,1,8,0:0:0:0:
256,192,60781,1,0,0:0:0:0:
256,192,60867,1,8,0:0:0:0:
256,192,60952,1,8,0:0:0:0:
256,192,61038,1,0,0:0:0:0:
256,192,61124,1,8,0:0:0:0:
256,192,61210,1,0,0:0:0:0:
256,192,61295,1,0,0:0:0:0:
256,192,61381,1,8,0:0:0:0:
256,192,61467,1,8,0:0:0:0:
256,192,61552,1,8,0:0:0:0:
256,192,61638,1,0,0:0:0:0:
256,192,61724,1,8,0:0:0:0:
256,192,61810,1,8,0:0:0:0:
256,192,61895,1,0,0:0:0:0:
256,192,61981,1,0,0:0:0:0:
256,192,62067,1,8,0:0:0:0:
256,192,62152,1,0,0:0:0:0:
256,192,62238,1,8,0:0:0:0:
256,192,62324,1,0,0:0:0:0:
256,192,62410,1,0,0:0:0:0:
256,192,62495,1,8,0:0:0:0:
256,192,62581,1,0,0:0:0:0:
256,192,62667,1,8,0:0:0:0:
256,192,62752,1,8,0:0:0:0:
256,192,62838,1,0,0:0:0:0:
256,192,62924,1,8,0:0:0:0:
256,192,63010,1,0,0:0:0:0:
256,192,63095,1,8,0:0:0:0:
256,192,63181,1,8,0:0:0:0:
256,192,63267,1,0,0:0:0:0:
256,192,63352,1,0,0:0:0:0:
256,192,63438,1,8,0:0:0:0:
256,192,63524,1,8,0:0:0:0:
256,192,63610,1,0,0:0:0:0:
256,192,63695,1,0,0:0:0:0:
256,192,63781,1,8,0:0:0:0:
256,192,63838,1,0,0:0:0:0:
256,192,63895,1,0,0:0:0:0:
256,192,63952,1,8,0:0:0:0:
256,192,64010,1,0,0:0:0:0:
256,192,64067,1,0,0:0:0:0:
256,192,64124,1,8,0:0:0:0:
256,192,64181,1,8,0:0:0:0:
256,192,64238,1,8,0:0:0:0:
256,192,64295,1,0,0:0:0:0:
256,192,64352,1,0,0:0:0:0:
256,192,64410,1,0,0:0:0:0:
256,192,64467,1,8,0:0:0:0:
256,192,64810,1,8,0:0:0:0:
256,192,64981,1,0,0:0:0:0:
256,192,65152,1,8,0:0:0:0:
256,192,65324,1,0,0:0:0:0:
256,192,65410,1,0,0:0:0:0:
256,192,65495,1,8,0:0:0:0:
256,192,65581,1,0,0:0:0:0:
256,192,65838,1,0,0:0:0:0:
256,192,65895,1,0,0:0:0:0:
256,192,65952,1,0,0:0:0:0:
256,192,66010,1,0,0:0:0:0:
256,192,66095,1,0,0:0:0:0:
256,192,66181,1,8,0:0:0:0:
256,192,66352,1,0,0:0:0:0:
256,192,66438,1,0,0:0:0:0:
256,192,66610,1,8,0:0:0:0:
256,192,66695,1,0,0:0:0:0:
256,192,66781,1,0,0:0:0:0:
256,192,66867,1,8,0:0:0:0:
256,192,67038,1,0,0:0:0:0:
256,192,67124,1,8,0:0:0:0:
256,192,67210,1,0,0:0:0:0:
256,192,67252,1,0,0:0:0:0:
256,192,67381,1,0,0:0:0:0:
256,192,67424,1,0,0:0:0:0:
256,192,67552,1,8,0:0:0:0:
256,192,67724,1,0,0:0:0:0:
256,192,67810,1,0,0:0:0:0:
256,192,67981,1,8,0:0:0:0:
256,192,68067,1,0,0:0:0:0:
256,192,68238,1,8,0:0:0:0:
256,192,68295,1,0,0:0:0:0:
256,192,68352,1,0,0:0:0:0:
256,192,68410,1,8,0:0:0:0:
256,192,68495,1,8,0:0:0:0:
256,192,68581,1,0,0:0:0:0:
256,192,68638,1,0,0:0:0:0:
256,192,68695,1,0,0:0:0:0:
256,192,68924,1,8,0:0:0:0:
256,192,69095,1,0,0:0:0:0:
256,192,69181,1,0,0:0:0:0:
256,192,69267,1,0,0:0:0:0:
256,192,69438,1,0,0:0:0:0:
256,192,69524,1,0,0:0:0:0:
256,192,69610,1,8,0:0:0:0:
256,192,69781,1,0,0:0:0:0:
256,192,69824,1,0,0:0:0:0:
256,192,69867,1,0,0:0:0:0:
256,192,69952,1,8,0:0:0:0:
256,192,70010,1,8,0:0:0:0:
256,192,70067,1,8,0:0:0:0:
256,192,70124,1,0,0:0:0:0:
256,192,70210,1,0,0:0:0:0:
256,192,70295,1,8,0:0:0:0:
256,192,70467,1,0,0:0:0:0:
256,192,70552,1,8,0:0:0:0:
256,192,70638,1,0,0:0:0:0:
256,192,70724,1,0,0:0:0:0:
256,192,70895,1,0,0:0:0:0:
256,192,70981,1,8,0:0:0:0:
256,192,71067,1,8,0:0:0:0:
256,192,71152,1,0,0:0:0:0:
256,192,71324,1,8,0:0:0:0:
256,192,71381,1,8,0:0:0:0:
256,192,71438,1,8,0:0:0:0:
256,192,71495,1,8,0:0:0:0:
256,192,71581,1,0,0:0:0:0:
256,192,71667,1,8,0:0:0:0:
256,192,71838,1,8,0:0:0:0:
256,192,71924,1,0,0:0:0:0:
256,192,72095,1,0,0:0:0:0:
256,192,72181,1,0,0:0:0:0:
256,192,72352,1,8,0:0:0:0:
256,192,72438,1,8,0:0:0:0:
256,192,72524,1,0,0:0:0:0:
256,192,72610,1,8,0:0:0:0:
256,192,72695,1,0,0:0:0:0:
256,192,72752,1,8,0:0:0:0:
256,192,72810,1,8,0:0:0:0:
256,192,72867,1,0,0:0:0:0:
256,192,72952,1,0,0:0:0:0:
256,192,73038,1,8,0:0:0:0:
256,192,73210,1,8,0:0:0:0:
256,192,73295,1,0,0:0:0:0:
256,192,73467,1,0,0:0:0:0:
256,192,73552,1,0,0:0:0:0:
256,192,73724,1,8,0:0:0:0:
256,192,73781,1,8,0:0:0:0:
256,192,73838,1,8,0:0:0:0:
256,192,73895,1,0,0:0:0:0:
256,192,73981,1,0,0:0:0:0:
256,192,74067,1,8,0:0:0:0:
256,192,74124,1,8,0:0:0:0:
256,192,74181,1,0,0:0:0:0:
256,192,74410,1,8,0:0:0:0:
256,192,74581,1,0,0:0:0:0:
256,192,74667,1,0,0:0:0:0:
256,192,74838,1,8,0:0:0:0:
256,192,74881,1,8,0:0:0:0:
256,192,74924,1,0,0:0:0:0:
256,192,75010,1,0,0:0:0:0:
256,192,75095,1,8,0:0:0:0:
256,192,75181,1,8,0:0:0:0:
256,192,75267,1,0,0:0:0:0:
256,192,75438,1,8,0:0:0:0:
256,192,75781,1,8,0:0:0:0:
256,192,76038,1,0,0:0:0:0:
256,192,76295,1,0,0:0:0:0:
256,192,76381,1,0,0:0:0:0:
256,192,76467,1,8,0:0:0:0:
256,192,76552,1,0,0:0:0:0:
256,192,76810,1,0,0:0:0:0:
256,192,76867,1,0,0:0:0:0:
256,192,76924,1,0,0:0:0:0:
256,192,76981,1,0,0:0:0:0:
256,192,77067,1,0,0:0:0:0:
256,192,77152,1,8,0:0:0:0:
256,192,77324,1,0,0:0:0:0:
256,192,77410,1,0,0:0:0:0:
256,192,77581,1,8,0:0:0:0:
256,192,77667,1,0,0:0:0:0:
256,192,77752,1,0,0:0:0:0:
256,192,77838,1,8,0:0:0:0:
256,192,77895,1,8,0:0:0:0:
256,192,77952,1,8,0:0:0:0:
256,192,78010,1,0,0:0:0:0:
256,192,78095,1,8,0:0:0:0:
256,192,78181,1,0,0:0:0:0:
256,192,78224,1,0,0:0:0:0:
256,192,78352,1,0,0:0:0:0:
256,192,78395,1,0,0:0:0:0:
256,192,78524,1,8,0:0:0:0:
256,192,78695,1,0,0:0:0:0:
256,192,78781,1,0,0:0:0:0:
256,192,78953,1,8,0:0:0:0:
256,192,79039,1,0,0:0:0:0:
256,192,79124,1,0,0:0:0:0:
256,192,79210,1,8,0:0:0:0:
256,192,79267,1,0,0:0:0:0:
256,192,79324,1,0,0:0:0:0:
256,192,79381,1,8,0:0:0:0:
256,192,79467,1,8,0:0:0:0:
256,192,79552,1,0,0:0:0:0:
256,192,79610,1,0,0:0:0:0:
256,192,79667,1,0,0:0:0:0:
256,192,79895,1,8,0:0:0:0:
256,192,80067,1,0,0:0:0:0:
256,192,80152,1,0,0:0:0:0:
256,192,80238,1,0,0:0:0:0:
256,192,80324,1,8,0:0:0:0:
256,192,80410,1,0,0:0:0:0:
256,192,80495,1,0,0:0:0:0:
256,192,80581,1,8,0:0:0:0:
256,192,80667,1,8,0:0:0:0:
256,192,80752,1,0,0:0:0:0:
256,192,80795,1,0,0:0:0:0:
256,192,80838,1,0,0:0:0:0:
256,192,80924,1,8,0:0:0:0:
256,192,80981,1,8,0:0:0:0:
256,192,81038,1,8,0:0:0:0:
256,192,81095,1,0,0:0:0:0:
256,192,81181,1,0,0:0:0:0:
256,192,81267,1,8,0:0:0:0:
256,192,81438,1,0,0:0:0:0:
256,192,81524,1,8,0:0:0:0:
256,192,81610,1,0,0:0:0:0:
256,192,81695,1,0,0:0:0:0:
256,192,81781,1,8,0:0:0:0:
256,192,81867,1,0,0:0:0:0:
256,192,81952,1,8,0:0:0:0:
256,192,82038,1,8,0:0:0:0:
256,192,82124,1,0,0:0:0:0:
256,192,82210,1,0,0:0:0:0:
256,192,82295,1,8,0:0:0:0:
256,192,82352,1,8,0:0:0:0:
256,192,82410,1,8,0:0:0:0:
256,192,82467,1,8,0:0:0:0:
256,192,82552,1,0,0:0:0:0:
256,192,82638,1,8,0:0:0:0:
256,192,82810,1,0,0:0:0:0:
256,192,82895,1,0,0:0:0:0:
256,192,83067,1,8,0:0:0:0:
256,192,83152,1,0,0:0:0:0:
256,192,83238,1,0,0:0:0:0:
256,192,83324,1,8,0:0:0:0:
256,192,83381,1,8,0:0:0:0:
256,192,83438,1,8,0:0:0:0:
256,192,83495,1,0,0:0:0:0:
256,192,83581,1,8,0:0:0:0:
256,192,83667,1,0,0:0:0:0:
256,192,83724,1,8,0:0:0:0:
256,192,83781,1,8,0:0:0:0:
256,192,83838,1,0,0:0:0:0:
256,192,83924,1,0,0:0:0:0:
256,192,84010,1,8,0:0:0:0:
256,192,84181,1,0,0:0:0:0:
256,192,84267,1,0,0:0:0:0:
256,192,84438,1,8,0:0:0:0:
256,192,84524,1,0,0:0:0:0:
256,192,84610,1,0,0:0:0:0:
256,192,84695,1,8,0:0:0:0:
256,192,84752,1,8,0:0:0:0:
256,192,84810,1,8,0:0:0:0:
256,192,84867,1,0,0:0:0:0:
256,192,84952,1,0,0:0:0:0:
256,192,85038,1,8,0:0:0:0:
256,192,85095,1,8,0:0:0:0:
256,192,85152,1,0,0:0:0:0:
256,192,85267,1,0,0:0:0:0:
256,192,85381,1,8,0:0:0:0:
256,192,85552,1,0,0:0:0:0:
256,192,85638,1,0,0:0:0:0:
256,192,85810,1,8,0:0:0:0:
256,192,85852,1,8,0:0:0:0:
256,192,85895,1,0,0:0:0:0:
256,192,85981,1,8,0:0:0:0:
256,192,86024,1,8,0:0:0:0:
256,192,86067,1,0,0:0:0:0:
256,192,86152,1,8,0:0:0:0:
256,192,86238,1,8,0:0:0:0:
256,192,86324,1,8,0:0:0:0:
256,192,86410,1,0,0:0:0:0:
256,192,86581,1,8,0:0:0:0:
256,192,86752,1,8,0:0:0:0:
256,192,86924,1,0,0:0:0:0:
256,192,87010,1,0,0:0:0:0:
256,192,87095,1,8,0:0:0:0:
256,192,87267,1,0,0:0:0:0:
256,192,87438,1,8,0:0:0:0:
256,192,87524,1,8,0:0:0:0:
256,192,87610,1,0,0:0:0:0:
256,192,87781,1,4,0:0:0:0:
256,192,88124,1,8,0:0:0:0:
256,192,88295,1,0,0:0:0:0:
256,192,88381,1,8,0:0:0:0:
256,192,88467,1,8,0:0:0:0:
256,192,88552,1,8,0:0:0:0:
256,192,88638,1,0,0:0:0:0:
256,192,88695,1,0,0:0:0:0:
256,192,88752,1,0,0:0:0:0:
256,192,88810,1,8,0:0:0:0:
256,192,88895,1,0,0:0:0:0:
256,192,88981,1,8,0:0:0:0:
256,192,89067,1,8,0:0:0:0:
256,192,89152,1,0,0:0:0:0:
256,192,89238,1,8,0:0:0:0:
256,192,89324,1,8,0:0:0:0:
256,192,89410,1,0,0:0:0:0:
256,192,89495,1,8,0:0:0:0:
256,192,89667,1,0,0:0:0:0:
256,192,89752,1,0,0:0:0:0:
256,192,89838,1,8,0:0:0:0:
256,192,89924,1,8,0:0:0:0:
256,192,90010,1,0,0:0:0:0:
256,192,90067,1,0,0:0:0:0:
256,192,90124,1,0,0:0:0:0:
256,192,90181,1,8,0:0:0:0:
256,192,90238,1,8,0:0:0:0:
256,192,90295,1,8,0:0:0:0:
256,192,90352,1,0,0:0:0:0:
256,192,90438,1,8,0:0:0:0:
256,192,90524,1,0,0:0:0:0:
256,192,90581,1,0,0:0:0:0:
256,192,90638,1,8,0:0:0:0:
256,192,90695,1,0,0:0:0:0:
256,192,90781,1,0,0:0:0:0:
256,192,90867,1,8,0:0:0:0:
256,192,91038,1,0,0:0:0:0:
256,192,91124,1,8,0:0:0:0:
256,192,91210,1,8,0:0:0:0:
256,192,91295,1,8,0:0:0:0:
256,192,91381,1,0,0:0:0:0:
256,192,91438,1,0,0:0:0:0:
256,192,91495,1,0,0:0:0:0:
256,192,91552,1,8,0:0:0:0:
256,192,91638,1,0,0:0:0:0:
256,192,91724,1,8,0:0:0:0:
256,192,91810,1,8,0:0:0:0:
256,192,91895,1,0,0:0:0:0:
256,192,91981,1,0,0:0:0:0:
256,192,92152,1,0,0:0:0:0:
256,192,92238,1,8,0:0:0:0:
256,192,92410,1,0,0:0:0:0:
256,192,92495,1,0,0:0:0:0:
256,192,92581,1,8,0:0:0:0:
256,192,92667,1,8,0:0:0:0:
256,192,92752,1,0,0:0:0:0:
256,192,92838,1,0,0:0:0:0:
256,192,92924,1,8,0:0:0:0:
256,192,93010,1,0,0:0:0:0:
256,192,93095,1,8,0:0:0:0:
256,192,93181,1,8,0:0:0:0:
256,192,93267,1,4,0:0:0:0:
256,192,93524,1,0,0:0:0:0:
256,192,93610,1,8,0:0:0:0:
256,192,93781,1,8,0:0:0:0:
256,192,93867,1,0,0:0:0:0:
256,192,93952,1,8,0:0:0:0:
256,192,94038,1,8,0:0:0:0:
256,192,94124,1,0,0:0:0:0:
256,192,94181,1,0,0:0:0:0:
256,192,94238,1,8,0:0:0:0:
256,192,94295,1,8,0:0:0:0:
256,192,94381,1,0,0:0:0:0:
256,192,94467,1,8,0:0:0:0:
256,192,94552,1,8,0:0:0:0:
256,192,94638,1,0,0:0:0:0:
256,192,94724,1,0,0:0:0:0:
256,192,94810,1,8,0:0:0:0:
256,192,94895,1,0,0:0:0:0:
256,192,94981,1,8,0:0:0:0:
256,192,95152,1,0,0:0:0:0:
256,192,95238,1,0,0:0:0:0:
256,192,95324,1,8,0:0:0:0:
256,192,95410,1,8,0:0:0:0:
256,192,95495,1,0,0:0:0:0:
256,192,95552,1,0,0:0:0:0:
256,192,95610,1,0,0:0:0:0:
256,192,95667,1,8,0:0:0:0:
256,192,95724,1,0,0:0:0:0:
256,192,95781,1,0,0:0:0:0:
256,192,95838,1,8,0:0:0:0:
256,192,95924,1,8,0:0:0:0:
256,192,96010,1,0,0:0:0:0:
256,192,96067,1,0,0:0:0:0:
256,192,96124,1,8,0:0:0:0:
256,192,96181,1,0,0:0:0:0:
256,192,96267,1,0,0:0:0:0:
256,192,96352,1,8,0:0:0:0:
256,192,96524,1,8,0:0:0:0:
256,192,96610,1,0,0:0:0:0:
256,192,96695,1,8,0:0:0:0:
256,192,96781,1,8,0:0:0:0:
256,192,96867,1,0,0:0:0:0:
256,192,96924,1,0,0:0:0:0:
256,192,96981,1,8,0:0:0:0:
256,192,97038,1,8,0:0:0:0:
256,192,97124,1,0,0:0:0:0:
256,192,97210,1,8,0:0:0:0:
256,192,97295,1,8,0:0:0:0:
256,192,97381,1,0,0:0:0:0:
256,192,97467,1,0,0:0:0:0:
256,192,97510,1,0,0:0:0:0:
256,192,97552,1,0,0:0:0:0:
256,192,97638,1,0,0:0:0:0:
256,192,97724,1,8,0:0:0:0:
256,192,97895,1,0,0:0:0:0:
256,192,97981,1,0,0:0:0:0:
256,192,98067,1,8,0:0:0:0:
256,192,98152,1,0,0:0:0:0:
256,192,98324,1,8,0:0:0:0:
256,192,98410,1,0,0:0:0:0:
256,192,98581,1,8,0:0:0:0:
256,192,98667,1,8,0:0:0:0:
256,192,98752,1,4,0:0:0:0:
256,192,99095,1,8,0:0:0:0:
256,192,99138,1,8,0:0:0:0:
256,192,99181,1,8,0:0:0:0:
256,192,99438,1,8,0:0:0:0:
256,192,99481,1,8,0:0:0:0:
256,192,99524,1,8,0:0:0:0:
256,192,99610,1,0,0:0:0:0:
256,192,99781,1,8,0:0:0:0:
256,192,99824,1,8,0:0:0:0:
256,192,99867,1,8,0:0:0:0:
256,192,100124,1,0,0:0:0:0:
256,192,100167,1,8,0:0:0:0:
256,192,100210,1,8,0:0:0:0:
256,192,100467,1,8,0:0:0:0:
256,192,100510,1,8,0:0:0:0:
256,192,100552,1,8,0:0:0:0:
256,192,100810,1,0,0:0:0:0:
256,192,100981,1,0,0:0:0:0:
256,192,101152,1,8,0:0:0:0:
256,192,101210,1,8,0:0:0:0:
256,192,101267,1,8,0:0:0:0:
256,192,101324,1,0,0:0:0:0:
256,192,101410,1,8,0:0:0:0:
256,192,101495,1,0,0:0:0:0:
256,192,101552,1,0,0:0:0:0:
256,192,101610,1,0,0:0:0:0:
256,192,101838,1,8,0:0:0:0:
256,192,101881,1,8,0:0:0:0:
256,192,101924,1,0,0:0:0:0:
256,192,102010,1,8,0:0:0:0:
256,192,102052,1,8,0:0:0:0:
256,192,102095,1,0,0:0:0:0:
256,192,102181,1,8,0:0:0:0:
256,192,102224,1,8,0:0:0:0:
256,192,102267,1,8,0:0:0:0:
256,192,102352,1,0,0:0:0:0:
256,192,102524,1,8,0:0:0:0:
256,192,102610,1,8,0:0:0:0:
256,192,102695,1,0,0:0:0:0:
256,192,102867,1,8,0:0:0:0:
256,192,102910,1,8,0:0:0:0:
256,192,102952,1,8,0:0:0:0:
256,192,103124,1,0,0:0:0:0:
256,192,103210,1,8,0:0:0:0:
256,192,103381,1,0,0:0:0:0:
256,192,103467,1,0,0:0:0:0:
256,192,103638,1,8,0:0:0:0:
256,192,103724,1,0,0:0:0:0:
256,192,103810,1,0,0:0:0:0:
256,192,103895,1,8,0:0:0:0:
256,192,103981,1,0,0:0:0:0:
256,192,104024,1,0,0:0:0:0:
256,192,104067,1,0,0:0:0:0:
256,192,104152,1,8,0:0:0:0:
256,192,104238,1,4,0:0:0:0:
256,192,104581,1,8,0:0:0:0:
256,192,104624,1,8,0:0:0:0:
256,192,104667,1,8,0:0:0:0:
256,192,104924,1,8,0:0:0:0:
256,192,104967,1,8,0:0:0:0:
256,192,105010,1,0,0:0:0:0:
256,192,105095,1,0,0:0:0:0:
256,192,105181,1,8,0:0:0:0:
256,192,105224,1,8,0:0:0:0:
256,192,105267,1,0,0:0:0:0:
256,192,105352,1,0,0:0:0:0:
256,192,105438,1,8,0:0:0:0:
256,192,105481,1,8,0:0:0:0:
256,192,105524,1,8,0:0:0:0:
256,192,105610,1,0,0:0:0:0:
256,192,105667,1,0,0:0:0:0:
256,192,105724,1,0,0:0:0:0:
256,192,105952,1,8,0:0:0:0:
256,192,105995,1,8,0:0:0:0:
256,192,106038,1,8,0:0:0:0:
256,192,106295,1,0,0:0:0:0:
256,192,106338,1,0,0:0:0:0:
256,192,106381,1,8,0:0:0:0:
256,192,106467,1,8,0:0:0:0:
256,192,106552,1,0,0:0:0:0:
256,192,106595,1,0,0:0:0:0:
256,192,106638,1,8,0:0:0:0:
256,192,106724,1,0,0:0:0:0:
256,192,106810,1,8,0:0:0:0:
256,192,106852,1,8,0:0:0:0:
256,192,106895,1,8,0:0:0:0:
256,192,106981,1,4,0:0:0:0:
256,192,107152,1,4,0:0:0:0:
256,192,107410,1,12,0:0:0:0:
256,192,107667,1,12,0:0:0:0:
256,192,107752,12,0,109038,0:0:0:0:
256,192,109210,5,0,0:0:0:0:
256,192,109295,1,0,0:0:0:0:
256,192,109381,1,8,0:0:0:0:
256,192,109467,1,0,0:0:0:0:
256,192,109552,1,0,0:0:0:0:
256,192,109724,1,4,0:0:0:0:
256,192,111095,1,0,0:0:0:0:
256,192,111352,1,0,0:0:0:0:
256,192,111610,1,8,0:0:0:0:
256,192,111867,1,0,0:0:0:0:
256,192,112124,1,8,0:0:0:0:
256,192,112467,1,4,0:0:0:0:
256,192,113838,1,8,0:0:0:0:
256,192,114095,1,0,0:0:0:0:
256,192,114352,1,8,0:0:0:0:
256,192,114610,1,8,0:0:0:0:
256,192,114867,1,0,0:0:0:0:
256,192,115210,1,4,0:0:0:0:
256,192,116581,1,8,0:0:0:0:
256,192,116838,1,0,0:0:0:0:
256,192,117095,1,8,0:0:0:0:
256,192,117352,1,0,0:0:0:0:
256,192,117610,1,8,0:0:0:0:
256,192,117952,1,4,0:0:0:0:
256,192,118467,1,0,0:0:0:0:
256,192,118552,1,8,0:0:0:0:
256,192,118638,1,8,0:0:0:0:
256,192,118867,1,8,0:0:0:0:
256,192,118981,1,0,0:0:0:0:
256,192,119324,1,4,0:0:0:0:
256,192,119838,1,0,0:0:0:0:
256,192,119924,1,0,0:0:0:0:
256,192,120010,1,8,0:0:0:0:
256,192,120238,1,8,0:0:0:0:
256,192,120352,1,0,0:0:0:0:
256,192,120695,1,4,0:0:0:0:
256,192,121381,1,8,0:0:0:0:
256,192,122067,1,0,0:0:0:0:
256,192,122324,1,0,0:0:0:0:
256,192,122581,1,8,0:0:0:0:
256,192,122838,1,0,0:0:0:0:
256,192,123095,1,8,0:0:0:0:
256,192,123438,1,4,0:0:0:0:
256,192,124124,1,8,0:0:0:0:
256,192,124810,1,8,0:0:0:0:
256,192,125067,1,0,0:0:0:0:
256,192,125324,1,8,0:0:0:0:
256,192,125581,1,8,0:0:0:0:
256,192,125838,1,0,0:0:0:0:
256,192,126181,1,4,0:0:0:0:
256,192,126867,1,8,0:0:0:0:
256,192,127552,1,8,0:0:0:0:
256,192,127810,1,0,0:0:0:0:
256,192,128067,1,8,0:0:0:0:
256,192,128324,1,0,0:0:0:0:
256,192,128581,1,8,0:0:0:0:
256,192,128924,1,4,0:0:0:0:
256,192,129438,1,0,0:0:0:0:
256,192,129524,1,8,0:0:0:0:
256,192,129610,1,8,0:0:0:0:
256,192,129867,1,8,0:0:0:0:
256,192,130124,1,8,0:0:0:0:
256,192,130295,1,4,0:0:0:0:
256,192,130810,1,0,0:0:0:0:
256,192,130895,1,0,0:0:0:0:
256,192,130981,1,8,0:0:0:0:
256,192,131238,1,0,0:0:0:0:
256,192,131495,1,8,0:0:0:0:
256,192,131667,1,4,0:0:0:0:
256,192,131752,12,0,134238,0:0:0:0:
256,192,134410,5,0,0:0:0:0:
256,192,135095,1,8,0:0:0:0:
256,192,136467,1,0,0:0:0:0:
256,192,137152,1,0,0:0:0:0:
256,192,137838,1,8,0:0:0:0:
256,192,139210,1,0,0:0:0:0:
256,192,139895,1,8,0:0:0:0:
256,192,140581,1,8,0:0:0:0:
256,192,141267,1,0,0:0:0:0:
256,192,141781,1,0,0:0:0:0:
256,192,141952,1,8,0:0:0:0:
256,192,142295,1,0,0:0:0:0:
256,192,142638,1,8,0:0:0:0:
256,192,142895,1,8,0:0:0:0:
256,192,143152,1,0,0:0:0:0:
256,192,143410,1,8,0:0:0:0:
256,192,143667,1,8,0:0:0:0:
256,192,143924,1,0,0:0:0:0:
256,192,144181,1,8,0:0:0:0:
256,192,144438,1,8,0:0:0:0:
256,192,144695,1,0,0:0:0:0:
256,192,144952,1,8,0:0:0:0:
256,192,145210,1,0,0:0:0:0:
256,192,145381,1,8,0:0:0:0:
256,192,145638,1,0,0:0:0:0:
256,192,145895,1,0,0:0:0:0:
256,192,146152,1,8,0:0:0:0:
256,192,146410,1,0,0:0:0:0:
256,192,146667,1,0,0:0:0:0:
256,192,146924,1,8,0:0:0:0:
256,192,147181,1,0,0:0:0:0:
256,192,147438,1,0,0:0:0:0:
256,192,147695,1,8,0:0:0:0:
256,192,147952,1,0,0:0:0:0:
256,192,148124,1,8,0:0:0:0:
256,192,148381,1,8,0:0:0:0:
256,192,148638,1,0,0:0:0:0:
256,192,148895,1,8,0:0:0:0:
256,192,149152,1,8,0:0:0:0:
256,192,149410,1,0,0:0:0:0:
256,192,149667,1,8,0:0:0:0:
256,192,149924,1,8,0:0:0:0:
256,192,150181,1,0,0:0:0:0:
256,192,150438,1,8,0:0:0:0:
256,192,150695,1,0,0:0:0:0:
256,192,150867,1,8,0:0:0:0:
256,192,151124,1,0,0:0:0:0:
256,192,151381,1,0,0:0:0:0:
256,192,151638,1,8,0:0:0:0:
256,192,151810,1,0,0:0:0:0:
256,192,151895,1,8,0:0:0:0:
256,192,152067,1,0,0:0:0:0:
256,192,152152,1,0,0:0:0:0:
256,192,152238,1,8,0:0:0:0:
256,192,152410,1,0,0:0:0:0:
256,192,152495,1,8,0:0:0:0:
256,192,152667,1,8,0:0:0:0:
256,192,152752,1,0,0:0:0:0:
256,192,152924,1,0,0:0:0:0:
256,192,153010,1,8,0:0:0:0:
256,192,153181,1,0,0:0:0:0:
256,192,153224,1,0,0:0:0:0:
256,192,153267,1,8,0:0:0:0:
256,192,153352,1,0,0:0:0:0:
256,192,153438,1,8,0:0:0:0:
256,192,153524,1,8,0:0:0:0:
256,192,153610,1,4,0:0:0:0:
256,192,153867,1,0,0:0:0:0:
256,192,153952,1,8,0:0:0:0:
256,192,154124,1,0,0:0:0:0:
256,192,154210,1,0,0:0:0:0:
256,192,154381,1,8,0:0:0:0:
256,192,154467,1,0,0:0:0:0:
256,192,154638,1,8,0:0:0:0:
256,192,154810,1,0,0:0:0:0:
256,192,154895,1,8,0:0:0:0:
256,192,154981,1,0,0:0:0:0:
256,192,155152,1,8,0:0:0:0:
256,192,155324,1,8,0:0:0:0:
256,192,155410,1,0,0:0:0:0:
256,192,155581,1,0,0:0:0:0:
256,192,155667,1,8,0:0:0:0:
256,192,155838,1,0,0:0:0:0:
256,192,155924,1,8,0:0:0:0:
256,192,156010,1,8,0:0:0:0:
256,192,156095,1,0,0:0:0:0:
256,192,156181,1,8,0:0:0:0:
256,192,156352,1,0,0:0:0:0:
256,192,156610,1,0,0:0:0:0:
256,192,156695,1,8,0:0:0:0:
256,192,156867,1,0,0:0:0:0:
256,192,156952,1,0,0:0:0:0:
256,192,157124,1,8,0:0:0:0:
256,192,157210,1,0,0:0:0:0:
256,192,157381,1,8,0:0:0:0:
256,192,157552,1,0,0:0:0:0:
256,192,157638,1,8,0:0:0:0:
256,192,157724,1,0,0:0:0:0:
256,192,157895,1,0,0:0:0:0:
256,192,157981,1,0,0:0:0:0:
256,192,158067,1,8,0:0:0:0:
256,192,158152,1,0,0:0:0:0:
256,192,158324,1,0,0:0:0:0:
256,192,158410,1,8,0:0:0:0:
256,192,158581,1,0,0:0:0:0:
256,192,158667,1,8,0:0:0:0:
256,192,158752,1,8,0:0:0:0:
256,192,158838,1,0,0:0:0:0:
256,192,158924,1,0,0:0:0:0:
256,192,159095,1,8,0:0:0:0:
256,192,159352,1,0,0:0:0:0:
256,192,159438,1,8,0:0:0:0:
256,192,159610,1,8,0:0:0:0:
256,192,159695,1,0,0:0:0:0:
256,192,159867,1,8,0:0:0:0:
256,192,159952,1,0,0:0:0:0:
256,192,160038,1,0,0:0:0:0:
256,192,160124,1,8,0:0:0:0:
256,192,160295,1,0,0:0:0:0:
256,192,160381,1,8,0:0:0:0:
256,192,160467,1,0,0:0:0:0:
256,192,160638,1,8,0:0:0:0:
256,192,160810,1,8,0:0:0:0:
256,192,160895,1,0,0:0:0:0:
256,192,161067,1,8,0:0:0:0:
256,192,161152,1,0,0:0:0:0:
256,192,161324,1,0,0:0:0:0:
256,192,161410,1,8,0:0:0:0:
256,192,161495,1,8,0:0:0:0:
256,192,161581,1,0,0:0:0:0:
256,192,161667,1,8,0:0:0:0:
256,192,161838,1,0,0:0:0:0:
256,192,161924,1,0,0:0:0:0:
256,192,162095,1,0,0:0:0:0:
256,192,162181,1,8,0:0:0:0:
256,192,162352,1,0,0:0:0:0:
256,192,162438,1,0,0:0:0:0:
256,192,162610,1,8,0:0:0:0:
256,192,162695,1,0,0:0:0:0:
256,192,162867,1,8,0:0:0:0:
256,192,163038,1,0,0:0:0:0:
256,192,163124,1,8,0:0:0:0:
256,192,163210,1,8,0:0:0:0:
256,192,163295,1,0,0:0:0:0:
256,192,163467,1,0,0:0:0:0:
256,192,163552,1,8,0:0:0:0:
256,192,163724,1,0,0:0:0:0:
256,192,163895,1,0,0:0:0:0:
256,192,163981,1,8,0:0:0:0:
256,192,164067,1,0,0:0:0:0:
256,192,164152,1,0,0:0:0:0:
256,192,164238,1,8,0:0:0:0:
256,192,164410,1,0,0:0:0:0:
256,192,164581,1,8,0:0:0:0:
256,192,164667,1,8,0:0:0:0:
256,192,164752,1,0,0:0:0:0:
256,192,164838,1,0,0:0:0:0:
256,192,164924,1,8,0:0:0:0:
256,192,165010,1,0,0:0:0:0:
256,192,165095,1,8,0:0:0:0:
256,192,165181,1,0,0:0:0:0:
256,192,165267,1,8,0:0:0:0:
256,192,165352,1,8,0:0:0:0:
256,192,165438,1,0,0:0:0:0:
256,192,165524,1,0,0:0:0:0:
256,192,165610,1,8,0:0:0:0:
256,192,165695,1,0,0:0:0:0:
256,192,165781,1,8,0:0:0:0:
256,192,165867,1,0,0:0:0:0:
256,192,165952,1,8,0:0:0:0:
256,192,166038,1,8,0:0:0:0:
256,192,166124,1,0,0:0:0:0:
256,192,166210,1,0,0:0:0:0:
256,192,166295,1,8,0:0:0:0:
256,192,166381,1,0,0:0:0:0:
256,192,166467,1,0,0:0:0:0:
256,192,166552,1,0,0:0:0:0:
256,192,166638,1,8,0:0:0:0:
256,192,166724,1,8,0:0:0:0:
256,192,166810,1,8,0:0:0:0:
256,192,166895,1,0,0:0:0:0:
256,192,166981,1,8,0:0:0:0:
256,192,167067,1,0,0:0:0:0:
256,192,167152,1,8,0:0:0:0:
256,192,167238,1,8,0:0:0:0:
256,192,167324,1,0,0:0:0:0:
256,192,167410,1,8,0:0:0:0:
256,192,167495,1,0,0:0:0:0:
256,192,167581,1,0,0:0:0:0:
256,192,167667,1,8,0:0:0:0:
256,192,167752,1,0,0:0:0:0:
256,192,167838,1,8,0:0:0:0:
256,192,167924,1,0,0:0:0:0:
256,192,168010,1,0,0:0:0:0:
256,192,168095,1,8,0:0:0:0:
256,192,168181,1,8,0:0:0:0:
256,192,168267,1,0,0:0:0:0:
256,192,168352,1,8,0:0:0:0:
256,192,168438,1,8,0:0:0:0:
256,192,168524,1,0,0:0:0:0:
256,192,168610,1,8,0:0:0:0:
256,192,168695,1,0,0:0:0:0:
256,192,168781,1,0,0:0:0:0:
256,192,168867,1,8,0:0:0:0:
256,192,168952,1,0,0:0:0:0:
256,192,169038,1,8,0:0:0:0:
256,192,169124,1,0,0:0:0:0:
256,192,169210,1,0,0:0:0:0:
256,192,169295,1,8,0:0:0:0:
256,192,169381,1,0,0:0:0:0:
256,192,169467,1,0,0:0:0:0:
256,192,169552,1,8,0:0:0:0:
256,192,169638,1,8,0:0:0:0:
256,192,169724,1,0,0:0:0:0:
256,192,169810,1,0,0:0:0:0:
256,192,169895,1,8,0:0:0:0:
256,192,169981,1,8,0:0:0:0:
256,192,170067,1,0,0:0:0:0:
256,192,170124,1,0,0:0:0:0:
256,192,170181,1,0,0:0:0:0:
256,192,170238,1,8,0:0:0:0:
256,192,170295,1,0,0:0:0:0:
256,192,170352,1,0,0:0:0:0:
256,192,170410,1,8,0:0:0:0:
256,192,170495,1,8,0:0:0:0:
256,192,170581,1,0,0:0:0:0:
256,192,170667,1,8,0:0:0:0:
256,192,170752,1,0,0:0:0:0:
256,192,170810,1,0,0:0:0:0:
256,192,170867,1,8,0:0:0:0:
256,192,170924,1,0,0:0:0:0:
256,192,170981,1,0,0:0:0:0:
256,192,171038,1,0,0:0:0:0:
256,192,171095,1,8,0:0:0:0:
256,192,171181,1,0,0:0:0:0:
256,192,171267,1,8,0:0:0:0:
256,192,171352,1,8,0:0:0:0:
256,192,171438,1,0,0:0:0:0:
256,192,171495,1,0,0:0:0:0:
256,192,171552,1,0,0:0:0:0:
256,192,171610,1,8,0:0:0:0:
256,192,171695,1,8,0:0:0:0:
256,192,171781,1,0,0:0:0:0:
256,192,171838,1,0,0:0:0:0:
256,192,171895,1,0,0:0:0:0:
256,192,171952,1,8,0:0:0:0:
256,192,172038,1,8,0:0:0:0:
256,192,172124,1,0,0:0:0:0:
256,192,172210,1,0,0:0:0:0:
256,192,172295,1,8,0:0:0:0:
256,192,172381,1,0,0:0:0:0:
256,192,172467,1,8,0:0:0:0:
256,192,172552,1,8,0:0:0:0:
256,192,172638,1,0,0:0:0:0:
256,192,172724,1,0,0:0:0:0:
256,192,172810,1,8,0:0:0:0:
256,192,172867,1,8,0:0:0:0:
256,192,172924,1,8,0:0:0:0:
256,192,172981,1,0,0:0:0:0:
256,192,173067,1,0,0:0:0:0:
256,192,173152,1,8,0:0:0:0:
256,192,173210,1,8,0:0:0:0:
256,192,173267,1,8,0:0:0:0:
256,192,173324,1,0,0:0:0:0:
256,192,173410,1,0,0:0:0:0:
256,192,173495,1,8,0:0:0:0:
256,192,173552,1,0,0:0:0:0:
256,192,173610,1,0,0:0:0:0:
256,192,173667,1,8,0:0:0:0:
256,192,173724,1,0,0:0:0:0:
256,192,173781,1,0,0:0:0:0:
256,192,173838,1,8,0:0:0:0:
256,192,173895,1,8,0:0:0:0:
256,192,173952,1,8,0:0:0:0:
256,192,174010,1,0,0:0:0:0:
256,192,174067,1,0,0:0:0:0:
256,192,174124,1,0,0:0:0:0:
256,192,174181,1,8,0:0:0:0:
256,192,174524,1,8,0:0:0:0:
256,192,174695,1,0,0:0:0:0:
256,192,174867,1,8,0:0:0:0:
256,192,175038,1,0,0:0:0:0:
256,192,175124,1,0,0:0:0:0:
256,192,175210,1,8,0:0:0:0:
256,192,175295,1,0,0:0:0:0:
256,192,175552,1,0,0:0:0:0:
256,192,175610,1,0,0:0:0:0:
256,192,175667,1,0,0:0:0:0:
256,192,175895,1,12,0:0:0:0:
256,192,176067,1,0,0:0:0:0:
256,192,176152,1,0,0:0:0:0:
256,192,176324,1,8,0:0:0:0:
256,192,176410,1,0,0:0:0:0:
256,192,176495,1,0,0:0:0:0:
256,192,176581,1,8,0:0:0:0:
256,192,176752,1,0,0:0:0:0:
256,192,176838,1,8,0:0:0:0:
256,192,176924,1,0,0:0:0:0:
256,192,176967,1,0,0:0:0:0:
256,192,177095,1,0,0:0:0:0:
256,192,177138,1,0,0:0:0:0:
256,192,177267,1,8,0:0:0:0:
256,192,177438,1,0,0:0:0:0:
256,192,177524,1,0,0:0:0:0:
256,192,177695,1,8,0:0:0:0:
256,192,177781,1,0,0:0:0:0:
256,192,177952,1,8,0:0:0:0:
256,192,178010,1,0,0:0:0:0:
256,192,178067,1,0,0:0:0:0:
256,192,178124,1,8,0:0:0:0:
256,192,178210,1,8,0:0:0:0:
256,192,178295,1,0,0:0:0:0:
256,192,178352,1,0,0:0:0:0:
256,192,178410,1,0,0:0:0:0:
256,192,178638,1,8,0:0:0:0:
256,192,178810,1,0,0:0:0:0:
256,192,178895,1,0,0:0:0:0:
256,192,178981,1,0,0:0:0:0:
256,192,179152,1,0,0:0:0:0:
256,192,179238,1,0,0:0:0:0:
256,192,179324,1,8,0:0:0:0:
256,192,179495,1,0,0:0:0:0:
256,192,179538,1,0,0:0:0:0:
256,192,179581,1,0,0:0:0:0:
256,192,179667,1,8,0:0:0:0:
256,192,179724,1,8,0:0:0:0:
256,192,179781,1,8,0:0:0:0:
256,192,179838,1,0,0:0:0:0:
256,192,179924,1,0,0:0:0:0:
256,192,180010,1,8,0:0:0:0:
256,192,180181,1,0,0:0:0:0:
256,192,180267,1,8,0:0:0:0:
256,192,180352,1,0,0:0:0:0:
256,192,180438,1,0,0:0:0:0:
256,192,180610,1,0,0:0:0:0:
256,192,180695,1,8,0:0:0:0:
256,192,180781,1,8,0:0:0:0:
256,192,180867,1,0,0:0:0:0:
256,192,181038,1,8,0:0:0:0:
256,192,181095,1,8,0:0:0:0:
256,192,181152,1,8,0:0:0:0:
256,192,181210,1,8,0:0:0:0:
256,192,181295,1,0,0:0:0:0:
256,192,181381,1,8,0:0:0:0:
256,192,181552,1,8,0:0:0:0:
256,192,181638,1,0,0:0:0:0:
256,192,181810,1,0,0:0:0:0:
256,192,181895,1,0,0:0:0:0:
256,192,182067,1,8,0:0:0:0:
256,192,182152,1,8,0:0:0:0:
256,192,182238,1,0,0:0:0:0:
256,192,182324,1,8,0:0:0:0:
256,192,182410,1,0,0:0:0:0:
256,192,182467,1,8,0:0:0:0:
256,192,182524,1,8,0:0:0:0:
256,192,182581,1,0,0:0:0:0:
256,192,182667,1,0,0:0:0:0:
256,192,182752,1,8,0:0:0:0:
256,192,182924,1,8,0:0:0:0:
256,192,183010,1,0,0:0:0:0:
256,192,183181,1,0,0:0:0:0:
256,192,183267,1,0,0:0:0:0:
256,192,183438,1,8,0:0:0:0:
256,192,183495,1,8,0:0:0:0:
256,192,183552,1,8,0:0:0:0:
256,192,183610,1,0,0:0:0:0:
256,192,183695,1,0,0:0:0:0:
256,192,183781,1,8,0:0:0:0:
256,192,183838,1,8,0:0:0:0:
256,192,183895,1,0,0:0:0:0:
256,192,184124,1,8,0:0:0:0:
256,192,184295,1,0,0:0:0:0:
256,192,184381,1,0,0:0:0:0:
256,192,184552,1,8,0:0:0:0:
256,192,184595,1,8,0:0:0:0:
256,192,184638,1,0,0:0:0:0:
256,192,184724,1,0,0:0:0:0:
256,192,184810,1,8,0:0:0:0:
256,192,184895,1,8,0:0:0:0:
256,192,184981,1,0,0:0:0:0:
256,192,185152,1,8,0:0:0:0:
256,192,185210,1,8,0:0:0:0:
256,192,185495,1,8,0:0:0:0:
256,192,185552,1,8,0:0:0:0:
256,192,185752,1,0,0:0:0:0:
256,192,185810,1,0,0:0:0:0:
256,192,186010,1,0,0:0:0:0:
256,192,186095,1,8,0:0:0:0:
256,192,186267,1,8,0:0:0:0:
256,192,186352,1,0,0:0:0:0:
256,192,186524,1,0,0:0:0:0:
256,192,186581,1,0,0:0:0:0:
256,192,186638,1,0,0:0:0:0:
256,192,186695,1,0,0:0:0:0:
256,192,186781,1,0,0:0:0:0:
256,192,186867,1,8,0:0:0:0:
256,192,187038,1,0,0:0:0:0:
256,192,187124,1,0,0:0:0:0:
256,192,187295,1,8,0:0:0:0:
256,192,187381,1,0,0:0:0:0:
256,192,187467,1,0,0:0:0:0:
256,192,187552,1,8,0:0:0:0:
256,192,187610,1,8,0:0:0:0:
256,192,187667,1,8,0:0:0:0:
256,192,187724,1,0,0:0:0:0:
256,192,187810,1,8,0:0:0:0:
256,192,187895,1,0,0:0:0:0:
256,192,187938,1,0,0:0:0:0:
256,192,188067,1,0,0:0:0:0:
256,192,188110,1,0,0:0:0:0:
256,192,188238,1,8,0:0:0:0:
256,192,188410,1,0,0:0:0:0:
256,192,188495,1,0,0:0:0:0:
256,192,188667,1,8,0:0:0:0:
256,192,188752,1,0,0:0:0:0:
256,192,188838,1,0,0:0:0:0:
256,192,188924,1,8,0:0:0:0:
256,192,188981,1,0,0:0:0:0:
256,192,189038,1,0,0:0:0:0:
256,192,189095,1,8,0:0:0:0:
256,192,189181,1,8,0:0:0:0:
256,192,189267,1,0,0:0:0:0:
256,192,189324,1,0,0:0:0:0:
256,192,189381,1,0,0:0:0:0:
256,192,189610,1,8,0:0:0:0:
256,192,189781,1,0,0:0:0:0:
256,192,189867,1,0,0:0:0:0:
256,192,189952,1,0,0:0:0:0:
256,192,190038,1,8,0:0:0:0:
256,192,190124,1,0,0:0:0:0:
256,192,190210,1,0,0:0:0:0:
256,192,190295,1,8,0:0:0:0:
256,192,190381,1,8,0:0:0:0:
256,192,190467,1,0,0:0:0:0:
256,192,190510,1,0,0:0:0:0:
256,192,190552,1,0,0:0:0:0:
256,192,190638,1,8,0:0:0:0:
256,192,190695,1,8,0:0:0:0:
256,192,190752,1,8,0:0:0:0:
256,192,190810,1,0,0:0:0:0:
256,192,190895,1,0,0:0:0:0:
256,192,190981,1,8,0:0:0:0:
256,192,191152,1,0,0:0:0:0:
256,192,191238,1,8,0:0:0:0:
256,192,191324,1,0,0:0:0:0:
256,192,191410,1,0,0:0:0:0:
256,192,191495,1,8,0:0:0:0:
256,192,191581,1,0,0:0:0:0:
256,192,191667,1,8,0:0:0:0:
256,192,191752,1,8,0:0:0:0:
256,192,191838,1,0,0:0:0:0:
256,192,191924,1,0,0:0:0:0:
256,192,192010,1,8,0:0:0:0:
256,192,192067,1,8,0:0:0:0:
256,192,192124,1,8,0:0:0:0:
256,192,192181,1,8,0:0:0:0:
256,192,192267,1,0,0:0:0:0:
256,192,192352,1,8,0:0:0:0:
256,192,192524,1,0,0:0:0:0:
256,192,192610,1,0,0:0:0:0:
256,192,192781,1,8,0:0:0:0:
256,192,192867,1,0,0:0:0:0:
256,192,192952,1,0,0:0:0:0:
256,192,193038,1,8,0:0:0:0:
256,192,193095,1,8,0:0:0:0:
256,192,193152,1,8,0:0:0:0:
256,192,193210,1,0,0:0:0:0:
256,192,193295,1,8,0:0:0:0:
256,192,193381,1,0,0:0:0:0:
256,192,193438,1,8,0:0:0:0:
256,192,193495,1,8,0:0:0:0:
256,192,193552,1,0,0:0:0:0:
256,192,193638,1,0,0:0:0:0:
256,192,193724,1,8,0:0:0:0:
256,192,193895,1,0,0:0:0:0:
256,192,193981,1,0,0:0:0:0:
256,192,194152,1,8,0:0:0:0:
256,192,194238,1,0,0:0:0:0:
256,192,194324,1,0,0:0:0:0:
256,192,194410,1,8,0:0:0:0:
256,192,194467,1,8,0:0:0:0:
256,192,194524,1,8,0:0:0:0:
256,192,194581,1,0,0:0:0:0:
256,192,194667,1,0,0:0:0:0:
256,192,194752,1,8,0:0:0:0:
256,192,194810,1,8,0:0:0:0:
256,192,194867,1,0,0:0:0:0:
256,192,194981,1,0,0:0:0:0:
256,192,195095,1,8,0:0:0:0:
256,192,195267,1,0,0:0:0:0:
256,192,195352,1,0,0:0:0:0:
256,192,195524,1,8,0:0:0:0:
256,192,195567,1,8,0:0:0:0:
256,192,195610,1,0,0:0:0:0:
256,192,195695,1,0,0:0:0:0:
256,192,195781,1,8,0:0:0:0:
256,192,195867,1,0,0:0:0:0:
256,192,195952,1,8,0:0:0:0:
256,192,196010,1,8,0:0:0:0:
256,192,196067,1,0,0:0:0:0:
256,192,196124,1,0,0:0:0:0:
256,192,196295,1,8,0:0:0:0:
256,192,196467,1,8,0:0:0:0:
256,192,196638,1,0,0:0:0:0:
256,192,196724,1,0,0:0:0:0:
256,192,196810,1,8,0:0:0:0:
256,192,196981,1,0,0:0:0:0:
256,192,197152,1,8,0:0:0:0:
256,192,197238,1,8,0:0:0:0:
256,192,197324,1,0,0:0:0:0:
256,192,197495,2,4,L|364:192,3,105.000004005432
256,192,198181,1,0,0:0:0:0:
256,192,198245,1,8,0:0:0:0:
256,192,198310,1,0,0:0:0:0:
256,192,198395,1,8,0:0:0:0:
256,192,198524,1,0,0:0:0:0:
256,192,198695,1,8,0:0:0:0:
256,192,198867,1,4,0:0:0:0:
256,192,199209,1,8,0:0:0:0:
256,192,199381,1,0,0:0:0:0:
256,192,199467,1,0,0:0:0:0:
256,192,199552,1,8,0:0:0:0:
256,192,199595,1,8,0:0:0:0:
256,192,199638,1,8,0:0:0:0:
256,192,199724,1,0,0:0:0:0:
256,192,199810,1,8,0:0:0:0:
256,192,199852,1,8,0:0:0:0:
256,192,199895,1,0,0:0:0:0:
256,192,199981,1,8,0:0:0:0:
256,192,200024,1,8,0:0:0:0:
256,192,200067,1,8,0:0:0:0:
256,192,200152,1,8,0:0:0:0:
256,192,200238,1,0,0:0:0:0:
256,192,200295,1,0,0:0:0:0:
256,192,200352,1,8,0:0:0:0:
256,192,200410,1,0,0:0:0:0:
256,192,200495,1,0,0:0:0:0:
256,192,200581,1,8,0:0:0:0:
256,192,200752,1,0,0:0:0:0:
256,192,200838,1,8,0:0:0:0:
256,192,200924,1,8,0:0:0:0:
256,192,201010,1,8,0:0:0:0:
256,192,201095,1,0,0:0:0:0:
256,192,201152,1,0,0:0:0:0:
256,192,201210,1,0,0:0:0:0:
256,192,201267,1,8,0:0:0:0:
256,192,201352,1,0,0:0:0:0:
256,192,201438,1,8,0:0:0:0:
256,192,201524,1,8,0:0:0:0:
256,192,201610,1,0,0:0:0:0:
256,192,201695,1,0,0:0:0:0:
256,192,201867,1,0,0:0:0:0:
256,192,201952,1,8,0:0:0:0:
256,192,202124,1,0,0:0:0:0:
256,192,202210,1,0,0:0:0:0:
256,192,202295,1,8,0:0:0:0:
256,192,202381,1,8,0:0:0:0:
256,192,202467,1,0,0:0:0:0:
256,192,202552,1,0,0:0:0:0:
256,192,202638,1,8,0:0:0:0:
256,192,202724,1,0,0:0:0:0:
256,192,202810,1,8,0:0:0:0:
256,192,202895,1,8,0:0:0:0:
256,192,202981,1,4,0:0:0:0:
256,192,203238,1,0,0:0:0:0:
256,192,203324,1,8,0:0:0:0:
256,192,203495,1,0,0:0:0:0:
256,192,203552,1,0,0:0:0:0:
256,192,203610,1,0,0:0:0:0:
256,192,203667,1,8,0:0:0:0:
256,192,203752,1,0,0:0:0:0:
256,192,203838,1,8,0:0:0:0:
256,192,203924,1,8,0:0:0:0:
256,192,204010,1,0,0:0:0:0:
256,192,204067,1,8,0:0:0:0:
256,192,204124,1,8,0:0:0:0:
256,192,204181,1,0,0:0:0:0:
256,192,204238,1,8,0:0:0:0:
256,192,204295,1,8,0:0:0:0:
256,192,204352,1,0,0:0:0:0:
256,192,204695,1,8,0:0:0:0:
256,192,204867,1,0,0:0:0:0:
256,192,204952,1,0,0:0:0:0:
256,192,205038,1,8,0:0:0:0:
256,192,205081,1,8,0:0:0:0:
256,192,205124,1,8,0:0:0:0:
256,192,205210,1,0,0:0:0:0:
256,192,205295,1,8,0:0:0:0:
256,192,205338,1,8,0:0:0:0:
256,192,205381,1,0,0:0:0:0:
256,192,205467,1,8,0:0:0:0:
256,192,205510,1,8,0:0:0:0:
256,192,205552,1,0,0:0:0:0:
256,192,205638,1,8,0:0:0:0:
256,192,205724,1,0,0:0:0:0:
256,192,205781,1,0,0:0:0:0:
256,192,205838,1,8,0:0:0:0:
256,192,205895,1,0,0:0:0:0:
256,192,205981,1,0,0:0:0:0:
256,192,206067,1,8,0:0:0:0:
256,192,206238,1,8,0:0:0:0:
256,192,206324,1,0,0:0:0:0:
256,192,206410,1,8,0:0:0:0:
256,192,206495,1,8,0:0:0:0:
256,192,206581,1,0,0:0:0:0:
256,192,206638,1,0,0:0:0:0:
256,192,206695,1,8,0:0:0:0:
256,192,206752,1,8,0:0:0:0:
256,192,206838,1,0,0:0:0:0:
256,192,206924,1,8,0:0:0:0:
256,192,207010,1,8,0:0:0:0:
256,192,207095,1,0,0:0:0:0:
256,192,207181,1,0,0:0:0:0:
256,192,207224,1,0,0:0:0:0:
256,192,207267,1,0,0:0:0:0:
256,192,207352,1,0,0:0:0:0:
256,192,207438,1,8,0:0:0:0:
256,192,207610,1,0,0:0:0:0:
256,192,207695,1,0,0:0:0:0:
256,192,207781,1,8,0:0:0:0:
256,192,207867,1,0,0:0:0:0:
256,192,208038,1,8,0:0:0:0:
256,192,208124,1,0,0:0:0:0:
256,192,208295,1,8,0:0:0:0:
256,192,208381,1,8,0:0:0:0:
256,192,208467,1,4,0:0:0:0:
256,192,208810,1,0,0:0:0:0:
256,192,208981,1,0,0:0:0:0:
256,192,209152,1,8,0:0:0:0:
256,192,209324,1,8,0:0:0:0:
256,192,209495,1,8,0:0:0:0:
256,192,209667,1,8,0:0:0:0:
256,192,209838,1,0,0:0:0:0:
256,192,209924,1,8,0:0:0:0:
256,192,209967,1,8,0:0:0:0:
256,192,210010,1,8,0:0:0:0:
256,192,210095,1,8,0:0:0:0:
256,192,210181,1,0,0:0:0:0:
256,192,210352,1,0,0:0:0:0:
256,192,210438,1,8,0:0:0:0:
256,192,210481,1,8,0:0:0:0:
256,192,210524,1,8,0:0:0:0:
256,192,210610,1,8,0:0:0:0:
256,192,210695,1,0,0:0:0:0:
256,192,210781,1,8,0:0:0:0:
256,192,210867,1,0,0:0:0:0:
256,192,211038,1,8,0:0:0:0:
256,192,211081,1,8,0:0:0:0:
256,192,211124,1,8,0:0:0:0:
256,192,211210,1,0,0:0:0:0:
256,192,211267,1,0,0:0:0:0:
256,192,211324,1,0,0:0:0:0:
256,192,211552,1,8,0:0:0:0:
256,192,211595,1,8,0:0:0:0:
256,192,211638,1,0,0:0:0:0:
256,192,211724,1,8,0:0:0:0:
256,192,211767,1,8,0:0:0:0:
256,192,211810,1,0,0:0:0:0:
256,192,211895,1,8,0:0:0:0:
256,192,211938,1,8,0:0:0:0:
256,192,211981,1,8,0:0:0:0:
256,192,212067,1,0,0:0:0:0:
256,192,212238,1,8,0:0:0:0:
256,192,212324,1,8,0:0:0:0:
256,192,212410,1,0,0:0:0:0:
256,192,212581,1,8,0:0:0:0:
256,192,212624,1,8,0:0:0:0:
256,192,212667,1,8,0:0:0:0:
256,192,212838,1,0,0:0:0:0:
256,192,212924,1,8,0:0:0:0:
256,192,213095,1,0,0:0:0:0:
256,192,213181,1,0,0:0:0:0:
256,192,213267,1,8,0:0:0:0:
256,192,213352,1,0,0:0:0:0:
256,192,213524,1,0,0:0:0:0:
256,192,213610,1,8,0:0:0:0:
256,192,213695,1,0,0:0:0:0:
256,192,213781,1,8,0:0:0:0:
256,192,213867,1,8,0:0:0:0:
256,192,213952,1,4,0:0:0:0:
256,192,214295,1,8,0:0:0:0:
256,192,214338,1,8,0:0:0:0:
256,192,214381,1,8,0:0:0:0:
256,192,214638,1,8,0:0:0:0:
256,192,214681,1,8,0:0:0:0:
256,192,214724,1,0,0:0:0:0:
256,192,214810,1,0,0:0:0:0:
256,192,214895,1,8,0:0:0:0:
256,192,214938,1,8,0:0:0:0:
256,192,214981,1,0,0:0:0:0:
256,192,215067,1,0,0:0:0:0:
256,192,215152,1,8,0:0:0:0:
256,192,215195,1,8,0:0:0:0:
256,192,215238,1,8,0:0:0:0:
256,192,215324,1,0,0:0:0:0:
256,192,215381,1,0,0:0:0:0:
256,192,215438,1,0,0:0:0:0:
256,192,215667,1,8,0:0:0:0:
256,192,215710,1,8,0:0:0:0:
256,192,215752,1,8,0:0:0:0:
256,192,216010,1,0,0:0:0:0:
256,192,216052,1,0,0:0:0:0:
256,192,216095,1,8,0:0:0:0:
256,192,216181,1,8,0:0:0:0:
256,192,216267,1,0,0:0:0:0:
256,192,216310,1,0,0:0:0:0:
256,192,216352,1,8,0:0:0:0:
256,192,216438,1,0,0:0:0:0:
256,192,216524,1,8,0:0:0:0:
256,192,216567,1,8,0:0:0:0:
256,192,216610,1,8,0:0:0:0:
256,192,216695,1,4,0:0:0:0:
256,192,216867,1,4,0:0:0:0:
256,192,217124,1,12,0:0:0:0:
256,192,217381,1,12,0:0:0:0:
256,192,217466,12,0,218752,0:0:0:0:
256,192,218924,5,0,0:0:0:0:
256,192,219010,1,0,0:0:0:0:
256,192,219095,1,8,0:0:0:0:
256,192,219181,1,0,0:0:0:0:
256,192,219267,1,0,0:0:0:0:
256,192,219438,1,4,0:0:0:0:
256,192,222181,1,0,0:0:0:0:
256,192,224924,1,0,0:0:0:0:
256,192,227667,1,0,0:0:0:0:
256,192,229038,1,0,0:0:0:0:
256,192,230410,1,0,0:0:0:0:
256,192,230924,1,8,0:0:0:0:
256,192,231438,1,8,0:0:0:0:
256,192,231952,1,8,0:0:0:0:
256,192,232467,1,8,0:0:0:0:
256,192,233152,1,0,0:0:0:0:
256,192,233667,1,8,0:0:0:0:
256,192,234181,1,8,0:0:0:0:
256,192,234695,1,8,0:0:0:0:
256,192,235210,1,8,0:0:0:0:
256,192,235895,1,0,0:0:0:0:
256,192,236410,1,0,0:0:0:0:
256,192,236924,1,0,0:0:0:0:
256,192,237438,1,0,0:0:0:0:
256,192,237952,1,8,0:0:0:0:
256,192,238638,1,0,0:0:0:0:
256,192,239152,1,0,0:0:0:0:
256,192,239667,1,0,0:0:0:0:
256,192,240010,1,8,0:0:0:0:
256,192,240695,1,0,0:0:0:0:
