osu file format v14

[General]
AudioFilename: audio.mp3
AudioLeadIn: 0
PreviewTime: 83677
Countdown: 1
SampleSet: None
StackLeniency: 0.2
Mode: 0
LetterboxInBreaks: 0
WidescreenStoryboard: 0

[Editor]
DistanceSpacing: 1
BeatDivisor: 4
GridSize: 16
TimelineZoom: 2.799999

[Metadata]
Title:Be Wild
TitleUnicode:Be Wild
Artist:Camellia ft. Yukacco
ArtistUnicode:かめりあ/Yukacco
Creator:valentheo
Version:asdf
Source:
Tags:
BeatmapID:1792066
BeatmapSetID:857721

[Difficulty]
HPDrainRate:4
CircleSize:4
OverallDifficulty:6
ApproachRate:9.5
SliderMultiplier:2
SliderTickRate:1

[Events]
//Background and Video events
0,0,"Konachan.com - 256912 sample.jpg",0,0
//Break Periods
//Storyboard Layer 0 (Background)
//Storyboard Layer 1 (Fail)
//Storyboard Layer 2 (Pass)
//Storyboard Layer 3 (Foreground)
//Storyboard Sound Samples

[TimingPoints]
52,375,4,2,1,20,1,0
3052,-83.3333333333333,4,2,1,30,0,0
11489,-83.3333333333333,4,3,1,50,0,0
13458,-83.3333333333333,4,3,1,5,0,0
13645,-83.3333333333333,4,3,1,50,0,0
16083,-83.3333333333333,4,3,1,5,0,0
16270,-83.3333333333333,4,3,1,5,0,0
16458,-83.3333333333333,4,3,1,50,0,0
18989,-83.3333333333333,4,3,1,5,0,0
19083,-83.3333333333333,4,3,1,50,0,0
21333,-83.3333333333333,4,3,1,5,0,0
21427,-83.3333333333333,4,3,1,50,0,0
32958,-83.3333333333333,4,3,1,5,0,0
33052,-83.3333333333333,4,3,1,50,0,0
33333,-83.3333333333333,4,3,1,5,0,0
33427,-83.3333333333333,4,3,1,50,0,0
37645,-83.3333333333333,4,3,1,5,0,0
37739,-83.3333333333333,4,3,1,50,0,0
38395,-83.3333333333333,4,3,1,5,0,0
38489,-83.3333333333333,4,3,1,50,0,0
40645,-83.3333333333333,4,3,1,5,0,0
40739,-83.3333333333333,4,3,1,50,0,0
41395,-83.3333333333333,4,3,1,5,0,0
41489,-83.3333333333333,4,3,1,50,0,0
41770,-83.3333333333333,4,3,1,5,0,0
41864,-83.3333333333333,4,3,1,50,0,0
43083,-83.3333333333333,4,3,1,5,0,0
43177,-83.3333333333333,4,3,1,50,0,0
46083,-83.3333333333333,4,3,1,5,0,0
46177,-83.3333333333333,4,3,1,50,0,0
49645,-83.3333333333333,4,3,1,5,0,0
49739,-83.3333333333333,4,3,1,50,0,0
52645,-83.3333333333333,4,3,1,5,0,0
52739,-83.3333333333333,4,3,1,50,0,0
59958,-83.3333333333333,4,3,1,5,0,0
60052,-83.3333333333333,4,3,1,50,0,0
61223,-83.3333333333333,4,3,1,5,0,0
61364,-83.3333333333333,4,3,1,50,0,0
61411,-83.3333333333333,4,3,1,5,0,0
61552,-83.3333333333333,4,3,1,50,0,0
61598,-83.3333333333333,4,3,1,5,0,0
61739,-83.3333333333333,4,3,1,50,0,0
64223,-83.3333333333333,4,3,1,5,0,0
64364,-83.3333333333333,4,3,1,50,0,0
64411,-83.3333333333333,4,3,1,5,0,0
64552,-83.3333333333333,4,3,1,50,0,0
64598,-83.3333333333333,4,3,1,5,0,0
64739,-83.3333333333333,4,3,1,50,0,0
67223,-83.3333333333333,4,3,1,5,0,0
67364,-83.3333333333333,4,3,1,50,0,0
67411,-83.3333333333333,4,3,1,5,0,0
67552,-83.3333333333333,4,3,1,50,0,0
67598,-83.3333333333333,4,3,1,5,0,0
67739,-83.3333333333333,4,3,1,50,0,0
70927,-83.3333333333333,4,3,1,70,0,0
84052,-66.6666666666667,4,3,1,70,0,1
84802,-50,4,3,1,70,0,1
86677,-133.333333333333,4,3,1,70,0,1
87052,-50,4,3,1,70,0,1
98677,-133.333333333333,4,3,1,70,0,1
99052,-50,4,3,1,70,0,1
102052,-400,4,3,1,70,0,1
102427,-50,4,3,1,70,0,1
105052,-66.6666666666667,4,3,1,70,0,1
108052,-66.6666666666667,4,3,1,70,0,0
118739,-400,4,3,1,70,0,0
120052,-50,4,3,1,70,0,1
120427,-33.3333333333333,4,3,1,70,0,1
129052,-66.6666666666667,4,3,1,70,0,1
132052,-33.3333333333333,4,3,1,70,0,0
135052,-33.3333333333333,4,3,1,70,0,1
141052,-66.6666666666667,4,3,1,70,0,0
144052,-33.3333333333333,4,3,1,70,0,0
155864,-100,4,3,1,30,0,0
159052,-83.3333333333333,4,3,1,30,0,0
168052,-83.3333333333333,4,3,1,70,0,0
193645,-83.3333333333333,4,3,1,5,0,0
193739,-83.3333333333333,4,3,1,70,0,0
196645,-83.3333333333333,4,3,1,5,0,0
196739,-83.3333333333333,4,3,1,70,0,0
197395,-83.3333333333333,4,3,1,5,0,0
197489,-83.3333333333333,4,3,1,70,0,0
199083,-83.3333333333333,4,3,1,5,0,0
199177,-83.3333333333333,4,3,1,70,0,0
202083,-83.3333333333333,4,3,1,5,0,0
202177,-83.3333333333333,4,3,1,70,0,0
205645,-83.3333333333333,4,3,1,5,0,0
205739,-83.3333333333333,4,3,1,70,0,0
217223,-83.3333333333333,4,3,1,5,0,0
217364,-83.3333333333333,4,3,1,70,0,0
217411,-83.3333333333333,4,3,1,5,0,0
217552,-83.3333333333333,4,3,1,70,0,0
217598,-83.3333333333333,4,3,1,5,0,0
217739,-83.3333333333333,4,3,1,70,0,0
220223,-83.3333333333333,4,3,1,5,0,0
220364,-83.3333333333333,4,3,1,70,0,0
220411,-83.3333333333333,4,3,1,5,0,0
220552,-83.3333333333333,4,3,1,70,0,0
220598,-83.3333333333333,4,3,1,5,0,0
220739,-83.3333333333333,4,3,1,70,0,0
223223,-83.3333333333333,4,3,1,5,0,0
223364,-83.3333333333333,4,3,1,70,0,0
223411,-83.3333333333333,4,3,1,5,0,0
223552,-83.3333333333333,4,3,1,70,0,0
223598,-83.3333333333333,4,3,1,5,0,0
223739,-83.3333333333333,4,3,1,70,0,0
240052,-40,4,3,1,70,0,1
242677,-400,4,3,1,70,0,1
243052,-40,4,3,1,70,0,1

[HitObjects]
107,245,52,5,0,0:0:0:0:
215,139,239,1,0,0:0:0:0:
189,266,427,2,0,P|179:310|128:347,1,100
15,301,802,1,0,0:0:0:0:
136,255,989,1,0,0:0:0:0:
55,357,1177,1,0,0:0:0:0:
213,195,1364,6,0,L|319:195,1,100
463,276,1739,2,0,L|323:281,1,100
202,255,2114,1,0,0:0:0:0:
382,238,2302,1,0,0:0:0:0:
222,310,2489,1,0,0:0:0:0:
356,139,2677,2,0,P|350:78|299:106,1,100
246,158,3052,6,0,P|196:204|135:213,1,119.999996337891
66,195,3427,2,0,P|53:127|107:126,1,119.999996337891
220,115,3802,1,0,0:0:0:0:
103,166,3989,1,0,0:0:0:0:
220,115,4177,1,0,0:0:0:0:
103,166,4364,6,0,P|79:226|159:249,1,119.999996337891
189,240,4739,2,0,P|134:215|128:273,1,119.999996337891
212,343,5114,1,0,0:0:0:0:
157,180,5302,2,0,B|129:108|129:108|123:150,1,119.999996337891
111,236,5677,2,0,P|180:250|231:171,1,119.999996337891
232,155,6052,5,0,0:0:0:0:
218,289,6239,1,0,0:0:0:0:
232,155,6427,2,0,B|237:65|237:65|252:100,1,119.999996337891
232,228,6802,1,0,0:0:0:0:
310,177,6989,1,0,0:0:0:0:
150,194,7177,1,0,0:0:0:0:
356,220,7364,6,0,B|390:251|438:253|438:253|406:226,1,119.999996337891
304,137,7739,2,0,P|245:188|246:242,1,119.999996337891
311,311,8114,1,0,0:0:0:0:
304,137,8302,2,0,B|330:85|297:51|297:51|272:106,1,119.999996337891
305,215,8677,2,0,B|307:304|307:304|333:269,1,119.999996337891
356,155,9052,5,0,0:0:0:0:
114,257,9239,1,0,0:0:0:0:
237,296,9427,2,0,B|318:337|318:337|272:292,1,119.999996337891
152,184,9802,1,0,0:0:0:0:
314,264,9989,1,0,0:0:0:0:
152,184,10177,1,0,0:0:0:0:
325,223,10364,2,0,L|259:210,1,59.9999981689454
152,184,10552,5,4,0:3:0:0:
152,184,10927,1,4,0:3:0:0:
152,184,11302,1,4,0:3:0:0:
326,154,11489,5,0,0:0:0:0:
326,154,11583,1,0,0:0:0:0:
326,154,11677,1,12,0:0:0:0:
238,274,12052,2,8,B|149:153|149:153|230:197,1,239.999992675781,4|0,0:2|0:0,0:0:0:0:
307,275,12614,2,0,P|269:345|187:343,1,119.999996337891
132,235,13083,2,0,P|123:157|169:246,1,299.999990844727
210,122,13739,5,0,0:0:0:0:
294,174,13927,2,0,B|332:232|339:264|339:264|276:229,1,119.999996337891
224,191,14302,2,0,P|290:170|275:209,1,119.999996337891
242,280,14583,1,0,0:0:0:0:
345,277,14677,2,0,L|409:257,3,59.9999981689454,8|0|0|0,0:0|0:0|0:0|0:0,0:0:0:0:
453,148,15052,6,0,P|365:198|305:84,1,239.999992675781,8|0,0:0|0:0,0:0:0:0:
375,79,15614,2,0,B|355:265|355:265|325:188,1,239.999992675781,8|0,0:0|0:0,0:0:0:0:
308,169,16083,2,0,P|227:182|136:260,1,179.999994506836
184,112,16739,5,0,0:0:0:0:
184,226,16927,2,0,L|186:349,1,119.999996337891
396,142,17302,2,0,L|440:83,1,59.9999981689454
307,280,17489,2,0,L|250:348,1,59.9999981689454
316,162,17677,1,0,0:0:0:0:
259,143,17770,1,0,0:0:0:0:
202,158,17864,1,0,0:0:0:0:
162,202,17958,1,0,0:0:0:0:
161,262,18052,6,0,B|221:336|334:308|334:308|275:282,1,239.999992675781,8|0,0:0|0:0,0:0:0:0:
161,262,18614,2,0,P|121:217|237:218,1,239.999992675781,8|0,0:0|0:0,0:0:0:0:
412,213,19739,1,0,0:0:0:0:
338,127,19926,1,0,0:0:0:0:
291,288,20114,1,0,0:0:0:0:
228,137,20302,1,0,0:0:0:0:
173,231,20489,6,0,L|94:239,1,59.9999981689454
251,214,20677,1,0,0:0:0:0:
281,164,20770,1,0,0:0:0:0:
260,110,20864,1,0,0:0:0:0:
204,94,20958,1,0,0:0:0:0:
150,120,21052,6,0,B|93:222|93:222|186:178,1,179.999994506836
200,161,21427,1,0,0:0:0:0:
325,129,21614,1,0,0:0:0:0:
290,268,21802,2,0,P|203:265|155:128,1,239.999992675781,8|0,0:0|0:0,0:0:0:0:
263,97,22364,1,0,0:0:0:0:
312,134,22458,1,0,0:0:0:0:
331,190,22552,6,0,B|237:284|237:284|291:273,2,179.999994506836
341,128,23208,1,0,0:0:0:0:
289,96,23302,2,0,L|123:88,1,119.999996337891,8|0,0:0|0:0,0:0:0:0:
47,179,23677,2,0,L|201:195,1,119.999996337891,8|0,0:0|0:0,0:0:0:0:
239,131,24052,6,0,P|288:207|155:277,1,239.999992675781,8|0,0:0|0:0,0:0:0:0:
195,195,24614,2,0,B|394:223|394:223|252:238,1,299.999990844727,8|0,0:0|0:0,0:0:0:0:
100,138,25739,5,0,0:0:0:0:
84,82,25832,1,0,0:0:0:0:
121,38,25926,1,0,0:0:0:0:
178,42,26020,1,0,0:0:0:0:
207,92,26114,1,0,0:0:0:0:
187,149,26208,1,0,0:0:0:0:
162,201,26301,1,0,0:0:0:0:
191,251,26395,1,0,0:0:0:0:
249,256,26489,1,0,0:0:0:0:
285,211,26583,1,0,0:0:0:0:
270,156,26676,1,0,0:0:0:0:
215,130,26770,1,0,0:0:0:0:
168,168,26864,1,0,0:0:0:0:
177,227,26958,1,0,0:0:0:0:
224,263,27052,6,0,P|306:298|283:170,1,239.999992675781,8|0,0:0|0:0,0:0:0:0:
324,286,27614,2,0,B|454:353|454:353|456:286|360:295,1,239.999992675781,8|0,0:0|0:0,0:0:0:0:
235,147,28927,2,0,L|149:134,1,59.9999981689454
391,171,29114,1,0,0:0:0:0:
225,242,29302,2,0,L|139:229,1,59.9999981689454
381,266,29489,1,0,0:0:0:0:
213,331,29677,2,0,L|146:318,3,59.9999981689454
111,308,30052,6,0,B|42:231|113:158|113:158|128:248,1,239.999992675781,8|0,0:0|0:0,0:0:0:0:
44,259,30614,2,0,P|71:191|213:246,1,239.999992675781,8|0,0:0|0:0,0:0:0:0:
248,182,31927,5,0,2:0:0:0:
248,182,32020,1,0,2:0:0:0:
248,182,32114,1,0,2:0:0:0:
337,271,32302,5,0,3:0:0:0:
337,271,32395,1,0,3:0:0:0:
337,271,32489,1,0,3:0:0:0:
168,279,32677,2,0,P|90:243|72:138,1,179.999994506836
94,141,33052,2,0,B|221:182|221:182|139:196,1,179.999994506836
149,206,33427,1,0,0:0:0:0:
55,268,33614,1,0,0:0:0:0:
217,274,33802,6,0,P|296:250|229:124,1,239.999992675781,8|0,0:0|0:0,0:0:0:0:
165,137,34364,1,0,0:0:0:0:
139,164,34458,1,0,0:0:0:0:
112,193,34552,2,0,B|47:289|47:289|119:255,2,179.999994506836
139,164,35208,1,0,0:0:0:0:
181,148,35302,2,0,L|281:149,3,59.9999981689454
368,223,35677,2,0,L|309:223,3,59.9999981689454
171,229,36052,6,0,P|110:212|110:126,1,119.999996337891
203,84,36427,1,0,0:0:0:0:
190,313,36614,2,0,P|115:300|276:257,1,659.999979858399
277,254,37739,1,0,0:0:0:0:
115,222,37927,1,0,0:0:0:0:
275,169,38114,2,0,L|147:300,1,179.999994506836
149,297,38489,2,0,P|63:241|60:180,1,119.999996337891
216,269,38864,1,0,0:0:0:0:
227,59,39239,5,0,0:0:0:0:
227,59,39427,1,0,0:0:0:0:
227,59,39614,2,0,P|331:81|143:120,1,659.999979858399
127,162,40739,1,0,0:0:0:0:
261,191,40927,1,0,0:0:0:0:
179,238,41114,2,0,B|154:368|154:368|137:288,1,179.999994506836
134,308,41489,2,0,P|223:279|321:334,1,179.999994506836
299,310,41864,5,0,0:0:0:0:
388,177,42052,1,0,0:0:0:0:
246,290,42239,1,0,0:0:0:0:
425,294,42427,1,0,0:0:0:0:
250,188,42614,2,0,P|185:127|317:149,1,299.999990844727
329,122,43177,2,0,L|339:261,1,119.999996337891
227,332,43552,2,0,L|214:70,1,239.999992675781
119,108,44114,2,0,P|232:152|297:59,1,239.999992675781
312,33,44677,6,0,L|317:175,1,119.999996337891
286,361,45052,2,0,L|274:226,1,119.999996337891
199,62,45427,1,0,0:0:0:0:
201,265,45614,2,0,P|328:270|267:113,1,299.999990844727
298,118,46177,2,0,P|223:132|170:113,1,119.999996337891
54,240,46552,2,0,P|122:231|207:262,1,119.999996337891
305,197,46927,5,0,0:0:0:0:
215,305,47114,1,0,0:0:0:0:
238,195,47302,1,0,0:0:0:0:
352,313,47489,1,0,0:0:0:0:
141,215,47677,1,0,0:0:0:0:
397,164,48239,5,0,0:0:0:0:
335,266,48427,1,0,0:0:0:0:
234,293,48614,2,0,P|156:260|305:272,1,659.999979858399
308,269,49739,1,0,0:0:0:0:
159,237,49927,1,0,0:0:0:0:
323,171,50114,2,0,L|441:153,1,119.999996337891
155,179,50489,2,0,L|21:224,1,119.999996337891
355,135,50864,1,0,0:0:0:0:
119,240,51239,5,0,0:0:0:0:
119,240,51427,1,0,0:0:0:0:
119,240,51614,2,0,B|224:240|224:240|332:157|240:105|137:150|202:200|228:240|228:240|357:248,1,479.999985351563
392,104,52739,1,0,0:0:0:0:
235,196,52927,1,0,0:0:0:0:
392,211,53114,2,0,P|443:169|475:118,1,119.999996337891
258,166,53489,2,0,P|207:208|175:259,1,119.999996337891
210,353,53864,5,0,0:0:0:0:
300,246,54052,1,0,0:0:0:0:
279,333,54239,1,0,0:0:0:0:
141,173,54427,1,0,0:0:0:0:
395,196,54614,1,0,0:0:0:0:
202,101,55177,2,0,L|76:118,1,119.999996337891
328,207,55552,2,0,L|445:255,1,119.999996337891
284,272,56114,2,0,P|157:256|101:162,1,239.999992675781
209,112,56677,6,0,L|361:128,1,119.999996337891
467,175,57052,1,0,0:0:0:0:
228,231,57239,1,0,0:0:0:0:
182,117,58552,5,0,0:0:0:0:
182,117,58927,1,0,0:0:0:0:
182,117,59302,1,0,0:0:0:0:
352,88,59677,2,0,B|336:227|336:227|314:182,1,179.999994506836,8|0,0:0|0:0,0:0:0:0:
297,144,60052,6,0,P|185:152|162:266,1,239.999992675781,8|0,0:0|0:0,0:0:0:0:
241,232,60614,2,0,B|114:110|114:110|172:206,1,239.999992675781,8|0,0:0|0:0,0:0:0:0:
257,52,61177,2,0,L|288:93,1,29.9999990844727,8|0,0:2|0:2,0:2:0:0:
408,141,61364,2,0,L|384:179,1,29.9999990844727,8|0,0:2|0:2,0:2:0:0:
252,217,61552,2,0,L|282:255,1,29.9999990844727,8|0,0:2|0:2,0:2:0:0:
397,322,61739,1,0,0:0:0:0:
226,297,61927,2,0,L|70:233,1,119.999996337891
68,140,62302,6,0,L|170:180,1,59.9999981689454
180,181,62489,1,0,0:0:0:0:
236,201,62582,1,0,0:0:0:0:
293,223,62677,2,0,L|354:249,3,59.9999981689454
394,267,63052,2,0,P|317:232|375:99,1,239.999992675781,8|0,0:0|0:0,0:0:0:0:
249,248,63614,2,0,P|284:171|417:229,1,239.999992675781,8|0,0:0|0:0,0:0:0:0:
391,298,64177,2,0,L|373:275,1,29.9999990844727,8|0,0:2|0:2,0:2:0:0:
408,141,64364,2,0,L|384:179,1,29.9999990844727,8|0,0:2|0:2,0:2:0:0:
252,210,64552,2,0,L|292:232,1,29.9999990844727,8|0,0:2|0:2,0:2:0:0:
391,299,64739,5,0,0:0:0:0:
250,209,64927,2,0,L|132:190,1,119.999996337891
250,209,65302,2,0,L|332:225,1,59.9999981689454
478,328,65489,2,0,L|406:335,1,59.9999981689454
280,331,65677,2,0,L|215:326,3,59.9999981689454
175,321,66052,2,0,P|156:240|283:240,1,239.999992675781,8|0,0:0|0:0,0:0:0:0:
310,274,66614,2,0,L|147:96,1,239.999992675781,8|0,0:0|0:0,0:0:0:0:
61,69,67177,6,0,L|80:93,1,29.9999990844727,8|0,0:2|0:2,0:2:0:0:
150,193,67364,2,0,L|131:161,1,29.9999990844727,8|0,0:2|0:2,0:2:0:0:
61,69,67552,2,0,L|80:93,1,29.9999990844727,8|0,0:2|0:2,0:2:0:0:
148,192,67739,1,0,0:0:0:0:
201,37,67927,1,0,0:0:0:0:
292,216,68114,1,0,0:0:0:0:
124,96,68302,2,0,L|15:158,1,119.999996337891
145,186,68583,1,0,0:0:0:0:
254,171,68677,6,0,L|331:150,3,59.9999981689454
155,198,69052,1,0,0:0:0:0:
256,192,69145,12,0,70739,0:0:0:0:
256,192,70927,5,0,0:0:0:0:
214,150,71020,1,0,0:0:0:0:
156,148,71114,1,0,0:0:0:0:
111,186,71208,1,0,0:0:0:0:
104,244,71302,1,0,0:0:0:0:
139,291,71395,1,0,0:0:0:0:
197,302,71489,1,0,0:0:0:0:
246,271,71583,1,0,0:0:0:0:
285,225,71677,1,0,0:0:0:0:
342,209,71770,1,0,0:0:0:0:
398,228,71864,1,0,0:0:0:0:
436,273,71958,1,0,0:0:0:0:
411,328,72052,6,0,L|277:299,1,119.999996337891,8|0,0:0|0:0,0:0:0:0:
222,205,72427,2,0,L|369:233,1,119.999996337891,8|0,0:0|0:0,0:0:0:0:
423,144,72802,2,0,L|257:113,1,119.999996337891,8|0,0:0|0:0,0:0:0:0:
184,21,73177,2,0,L|331:49,1,119.999996337891,8|0,0:0|0:0,0:0:0:0:
433,109,73552,6,0,L|430:257,1,119.999996337891,8|0,0:0|0:0,0:0:0:0:
296,341,73927,2,0,L|299:173,1,119.999996337891,8|0,0:0|0:0,0:0:0:0:
188,64,74302,2,0,L|185:212,1,119.999996337891,8|0,0:0|0:0,0:0:0:0:
51,296,74677,2,0,L|54:128,1,119.999996337891,8|0,0:0|0:0,0:0:0:0:
416,96,75052,6,0,B|368:96|368:96|336:112|336:112|288:112,1,119.999996337891,8|0,0:0|0:0,0:0:0:0:
64,160,75427,2,0,B|100:160|100:160|132:176|132:176|180:176,1,119.999996337891,8|0,0:0|0:0,0:0:0:0:
416,224,75802,2,0,B|368:224|368:224|336:240|336:240|288:240,1,119.999996337891,8|0,0:0|0:0,0:0:0:0:
64,288,76177,2,0,B|100:288|100:288|132:304|132:304|180:304,1,119.999996337891,8|0,0:0|0:0,0:0:0:0:
64,288,76552,6,0,B|112:288|112:288|144:304|144:304|192:304,1,119.999996337891,8|0,0:0|0:0,0:0:0:0:
416,224,76927,2,0,B|379:224|379:224|347:240|347:240|299:240,1,119.999996337891,8|0,0:0|0:0,0:0:0:0:
64,160,77302,2,0,B|112:160|112:160|144:176|144:176|192:176,1,119.999996337891,8|0,0:0|0:0,0:0:0:0:
416,96,77677,2,0,B|379:96|379:96|347:112|347:112|299:112,1,119.999996337891,8|0,0:0|0:0,0:0:0:0:
256,248,78052,5,0,0:0:0:0:
256,248,78239,1,0,0:0:0:0:
256,144,78427,1,8,0:0:0:0:
256,248,78614,1,0,0:0:0:0:
256,264,78802,5,0,0:0:0:0:
256,264,78989,1,0,0:0:0:0:
256,120,79177,1,8,0:0:0:0:
256,264,79364,1,0,0:0:0:0:
256,287,79552,5,0,0:0:0:0:
256,287,79739,1,0,0:0:0:0:
256,96,79927,1,8,0:0:0:0:
256,287,80114,1,0,0:0:0:0:
256,320,80302,5,0,0:0:0:0:
256,320,80489,1,0,0:0:0:0:
256,120,80677,1,8,0:0:0:0:
256,320,80864,1,0,0:0:0:0:
256,112,81052,5,8,0:0:0:0:
196,112,81145,1,0,0:0:0:0:
136,112,81239,1,0,0:0:0:0:
76,112,81333,1,0,0:0:0:0:
256,192,81427,5,8,0:0:0:0:
316,192,81520,1,0,0:0:0:0:
376,192,81614,1,0,0:0:0:0:
436,192,81708,1,0,0:0:0:0:
256,272,81802,5,8,0:0:0:0:
196,272,81895,1,0,0:0:0:0:
136,272,81989,1,0,0:0:0:0:
76,272,82083,1,0,0:0:0:0:
256,352,82177,5,8,0:0:0:0:
316,352,82270,1,0,0:0:0:0:
376,352,82364,1,0,0:0:0:0:
436,352,82458,1,0,0:0:0:0:
256,192,82552,5,0,0:0:0:0:
256,192,82739,2,0,L|192:192,1,59.9999981689454
256,192,82927,2,0,L|320:192,1,59.9999981689454
256,192,83114,2,0,L|192:192,1,59.9999981689454
256,16,83302,1,0,0:0:0:0:
256,80,83395,1,0,0:0:0:0:
256,140,83488,1,0,0:0:0:0:
256,200,83582,1,0,0:0:0:0:
256,272,83677,1,0,0:0:0:0:
256,191,84052,6,0,B|256:32|256:32|222:120,1,225.000008583069
188,215,84427,2,0,P|272:268|334:193,1,150.000005722046
400,80,84802,5,8,0:0:0:0:
352,80,84895,1,0,0:0:0:0:
304,80,84989,1,0,0:0:0:0:
256,80,85083,1,0,0:0:0:0:
112,144,85177,5,0,0:0:0:0:
160,144,85270,1,0,0:0:0:0:
208,144,85364,1,0,0:0:0:0:
256,144,85458,1,0,0:0:0:0:
400,208,85552,5,0,0:0:0:0:
352,208,85645,1,0,3:0:0:0:
144,192,85739,2,0,B|63:191|63:191|112:208,1,100
352,272,85927,2,0,B|432:271|432:271|384:288,1,100
128,336,86114,2,0,B|47:335|47:335|96:352,1,100
305,205,86302,2,0,P|324:111|295:70,1,100,8|0,0:0|0:0,0:0:0:0:
148,19,86489,2,0,P|115:99|127:166,1,100
189,292,86677,2,0,B|311:284,1,112.500004291535
366,269,87052,6,0,B|377:61|377:61|316:233,1,300
274,278,87427,2,0,P|364:343|457:310,1,200
329,109,87802,5,8,0:0:0:0:
292,144,87895,1,0,0:0:0:0:
260,105,87989,1,0,0:0:0:0:
223,140,88082,1,0,0:0:0:0:
187,103,88177,1,0,0:0:0:0:
150,138,88270,1,0,0:0:0:0:
118,99,88364,5,0,0:0:0:0:
81,134,88457,1,0,0:0:0:0:
114,175,88552,1,0,0:0:0:0:
77,210,88645,1,0,0:0:0:0:
119,244,88739,2,0,P|85:293|129:366,1,100
240,255,88927,2,0,P|274:206|230:133,1,100
155,25,89114,2,0,P|121:74|165:147,1,100
155,224,89302,6,0,B|205:215|205:215|338:266,1,100,8|0,0:0|0:0,0:0:0:0:
453,130,89489,2,0,B|403:139|403:139|270:88,1,100
229,102,89677,2,0,P|107:159|261:218,1,300
346,267,90052,2,0,B|119:265|119:265|265:224,1,300
336,177,90427,2,0,P|435:272|390:363,1,200
278,251,90802,5,8,0:0:0:0:
253,227,90895,1,0,0:0:0:0:
286,220,90989,1,0,0:0:0:0:
261,196,91082,1,0,0:0:0:0:
331,189,91177,5,0,0:0:0:0:
310,168,91270,1,0,0:0:0:0:
338,162,91364,1,0,0:0:0:0:
317,142,91457,1,0,0:0:0:0:
169,100,91552,5,0,0:0:0:0:
169,100,91645,1,0,0:0:0:0:
289,90,91739,2,0,L|443:107,1,100
211,204,91927,2,0,L|71:197,1,100
352,313,92114,2,0,L|474:316,1,100
418,129,92302,2,0,L|421:27,1,100,8|0,0:0|0:0,0:0:0:0:
276,230,92489,2,0,L|274:343,1,100
373,182,92677,5,0,0:0:0:0:
351,163,92770,1,0,0:0:0:0:
325,149,92864,1,0,0:0:0:0:
297,143,92958,1,0,0:0:0:0:
205,183,93052,2,0,P|121:194|85:194,1,100
266,79,93239,2,0,P|350:68|386:68,1,100
321,216,93427,2,0,L|301:328,1,100
163,137,93614,2,0,L|181:33,1,100
335,40,93802,6,0,P|422:127|251:208,1,300,8|0,0:0|0:0,0:0:0:0:
283,238,94177,2,0,L|172:227,1,100
159,138,94552,6,0,L|49:133,1,100
299,87,94739,2,0,L|428:88,1,100
162,226,94927,2,0,L|52:221,1,100
296,172,95114,2,0,L|425:164,1,100
162,226,95302,2,0,P|96:118|269:99,1,300,8|0,0:0|0:0,0:0:0:0:
259,86,95677,1,0,0:0:0:0:
289,117,95770,1,0,0:0:0:0:
317,161,95864,1,0,0:0:0:0:
328,208,95958,1,0,0:0:0:0:
314,271,96052,6,0,B|297:371|297:371|270:162,1,300
334,38,96427,2,0,P|234:104|68:97,1,200
141,198,96802,5,10,0:0:0:0:
186,173,96895,1,0,0:0:0:0:
205,233,96989,1,0,0:0:0:0:
253,199,97083,1,0,0:0:0:0:
377,184,97177,5,0,0:0:0:0:
324,212,97270,1,0,0:0:0:0:
343,177,97364,1,0,0:0:0:0:
361,220,97458,1,0,0:0:0:0:
179,85,97552,5,0,0:0:0:0:
264,98,97645,1,0,0:0:0:0:
365,128,97739,2,0,P|386:211|332:286,1,100
234,333,97927,2,0,P|211:255|226:205,1,100
330,59,98114,2,0,P|245:94|165:95,1,100
78,234,98302,2,0,P|154:242|226:283,1,100,10|0,0:0|0:0,0:0:0:0:
378,280,98489,2,0,P|302:288|230:329,1,100
153,296,98677,2,0,B|162:206|162:206|179:254,1,112.500004291535
214,277,99052,6,0,P|296:308|416:136,1,300
248,201,99427,2,0,P|134:272|156:343,1,200
215,289,99802,5,8,0:0:0:0:
279,270,99895,1,0,0:0:0:0:
334,237,99989,1,0,0:0:0:0:
372,188,100083,1,0,0:0:0:0:
197,187,100177,5,0,0:0:0:0:
133,168,100270,1,0,0:0:0:0:
78,135,100364,1,0,0:0:0:0:
40,86,100458,1,0,0:0:0:0:
183,112,100552,1,0,0:0:0:0:
221,63,100646,1,0,0:0:0:0:
315,24,100739,6,0,P|326:73|297:158,1,100
202,250,100927,2,0,P|191:201|220:116,1,100
412,88,101114,2,0,P|359:91|286:71,1,100
100,296,101302,2,0,P|153:293|226:313,1,100,8|0,3:0|3:0,3:0:0:0:
413,208,101489,2,0,P|360:205|287:225,1,100,0|0,3:0|3:0,3:0:0:0:
203,246,101677,2,0,P|84:194|215:107,1,300
208,95,102052,6,0,L|245:108,1,37.5
141,34,102427,2,0,P|135:141|239:196,1,200
292,138,102802,5,8,0:0:0:0:
291,62,102895,1,0,0:0:0:0:
369,68,102989,1,0,0:0:0:0:
370,156,103083,1,0,0:0:0:0:
312,124,103177,1,0,0:0:0:0:
311,86,103270,1,0,0:0:0:0:
350,89,103364,1,0,0:0:0:0:
227,242,103552,5,0,0:0:0:0:
227,142,103645,1,0,0:0:0:0:
313,192,103739,1,0,0:0:0:0:
241,217,103834,1,0,0:0:0:0:
241,167,103927,1,0,0:0:0:0:
284,192,104021,1,0,0:0:0:0:
254,194,104114,1,0,0:0:0:0:
43,124,104302,5,8,0:0:0:0:
123,130,104395,1,0,0:0:0:0:
197,142,104489,1,0,0:0:0:0:
270,157,104583,1,0,0:0:0:0:
218,214,104677,1,0,0:0:0:0:
148,204,104770,1,0,0:0:0:0:
72,197,104864,1,0,0:0:0:0:
218,214,105052,6,0,P|339:178|356:130,1,150.000005722046
323,26,105427,1,0,0:0:0:0:
223,117,105614,1,0,0:0:0:0:
399,218,105802,1,8,0:0:0:0:
259,41,105989,1,0,0:0:0:0:
381,273,106177,1,0,0:0:0:0:
226,176,106364,2,0,P|151:166|59:213,1,150.000005722046
226,176,106739,5,0,0:0:0:0:
364,175,106927,1,0,0:0:0:0:
137,272,107114,1,0,0:0:0:0:
158,154,107302,1,0,0:0:0:0:
221,113,107395,1,0,0:0:0:0:
284,73,107489,1,0,0:0:0:0:
347,32,107583,1,0,0:0:0:0:
344,94,107677,1,0,0:0:0:0:
280,134,107770,1,0,0:0:0:0:
217,174,107864,1,0,0:0:0:0:
154,215,107958,1,0,0:0:0:0:
62,195,108052,5,0,0:0:0:0:
433,198,108427,1,0,0:0:0:0:
117,64,108802,1,0,0:0:0:0:
377,328,109177,1,0,0:0:0:0:
248,11,109552,1,0,0:0:0:0:
245,382,109927,1,0,0:0:0:0:
379,66,110302,1,0,0:0:0:0:
115,326,110677,1,0,0:0:0:0:
433,197,111052,5,0,0:0:0:0:
62,195,111427,1,0,0:0:0:0:
62,195,111802,1,0,0:0:0:0:
433,197,112177,1,0,0:0:0:0:
433,197,112552,1,0,0:0:0:0:
62,195,112927,1,0,0:0:0:0:
62,195,113302,1,0,0:0:0:0:
433,197,113677,1,0,0:0:0:0:
62,195,114052,5,0,0:0:0:0:
62,195,114239,1,0,0:0:0:0:
256,64,114427,1,0,0:0:0:0:
256,64,114614,1,0,0:0:0:0:
450,195,114802,5,0,0:0:0:0:
450,195,114989,1,0,0:0:0:0:
256,64,115177,1,0,0:0:0:0:
256,64,115364,1,0,0:0:0:0:
256,336,115552,5,0,0:0:0:0:
256,336,115739,1,0,0:0:0:0:
256,64,115927,1,0,0:0:0:0:
256,64,116114,1,0,0:0:0:0:
62,195,116302,5,0,0:0:0:0:
62,195,116489,1,0,0:0:0:0:
256,64,116677,1,0,0:0:0:0:
256,64,116864,1,0,0:0:0:0:
256,64,117052,5,0,0:0:0:0:
256,139,117145,1,0,0:0:0:0:
256,214,117239,1,0,0:0:0:0:
256,289,117333,1,0,0:0:0:0:
304,256,117427,1,0,0:0:0:0:
304,181,117521,1,0,0:0:0:0:
304,106,117615,1,0,0:0:0:0:
304,31,117708,1,0,0:0:0:0:
352,64,117802,5,0,0:0:0:0:
352,139,117895,1,0,0:0:0:0:
352,214,117989,1,0,0:0:0:0:
352,289,118083,1,0,0:0:0:0:
400,256,118177,1,0,0:0:0:0:
400,181,118271,1,0,0:0:0:0:
400,106,118365,1,0,0:0:0:0:
400,31,118458,1,0,0:0:0:0:
400,181,118552,1,0,0:0:0:0:
303,235,118739,6,0,L|292:244,1,12.5
247,181,118927,2,0,L|236:172,1,12.5
199,250,119114,2,0,L|188:259,1,12.5
143,196,119302,2,0,B|134:188|134:188|123:182|123:182|118:174|118:174|105:170|105:170|91:152|91:152|84:149|84:149|78:141|78:141|74:140,1,87.5
86,100,120052,6,0,B|236:131|236:131|390:64,1,300
333,196,120427,2,0,B|371:183|396:203|396:203|380:239|267:268,1,150.000005722046
99,225,120614,2,0,B|61:212|36:232|36:232|52:268|165:297,1,150.000005722046
266,322,120802,2,0,B|279:360|259:385|259:385|223:369|194:256,1,150.000005722046,8|0,0:0|0:0,0:0:0:0:
236,90,120989,2,0,B|249:52|229:27|229:27|193:43|164:156,1,150.000005722046
147,202,121177,2,0,P|252:218|119:96,1,450.000017166138
121,210,121552,6,0,B|135:236|136:292|136:292|165:247|233:230,1,150.000005722046
326,121,121739,2,0,B|312:95|311:39|311:39|282:84|214:101,1,150.000005722046
273,282,121927,2,0,B|260:307|259:363|259:363|230:318|211:319,1,150.000005722046
141,99,122114,2,0,B|127:75|126:19|126:19|97:64|78:63,1,150.000005722046
173,303,122302,2,0,P|126:351|45:285,1,150.000005722046,8|0,0:0|0:0,0:0:0:0:
42,234,122489,2,0,L|114:175,2,75.0000028610231
148,139,122677,2,0,P|158:212|254:49,1,450.000017166138
318,48,123052,6,0,B|310:166|166:85|166:85|264:37|264:37|182:286,1,450.000017166138
170,207,123427,2,0,B|119:224|119:224|303:260,1,150.000005722046
371,291,123614,2,0,B|422:308|422:308|238:344,1,150.000005722046
245,143,123802,2,0,B|224:80|221:32|221:32|145:126,1,150.000005722046,8|0,0:0|0:0,0:0:0:0:
106,211,123989,2,0,B|127:274|130:322|130:322|206:228,1,150.000005722046
288,158,124177,2,0,P|301:80|225:38,1,150.000005722046
201,82,124364,2,0,L|155:140,3,75.0000028610231
220,60,124552,6,0,P|271:139|425:37,1,300.000011444092
345,30,124833,1,0,0:0:0:0:
345,287,124927,2,0,B|310:371|310:371|260:127,1,300.000011444092
290,85,125208,1,0,0:0:0:0:
214,186,125302,2,0,P|145:198|229:163,1,300.000011444092,8|0,0:0|0:0,0:0:0:0:
316,210,125677,2,0,P|372:168|236:188,1,450.000017166138
402,255,126052,2,0,B|345:247|295:264|295:264|247:231|247:231|192:271|81:244,1,300.000011444092
121,108,126427,6,0,B|74:123|47:151|47:151|141:166,1,150.000005722046
319,180,126614,2,0,B|366:195|393:223|393:223|299:238,1,150.000005722046
118,251,126802,2,0,B|15:261|15:261|79:290,1,150.000005722046,8|0,0:0|0:0,0:0:0:0:
296,126,126989,2,0,P|320:73|211:65,1,150.000005722046
125,29,127177,2,0,B|139:88|119:132|119:132|146:185|146:185|106:235|111:333,1,300.000011444092
249,262,127552,6,0,B|269:235|343:233|343:233|268:217,1,150.000005722046
184,130,127739,2,0,B|163:157|89:159|89:159|165:175,1,150.000005722046
274,209,127927,2,0,B|326:234|380:226|380:226|359:186|286:162,1,150.000005722046
261,78,128114,2,0,B|209:53|155:61|155:61|176:101|249:125,1,150.000005722046
175,284,128302,2,0,B|162:334|179:364|179:364|213:337|218:277,1,150.000005722046,8|0,0:0|0:0,0:0:0:0:
258,160,128489,2,0,L|259:61,2,75.0000028610231
254,229,128677,2,0,B|220:297|145:350|145:350|121:276|211:180,1,300.000011444092
195,106,129052,6,0,B|273:78|273:78|375:108,1,150.000005722046
272,179,129427,2,0,B|194:207|194:207|92:177,1,150.000005722046
74,102,129802,2,0,P|161:177|54:289,1,300.000011444092,8|0,0:0|0:0,0:0:0:0:
86,194,130364,2,0,B|199:196|199:196|124:228,1,150.000005722046
78,278,130739,1,0,0:0:0:0:
299,259,130927,1,0,0:0:0:0:
94,100,131114,1,0,0:0:0:0:
285,111,131302,6,0,L|405:115,3,75.0000028610231
224,196,131677,2,0,L|149:193,3,75.0000028610231
290,98,132052,2,0,P|313:193|153:304,1,300.000011444092
42,277,132427,1,0,0:0:0:0:
78,259,132520,1,0,0:0:0:0:
46,228,132614,1,0,0:0:0:0:
98,198,132708,1,0,0:0:0:0:
47,173,132802,1,0,0:0:0:0:
103,140,132895,1,0,0:0:0:0:
46,108,132989,1,0,0:0:0:0:
105,92,133083,1,0,0:0:0:0:
48,39,133177,1,0,0:0:0:0:
300,51,133552,5,0,0:0:0:0:
264,69,133645,1,0,0:0:0:0:
296,100,133739,1,0,0:0:0:0:
244,130,133833,1,0,0:0:0:0:
295,155,133927,1,0,0:0:0:0:
239,188,134020,1,0,0:0:0:0:
296,220,134114,1,0,0:0:0:0:
237,236,134208,1,0,0:0:0:0:
294,289,134302,1,0,0:0:0:0:
214,295,134489,6,0,L|43:313,1,150.000005722046
119,216,134677,2,0,P|331:300|345:396,1,300.000011444092
124,318,135052,6,0,P|60:153|197:128,1,300.000011444092
225,72,135427,1,0,0:0:0:0:
254,142,135520,1,0,0:0:0:0:
295,97,135614,1,0,0:0:0:0:
324,167,135707,1,0,0:0:0:0:
371,123,135802,1,8,0:0:0:0:
400,193,135895,1,0,0:0:0:0:
306,282,135989,1,0,0:0:0:0:
183,293,136083,1,0,0:0:0:0:
95,193,136177,2,0,P|43:138|218:42,1,300.000011444092
227,76,136552,5,0,0:0:0:0:
268,108,136645,1,0,0:0:0:0:
325,122,136739,1,0,0:0:0:0:
380,97,136833,1,0,0:0:0:0:
427,55,136927,1,0,0:0:0:0:
430,115,137020,1,0,0:0:0:0:
432,173,137114,1,0,0:0:0:0:
441,236,137208,1,0,0:0:0:0:
440,297,137302,2,0,B|423:350|423:350|360:91,1,300.000011444092,8|0,0:0|0:0,0:0:0:0:
205,66,137677,6,0,P|277:144|98:271,1,300.000011444092
157,168,138052,2,0,B|366:170|366:170|254:211,1,300.000011444092
86,166,138427,1,0,0:0:0:0:
116,111,138520,1,0,0:0:0:0:
176,100,138614,1,0,0:0:0:0:
228,129,138708,1,0,0:0:0:0:
213,186,138802,1,8,0:0:0:0:
221,238,138895,1,0,0:0:0:0:
276,276,138989,1,0,0:0:0:0:
328,266,139083,1,0,0:0:0:0:
364,222,139177,2,0,B|365:30|365:30|314:197,1,300.000011444092
300,210,139552,5,0,0:0:0:0:
256,249,139645,1,0,0:0:0:0:
203,253,139739,1,0,0:0:0:0:
158,216,139833,1,0,0:0:0:0:
168,165,139927,1,0,0:0:0:0:
207,144,140020,1,0,0:0:0:0:
261,140,140114,1,0,0:0:0:0:
308,124,140208,1,0,0:0:0:0:
349,81,140302,2,0,P|257:182|304:296,1,150.000005722046
308,268,140489,6,0,L|326:348,2,75.0000028610231
348,67,140677,2,0,P|279:177|99:111,1,300.000011444092
267,87,141052,2,0,B|267:202|267:202|287:174,1,150.000005722046
339,109,141427,2,0,P|379:176|460:151,1,150.000005722046
486,114,141802,2,0,P|427:210|423:98,1,300.000011444092,8|0,0:0|0:0,0:0:0:0:
372,38,142364,2,0,P|292:77|201:57,1,150.000005722046
74,83,142739,1,0,0:0:0:0:
298,164,142927,1,0,0:0:0:0:
67,175,143114,1,0,0:0:0:0:
203,250,143302,5,0,0:0:0:0:
276,263,143395,1,0,0:0:0:0:
350,276,143489,1,0,0:0:0:0:
424,290,143583,1,0,0:0:0:0:
297,100,143677,1,0,0:0:0:0:
223,113,143770,1,0,0:0:0:0:
149,126,143864,1,0,0:0:0:0:
75,140,143958,1,0,0:0:0:0:
256,192,144052,5,0,0:0:0:0:
256,192,144145,12,0,154552,0:0:0:0:
477,34,155864,6,0,L|461:98,1,50
405,139,156052,1,4,0:2:0:0:
297,245,156239,1,0,0:0:0:0:
323,118,156427,2,0,P|333:74|384:37,1,100
497,83,156802,1,0,0:0:0:0:
376,129,156989,1,0,0:0:0:0:
457,27,157177,1,0,0:0:0:0:
299,189,157364,6,0,L|193:189,1,100
49,108,157739,2,0,L|189:103,1,100
310,129,158114,1,0,0:0:0:0:
130,146,158302,1,0,0:0:0:0:
290,74,158489,1,0,0:0:0:0:
156,245,158677,2,0,P|162:306|213:278,1,100
266,226,159052,6,0,P|316:180|377:171,1,119.999996337891
446,189,159427,2,0,P|459:257|405:258,1,119.999996337891
292,269,159802,1,0,0:0:0:0:
409,218,159989,1,0,0:0:0:0:
292,269,160177,1,0,0:0:0:0:
409,218,160364,6,0,P|433:158|353:135,1,119.999996337891
323,144,160739,2,0,P|378:169|384:111,1,119.999996337891
300,41,161114,1,0,0:0:0:0:
355,204,161302,2,0,B|383:276|383:276|389:234,1,119.999996337891
401,148,161677,2,0,P|332:134|281:213,1,119.999996337891
280,229,162052,5,0,0:0:0:0:
294,95,162239,1,0,0:0:0:0:
280,229,162427,2,0,B|275:319|275:319|260:284,1,119.999996337891
280,156,162802,1,0,0:0:0:0:
202,207,162989,1,0,0:0:0:0:
362,190,163177,1,0,0:0:0:0:
156,164,163364,6,0,B|122:133|74:131|74:131|106:158,1,119.999996337891
208,247,163739,2,0,P|267:196|266:142,1,119.999996337891
201,73,164114,1,0,0:0:0:0:
208,247,164302,2,0,B|182:299|215:333|215:333|240:278,1,119.999996337891
265,151,164677,1,0,0:0:0:0:
266,91,164770,1,0,0:0:0:0:
266,30,164864,1,0,0:0:0:0:
314,65,164958,1,0,0:0:0:0:
315,125,165052,6,0,L|314:198,3,59.9999981689454,8|0|8|0,0:0|0:0|0:0|0:0,0:0:0:0:
165,286,165614,2,0,L|165:226,3,59.9999981689454,8|0|8|0,0:0|0:0|0:0|0:0,0:0:0:0:
190,64,166177,2,0,L|181:117,5,29.9999990844727
294,295,166552,2,0,L|308:217,3,59.9999981689454,8|0|8|0,0:0|0:0|0:0|0:0,0:0:0:0:
268,99,167114,2,0,L|257:158,3,59.9999981689454,8|0|8|0,0:0|0:0|0:0|0:0,0:0:0:0:
162,297,167677,2,0,L|168:268,5,29.9999990844727
274,110,168052,6,8,B|363:231|363:231|282:187,1,239.999992675781,4|0,0:2|0:0,0:0:0:0:
205,109,168615,2,0,P|243:39|325:41,1,119.999996337891
380,149,169084,2,0,P|389:227|343:138,1,299.999990844727
302,262,169740,1,0,0:0:0:0:
218,210,169928,2,0,B|180:152|173:120|173:120|236:155,1,119.999996337891
288,193,170303,2,0,P|222:214|237:175,1,119.999996337891
270,104,170584,1,0,0:0:0:0:
167,107,170678,2,0,L|103:127,3,59.9999981689454,8|0|0|0,0:0|0:0|0:0|0:0,0:0:0:0:
59,236,171053,6,0,P|147:186|207:300,1,239.999992675781,8|0,0:0|0:0,0:0:0:0:
137,305,171615,2,0,B|157:119|157:119|187:196,1,239.999992675781,8|0,0:0|0:0,0:0:0:0:
204,215,172084,2,0,P|285:202|376:124,1,179.999994506836
328,272,172740,1,0,0:0:0:0:
328,158,172928,2,0,L|326:35,1,119.999996337891
116,242,173303,2,0,L|72:301,1,59.9999981689454
205,104,173490,2,0,L|262:36,1,59.9999981689454
196,222,173678,1,0,0:0:0:0:
253,241,173771,1,0,0:0:0:0:
310,226,173865,1,0,0:0:0:0:
350,182,173959,1,0,0:0:0:0:
351,122,174053,6,0,B|291:48|178:76|178:76|237:102,1,239.999992675781,8|0,0:0|0:0,0:0:0:0:
277,198,174615,2,0,P|375:219|351:122,1,239.999992675781,8|0,0:0|0:0,0:0:0:0:
100,171,175740,1,0,0:0:0:0:
174,257,175928,1,0,0:0:0:0:
221,96,176115,1,0,0:0:0:0:
284,247,176303,1,0,0:0:0:0:
339,153,176490,2,0,L|418:145,1,59.9999981689454
261,170,176678,1,0,0:0:0:0:
231,220,176771,1,0,0:0:0:0:
252,274,176865,1,0,0:0:0:0:
308,290,176959,1,0,0:0:0:0:
362,264,177053,6,0,B|419:162|419:162|326:206,1,179.999994506836
312,223,177428,1,0,0:0:0:0:
187,255,177615,1,0,0:0:0:0:
222,116,177803,2,0,P|309:119|357:256,1,239.999992675781,8|0,0:0|0:0,0:0:0:0:
249,287,178365,1,0,0:0:0:0:
200,250,178459,1,0,0:0:0:0:
181,194,178553,2,0,B|275:100|275:100|221:111,2,179.999994506836
171,256,179209,1,0,0:0:0:0:
223,288,179303,2,0,L|389:296,1,119.999996337891,8|0,0:0|0:0,0:0:0:0:
465,205,179678,2,0,L|311:189,1,119.999996337891,8|0,0:0|0:0,0:0:0:0:
273,253,180053,6,0,P|224:177|357:107,1,239.999992675781,8|0,0:0|0:0,0:0:0:0:
317,189,180615,2,0,B|118:161|118:161|260:146,1,299.999990844727,8|0,0:0|0:0,0:0:0:0:
412,246,181740,1,0,0:0:0:0:
428,302,181834,1,0,0:0:0:0:
391,346,181928,1,0,0:0:0:0:
334,342,182021,1,0,0:0:0:0:
305,292,182115,1,0,0:0:0:0:
325,235,182209,1,0,0:0:0:0:
350,183,182303,1,0,0:0:0:0:
321,133,182396,1,0,0:0:0:0:
263,128,182490,1,0,0:0:0:0:
227,173,182584,1,0,0:0:0:0:
242,228,182678,1,0,0:0:0:0:
297,254,182771,1,0,0:0:0:0:
344,216,182865,1,0,0:0:0:0:
335,157,182959,1,0,0:0:0:0:
288,122,183053,6,0,P|206:87|229:215,1,239.999992675781,8|0,0:0|0:0,0:0:0:0:
188,98,183615,2,0,B|58:31|58:31|56:98|152:89,1,239.999992675781,8|0,0:0|0:0,0:0:0:0:
277,237,184928,2,0,L|363:250,1,59.9999981689454
121,213,185115,1,0,0:0:0:0:
287,142,185303,2,0,L|373:155,1,59.9999981689454
131,118,185490,1,0,0:0:0:0:
299,53,185678,2,0,L|366:66,3,59.9999981689454
401,76,186053,6,0,B|470:153|399:226|399:226|384:136,1,239.999992675781,8|0,0:0|0:0,0:0:0:0:
468,125,186615,2,0,P|441:193|299:138,1,239.999992675781,8|0,0:0|0:0,0:0:0:0:
264,202,187928,1,0,2:0:0:0:
264,202,188021,1,0,2:0:0:0:
264,202,188115,1,0,2:0:0:0:
175,113,188303,1,0,3:0:0:0:
175,113,188396,1,0,3:0:0:0:
175,113,188490,1,0,3:0:0:0:
344,105,188678,2,0,P|422:141|440:246,1,179.999994506836
418,243,189053,6,0,B|291:202|291:202|373:188,1,179.999994506836
363,178,189428,1,0,0:0:0:0:
457,116,189615,1,0,0:0:0:0:
295,110,189803,2,0,P|216:134|283:260,1,239.999992675781,8|0,0:0|0:0,0:0:0:0:
347,247,190365,1,0,0:0:0:0:
373,220,190459,1,0,0:0:0:0:
400,191,190553,2,0,B|465:95|465:95|393:129,2,179.999994506836
373,220,191209,1,0,0:0:0:0:
331,236,191303,2,0,L|231:235,3,59.9999981689454
144,161,191678,2,0,L|203:161,3,59.9999981689454
341,155,192053,6,0,P|402:172|402:258,1,119.999996337891
309,300,192428,1,0,0:0:0:0:
322,71,192615,2,0,P|397:84|236:127,1,659.999979858399
235,130,193740,1,0,0:0:0:0:
397,162,193928,1,0,0:0:0:0:
237,215,194115,2,0,L|365:84,1,179.999994506836
363,87,194490,2,0,P|449:143|452:204,1,119.999996337891
296,115,194865,1,0,0:0:0:0:
285,325,195240,5,0,0:0:0:0:
285,325,195428,1,0,0:0:0:0:
285,325,195615,2,0,P|181:303|369:264,1,659.999979858399
385,222,196740,1,0,0:0:0:0:
251,193,196928,1,0,0:0:0:0:
333,146,197115,2,0,B|358:16|358:16|375:96,1,179.999994506836
378,76,197490,2,0,P|289:105|191:50,1,179.999994506836
213,74,197865,1,0,0:0:0:0:
124,207,198053,1,0,0:0:0:0:
266,94,198240,1,0,0:0:0:0:
87,90,198428,1,0,0:0:0:0:
262,196,198615,6,0,P|327:257|195:235,1,299.999990844727
183,262,199178,2,0,L|173:123,1,119.999996337891
285,52,199553,2,0,L|298:314,1,239.999992675781
393,276,200115,2,0,P|280:232|215:325,1,239.999992675781
200,351,200678,2,0,L|195:209,1,119.999996337891
226,23,201053,2,0,L|238:158,1,119.999996337891
313,322,201428,1,0,0:0:0:0:
311,119,201615,2,0,P|184:114|245:271,1,299.999990844727
214,266,202178,2,0,P|289:252|342:271,1,119.999996337891
458,144,202553,2,0,P|390:153|305:122,1,119.999996337891
207,187,202928,5,0,0:0:0:0:
297,79,203115,1,0,0:0:0:0:
274,189,203303,1,0,0:0:0:0:
160,71,203490,1,0,0:0:0:0:
371,169,203678,1,0,0:0:0:0:
115,220,204239,5,0,0:0:0:0:
177,118,204428,1,0,0:0:0:0:
278,91,204615,2,0,P|356:124|207:112,1,659.999979858399
204,115,205740,1,0,0:0:0:0:
353,147,205928,1,0,0:0:0:0:
189,213,206115,2,0,L|71:231,1,119.999996337891
357,205,206490,2,0,L|491:160,1,119.999996337891
157,249,206865,1,0,0:0:0:0:
393,144,207240,5,0,0:0:0:0:
393,144,207428,1,0,0:0:0:0:
393,144,207615,2,0,B|288:144|288:144|180:227|272:279|375:234|310:184|284:144|284:144|155:136,1,479.999985351563
120,280,208740,1,0,0:0:0:0:
277,188,208928,1,0,0:0:0:0:
120,173,209115,2,0,P|69:215|37:266,1,119.999996337891
254,218,209490,2,0,P|305:176|337:125,1,119.999996337891
302,31,209865,5,0,0:0:0:0:
212,138,210053,1,0,0:0:0:0:
233,51,210240,1,0,0:0:0:0:
371,211,210428,1,0,0:0:0:0:
117,188,210615,1,0,0:0:0:0:
310,283,211178,2,0,L|436:266,1,119.999996337891
184,177,211553,2,0,L|67:129,1,119.999996337891
228,112,212115,2,0,P|355:128|411:222,1,239.999992675781
303,272,212678,2,0,L|151:256,1,119.999996337891
90,137,213052,5,8,0:0:0:0:
149,149,213145,1,0,0:0:0:0:
208,161,213239,1,0,0:0:0:0:
267,172,213333,1,0,0:0:0:0:
470,292,213614,5,8,0:0:0:0:
411,280,213707,1,0,0:0:0:0:
352,268,213801,1,0,0:0:0:0:
293,257,213895,1,0,0:0:0:0:
158,354,214177,5,8,0:0:0:0:
170,295,214270,1,0,0:0:0:0:
182,236,214364,1,0,0:0:0:0:
193,177,214458,1,0,0:0:0:0:
204,118,214552,1,8,0:0:0:0:
304,184,214739,1,8,0:0:0:0:
101,158,214927,1,8,0:0:0:0:
222,268,215302,6,0,L|237:298,6,29.9999990844727
181,254,215677,2,0,L|168:228,6,29.9999990844727
234,245,216052,6,0,P|346:237|369:123,1,239.999992675781,8|0,0:0|0:0,0:0:0:0:
290,157,216614,2,0,B|417:279|417:279|359:183,1,239.999992675781,8|0,0:0|0:0,0:0:0:0:
274,337,217177,2,0,L|243:296,1,29.9999990844727,8|0,0:2|0:2,0:2:0:0:
123,248,217364,2,0,L|147:210,1,29.9999990844727,8|0,0:2|0:2,0:2:0:0:
279,172,217552,2,0,L|249:134,1,29.9999990844727,8|0,0:2|0:2,0:2:0:0:
134,67,217739,1,0,0:0:0:0:
305,92,217927,2,0,L|461:156,1,119.999996337891
463,249,218302,6,0,L|361:209,1,59.9999981689454
351,208,218489,1,0,0:0:0:0:
295,188,218582,1,0,0:0:0:0:
238,166,218677,2,0,L|177:140,3,59.9999981689454
137,122,219052,2,0,P|214:157|156:290,1,239.999992675781,8|0,0:0|0:0,0:0:0:0:
282,141,219614,2,0,P|247:218|114:160,1,239.999992675781,8|0,0:0|0:0,0:0:0:0:
140,91,220177,2,0,L|158:114,1,29.9999990844727,8|0,0:2|0:2,0:2:0:0:
123,248,220364,2,0,L|147:210,1,29.9999990844727,8|0,0:2|0:2,0:2:0:0:
279,179,220552,2,0,L|239:157,1,29.9999990844727,8|0,0:2|0:2,0:2:0:0:
140,90,220739,5,0,0:0:0:0:
281,180,220927,2,0,L|399:199,1,119.999996337891
281,180,221302,2,0,L|199:164,1,59.9999981689454
53,61,221489,2,0,L|125:54,1,59.9999981689454
251,58,221677,2,0,L|316:63,3,59.9999981689454
356,68,222052,2,0,P|375:149|248:149,1,239.999992675781,8|0,0:0|0:0,0:0:0:0:
221,115,222614,2,0,L|384:293,1,239.999992675781,8|0,0:0|0:0,0:0:0:0:
470,320,223177,6,0,L|451:296,1,29.9999990844727,8|0,0:2|0:2,0:2:0:0:
381,196,223364,2,0,L|400:228,1,29.9999990844727,8|0,0:2|0:2,0:2:0:0:
470,320,223552,2,0,L|451:296,1,29.9999990844727,8|0,0:2|0:2,0:2:0:0:
383,197,223739,1,0,0:0:0:0:
330,352,223927,1,0,0:0:0:0:
239,173,224114,1,0,0:0:0:0:
407,293,224302,2,0,L|516:231,1,119.999996337891
386,203,224583,1,0,0:0:0:0:
277,218,224677,6,0,L|200:239,3,59.9999981689454
376,191,225052,1,0,0:0:0:0:
256,192,225145,12,0,227864,0:0:0:0:
78,36,228052,6,0,L|237:45,1,119.999996337891,8|0,0:0|0:0,0:0:0:0:
358,35,228333,1,0,0:0:0:0:
273,172,228427,2,0,L|153:165,1,119.999996337891,8|0,0:0|0:0,0:0:0:0:
60,129,228708,1,0,0:0:0:0:
96,272,228802,2,0,L|255:281,1,119.999996337891,8|0,0:0|0:0,0:0:0:0:
391,244,229083,1,0,0:0:0:0:
240,352,229177,2,0,L|91:350,1,119.999996337891,8|0,0:0|0:0,0:0:0:0:
59,198,229458,5,0,0:0:0:0:
192,80,229552,2,0,P|256:64|320:80,1,119.999996337891,8|0,0:0|0:0,0:0:0:0:
256,160,229833,1,0,0:0:0:0:
289,67,229927,2,0,P|346:101|380:158,1,119.999996337891,8|0,0:0|0:0,0:0:0:0:
277,168,230208,1,0,0:0:0:0:
368,128,230302,2,0,P|384:192|368:256,1,119.999996337891,8|0,0:0|0:0,0:0:0:0:
288,190,230583,1,0,0:0:0:0:
380,225,230677,2,0,P|346:282|289:316,1,119.999996337891,8|0,0:0|0:0,0:0:0:0:
279,213,230958,5,0,0:0:0:0:
42,192,231052,2,0,L|53:48,1,119.999996337891,8|0,0:0|0:0,0:0:0:0:
125,32,231333,1,0,0:0:0:0:
138,243,231427,2,0,L|149:99,1,119.999996337891,8|0,0:0|0:0,0:0:0:0:
221,83,231708,1,0,0:0:0:0:
246,292,231802,2,0,L|257:148,1,119.999996337891,8|0,0:0|0:0,0:0:0:0:
329,132,232083,1,0,0:0:0:0:
369,354,232177,2,0,L|380:210,1,119.999996337891,8|0,0:0|0:0,0:0:0:0:
452,194,232458,5,0,0:0:0:0:
328,218,232552,2,0,P|237:209|183:186,1,119.999996337891,8|0,0:0|0:0,0:0:0:0:
175,104,232833,1,0,0:0:0:0:
288,261,232927,2,0,P|230:190|208:136,1,119.999996337891,8|0,0:0|0:0,0:0:0:0:
260,72,233208,1,0,0:0:0:0:
230,264,233302,2,0,P|239:173|262:119,1,119.999996337891,8|0,0:0|0:0,0:0:0:0:
344,110,233583,1,0,0:0:0:0:
186,224,233677,2,0,P|257:166|311:144,1,119.999996337891,8|0,0:0|0:0,0:0:0:0:
375,196,233958,1,0,0:0:0:0:
176,112,234052,5,8,0:0:0:0:
344,110,234239,1,0,0:0:0:0:
128,208,234427,1,8,0:0:0:0:
384,208,234614,1,0,0:0:0:0:
156,92,234802,5,8,0:0:0:0:
366,90,234989,1,0,0:0:0:0:
96,212,235177,1,8,0:0:0:0:
416,212,235364,1,0,0:0:0:0:
135,71,235552,5,8,0:0:0:0:
388,70,235739,1,0,0:0:0:0:
63,216,235927,1,8,0:0:0:0:
448,216,236114,1,0,0:0:0:0:
105,41,236302,5,8,0:0:0:0:
421,40,236489,1,0,0:0:0:0:
15,222,236677,1,8,0:0:0:0:
496,222,236864,1,0,0:0:0:0:
107,78,237052,5,8,0:0:0:0:
167,78,237145,1,0,0:0:0:0:
227,78,237239,1,0,0:0:0:0:
287,78,237333,1,0,0:0:0:0:
142,131,237427,5,8,0:0:0:0:
202,131,237520,1,0,0:0:0:0:
262,131,237614,1,0,0:0:0:0:
322,131,237708,1,0,0:0:0:0:
176,183,237802,5,8,0:0:0:0:
236,183,237895,1,0,0:0:0:0:
296,183,237989,1,0,0:0:0:0:
356,183,238083,1,0,0:0:0:0:
203,237,238177,6,0,L|204:277,1,29.9999990844727,8|0,0:0|0:0,0:0:0:0:
262,233,238270,2,0,L|259:269,1,29.9999990844727
320,229,238364,2,0,L|321:269,1,29.9999990844727
387,240,238458,2,0,L|386:278,1,29.9999990844727
283,315,238552,1,8,0:0:0:0:
256,192,238645,12,0,239489,0:0:0:0:
252,286,239677,5,0,0:0:0:0:
252,286,239770,1,0,0:0:0:0:
252,286,239864,1,0,0:0:0:0:
252,286,239958,1,0,0:0:0:0:
252,286,240052,6,0,B|257:37|257:37|170:225,1,375
194,209,240427,2,0,P|116:214|183:118,1,250
397,40,240802,6,0,L|325:86,1,62.5,8|0,0:0|0:0,0:0:0:0:
386,114,240895,2,0,L|314:160,1,62.5
372,192,240989,2,0,L|300:238,1,62.5
361,266,241082,2,0,L|289:312,1,62.5
191,79,241177,6,0,L|263:125,1,62.5
202,153,241270,2,0,L|274:199,1,62.5
216,231,241364,2,0,L|288:277,1,62.5
227,305,241457,2,0,L|299:351,1,62.5
406,282,241552,1,0,0:0:0:0:
406,282,241645,1,0,0:0:0:0:
273,258,241739,6,0,P|189:226|140:162,1,125
360,96,241927,2,0,P|444:128|493:192,1,125
273,31,242114,2,0,P|212:88|195:199,1,125
296,320,242302,2,0,L|348:177,1,125,8|0,0:0|0:0,0:0:0:0:
223,40,242489,2,0,L|174:155,1,125
108,247,242677,2,0,L|150:242,1,37.5
196,206,243052,6,0,P|274:198|140:121,1,375
154,98,243427,2,0,L|441:97,1,250
480,208,243802,6,0,L|417:208,1,62.5,8|0,0:0|0:0,0:0:0:0:
240,208,243895,2,0,L|302:208,1,62.5
480,208,243989,2,0,L|417:208,1,62.5
240,208,244082,2,0,L|302:208,1,62.5
362,75,244177,6,0,L|362:138,1,62.5
362,315,244270,2,0,L|362:253,1,62.5
362,75,244364,2,0,L|362:138,1,62.5
362,315,244457,2,0,L|362:253,1,62.5
427,322,244552,1,0,0:0:0:0:
427,322,244645,1,0,0:0:0:0:
224,128,244739,6,0,P|163:95|85:177,1,125
288,256,244927,2,0,P|349:289|427:207,1,125
320,160,245114,2,0,P|353:99|271:21,1,125
192,224,245302,2,0,P|159:285|241:363,1,125,8|0,0:0|0:0,0:0:0:0:
320,160,245489,2,0,P|353:99|271:21,1,125
194,90,245677,2,0,B|96:193|96:193|127:265|203:269|244:189,1,250
