osu file format v14

[General]
AudioFilename: audio.mp3
AudioLeadIn: 0
PreviewTime: 83910
Countdown: 0
SampleSet: Soft
StackLeniency: 0.2
Mode: 0
LetterboxInBreaks: 0
WidescreenStoryboard: 0

[Editor]
Bookmarks: 34534,166177,189409,214534,215302,237145
DistanceSpacing: 0.22
BeatDivisor: 4
GridSize: 32
TimelineZoom: 3.9

[Metadata]
Title:Be Wild
TitleUnicode:Be Wild
Artist:Camellia ft. Yukacco
ArtistUnicode:かめりあ ft. Yukacco
Creator:hi-mei
Version:Inspiration
Source:
Tags:trap dubstep edm MelonBooks ShopBGM Compilations:001 Nature かめるかめりあ
BeatmapID:1670874
BeatmapSetID:795610

[Difficulty]
HPDrainRate:5
CircleSize:4.1
OverallDifficulty:9.9
ApproachRate:9.9
SliderMultiplier:2.9
SliderTickRate:1

[Events]
//Background and Video events
0,0,"bg.jpg",0,0
//Break Periods
//Storyboard Layer 0 (Background)
//Storyboard Layer 1 (Fail)
//Storyboard Layer 2 (Pass)
//Storyboard Layer 3 (Foreground)
//Storyboard Sound Samples

[TimingPoints]
52,375,4,2,1,5,1,0
52,-250,4,2,1,15,0,0
3052,-250,4,2,1,20,0,0
6052,-250,4,2,1,25,0,0
9052,-250,4,2,1,30,0,0
10458,-250,4,2,1,5,0,0
10552,-133.333333333333,4,2,1,20,0,0
11489,-133.333333333333,4,2,1,50,0,0
11677,-133.333333333333,4,2,1,65,0,0
12052,-133.333333333333,4,2,1,85,0,0
14489,-133.333333333333,4,2,1,70,0,0
14677,-133.333333333333,4,2,1,75,0,0
15052,-133.333333333333,4,2,1,85,0,0
17302,-133.333333333333,4,2,1,70,0,0
17395,-133.333333333333,4,2,1,5,0,0
17489,-133.333333333333,4,2,1,70,0,0
17583,-133.333333333333,4,2,1,5,0,0
17677,-133.333333333333,4,2,1,75,0,0
18052,-133.333333333333,4,2,1,85,0,0
20489,-133.333333333333,4,2,1,55,0,0
20677,-133.333333333333,4,2,1,70,0,0
21052,-200,4,2,1,75,0,0
21145,-200,4,2,1,5,0,0
21614,-200,4,2,1,55,0,0
21802,-200,4,2,1,80,0,0
21895,-200,4,2,1,5,0,0
22364,-200,4,2,1,55,0,0
23302,-200,4,2,1,80,0,0
23489,-200,4,2,1,65,0,0
23677,-200,4,2,1,80,0,0
23864,-200,4,2,1,65,0,0
24052,-200,4,2,1,85,0,0
25927,-133.333333333333,4,2,1,55,0,0
26677,-133.333333333333,4,2,1,75,0,0
27052,-133.333333333333,4,2,1,85,0,0
28927,-133.333333333333,4,2,1,55,0,0
29677,-133.333333333333,4,2,1,75,0,0
30052,-133.333333333333,4,2,1,85,0,0
31927,-133.333333333333,4,2,1,55,0,0
32114,-133.333333333333,4,2,1,65,0,0
32677,-133.333333333333,4,2,1,75,0,0
33052,-200,4,2,1,60,0,0
33145,-200,4,2,1,5,0,0
33614,-200,4,2,1,60,0,0
33802,-200,4,2,1,65,0,0
33895,-200,4,2,1,5,0,0
34364,-200,4,2,1,60,0,0
35302,-133.333333333333,4,2,1,40,0,0
36052,-200,4,2,1,80,0,0
36239,-200,4,2,1,45,0,0
36708,-200,4,2,1,5,0,0
37739,-200,4,2,1,45,0,0
38395,-200,4,2,1,5,0,0
38489,-200,4,2,1,45,0,0
38770,-200,4,2,1,5,0,0
38864,-200,4,2,1,45,0,0
39802,-200,4,2,1,5,0,0
40739,-200,4,2,1,45,0,0
41395,-200,4,2,1,5,0,0
41489,-200,4,2,1,45,0,0
41770,-200,4,2,1,5,0,0
41864,-200,4,2,1,45,0,0
42614,-273.224043715847,4,2,1,45,0,0
42989,-273.224043715847,4,2,1,5,0,0
43177,-215.05376344086,4,2,1,45,0,0
43458,-215.05376344086,4,2,1,5,0,0
43552,-215.05376344086,4,2,1,45,0,0
43645,-215.05376344086,4,2,1,5,0,0
44114,-215.05376344086,4,2,1,45,0,0
44208,-215.05376344086,4,2,1,5,0,0
44677,-206.611570247934,4,2,1,45,0,0
44958,-206.611570247934,4,2,1,5,0,0
45052,-206.611570247934,4,2,1,45,0,0
45333,-206.611570247934,4,2,1,5,0,0
45427,-206.611570247934,4,2,1,45,0,0
45614,-283.28611898017,4,2,1,45,0,0
46177,-212.765957446809,4,2,1,45,0,0
46458,-212.765957446809,4,2,1,5,0,0
46552,-212.765957446809,4,2,1,45,0,0
46833,-212.765957446809,4,2,1,5,0,0
46927,-212.765957446809,4,2,1,45,0,0
47677,-166.666666666667,4,2,1,45,0,0
47770,-166.666666666667,4,2,1,5,0,0
48239,-200,4,2,1,45,0,0
48614,-185.185185185185,4,2,1,45,0,0
48708,-185.185185185185,4,2,1,5,0,0
49739,-200,4,2,1,45,0,0
50114,-200,4,2,1,45,0,0
50395,-200,4,2,1,5,0,0
50489,-200,4,2,1,45,0,0
50770,-200,4,2,1,5,0,0
50864,-200,4,2,1,45,0,0
51614,-200,4,2,1,45,0,0
51708,-200,4,2,1,5,0,0
52739,-160,4,2,1,45,0,0
53114,-200,4,2,1,45,0,0
53395,-200,4,2,1,5,0,0
53489,-200,4,2,1,45,0,0
53770,-200,4,2,1,5,0,0
53864,-200,4,2,1,45,0,0
54614,-265.25198938992,4,2,1,45,0,0
54989,-265.25198938992,4,2,1,5,0,0
55177,-200,4,2,1,45,0,0
55458,-200,4,2,1,5,0,0
55552,-200,4,2,1,45,0,0
55645,-200,4,2,1,5,0,0
56114,-200,4,2,1,45,0,0
56208,-200,4,2,1,5,0,0
56677,-200,4,2,1,45,0,0
56958,-200,4,2,1,5,0,0
57052,-200,4,2,1,45,0,0
57239,-200,4,2,1,45,0,0
57333,-200,4,2,1,5,0,0
58177,-200,4,2,1,45,0,0
58458,-200,4,2,1,5,0,0
58552,-200,4,2,1,50,0,0
59302,-200,4,2,1,65,0,0
59677,-133.333333333333,4,2,1,75,0,0
59958,-133.333333333333,4,2,1,5,0,0
60052,-133.333333333333,4,2,1,85,0,0
60427,-133.333333333333,4,2,1,35,0,0
60614,-133.333333333333,4,2,1,85,0,0
60802,-133.333333333333,4,2,1,50,0,0
61177,-133.333333333333,4,2,1,40,0,0
61223,-133.333333333333,4,2,1,5,0,0
61364,-133.333333333333,4,2,1,40,0,0
61410,-133.333333333333,4,2,1,5,0,0
61552,-133.333333333333,4,2,1,40,0,0
61598,-133.333333333333,4,2,1,5,0,0
61739,-133.333333333333,4,2,1,60,0,0
62489,-133.333333333333,4,2,1,60,0,0
62677,-133.333333333333,4,2,1,65,0,0
63052,-133.333333333333,4,2,1,85,0,0
63427,-133.333333333333,4,2,1,35,0,0
63614,-133.333333333333,4,2,1,85,0,0
63802,-133.333333333333,4,2,1,50,0,0
64177,-133.333333333333,4,2,1,40,0,0
64223,-133.333333333333,4,2,1,5,0,0
64364,-133.333333333333,4,2,1,40,0,0
64410,-133.333333333333,4,2,1,5,0,0
64552,-133.333333333333,4,2,1,40,0,0
64598,-133.333333333333,4,2,1,5,0,0
64739,-133.333333333333,4,2,1,60,0,0
65114,-133.333333333333,4,2,1,5,0,0
65208,-133.333333333333,4,2,1,60,0,0
65677,-133.333333333333,4,2,1,65,0,0
66052,-133.333333333333,4,2,1,85,0,0
66427,-133.333333333333,4,2,1,35,0,0
66614,-133.333333333333,4,2,1,85,0,0
66802,-133.333333333333,4,2,1,50,0,0
67177,-133.333333333333,4,2,1,40,0,0
67223,-133.333333333333,4,2,1,5,0,0
67364,-133.333333333333,4,2,1,40,0,0
67410,-133.333333333333,4,2,1,5,0,0
67552,-133.333333333333,4,2,1,40,0,0
67598,-133.333333333333,4,2,1,5,0,0
67739,-133.333333333333,4,2,1,60,0,0
68208,-133.333333333333,4,2,1,5,0,0
68302,-133.333333333333,4,2,1,40,0,0
68395,-133.333333333333,4,2,1,5,0,0
68489,-133.333333333333,4,2,1,60,0,0
68677,-133.333333333333,4,2,1,65,0,0
69052,-133.333333333333,4,2,1,70,0,0
69145,-133.333333333333,4,2,1,30,0,0
69427,-133.333333333333,4,2,1,35,0,0
69802,-133.333333333333,4,2,1,40,0,0
70177,-133.333333333333,4,2,1,45,0,0
70552,-133.333333333333,4,2,1,50,0,0
71302,-133.333333333333,4,2,1,5,0,0
71395,-100,4,2,1,30,0,0
71489,-100,4,2,1,35,0,0
71583,-100,4,2,1,40,0,0
71677,-100,4,2,1,45,0,0
71770,-100,4,2,1,50,0,0
71864,-100,4,2,1,55,0,0
71958,-100,4,2,1,60,0,0
72052,-100,4,2,1,65,0,0
72239,-100,4,2,1,35,0,0
72427,-100,4,2,1,65,0,0
72614,-100,4,2,1,35,0,0
72802,-95.2380952380952,4,2,1,65,0,0
72989,-95.2380952380952,4,2,1,35,0,0
73177,-95.2380952380952,4,2,1,65,0,0
73364,-100,4,2,1,35,0,0
73552,-90.9090909090909,4,2,1,65,0,0
73739,-90.9090909090909,4,2,1,35,0,0
73927,-90.9090909090909,4,2,1,65,0,0
74114,-90.9090909090909,4,2,1,35,0,0
74302,-86.9565217391304,4,2,1,65,0,0
74489,-86.9565217391304,4,2,1,35,0,0
74677,-86.9565217391304,4,2,1,65,0,0
74864,-86.9565217391304,4,2,1,35,0,0
75052,-100,4,2,1,65,0,0
75239,-100,4,2,1,35,0,0
75427,-100,4,2,1,65,0,0
75614,-100,4,2,1,35,0,0
75802,-95.2380952380952,4,2,1,65,0,0
75989,-95.2380952380952,4,2,1,35,0,0
76177,-95.2380952380952,4,2,1,65,0,0
76364,-95.2380952380952,4,2,1,35,0,0
76552,-90.9090909090909,4,2,1,65,0,0
76739,-90.9090909090909,4,2,1,35,0,0
76927,-90.9090909090909,4,2,1,65,0,0
77114,-90.9090909090909,4,2,1,35,0,0
77302,-86.9565217391304,4,2,1,65,0,0
77489,-86.9565217391304,4,2,1,35,0,0
77677,-86.9565217391304,4,2,1,65,0,0
77864,-86.9565217391304,4,2,1,35,0,0
78052,-86.9565217391304,4,2,1,65,0,0
78427,-86.9565217391304,4,2,1,75,0,0
78614,-86.9565217391304,4,2,1,65,0,0
79177,-86.9565217391304,4,2,1,75,0,0
79364,-86.9565217391304,4,2,1,65,0,0
79927,-86.9565217391304,4,2,1,75,0,0
80114,-86.9565217391304,4,2,1,65,0,0
80677,-86.9565217391304,4,2,1,75,0,0
80864,-86.9565217391304,4,2,1,65,0,0
81052,-86.9565217391304,4,2,1,90,0,1
81145,-86.9565217391304,4,2,1,70,0,1
81427,-86.9565217391304,4,2,1,90,0,1
81520,-86.9565217391304,4,2,1,70,0,1
81802,-86.9565217391304,4,2,1,90,0,1
81895,-86.9565217391304,4,2,1,70,0,1
82177,-86.9565217391304,4,2,1,90,0,1
82270,-86.9565217391304,4,2,1,70,0,1
82552,-86.9565217391304,4,2,1,75,0,1
82645,-86.9565217391304,4,2,1,5,0,0
83677,-86.9565217391304,4,2,1,65,0,0
84052,-55.5555555555556,4,2,1,90,0,0
84333,-55.5555555555556,4,2,1,5,0,0
84427,-100,4,2,1,75,0,0
84708,-100,4,2,1,5,0,0
84802,-100,4,2,1,90,0,0
84895,-100,4,2,1,80,0,0
85177,-100,4,2,1,90,0,0
85270,-100,4,2,1,80,0,0
85739,-64.1025641025641,4,2,1,75,0,0
85833,-64.1025641025641,4,2,1,5,0,0
85927,-64.1025641025641,4,2,1,90,0,0
86020,-64.1025641025641,4,2,1,5,0,0
86114,-64.1025641025641,4,2,1,75,0,0
86208,-64.1025641025641,4,2,1,5,0,0
86302,-64.1025641025641,4,2,1,90,0,0
86395,-64.1025641025641,4,2,1,5,0,0
86489,-92.5925925925926,4,2,1,70,0,0
86583,-92.5925925925926,4,2,1,5,0,0
86677,-75.7575757575758,4,2,1,70,0,0
86958,-75.7575757575758,4,2,1,5,0,0
87052,-58.8235294117647,4,2,1,90,0,0
87333,-58.8235294117647,4,2,1,5,0,0
87427,-100,4,2,1,75,0,0
87708,-100,4,2,1,5,0,0
87802,-100,4,2,1,90,0,0
87895,-100,4,2,1,80,0,0
88177,-100,4,2,1,90,0,0
88270,-100,4,2,1,80,0,0
88739,-64.1025641025641,4,2,1,90,0,0
88833,-64.1025641025641,4,2,1,5,0,0
88927,-64.1025641025641,4,2,1,90,0,0
89020,-64.1025641025641,4,2,1,5,0,0
89114,-64.1025641025641,4,2,1,75,0,0
89208,-64.1025641025641,4,2,1,5,0,0
89302,-64.1025641025641,4,2,1,90,0,0
89395,-64.1025641025641,4,2,1,5,0,0
89489,-76.9230769230769,4,2,1,70,0,0
89583,-76.9230769230769,4,2,1,5,0,0
89677,-66.6666666666667,4,2,1,70,0,0
89958,-66.6666666666667,4,2,1,5,0,0
90052,-55.5555555555556,4,2,1,90,0,0
90333,-55.5555555555556,4,2,1,5,0,0
90427,-100,4,2,1,75,0,0
90708,-100,4,2,1,5,0,0
90799,-100,4,2,1,90,0,0
90895,-100,4,2,1,80,0,0
91177,-100,4,2,1,90,0,0
91270,-100,4,2,1,80,0,0
91739,-64.1025641025641,4,2,1,75,0,0
91833,-64.1025641025641,4,2,1,5,0,0
91927,-64.1025641025641,4,2,1,90,0,0
92020,-64.1025641025641,4,2,1,5,0,0
92114,-64.1025641025641,4,2,1,75,0,0
92208,-64.1025641025641,4,2,1,5,0,0
92302,-64.1025641025641,4,2,1,90,0,0
92395,-64.1025641025641,4,2,1,5,0,0
92489,-76.9230769230769,4,2,1,70,0,0
92583,-76.9230769230769,4,2,1,5,0,0
92677,-70.4225352112676,4,2,1,70,0,0
92958,-76.9230769230769,4,2,1,5,0,0
93052,-200,4,2,1,90,0,0
93333,-200,4,2,1,5,0,0
93427,-200,4,2,1,65,0,0
93708,-200,4,2,1,5,0,0
93802,-200,4,2,1,90,0,0
94083,-200,4,2,1,5,0,0
94177,-196.078431372549,4,2,1,90,0,0
94552,-196.078431372549,4,2,1,65,0,0
94739,-196.078431372549,4,2,1,65,0,0
94927,-196.078431372549,4,2,1,65,0,0
95114,-196.078431372549,4,2,1,65,0,0
95302,-200,4,2,1,65,0,0
95677,-200,4,2,1,65,0,0
96052,-55.5555555555556,4,2,1,90,0,0
96333,-55.5555555555556,4,2,1,5,0,0
96427,-100,4,2,1,75,0,0
96708,-100,4,2,1,5,0,0
96802,-100,4,2,1,90,0,0
96895,-100,4,2,1,80,0,0
97177,-100,4,2,1,90,0,0
97270,-100,4,2,1,80,0,0
97739,-64.1025641025641,4,2,1,75,0,0
97833,-64.1025641025641,4,2,1,5,0,0
97927,-64.1025641025641,4,2,1,90,0,0
98020,-64.1025641025641,4,2,1,5,0,0
98114,-64.1025641025641,4,2,1,75,0,0
98208,-64.1025641025641,4,2,1,5,0,0
98302,-64.1025641025641,4,2,1,90,0,0
98395,-64.1025641025641,4,2,1,5,0,0
98489,-76.9230769230769,4,2,1,70,0,0
98583,-76.9230769230769,4,2,1,5,0,0
98677,-75.7575757575758,4,2,1,70,0,0
98958,-75.7575757575758,4,2,1,5,0,0
99052,-58.8235294117647,4,2,1,90,0,0
99333,-58.8235294117647,4,2,1,5,0,0
99427,-100,4,2,1,75,0,0
99708,-100,4,2,1,5,0,0
99802,-100,4,2,1,90,0,0
99895,-100,4,2,1,80,0,0
100177,-100,4,2,1,90,0,0
100270,-100,4,2,1,80,0,0
100739,-64.1025641025641,4,2,1,90,0,0
100833,-64.1025641025641,4,2,1,5,0,0
100927,-64.1025641025641,4,2,1,90,0,0
101020,-64.1025641025641,4,2,1,5,0,0
101114,-64.1025641025641,4,2,1,75,0,0
101208,-64.1025641025641,4,2,1,5,0,0
101302,-64.1025641025641,4,2,1,90,0,0
101395,-64.1025641025641,4,2,1,5,0,0
101489,-76.9230769230769,4,2,1,70,0,0
101583,-76.9230769230769,4,2,1,5,0,0
101677,-66.6666666666667,4,2,1,70,0,0
101958,-66.6666666666667,4,2,1,5,0,0
102052,-54.3478260869565,4,2,1,90,0,0
102333,-54.3478260869565,4,2,1,5,0,0
102427,-100,4,2,1,75,0,0
102708,-100,4,2,1,5,0,0
102802,-100,4,2,1,90,0,0
102895,-100,4,2,1,80,0,0
103177,-100,4,2,1,90,0,0
103270,-100,4,2,1,80,0,0
103364,-64.1025641025641,4,2,1,90,0,0
103458,-64.1025641025641,4,2,1,5,0,0
103552,-64.1025641025641,4,2,1,80,0,0
103927,-100,4,2,1,90,0,0
104020,-100,4,2,1,80,0,0
104114,-43.4782608695652,4,2,1,90,0,0
104208,-43.4782608695652,4,2,1,5,0,0
104302,-43.4782608695652,4,2,1,90,0,0
104395,-43.4782608695652,4,2,1,80,0,0
104864,-39.5256916996047,4,2,1,90,0,0
105005,-200,4,2,1,5,0,0
105052,-200,4,2,1,90,0,0
105333,-200,4,2,1,5,0,0
105427,-200,4,2,1,65,0,0
105708,-200,4,2,1,5,0,0
105802,-200,4,2,1,90,0,0
106083,-200,4,2,1,5,0,0
106177,-196.078431372549,4,2,1,80,0,0
106552,-196.078431372549,4,2,1,65,0,0
106739,-200,4,2,1,65,0,0
106927,-200,4,2,1,65,0,0
107114,-200,4,2,1,65,0,0
107302,-200,4,2,1,65,0,0
107677,-200,4,2,1,65,0,0
108052,-80,4,2,1,80,0,0
108239,-80,4,2,1,15,0,0
108427,-80,4,2,1,80,0,0
108614,-80,4,2,1,15,0,0
108802,-70.9219858156028,4,2,1,80,0,0
108989,-70.9219858156028,4,2,1,15,0,0
109177,-70.9219858156028,4,2,1,80,0,0
109364,-70.9219858156028,4,2,1,15,0,0
109552,-62.8930817610063,4,2,1,80,0,0
109739,-62.8930817610063,4,2,1,15,0,0
109927,-62.8930817610063,4,2,1,80,0,0
110114,-62.8930817610063,4,2,1,15,0,0
110302,-56.8181818181818,4,2,1,80,0,0
110489,-56.8181818181818,4,2,1,15,0,0
110677,-56.8181818181818,4,2,1,80,0,0
110864,-56.8181818181818,4,2,1,15,0,0
111052,-52.3560209424084,4,2,1,80,0,0
111239,-52.3560209424084,4,2,1,15,0,0
111427,-52.3560209424084,4,2,1,80,0,0
111614,-52.3560209424084,4,2,1,15,0,0
111802,-47.6190476190476,4,2,1,80,0,0
111989,-47.6190476190476,4,2,1,15,0,0
112177,-47.6190476190476,4,2,1,80,0,0
112364,-47.6190476190476,4,2,1,15,0,0
112552,-44.4444444444445,4,2,1,80,0,0
112739,-44.4444444444445,4,2,1,15,0,0
112927,-44.4444444444445,4,2,1,80,0,0
113114,-44.4444444444445,4,2,1,15,0,0
113302,-41.6666666666667,4,2,1,80,0,0
113489,-41.6666666666667,4,2,1,15,0,0
113677,-41.6666666666667,4,2,1,80,0,0
113864,-41.6666666666667,4,2,1,15,0,0
114052,-86.9565217391304,4,2,1,65,0,0
114427,-86.9565217391304,4,2,1,75,0,0
114614,-86.9565217391304,4,2,1,65,0,0
115177,-86.9565217391304,4,2,1,75,0,0
115364,-86.9565217391304,4,2,1,65,0,0
115927,-86.9565217391304,4,2,1,75,0,0
116114,-86.9565217391304,4,2,1,65,0,0
116677,-86.9565217391304,4,2,1,75,0,0
116864,-86.9565217391304,4,2,1,65,0,0
117052,-86.9565217391304,4,2,1,90,0,1
117145,-86.9565217391304,4,2,1,70,0,1
117427,-86.9565217391304,4,2,1,90,0,1
117520,-86.9565217391304,4,2,1,70,0,1
117802,-86.9565217391304,4,2,1,90,0,1
117895,-86.9565217391304,4,2,1,70,0,1
118177,-86.9565217391304,4,2,1,90,0,1
118270,-86.9565217391304,4,2,1,70,0,1
118552,-86.9565217391304,4,2,1,75,0,1
118739,-86.9565217391304,4,2,1,5,0,0
119677,-100,4,2,1,65,0,0
120052,-55.5555555555556,4,2,1,90,0,0
120333,-55.5555555555556,4,2,1,5,0,0
120427,-50,4,2,1,75,0,0
120520,-50,4,2,1,5,0,0
120614,-50,4,2,1,75,0,0
120707,-50,4,2,1,5,0,0
120802,-58.8235294117647,4,2,1,90,0,0
120895,-58.8235294117647,4,2,1,5,0,0
120989,-58.8235294117647,4,2,1,75,0,0
121083,-58.8235294117647,4,2,1,5,0,0
121177,-58.8235294117647,4,2,1,90,0,0
121270,-58.8235294117647,4,2,1,5,0,0
121552,-50,4,2,1,75,0,0
121645,-50,4,2,1,5,0,0
121739,-50,4,2,1,75,0,0
121832,-50,4,2,1,5,0,0
121927,-58.8235294117647,4,2,1,90,0,0
122020,-58.8235294117647,4,2,1,5,0,0
122114,-58.8235294117647,4,2,1,75,0,0
122208,-58.8235294117647,4,2,1,5,0,0
122302,-58.8235294117647,4,2,1,90,0,0
122395,-58.8235294117647,4,2,1,5,0,0
122489,-200,4,2,1,40,0,0
122677,-45.4545454545455,4,2,1,75,0,0
122958,-45.4545454545455,4,2,1,65,0,0
123052,-142.857142857143,4,2,1,90,0,0
123333,-142.857142857143,4,2,1,5,0,0
123427,-50,4,2,1,75,0,0
123520,-50,4,2,1,5,0,0
123614,-50,4,2,1,75,0,0
123707,-50,4,2,1,5,0,0
123802,-58.8235294117647,4,2,1,90,0,0
123895,-58.8235294117647,4,2,1,5,0,0
123989,-58.8235294117647,4,2,1,75,0,0
124083,-58.8235294117647,4,2,1,5,0,0
124177,-58.8235294117647,4,2,1,90,0,0
124270,-58.8235294117647,4,2,1,5,0,0
124364,-58.8235294117647,4,2,1,65,0,0
124645,-58.8235294117647,4,2,1,5,0,0
124739,-58.8235294117647,4,2,1,90,0,0
124833,-58.8235294117647,4,2,1,5,0,0
124927,-58.8235294117647,4,2,1,90,0,0
125020,-58.8235294117647,4,2,1,5,0,0
125114,-58.8235294117647,4,2,1,65,0,0
125302,-80,4,2,1,90,0,0
125395,-80,4,2,1,5,0,0
125489,-80,4,2,1,65,0,0
125583,-80,4,2,1,5,0,0
125677,-120.481927710843,4,2,1,65,0,0
125958,-120.481927710843,4,2,1,5,0,0
126052,-55.5555555555556,4,2,1,90,0,0
126333,-55.5555555555556,4,2,1,5,0,0
126427,-50,4,2,1,75,0,0
126520,-50,4,2,1,5,0,0
126614,-50,4,2,1,75,0,0
126707,-50,4,2,1,5,0,0
126802,-58.8235294117647,4,2,1,90,0,0
126895,-58.8235294117647,4,2,1,5,0,0
126989,-58.8235294117647,4,2,1,75,0,0
127083,-58.8235294117647,4,2,1,5,0,0
127177,-58.8235294117647,4,2,1,90,0,0
127270,-58.8235294117647,4,2,1,5,0,0
127552,-50,4,2,1,75,0,0
127645,-50,4,2,1,5,0,0
127739,-50,4,2,1,75,0,0
127832,-50,4,2,1,5,0,0
127927,-58.8235294117647,4,2,1,90,0,0
128020,-58.8235294117647,4,2,1,5,0,0
128114,-58.8235294117647,4,2,1,75,0,0
128208,-58.8235294117647,4,2,1,5,0,0
128302,-58.8235294117647,4,2,1,90,0,0
128395,-58.8235294117647,4,2,1,5,0,0
128489,-200,4,2,1,40,0,0
128677,-66.6666666666667,4,2,1,75,0,0
128958,-66.6666666666667,4,2,1,5,0,0
129052,-200,4,2,1,90,0,0
129333,-200,4,2,1,5,0,0
129427,-200,4,2,1,65,0,0
129708,-200,4,2,1,5,0,0
129802,-200,4,2,1,90,0,0
130083,-200,4,2,1,5,0,0
130177,-196.078431372549,4,2,1,90,0,0
130552,-196.078431372549,4,2,1,65,0,0
130739,-200,4,2,1,65,0,0
130927,-200,4,2,1,65,0,0
131302,-66.6666666666667,4,2,1,65,0,0
132052,-55.5555555555556,4,2,1,90,0,0
132333,-55.5555555555556,4,2,1,5,0,0
132427,-55.5555555555556,4,2,1,80,0,0
133177,-75.3579502637528,4,2,1,80,0,0
133364,-75.3579502637528,4,2,1,65,0,0
133552,-75.3579502637528,4,2,1,80,0,0
134395,-75.3579502637528,4,2,1,65,0,0
134489,-66.6666666666667,4,2,1,65,0,0
135052,-55.5555555555556,4,2,1,90,0,0
135333,-55.5555555555556,4,2,1,5,0,0
135427,-75.187969924812,4,2,1,80,0,0
135802,-75.187969924812,4,2,1,90,0,0
135895,-75.187969924812,4,2,1,80,0,0
136177,-66.6666666666667,4,2,1,90,0,0
136364,-62.8930817610063,4,2,1,65,0,0
136552,-62.8930817610063,4,2,1,80,0,0
136739,-62.8930817610063,4,2,1,90,0,0
136833,-62.8930817610063,4,2,1,80,0,0
136927,-62.8930817610063,4,2,1,90,0,0
137020,-62.8930817610063,4,2,1,80,0,0
137302,-66.6666666666667,4,2,1,90,0,0
137395,-66.6666666666667,4,2,1,65,0,0
137489,-100,4,2,1,75,0,0
137583,-100,4,2,1,5,0,0
137677,-200,4,2,1,65,0,0
138052,-55.5555555555556,4,2,1,90,0,0
138333,-55.5555555555556,4,2,1,5,0,0
138427,-55.5555555555556,4,2,1,80,0,0
138802,-55.5555555555556,4,2,1,90,0,0
138895,-55.5555555555556,4,2,1,80,0,0
139177,-91.743119266055,4,2,1,90,0,0
139364,-75.187969924812,4,2,1,65,0,0
139552,-75.187969924812,4,2,1,80,0,0
139927,-75.187969924812,4,2,1,90,0,0
140020,-75.187969924812,4,2,1,80,0,0
140302,-57.6036866359447,4,2,1,90,0,0
140395,-57.6036866359447,4,2,1,65,0,0
140489,-200,4,2,1,40,0,0
140677,-66.6666666666667,4,2,1,75,0,0
140958,-66.6666666666667,4,2,1,5,0,0
141052,-200,4,2,1,90,0,0
141333,-200,4,2,1,5,0,0
141427,-200,4,2,1,65,0,0
141708,-200,4,2,1,5,0,0
141802,-200,4,2,1,90,0,0
142083,-200,4,2,1,5,0,0
142177,-196.078431372549,4,2,1,90,0,0
142552,-196.078431372549,4,2,1,65,0,0
142739,-200,4,2,1,65,0,0
142927,-200,4,2,1,65,0,0
143302,-200,4,2,1,40,0,0
144145,-200,4,2,1,40,0,0
150052,-200,4,2,1,20,0,0
151552,-200,4,2,1,10,0,0
152864,-200,4,2,1,5,0,0
155864,-200,4,2,1,35,0,0
156052,-250,4,2,1,55,0,0
156239,-250,4,2,1,5,0,0
156427,-250,4,2,1,15,0,0
159052,-250,4,2,1,20,0,0
160364,-250,4,2,1,25,0,0
162052,-250,4,2,1,30,0,0
164583,-250,4,2,1,30,0,0
164677,-133.333333333333,4,2,1,65,0,0
165052,-100,4,2,1,65,0,0
165145,-100,4,2,1,50,0,0
165614,-100,4,2,1,65,0,0
165708,-100,4,2,1,50,0,0
166177,-100,4,2,1,65,0,0
166552,-100,4,2,1,65,0,0
166645,-100,4,2,1,50,0,0
167114,-100,4,2,1,65,0,0
167208,-100,4,2,1,50,0,0
167677,-100,4,2,1,65,0,0
168052,-100,4,2,1,85,0,0
170489,-133.333333333333,4,2,1,70,0,0
170677,-133.333333333333,4,2,1,75,0,0
171052,-133.333333333333,4,2,1,85,0,0
173302,-133.333333333333,4,2,1,70,0,0
173395,-133.333333333333,4,2,1,5,0,0
173489,-133.333333333333,4,2,1,70,0,0
173677,-133.333333333333,4,2,1,75,0,0
174052,-133.333333333333,4,2,1,85,0,0
176489,-133.333333333333,4,2,1,55,0,0
176677,-133.333333333333,4,2,1,70,0,0
177052,-200,4,2,1,75,0,0
177145,-200,4,2,1,5,0,0
177614,-200,4,2,1,55,0,0
177802,-200,4,2,1,80,0,0
177895,-200,4,2,1,5,0,0
178364,-200,4,2,1,55,0,0
179302,-200,4,2,1,80,0,0
179489,-200,4,2,1,65,0,0
179677,-200,4,2,1,80,0,0
179864,-200,4,2,1,65,0,0
180052,-200,4,2,1,85,0,0
181927,-200,4,2,1,55,0,0
182677,-133.333333333333,4,2,1,75,0,0
183052,-133.333333333333,4,2,1,85,0,0
184927,-133.333333333333,4,2,1,55,0,0
185677,-133.333333333333,4,2,1,75,0,0
186052,-133.333333333333,4,2,1,85,0,0
187927,-133.333333333333,4,2,1,55,0,0
188114,-133.333333333333,4,2,1,65,0,0
188677,-133.333333333333,4,2,1,85,0,0
189052,-200,4,2,1,60,0,0
189145,-200,4,2,1,5,0,0
189614,-200,4,2,1,60,0,0
189802,-200,4,2,1,65,0,0
189895,-200,4,2,1,5,0,0
190364,-200,4,2,1,60,0,0
191302,-133.333333333333,4,2,1,40,0,0
192052,-200,4,2,1,80,0,0
192239,-200,4,2,1,45,0,0
192708,-200,4,2,1,5,0,0
193739,-200,4,2,1,45,0,0
194395,-200,4,2,1,5,0,0
194489,-200,4,2,1,45,0,0
194770,-200,4,2,1,5,0,0
194864,-200,4,2,1,45,0,0
195802,-200,4,2,1,5,0,0
196739,-200,4,2,1,45,0,0
197395,-200,4,2,1,5,0,0
197489,-200,4,2,1,45,0,0
197770,-200,4,2,1,5,0,0
197864,-200,4,2,1,45,0,0
198614,-273.224043715847,4,2,1,45,0,0
198989,-273.224043715847,4,2,1,5,0,0
199177,-200,4,2,1,45,0,0
199458,-200,4,2,1,5,0,0
199552,-200,4,2,1,45,0,0
199645,-200,4,2,1,5,0,0
200114,-200,4,2,1,45,0,0
200208,-200,4,2,1,5,0,0
200677,-200,4,2,1,45,0,0
200958,-206.611570247934,4,2,1,5,0,0
201052,-200,4,2,1,45,0,0
201333,-206.611570247934,4,2,1,5,0,0
201427,-206.611570247934,4,2,1,45,0,0
201614,-273.224043715847,4,2,1,45,0,0
201989,-273.224043715847,4,2,1,5,0,0
202177,-217.391304347826,4,2,1,45,0,0
202458,-217.391304347826,4,2,1,5,0,0
202552,-217.391304347826,4,2,1,45,0,0
202833,-212.765957446809,4,2,1,5,0,0
202927,-212.765957446809,4,2,1,45,0,0
203677,-166.666666666667,4,2,1,45,0,0
203770,-166.666666666667,4,2,1,5,0,0
204239,-200,4,2,1,45,0,0
204614,-204.918032786885,4,2,1,45,0,0
204708,-205.761316872428,4,2,1,5,0,0
205364,-205.761316872428,4,2,1,45,0,0
205739,-159.744408945687,4,2,1,45,0,0
206114,-200,4,2,1,45,0,0
206395,-200,4,2,1,5,0,0
206489,-200,4,2,1,45,0,0
206770,-200,4,2,1,5,0,0
206864,-200,4,2,1,45,0,0
207614,-200,4,2,1,45,0,0
207708,-200,4,2,1,5,0,0
208739,-160,4,2,1,45,0,0
209114,-200,4,2,1,45,0,0
209395,-200,4,2,1,5,0,0
209489,-200,4,2,1,45,0,0
209770,-200,4,2,1,5,0,0
209864,-200,4,2,1,45,0,0
210614,-273.224043715847,4,2,1,45,0,0
210989,-273.224043715847,4,2,1,5,0,0
211177,-222.222222222222,4,2,1,45,0,0
211458,-222.222222222222,4,2,1,5,0,0
211552,-212.765957446809,4,2,1,45,0,0
211645,-212.765957446809,4,2,1,5,0,0
212114,-212.765957446809,4,2,1,45,0,0
212208,-212.765957446809,4,2,1,5,0,0
212677,-200,4,2,1,45,0,0
212958,-200,4,2,1,5,0,0
213052,-133.333333333333,4,2,1,70,0,0
213239,-133.333333333333,4,2,1,50,0,0
213614,-133.333333333333,4,2,1,70,0,0
213802,-133.333333333333,4,2,1,50,0,0
214177,-133.333333333333,4,2,1,70,0,0
214364,-133.333333333333,4,2,1,50,0,0
214458,-200,4,2,1,50,0,0
214552,-133.333333333333,4,2,1,70,0,0
214739,-133.333333333333,4,2,1,50,0,0
214927,-133.333333333333,4,2,1,70,0,0
215114,-133.333333333333,4,2,1,50,0,0
215302,-133.333333333333,4,2,1,65,0,0
216052,-133.333333333333,4,2,1,85,0,0
216427,-133.333333333333,4,2,1,35,0,0
216614,-133.333333333333,4,2,1,85,0,0
216802,-133.333333333333,4,2,1,50,0,0
217177,-133.333333333333,4,2,1,40,0,0
217223,-133.333333333333,4,2,1,5,0,0
217364,-133.333333333333,4,2,1,40,0,0
217410,-133.333333333333,4,2,1,5,0,0
217552,-133.333333333333,4,2,1,40,0,0
217598,-133.333333333333,4,2,1,5,0,0
217739,-133.333333333333,4,2,1,60,0,0
218489,-133.333333333333,4,2,1,60,0,0
218677,-133.333333333333,4,2,1,65,0,0
219052,-133.333333333333,4,2,1,85,0,0
219427,-133.333333333333,4,2,1,35,0,0
219614,-133.333333333333,4,2,1,85,0,0
219802,-133.333333333333,4,2,1,50,0,0
220177,-133.333333333333,4,2,1,40,0,0
220223,-133.333333333333,4,2,1,5,0,0
220364,-133.333333333333,4,2,1,40,0,0
220410,-133.333333333333,4,2,1,5,0,0
220552,-133.333333333333,4,2,1,40,0,0
220598,-133.333333333333,4,2,1,5,0,0
220739,-133.333333333333,4,2,1,60,0,0
221114,-133.333333333333,4,2,1,5,0,0
221208,-133.333333333333,4,2,1,60,0,0
221677,-133.333333333333,4,2,1,65,0,0
222052,-133.333333333333,4,2,1,85,0,0
222427,-133.333333333333,4,2,1,35,0,0
222614,-133.333333333333,4,2,1,85,0,0
222802,-133.333333333333,4,2,1,50,0,0
223177,-133.333333333333,4,2,1,40,0,0
223223,-133.333333333333,4,2,1,5,0,0
223364,-133.333333333333,4,2,1,40,0,0
223410,-133.333333333333,4,2,1,5,0,0
223552,-133.333333333333,4,2,1,40,0,0
223598,-133.333333333333,4,2,1,5,0,0
223739,-133.333333333333,4,2,1,60,0,0
224208,-133.333333333333,4,2,1,5,0,0
224302,-133.333333333333,4,2,1,40,0,0
224395,-133.333333333333,4,2,1,5,0,0
224489,-133.333333333333,4,2,1,60,0,0
224677,-133.333333333333,4,2,1,65,0,0
225052,-133.333333333333,4,2,1,70,0,0
225145,-133.333333333333,4,2,1,30,0,0
225427,-133.333333333333,4,2,1,35,0,0
225802,-133.333333333333,4,2,1,40,0,0
226177,-133.333333333333,4,2,1,45,0,0
226552,-133.333333333333,4,2,1,50,0,0
227302,-133.333333333333,4,2,1,5,0,0
228052,-100,4,2,1,65,0,0
228239,-100,4,2,1,35,0,0
228333,-100,4,2,1,50,0,0
228427,-86.9565217391304,4,2,1,65,0,0
228614,-86.9565217391304,4,2,1,35,0,0
228708,-86.9565217391304,4,2,1,50,0,0
228802,-76.9230769230769,4,2,1,65,0,0
228989,-76.9230769230769,4,2,1,35,0,0
229083,-76.9230769230769,4,2,1,50,0,0
229177,-68.9655172413793,4,2,1,65,0,0
229364,-68.9655172413793,4,2,1,35,0,0
229458,-68.9655172413793,4,2,1,50,0,0
229552,-62.5,4,2,1,65,0,0
229739,-62.5,4,2,1,35,0,0
229833,-62.5,4,2,1,50,0,0
229927,-57.1428571428571,4,2,1,65,0,0
230114,-57.1428571428571,4,2,1,35,0,0
230208,-57.1428571428571,4,2,1,50,0,0
230302,-52.6315789473684,4,2,1,65,0,0
230489,-52.6315789473684,4,2,1,35,0,0
230583,-52.6315789473684,4,2,1,50,0,0
230677,-48.780487804878,4,2,1,65,0,0
230864,-48.780487804878,4,2,1,35,0,0
231052,-100,4,2,1,65,0,0
231239,-100,4,2,1,35,0,0
231333,-100,4,2,1,50,0,0
231427,-86.9565217391304,4,2,1,65,0,0
231614,-86.9565217391304,4,2,1,35,0,0
231708,-86.9565217391304,4,2,1,50,0,0
231802,-76.9230769230769,4,2,1,65,0,0
231989,-76.9230769230769,4,2,1,35,0,0
232083,-76.9230769230769,4,2,1,50,0,0
232177,-68.9655172413793,4,2,1,65,0,0
232364,-68.9655172413793,4,2,1,35,0,0
232458,-68.9655172413793,4,2,1,50,0,0
232552,-62.5,4,2,1,65,0,0
232739,-62.5,4,2,1,35,0,0
232833,-62.5,4,2,1,50,0,0
232927,-57.1428571428571,4,2,1,65,0,0
233114,-57.1428571428571,4,2,1,35,0,0
233208,-57.1428571428571,4,2,1,50,0,0
233302,-52.6315789473684,4,2,1,65,0,0
233489,-52.6315789473684,4,2,1,35,0,0
233583,-52.6315789473684,4,2,1,50,0,0
233677,-48.780487804878,4,2,1,65,0,0
233864,-48.780487804878,4,2,1,35,0,0
234052,-41.6666666666667,4,2,1,80,0,0
234239,-41.6666666666667,4,2,1,70,0,0
234427,-41.6666666666667,4,2,1,80,0,0
234614,-41.6666666666667,4,2,1,70,0,0
234802,-41.6666666666667,4,2,1,80,0,0
234989,-41.6666666666667,4,2,1,70,0,0
235177,-41.6666666666667,4,2,1,80,0,0
235364,-41.6666666666667,4,2,1,70,0,0
235552,-41.6666666666667,4,2,1,80,0,0
235739,-41.6666666666667,4,2,1,70,0,0
235927,-41.6666666666667,4,2,1,80,0,0
236114,-41.6666666666667,4,2,1,70,0,0
236302,-41.6666666666667,4,2,1,80,0,0
236489,-41.6666666666667,4,2,1,70,0,0
236677,-41.6666666666667,4,2,1,80,0,0
236864,-41.6666666666667,4,2,1,70,0,0
237052,-68.7285223367698,4,2,1,85,0,1
237802,-100,4,2,1,90,0,1
238177,-100,4,2,1,95,0,1
238645,-100,4,2,1,5,0,0
239677,-100,4,2,1,75,0,0
240052,-55.5555555555556,4,2,1,90,0,0
240333,-55.5555555555556,4,2,1,5,0,0
240427,-55.5555555555556,4,2,1,75,0,0
240708,-55.5555555555556,4,2,1,5,0,0
240802,-40,4,2,1,80,0,0
241177,-40,4,2,1,90,0,0
241223,-40,4,2,1,80,0,0
241552,-40,4,2,1,80,0,0
241739,-52.6315789473684,4,2,1,75,0,0
241833,-52.6315789473684,4,2,1,5,0,0
241927,-52.6315789473684,4,2,1,90,0,0
242020,-52.6315789473684,4,2,1,5,0,0
242114,-51.5463917525773,4,2,1,75,0,0
242208,-52.6315789473684,4,2,1,5,0,0
242302,-51.5463917525773,4,2,1,90,0,0
242395,-52.6315789473684,4,2,1,5,0,0
242489,-79.3650793650794,4,2,1,70,0,0
242583,-79.3650793650794,4,2,1,5,0,0
242677,-75.7575757575758,4,2,1,70,0,0
242958,-75.7575757575758,4,2,1,5,0,0
243052,-58.8235294117647,4,2,1,90,0,0
243333,-58.8235294117647,4,2,1,5,0,0
243427,-58.8235294117647,4,2,1,75,0,0
243708,-58.8235294117647,4,2,1,5,0,0
243802,-40,4,2,1,80,0,0
244177,-40,4,2,1,90,0,0
244223,-40,4,2,1,80,0,0
244552,-51.5463917525773,4,2,1,80,0,0
244739,-51.5463917525773,4,2,1,90,0,0
244833,-51.5463917525773,4,2,1,5,0,0
244927,-51.5463917525773,4,2,1,90,0,0
245020,-51.5463917525773,4,2,1,5,0,0
245114,-51.5463917525773,4,2,1,75,0,0
245208,-51.5463917525773,4,2,1,5,0,0
245302,-51.5463917525773,4,2,1,90,0,0
245395,-51.5463917525773,4,2,1,5,0,0
245489,-108.695652173913,4,2,1,70,0,0
245583,-111.111111111111,4,2,1,5,0,0
245677,-66.6666666666667,4,2,1,70,0,0
245958,-66.6666666666667,4,2,1,5,0,0
246052,-55.5555555555556,4,2,1,90,0,0
246333,-55.5555555555556,4,2,1,5,0,0
246427,-45.662100456621,4,2,1,60,0,0
246708,-50,4,2,1,5,0,0
246802,-40,4,2,1,80,0,0
247177,-40,4,2,1,90,0,0
247223,-40,4,2,1,80,0,0
247552,-51.5463917525773,4,2,1,80,0,0
247739,-52.6315789473684,4,2,1,75,0,0
247833,-52.6315789473684,4,2,1,5,0,0
247927,-52.6315789473684,4,2,1,90,0,0
248020,-52.6315789473684,4,2,1,5,0,0
248114,-51.2820512820513,4,2,1,75,0,0
248208,-52.6315789473684,4,2,1,5,0,0
248302,-51.5463917525773,4,2,1,90,0,0
248395,-52.6315789473684,4,2,1,5,0,0
248489,-80,4,2,1,70,0,0
248583,-80,4,2,1,5,0,0
248677,-52.0833333333333,4,2,1,70,0,0
248770,-52.0833333333333,4,2,1,5,0,0
248864,-52.0833333333333,4,2,1,70,0,0
248958,-52.0833333333333,4,2,1,5,0,0
249049,-200,4,2,1,90,0,0
249333,-200,4,2,1,5,0,0
249427,-200,4,2,1,65,0,0
249708,-200,4,2,1,5,0,0
249802,-188.679245283019,4,2,1,90,0,0
250083,-181.818181818182,4,2,1,5,0,0
250177,-196.078431372549,4,2,1,90,0,0
250552,-196.078431372549,4,2,1,65,0,0
250739,-200,4,2,1,65,0,0
250927,-200,4,2,1,65,0,0
251020,-196.078431372549,4,2,1,5,0,0
251114,-196.078431372549,4,2,1,65,0,0
251302,-200,4,2,1,65,0,0
251677,-200,4,2,1,65,0,0
252052,-55.5555555555556,4,2,1,90,0,0
252333,-25,4,2,1,5,0,0
252427,-55.5555555555556,4,2,1,75,0,0
252708,-55.5555555555556,4,2,1,5,0,0
252802,-28.5714285714286,4,2,1,90,0,0
252848,-28.5714285714286,4,2,1,80,0,0
252895,-33.3333333333333,4,2,1,80,0,0
252989,-40,4,2,1,80,0,0
253083,-50,4,2,1,80,0,0
253270,-40,4,2,1,90,0,0
253317,-40,4,2,1,80,0,0
253364,-33.3333333333333,4,2,1,80,0,0
253458,-28.5714285714286,4,2,1,80,0,0
253552,-28.5714285714286,4,2,1,80,0,0
253739,-71.4285714285714,4,2,1,75,0,0
253833,-71.4285714285714,4,2,1,5,0,0
253927,-71.4285714285714,4,2,1,90,0,0
254020,-71.4285714285714,4,2,1,5,0,0
254114,-71.4285714285714,4,2,1,75,0,0
254208,-71.4285714285714,4,2,1,5,0,0
254302,-71.4285714285714,4,2,1,90,0,0
254395,-71.4285714285714,4,2,1,5,0,0
254489,-84.0336134453781,4,2,1,70,0,0
254583,-84.0336134453781,4,2,1,5,0,0
254677,-66.6666666666667,4,2,1,70,0,0
254958,-66.6666666666667,4,2,1,5,0,0
255052,-48.0769230769231,4,2,1,90,0,0
255333,-48.0769230769231,4,2,1,5,0,0
255427,-55.5555555555556,4,2,1,75,0,0
255708,-55.5555555555556,4,2,1,5,0,0
255802,-50,4,2,1,90,0,0
255848,-40,4,2,1,80,0,0
255895,-40,4,2,1,80,0,0
255989,-33.3333333333333,4,2,1,80,0,0
256083,-28.5714285714286,4,2,1,80,0,0
256177,-28.5714285714286,4,2,1,90,0,0
256223,-33.3333333333333,4,2,1,80,0,0
256270,-33.3333333333333,4,2,1,80,0,0
256364,-40,4,2,1,80,0,0
256458,-50,4,2,1,80,0,0
256552,-50,4,2,1,80,0,0
256739,-71.4285714285714,4,2,1,90,0,0
256833,-71.4285714285714,4,2,1,5,0,0
256927,-71.4285714285714,4,2,1,90,0,0
257020,-71.4285714285714,4,2,1,5,0,0
257114,-71.4285714285714,4,2,1,75,0,0
257208,-71.4285714285714,4,2,1,5,0,0
257302,-71.4285714285714,4,2,1,90,0,0
257395,-71.4285714285714,4,2,1,5,0,0
257489,-80.6451612903226,4,2,1,70,0,0
257583,-80.6451612903226,4,2,1,5,0,0
257677,-66.6666666666667,4,2,1,70,0,0
257958,-66.6666666666667,4,2,1,5,0,0
258052,-50.5050505050505,4,2,1,90,0,0
258333,-50.5050505050505,4,2,1,5,0,0
258427,-55.5555555555556,4,2,1,90,0,0
258708,-55.5555555555556,4,2,1,5,0,0
258802,-61.3496932515337,4,2,1,90,0,0
259083,-62.111801242236,4,2,1,5,0,0
259177,-50,4,2,1,90,0,0
259223,-40,4,2,1,80,0,0
259270,-40,4,2,1,80,0,0
259364,-33.3333333333333,4,2,1,80,0,0
259458,-28.5714285714286,4,2,1,80,0,0
259552,-28.5714285714286,4,2,1,80,0,0
259739,-71.4285714285714,4,2,1,80,0,0
259833,-71.4285714285714,4,2,1,5,0,0
259927,-71.4285714285714,4,2,1,90,0,0
260020,-71.4285714285714,4,2,1,5,0,0
260114,-72.992700729927,4,2,1,80,0,0
260208,-72.992700729927,4,2,1,5,0,0
260302,-72.992700729927,4,2,1,90,0,0
260395,-72.992700729927,4,2,1,5,0,0
260489,-80.6451612903226,4,2,1,70,0,0
260583,-80.6451612903226,4,2,1,5,0,0
260677,-71.4285714285714,4,2,1,70,0,0
260770,-71.4285714285714,4,2,1,5,0,0
260864,-71.4285714285714,4,2,1,70,0,0
260958,-71.4285714285714,4,2,1,5,0,0
261052,-200,4,2,1,90,0,0
261333,-200,4,2,1,5,0,0
261427,-200,4,2,1,65,0,0
261708,-200,4,2,1,5,0,0
261802,-212.765957446809,4,2,1,90,0,0
262083,-200,4,2,1,5,0,0
262177,-196.078431372549,4,2,1,90,0,0
262552,-196.078431372549,4,2,1,65,0,0
262739,-200,4,2,1,65,0,0
262927,-200,4,2,1,65,0,0
263020,-196.078431372549,4,2,1,5,0,0
263114,-196.078431372549,4,2,1,65,0,0
263302,-200,4,2,1,65,0,0
263677,-200,4,2,1,65,0,0
264052,-133.333333333333,4,2,1,80,0,0
264239,-133.333333333333,4,2,1,50,0,0
264427,-133.333333333333,4,2,1,65,0,0
264708,-133.333333333333,4,2,1,15,0,0
264802,-133.333333333333,4,2,1,80,0,0
264989,-133.333333333333,4,2,1,50,0,0
265177,-133.333333333333,4,2,1,80,0,0
265364,-133.333333333333,4,2,1,50,0,0
265552,-133.333333333333,4,2,1,60,0,0
265739,-133.333333333333,4,2,1,50,0,0
265927,-133.333333333333,4,2,1,80,0,0
266114,-133.333333333333,4,2,1,50,0,0
266302,-133.333333333333,4,2,1,80,0,0
266958,-133.333333333333,4,2,1,50,0,0
267052,-133.333333333333,4,2,1,80,0,0
267239,-133.333333333333,4,2,1,50,0,0
267427,-133.333333333333,4,2,1,80,0,0
267708,-133.333333333333,4,2,1,15,0,0
267802,-133.333333333333,4,2,1,80,0,0
267989,-133.333333333333,4,2,1,50,0,0
268177,-133.333333333333,4,2,1,80,0,0
268364,-133.333333333333,4,2,1,50,0,0
268739,-133.333333333333,4,2,1,80,0,0
269208,-133.333333333333,4,2,1,15,0,0
269302,-133.333333333333,4,2,1,80,0,0
269583,-133.333333333333,4,2,1,50,0,0
270052,-133.333333333333,4,2,1,80,0,0
270239,-133.333333333333,4,2,1,50,0,0
270427,-133.333333333333,4,2,1,65,0,0
270708,-133.333333333333,4,2,1,15,0,0
270802,-133.333333333333,4,2,1,80,0,0
270989,-133.333333333333,4,2,1,50,0,0
271177,-133.333333333333,4,2,1,80,0,0
271364,-133.333333333333,4,2,1,50,0,0
271552,-133.333333333333,4,2,1,60,0,0
271739,-133.333333333333,4,2,1,50,0,0
271927,-133.333333333333,4,2,1,80,0,0
272114,-133.333333333333,4,2,1,50,0,0
272302,-133.333333333333,4,2,1,80,0,0
272583,-133.333333333333,4,2,1,15,0,0
272677,-133.333333333333,4,2,1,50,0,0
273052,-133.333333333333,4,2,1,80,0,0
273145,-133.333333333333,4,2,1,50,0,0
273802,-133.333333333333,4,2,1,80,0,0
273989,-133.333333333333,4,2,1,50,0,0
274177,-133.333333333333,4,2,1,80,0,0
274364,-133.333333333333,4,2,1,50,0,0
274645,-133.333333333333,4,2,1,15,0,0
274739,-133.333333333333,4,2,1,80,0,0
275208,-133.333333333333,4,2,1,15,0,0
275302,-133.333333333333,4,2,1,80,0,0
275583,-133.333333333333,4,2,1,15,0,0
275677,-133.333333333333,4,2,1,50,0,0
276052,-133.333333333333,4,2,1,80,0,0
276239,-133.333333333333,4,2,1,50,0,0
276427,-133.333333333333,4,2,1,65,0,0
276708,-133.333333333333,4,2,1,15,0,0
276802,-133.333333333333,4,2,1,80,0,0
276989,-133.333333333333,4,2,1,50,0,0
277177,-133.333333333333,4,2,1,80,0,0
277364,-133.333333333333,4,2,1,50,0,0
277552,-133.333333333333,4,2,1,60,0,0
277739,-133.333333333333,4,2,1,50,0,0
277927,-133.333333333333,4,2,1,80,0,0
278114,-133.333333333333,4,2,1,50,0,0
278302,-133.333333333333,4,2,1,80,0,0
278583,-133.333333333333,4,2,1,15,0,0
278677,-133.333333333333,4,2,1,50,0,0
279052,-133.333333333333,4,2,1,80,0,0
279239,-133.333333333333,4,2,1,50,0,0
279427,-133.333333333333,4,2,1,65,0,0
279708,-133.333333333333,4,2,1,15,0,0
279802,-133.333333333333,4,2,1,80,0,0
279989,-133.333333333333,4,2,1,50,0,0
280177,-133.333333333333,4,2,1,80,0,0
280364,-133.333333333333,4,2,1,50,0,0
280739,-133.333333333333,4,2,1,80,0,0
281208,-133.333333333333,4,2,1,15,0,0
281302,-133.333333333333,4,2,1,80,0,0
281489,-133.333333333333,4,2,1,50,0,0
282052,-133.333333333333,4,2,1,80,0,0
282114,-133.333333333333,4,2,1,50,0,0
282427,-133.333333333333,4,2,1,65,0,0
282708,-133.333333333333,4,2,1,15,0,0
282802,-133.333333333333,4,2,1,80,0,0
282989,-133.333333333333,4,2,1,50,0,0
283177,-133.333333333333,4,2,1,80,0,0
283364,-133.333333333333,4,2,1,50,0,0
283927,-133.333333333333,4,2,1,80,0,0
284114,-133.333333333333,4,2,1,50,0,0
284302,-133.333333333333,4,2,1,80,0,0
284489,-133.333333333333,4,2,1,50,0,0
284677,-133.333333333333,4,2,1,65,0,0
284958,-133.333333333333,4,2,1,50,0,0
285052,-133.333333333333,4,2,1,80,0,0
285427,-133.333333333333,4,2,1,50,0,0
285614,-90.9090909090909,4,2,1,65,0,0
285708,-87.719298245614,4,2,1,5,0,0
285802,-90.9090909090909,4,2,1,80,0,0
285895,-90.9090909090909,4,2,1,5,0,0
285989,-90.9090909090909,4,2,1,65,0,0
286083,-90.9090909090909,4,2,1,5,0,0
286177,-90.9090909090909,4,2,1,80,0,0
286270,-90.9090909090909,4,2,1,5,0,0
286364,-90.9090909090909,4,2,1,65,0,0
286458,-90.9090909090909,4,2,1,5,0,0
286552,-90.9090909090909,4,2,1,65,0,0
286646,-90.9090909090909,4,2,1,5,0,0
286739,-42.5531914893617,4,2,1,80,0,0
286833,-42.5531914893617,4,2,1,5,0,0
286927,-42.5531914893617,4,2,1,80,0,0
287021,-42.5531914893617,4,2,1,5,0,0
287114,-42.5531914893617,4,2,1,65,0,0
287208,-42.5531914893617,4,2,1,5,0,0
287302,-42.5531914893617,4,2,1,80,0,0
287396,-42.5531914893617,4,2,1,5,0,0
287489,-42.5531914893617,4,2,1,65,0,0
287583,-42.5531914893617,4,2,1,5,0,0
287677,-128.205128205128,4,2,1,65,0,0
287958,-42.5531914893617,4,2,1,5,0,0
288052,-42.5531914893617,4,2,1,65,0,0
288145,-42.5531914893617,4,2,1,40,0,0
289552,-42.5531914893617,4,2,1,35,0,0
291052,-42.5531914893617,4,2,1,30,0,0
292552,-42.5531914893617,4,2,1,25,0,0
294052,-42.5531914893617,4,2,1,20,0,0
294802,-42.5531914893617,4,2,1,15,0,0
295552,-42.5531914893617,4,2,1,10,0,0
296302,-42.5531914893617,4,2,1,5,0,0

[Colours]
Combo1 : 228,73,143
Combo2 : 255,102,106
Combo3 : 113,162,253
Combo4 : 221,196,13
SliderBorder : 100,100,170
SliderTrackOverride : 0,0,0

[HitObjects]
58,196,52,5,0,0:0:0:0:
136,155,239,1,0,0:0:0:0:
132,243,427,2,0,L|196:268,1,58,0|0,0:0|0:0,0:0:0:0:
265,330,802,2,0,L|320:352,2,58,0|0|0,0:0|0:0|0:0,0:0:0:0:
282,228,1364,6,0,L|307:164,1,58,0|0,0:0|0:0,0:0:0:0:
224,107,1739,2,0,L|249:43,1,58,0|0,0:0|0:0,0:0:0:0:
127,143,2114,2,0,L|105:197,1,58
184,262,2489,1,0,0:0:0:0:
184,262,2677,2,0,L|163:317,1,58,0|0,0:0|0:0,0:0:0:0:
345,275,3052,5,0,0:0:0:0:
303,174,3239,1,0,0:0:0:0:
449,253,3427,2,0,L|470:307,1,58,0|0,0:0|0:0,0:0:0:0:
407,152,3802,2,0,L|385:97,2,58,0|0|0,0:0|0:0|0:0,0:0:0:0:
238,262,4364,6,0,L|258:316,1,58,0|0,0:0|0:0,0:0:0:0:
195,160,4739,2,0,L|173:105,1,58,0|0,0:0|0:0,0:0:0:0:
129,247,5114,2,0,L|74:268,1,58
303,174,5489,1,0,0:0:0:0:
303,174,5677,2,0,L|355:152,1,58,0|0,0:0|0:0,0:0:0:0:
480,256,6052,5,0,0:0:0:0:
387,375,6239,1,0,0:0:0:0:
237,353,6427,2,0,L|183:374,1,58,0|0,0:0|0:0,0:0:0:0:
426,278,6802,2,0,L|479:256,2,58,0|0|0,0:0|0:0|0:0,0:0:0:0:
194,213,7364,6,0,L|248:192,1,58
427,74,7739,2,0,L|372:94,1,58,0|0,0:0|0:0,0:0:0:0:
221,294,8114,2,0,L|275:273,1,58
455,154,8489,1,0,0:0:0:0:
455,154,8677,2,0,L|400:174,1,58,0|0,0:0|0:0,0:0:0:0:
194,213,9052,5,0,0:0:0:0:
47,144,9239,1,0,0:0:0:0:
181,52,9427,2,0,L|151:114,1,58
85,252,9802,2,0,L|60:305,2,58
194,213,10364,2,0,L|225:201,1,29
350,93,10552,5,2,0:0:0:0:
350,93,10927,5,2,0:0:0:0:
350,93,11302,5,2,0:0:0:0:
350,93,11489,6,0,L|371:63,2,36.2500013828278,0|0|0,3:0|3:0|3:0,0:0:0:0:
374,189,11677,6,0,L|306:284,1,108.750004148483,2|0,0:3|0:3,0:3:0:0:
146,47,12052,5,6,3:0:0:0:
146,47,12614,5,6,3:0:0:0:
42,207,14489,5,0,3:0:0:0:
26,255,14583,1,0,3:0:0:0:
58,159,14677,6,0,L|79:89,3,54.3750020742417,2|0|0|0,3:0|3:0|3:0|3:0,0:0:0:0:
292,333,15052,5,6,3:0:0:0:
292,333,15614,5,6,3:0:0:0:
400,69,17302,6,0,L|418:7,1,54.3750020742417,0|0,3:0|0:0,0:0:0:0:
278,182,17489,2,0,L|215:196,1,54.3750020742417,0|0,3:0|0:0,0:0:0:0:
437,231,17677,6,0,L|480:277,3,54.3750020742417,2|0|0|0,3:0|3:0|3:0|3:0,0:0:0:0:
269,51,18052,5,6,3:0:0:0:
269,51,18614,5,6,3:0:0:0:
187,245,20489,6,0,L|238:252,2,36.2500013828278
269,182,20677,6,0,L|216:175,3,54.3750020742417,2|0|0|0,3:0|3:0|3:0|3:0,0:0:0:0:
119,277,21052,6,0,P|132:193|222:178,1,181.25,4|0,0:3|0:3,0:3:0:0:
180,320,21614,1,4,0:3:0:0:
12,173,21802,2,0,L|74:-2,1,181.25,2|0,0:3|0:3,0:3:0:0:
76,216,22364,1,4,0:3:0:0:
64,250,22458,1,4,0:3:0:0:
52,285,22552,2,0,P|66:339|116:375,2,108.75,4|4|4,0:3|0:3|0:3,0:3:0:0:
144,128,23208,1,0,3:0:0:0:
148,124,23302,2,0,L|171:24,1,72.5,2|0,0:3|0:3,0:3:0:0:
256,256,23677,2,0,L|239:326,1,72.5,2|0,0:3|0:3,0:3:0:0:
442,66,24052,5,6,3:0:0:0:
442,66,24614,5,6,3:0:0:0:
260,209,25927,5,0,3:0:0:0:
249,237,26020,1,0,3:0:0:0:
250,268,26114,1,0,3:0:0:0:
265,295,26208,1,0,3:0:0:0:
290,314,26302,1,0,3:0:0:0:
320,320,26395,1,0,3:0:0:0:
350,313,26489,1,0,3:0:0:0:
374,293,26583,1,0,3:0:0:0:
365,222,26677,6,0,P|339:230|319:248,3,54.3750020742417,2|0|0|0,3:0|3:0|3:0|3:0,0:0:0:0:
267,51,27052,5,6,3:0:0:0:
267,51,27614,5,6,3:0:0:0:
25,347,28927,6,0,L|71:332,2,36.2500013828278,8|0|0,3:0|0:0|0:0,0:0:0:0:
64,217,29114,1,4,3:0:0:0:
116,201,29208,1,4,3:0:0:0:
168,185,29302,2,0,L|216:170,2,36.2500013828278,8|0|0,3:0|3:0|3:0,0:0:0:0:
154,70,29489,1,4,3:0:0:0:
103,87,29583,1,4,3:0:0:0:
206,54,29677,6,0,L|259:37,3,54.3750020742417,2|0|0|0,3:0|3:0|3:0|3:0,0:0:0:0:
511,136,30052,5,6,3:0:0:0:
511,136,30614,5,6,3:0:0:0:
128,144,31927,6,0,L|176:32,1,108.750004148483,0|4,0:3|0:3,0:3:0:0:
288,208,32302,1,0,3:0:0:0:
266,257,32395,1,0,3:0:0:0:
245,307,32489,1,0,3:0:0:0:
331,108,32677,6,0,L|309:158,3,54.3750020742417,2|0|0|0,3:0|3:0|3:0|3:0,0:0:0:0:
378,359,33052,6,0,P|468:336|494:248,1,181.25,4|0,0:3|0:3,0:3:0:0:
404,270,33614,1,4,0:3:0:0:
291,13,33802,2,0,L|466:75,1,181.25,2|0,0:3|0:3,0:3:0:0:
247,77,34364,1,4,0:3:0:0:
213,65,34458,1,4,0:3:0:0:
179,52,34552,2,4,P|124:65|87:114,2,108.75,4|4|4,0:3|0:3|0:3,0:3:0:0:
290,204,35302,5,2,3:0:0:0:
324,216,35395,1,0,3:0:0:0:
358,228,35489,1,0,3:0:0:0:
392,240,35583,1,0,3:0:0:0:
426,252,35677,2,0,L|483:210,3,54.3750020742417,2|0|0|0,3:0|3:0|3:0|3:0,0:0:0:0:
256,192,36052,5,4,0:3:0:0:
112,269,36239,5,2,0:0:0:0:
112,269,36427,1,0,0:0:0:0:
112,269,36614,2,0,P|243:313|109:353,1,362.5,2|0,0:0|0:0,0:0:0:0:
334,345,37739,5,2,0:0:0:0:
170,313,37927,1,0,0:0:0:0:
295,172,38114,2,0,P|321:127|321:68,1,108.75,2|0,0:0|0:0,0:0:0:0:
219,99,38489,2,0,P|190:147|192:202,1,108.75,2|0,0:0|0:0,0:0:0:0:
266,275,38864,1,2,0:0:0:0:
77,104,39239,5,2,0:0:0:0:
77,104,39427,1,0,0:0:0:0:
77,104,39614,2,0,P|118:219|6:131,1,362.5,2|0,0:0|0:0,0:0:0:0:
35,2,40739,5,2,0:0:0:0:
198,65,40927,1,0,0:0:0:0:
63,174,41114,2,0,P|32:218|27:272,1,108.75,2|0,0:0|0:0,0:0:0:0:
89,352,41489,2,0,P|120:308|125:254,1,108.75,2|0,0:0|0:0,0:0:0:0:
162,159,41864,1,2,0:0:0:0:
226,238,42052,1,0,0:0:0:0:
262,143,42239,1,2,0:0:0:0:
326,221,42427,1,0,0:0:0:0:
362,125,42614,2,0,P|403:154|427:208,1,106.140005506531,2|0,0:0|0:0,0:0:0:0:
289,316,43177,6,0,L|219:230,1,101.137503163633,2|0,0:0|0:0,0:0:0:0:
162,159,43552,2,0,L|55:28,1,168.562505272722,2|0,0:0|0:0,0:0:0:0:
155,12,44114,2,0,L|261:142,1,168.562505272722,2|0,0:0|0:0,0:0:0:0:
126,252,44677,6,0,P|70:274|16:264,1,105.269998971973,2|0,0:0|0:0,0:0:0:0:
62,174,45052,2,0,P|110:153|162:159,1,105.269998971973,2|0,0:0|0:0,0:0:0:0:
225,238,45427,1,2,0:0:0:0:
225,238,45614,2,0,P|217:294|186:334,1,102.369995001465
162,159,46177,6,0,L|267:143,1,102.22499844017,2|0,0:0|0:0,0:0:0:0:
200,65,46552,2,0,L|98:80,1,102.22499844017,2|0,0:0|0:0,0:0:0:0:
63,174,46927,5,2,0:0:0:0:
126,255,47114,1,0,0:0:0:0:
162,159,47302,1,2,0:0:0:0:
25,270,47489,1,0,0:0:0:0:
225,238,47677,2,0,P|298:261|220:268,1,217.499993362427,2|0,0:0|0:0,0:0:0:0:
349,332,48239,5,2,0:0:0:0:
349,332,48427,1,0,0:0:0:0:
349,332,48614,2,0,P|175:335|184:160,1,391.500009558106,2|0,0:0|0:0,0:0:0:0:
313,32,49739,5,2,0:0:0:0:
476,72,49927,1,0,0:0:0:0:
359,193,50114,2,0,P|315:224|262:228,1,108.75,2|0,0:0|0:0,0:0:0:0:
184,161,50489,2,0,P|229:132|283:128,1,108.75,2|0,0:0|0:0,0:0:0:0:
164,261,50864,1,2,0:0:0:0:
101,125,51239,5,2,0:0:0:0:
101,125,51427,1,0,0:0:0:0:
101,125,51614,2,0,P|76:6|20:139,1,362.5,2|0,0:0|0:0,0:0:0:0:
42,234,52739,5,2,0:0:0:0:
50,74,52927,1,0,0:0:0:0:
184,161,53114,2,0,P|214:206|217:260,1,108.75,2|0,0:0|0:0,0:0:0:0:
153,338,53489,2,0,P|124:292|121:239,1,108.75,2|0,0:0|0:0,0:0:0:0:
250,357,53864,1,2,0:0:0:0:
313,279,54052,1,0,0:0:0:0:
346,377,54239,1,2,0:0:0:0:
409,299,54427,1,0,0:0:0:0:
382,202,54614,2,0,P|336:177|270:185,1,109.330002368906,2|0,0:0|0:0,0:0:0:0:
141,339,55177,6,0,L|37:261,1,108.75,2|0,0:0|0:0,0:0:0:0:
14,145,55552,2,0,L|181:270,1,181.25,2|0,0:0|0:0,0:0:0:0:
176,168,56114,2,0,L|31:59,1,181.25,2|0,0:0|0:0,0:0:0:0:
194,83,56677,6,0,P|254:132|259:187,1,108.75,2|0,0:0|0:0,0:0:0:0:
242,244,57052,1,2,0:0:0:0:
242,244,57239,2,0,P|200:98|326:104,1,326.25
336,179,58177,6,0,L|447:128,1,108.75,2|0,0:0|0:0,0:0:0:0:
485,247,58552,5,2,0:0:0:0:
485,247,58927,5,2,0:0:0:0:
485,247,59302,5,0,0:0:0:0:
467,271,59395,1,0,0:0:0:0:
449,295,59489,1,0,0:0:0:0:
431,320,59583,1,0,0:0:0:0:
395,368,59677,6,0,L|430:194,1,163.125006222725,2|0,3:0|0:0,0:0:0:0:
96,63,60052,6,0,B|135:23|135:23|300:12,1,217.500008296967,6|0,3:0|0:0,0:0:0:0:
228,272,60614,1,6,3:0:0:0:
167,95,60802,2,0,L|274:86,1,108.750004148483,2|0,0:0|0:0,0:0:0:0:
133,265,61177,6,0,L|114:246,1,27.1875010371209,8|0,2:0|2:0,2:0:0:0:
0,232,61364,2,0,L|25:225,1,27.1875010371209,8|0,2:0|2:0,2:0:0:0:
96,132,61552,2,0,L|89:158,1,27.1875010371209,8|0,2:0|2:0,2:0:0:0:
168,376,61739,5,0,0:0:0:0:
168,376,61927,2,0,L|304:343,1,108.750004148483
378,324,62302,1,0,0:0:0:0:
429,95,62489,5,0,3:0:0:0:
416,148,62583,1,0,3:0:0:0:
442,42,62677,6,0,L|495:31,3,54.3750020742417,2|0|0|0,3:0|3:0|3:0|3:0,0:0:0:0:
480,328,63052,6,0,B|435:360|435:360|270:350,1,217.500008296967,6|0,3:0|0:0,0:0:0:0:
429,95,63614,1,6,3:0:0:0:
413,285,63802,2,0,L|303:278,1,108.750004148483,2|0,0:0|0:0,0:0:0:0:
181,61,64177,6,0,L|159:77,1,27.1875010371209,8|0,0:0|0:0,0:0:0:0:
122,188,64364,2,0,L|120:161,1,27.1875010371209,8|0,0:0|0:0,0:0:0:0:
43,73,64552,2,0,L|68:85,1,27.1875010371209,8|0,0:0|0:0,0:0:0:0:
278,90,64739,5,0,0:0:0:0:
278,90,64927,2,0,L|236:204,1,108.750004148483
229,222,65208,1,0,3:0:0:0:
218,253,65302,1,0,3:0:0:0:
51,308,65489,1,0,3:0:0:0:
70,362,65583,1,0,3:0:0:0:
32,256,65677,6,0,L|3:176,3,54.3750020742417,2|0|0|0,3:0|3:0|3:0|3:0,0:0:0:0:
256,11,66052,6,0,B|209:41|209:41|160:199,1,217.500008296967,6|0,3:0|0:0,0:0:0:0:
430,187,66614,1,6,3:0:0:0:
272,88,66802,2,0,L|239:191,1,108.750004148483,2|0,0:0|0:0,0:0:0:0:
0,367,67177,6,0,L|19:349,1,27.1875010371209,8|0,0:0|0:0,0:0:0:0:
132,334,67364,2,0,L|106:327,1,27.1875010371209,8|0,0:0|0:0,0:0:0:0:
36,233,67552,2,0,L|43:260,1,27.1875010371209,8|0,0:0|0:0,0:0:0:0:
212,306,67739,5,0,0:0:0:0:
343,341,67927,2,0,L|407:357,3,54.3750020742417
309,206,68302,2,0,L|256:192,1,54.3750020742417,8|0,0:0|0:0,0:0:0:0:
116,29,68489,5,0,3:0:0:0:
169,43,68583,1,0,3:0:0:0:
64,15,68677,6,0,L|-10:-6,3,54.3750020742417,2|0|0|0,3:0|3:0|3:0|3:0,0:0:0:0:
256,192,69052,5,4,3:0:0:0:
256,192,69145,12,0,71302,0:0:0:0:
256,192,71395,5,0,3:0:0:0:
238,196,71488,1,0,3:0:0:0:
222,202,71582,1,0,3:0:0:0:
206,211,71676,1,0,3:0:0:0:
192,221,71770,1,0,3:0:0:0:
179,234,71863,1,0,3:0:0:0:
168,248,71957,1,0,3:0:0:0:
160,264,72052,6,0,L|120:112,1,145,0|0,3:0|0:0,0:0:0:0:
352,264,72427,2,0,L|392:112,1,145,0|0,3:0|0:0,0:0:0:0:
140,269,72802,6,0,L|100:117,1,152.249995353699,0|0,3:0|0:0,0:0:0:0:
372,269,73177,2,0,L|412:117,1,152.249995353699,0|0,3:0|0:0,0:0:0:0:
120,274,73552,6,0,L|79:120,1,159.500004867554,0|0,3:0|0:0,0:0:0:0:
392,274,73927,2,0,L|432:120,1,159.500004867554,0|0,3:0|0:0,0:0:0:0:
100,279,74302,6,0,L|57:117,1,166.750003180504,0|0,3:0|0:0,0:0:0:0:
412,279,74677,2,0,L|454:117,1,166.750003180504,0|0,3:0|0:0,0:0:0:0:
204,59,75052,6,0,P|204:103|144:203,1,145,0|0,3:0|0:0,0:0:0:0:
308,325,75427,2,0,P|308:281|368:181,1,145,0|0,3:0|0:0,0:0:0:0:
192,52,75802,6,0,P|175:92|82:163,1,152.249995353699,0|0,3:0|0:0,0:0:0:0:
320,332,76177,2,0,P|336:291|429:220,1,152.249995353699,0|0,3:0|0:0,0:0:0:0:
180,45,76552,6,0,P|149:76|36:106,1,159.500004867554,0|0,3:0|0:0,0:0:0:0:
332,339,76927,2,0,P|362:307|475:277,1,159.500004867554,0|0,3:0|0:0,0:0:0:0:
168,38,77302,6,0,P|127:56|10:41,1,166.750003180504,0|0,3:0|0:0,0:0:0:0:
344,346,77677,2,0,P|384:327|501:342,1,166.750003180504,0|0,3:0|0:0,0:0:0:0:
384,64,78052,5,0,3:0:0:0:
384,64,78239,1,0,3:0:0:0:
128,320,78427,1,2,3:0:0:0:
128,320,78614,1,0,3:0:0:0:
384,319,78802,5,0,3:0:0:0:
384,319,78989,1,0,3:0:0:0:
128,64,79177,1,2,3:0:0:0:
128,64,79364,1,0,3:0:0:0:
437,191,79552,5,0,3:0:0:0:
437,191,79739,1,0,3:0:0:0:
74,192,79927,1,2,3:0:0:0:
74,192,80114,1,0,3:0:0:0:
256,10,80302,5,0,3:0:0:0:
256,10,80489,1,0,3:0:0:0:
255,372,80677,1,2,3:0:0:0:
256,372,80864,1,0,3:0:0:0:
307,193,81052,5,2,3:0:0:0:
255,141,81145,1,0,3:0:0:0:
203,193,81239,1,0,3:0:0:0:
255,245,81333,1,0,3:0:0:0:
317,192,81427,5,2,3:0:0:0:
256,131,81520,1,0,3:0:0:0:
193,192,81614,1,0,3:0:0:0:
256,255,81708,1,0,3:0:0:0:
329,192,81802,5,2,3:0:0:0:
256,119,81895,1,0,3:0:0:0:
181,192,81989,1,0,3:0:0:0:
256,267,82083,1,0,3:0:0:0:
344,192,82177,5,2,3:0:0:0:
256,104,82270,1,0,3:0:0:0:
166,192,82364,1,0,3:0:0:0:
256,282,82458,1,0,3:0:0:0:
256,192,82552,5,0,3:0:0:0:
256,192,82645,12,0,83583,0:0:0:0:
424,180,83677,5,0,3:0:0:0:
417,193,83770,1,0,3:0:0:0:
410,206,83864,1,0,3:0:0:0:
403,219,83958,1,0,3:0:0:0:
390,298,84052,6,0,B|358:273|314:303|324:418|464:406|535:318|454:222|405:191|346:209|297:246|287:295,1,391.499988052369,4|0,0:3|0:0,0:0:0:0:
158,97,84427,2,0,B|145:40|78:18|78:18|101:85|158:97,1,217.5,2|0,0:1|0:0,0:0:0:0:
331,204,84802,5,2,3:0:0:0:
295,273,84895,1,0,3:0:0:0:
278,197,84989,5,0,3:0:0:0:
295,273,85082,1,0,3:0:0:0:
232,226,85177,5,4,3:0:0:0:
295,273,85270,1,0,3:0:0:0:
217,278,85364,5,0,3:0:0:0:
295,273,85457,1,0,3:0:0:0:
238,328,85552,5,0,3:0:0:0:
295,273,85645,1,0,3:0:0:0:
287,352,85739,6,0,P|336:341|371:293,1,113.100003796692,0|0,3:0|0:0,0:0:0:0:
368,25,85927,2,0,P|318:35|283:83,1,113.100003796692,4|0,3:0|0:0,0:0:0:0:
232,226,86114,2,0,P|182:215|147:167,1,113.100003796692,0|0,3:0|0:0,0:0:0:0:
423,151,86302,2,0,P|472:161|507:209,1,113.100003796692,2|0,3:0|0:0,0:0:0:0:
371,292,86489,6,0,L|273:267,1,78.3000019116211,2|0,0:0|0:0,0:0:0:0:
147,167,86677,2,0,B|142:171|119:174|78:149|51:111|61:69|109:-11|186:17|228:111|150:148|119:123|131:95,1,286.65000962265,2|0,0:0|0:0,0:0:0:0:
219,314,87052,6,0,B|139:359|139:359|98:249|211:172|283:243|294:272,1,369.750007052422,4|0,3:0|0:0,0:0:0:0:
359,59,87427,2,0,B|384:8|453:4|453:4|414:63|359:59,1,217.5,2|0,0:1|0:0,0:0:0:0:
130,96,87802,5,2,3:0:0:0:
165,165,87895,1,0,3:0:0:0:
130,96,87989,5,0,3:0:0:0:
202,128,88082,1,0,3:0:0:0:
130,96,88177,5,4,3:0:0:0:
206,73,88270,1,0,3:0:0:0:
130,96,88364,5,0,3:0:0:0:
172,30,88457,1,0,3:0:0:0:
130,96,88552,5,0,3:0:0:0:
120,17,88645,1,0,3:0:0:0:
112,171,88739,6,0,P|102:220|133:271,1,113.100003796692,4|0,3:0|0:0,0:0:0:0:
392,167,88927,2,0,P|401:117|370:66,1,113.100003796692,4|0,3:0|0:0,0:0:0:0:
273,8,89114,2,0,P|223:-1|172:30,1,113.100003796692,0|0,3:0|0:0,0:0:0:0:
277,287,89302,2,0,P|326:297|377:266,1,113.100003796692,2|0,3:0|0:0,0:0:0:0:
392,167,89489,6,0,L|296:140,1,94.2499956855776,2|0,0:0|0:0,0:0:0:0:
130,96,89677,2,0,B|43:156|102:239|107:239|112:239|169:324|83:384,1,326.25001244545,2|0,0:0|0:0,0:0:0:0:
392,167,90052,6,0,B|424:142|468:172|458:287|318:275|247:187|328:91|377:60|436:78|485:115|495:164,1,391.499988052369,4|0,0:3|0:0,0:0:0:0:
277,287,90427,2,0,B|222:304|211:375|211:375|274:341|277:287,1,217.5,2|0,0:1|0:0,0:0:0:0:
248,119,90802,5,2,3:0:0:0:
187,73,90895,1,0,3:0:0:0:
206,150,90989,5,0,3:0:0:0:
187,73,91082,1,0,3:0:0:0:
150,142,91177,5,4,3:0:0:0:
187,73,91270,1,0,3:0:0:0:
115,100,91364,5,0,3:0:0:0:
187,73,91457,1,0,3:0:0:0:
112,47,91552,5,0,3:0:0:0:
187,73,91645,1,0,3:0:0:0:
147,5,91739,6,0,P|196:-6|248:22,1,113.100003796692,0|0,3:0|0:0,0:0:0:0:
368,256,91927,2,0,P|415:284|469:273,1,113.100003796692,4|0,3:0|0:0,0:0:0:0:
409,155,92114,2,0,P|447:115|450:60,1,113.100003796692,0|0,3:0|0:0,0:0:0:0:
155,219,92302,2,0,P|117:258|114:313,1,113.100003796692,2|0,3:0|0:0,0:0:0:0:
304,325,92489,6,0,L|373:250,1,94.2499956855776,2|0,0:0|0:0,0:0:0:0:
450,59,92677,1,2,0:0:0:0:
349,41,92770,1,2,0:0:0:0:
249,23,92864,2,0,L|125:1,1,102.949994816056,2|0,0:0|0:0,0:0:0:0:
63,181,93052,6,0,P|101:217|155:219,1,108.75,4|0,0:3|0:0,0:0:0:0:
134,137,93427,2,0,P|94:103|41:100,1,108.75,0|0,0:3|0:0,0:0:0:0:
249,23,93802,2,0,P|286:62|336:85,1,108.75,2|0,0:3|0:0,0:0:0:0:
358,321,94177,6,0,B|286:309|286:309|213:321,1,147.90000090271,4|0,0:3|0:0,0:0:0:0:
336,85,94739,2,0,L|370:99,1,36.9750002256775
253,176,94927,2,0,L|218:161,1,36.9750002256775
49,118,95114,1,0,0:3:0:0:
32,85,95208,1,0,0:3:0:0:
16,53,95302,6,0,L|-7:9,3,36.25,2|0|0|0,3:0|3:0|3:0|3:0,0:0:0:0:
66,151,95677,5,0,3:3:0:0:
82,183,95770,1,0,3:3:0:0:
99,216,95864,1,0,3:3:0:0:
116,249,95958,1,0,3:3:0:0:
151,315,96052,6,0,B|112:328|80:286|125:180|254:235|295:340|188:407|132:421|81:386|45:330|56:291,1,391.499988052369,4|0,0:3|0:0,0:0:0:0:
233,101,96427,2,0,B|254:46|209:-7|209:-7|191:59|233:101,1,217.5,2|0,0:1|0:0,0:0:0:0:
416,256,96802,5,2,3:3:0:0:
342,271,96895,1,0,3:3:0:0:
391,210,96989,5,0,3:3:0:0:
342,271,97082,1,0,3:3:0:0:
339,193,97177,5,4,3:3:0:0:
342,271,97270,1,0,3:3:0:0:
289,216,97364,5,0,3:3:0:0:
342,271,97457,1,0,3:3:0:0:
267,263,97552,5,0,3:3:0:0:
342,271,97645,1,0,3:3:0:0:
277,315,97739,6,0,P|236:344|176:338,1,113.100003796692,0|0,3:0|0:0,0:0:0:0:
99,70,97927,2,0,P|139:40|199:46,1,113.100003796692,4|0,3:0|0:0,0:0:0:0:
339,89,98114,2,0,P|358:135|339:191,1,113.100003796692,0|0,3:0|0:0,0:0:0:0:
28,305,98302,2,0,P|8:258|27:202,1,113.100003796692,2|0,3:0|0:0,0:0:0:0:
199,46,98489,6,0,L|248:129,1,94.2499956855776,2|0,0:0|0:0,0:0:0:0:
342,271,98677,2,0,B|344:276|359:293|407:299|452:287|470:248|484:156|406:129|314:176|351:253|391:254|400:224,1,286.65000962265,2|0,0:0|0:0,0:0:0:0:
184,200,99052,6,0,B|112:138|112:138|57:241|147:339|246:281|255:245,1,369.750007052422,4|0,0:3|0:0,0:0:0:0:
451,136,99427,2,0,B|446:78|504:40|504:40|502:111|451:136,1,217.5,2|0,0:1|0:0,0:0:0:0:
319,219,99802,5,2,3:3:0:0:
322,142,99895,1,0,3:0:0:0:
319,219,99990,5,0,3:0:0:0:
272,157,100083,1,0,3:0:0:0:
319,219,100177,5,4,3:3:0:0:
241,203,100270,1,0,3:0:0:0:
319,219,100364,5,0,3:0:0:0:
250,257,100457,1,0,3:0:0:0:
319,219,100552,5,0,3:0:0:0:
289,293,100645,1,0,3:0:0:0:
371,163,100739,6,0,P|407:128|412:68,1,113.100003796692,4|0,3:0|0:0,0:0:0:0:
108,225,100927,2,0,P|71:259|66:319,1,113.100003796692,4|0,3:0|0:0,0:0:0:0:
289,293,101114,2,0,P|335:311|392:290,1,113.100003796692,0|0,3:0|0:0,0:0:0:0:
123,82,101302,2,0,P|74:63|18:84,1,113.100003796692,2|0,3:0|0:0,0:0:0:0:
108,225,101489,6,0,L|170:297,1,94.2499956855776,2|0,0:0|0:0,0:0:0:0:
392,289,101677,2,0,B|478:228|418:145|414:145|411:145|352:60|438:0,1,326.25001244545,2|0,0:0|0:0,0:0:0:0:
123,82,102052,6,0,P|137:-5|169:57,1,399,12|0,0:3|0:0,0:0:0:0:
377,290,102427,2,0,B|405:339|475:339|475:339|433:281|377:290,1,217.5,2|0,0:1|0:0,0:0:0:0:
133,132,102802,5,2,3:0:0:0:
199,92,102895,1,0,3:0:0:0:
122,81,102989,5,0,3:0:0:0:
199,92,103082,1,0,3:0:0:0:
147,31,103177,5,4,3:0:0:0:
199,92,103270,1,0,3:0:0:0:
199,11,103364,6,0,P|247:26|278:77,1,113.100003796692,0|0,3:0|0:3,0:3:0:0:
265,328,103552,5,0,3:0:0:0:
197,291,103645,1,0,3:0:0:0:
226,363,103739,5,0,3:0:0:0:
197,291,103832,1,0,3:0:0:0:
171,366,103927,5,4,3:0:0:0:
197,291,104020,1,0,0:0:0:0:
127,331,104114,6,0,P|116:282|199:209,1,166.750003180504,0|0,3:0|0:0,0:0:0:0:
369,115,104302,5,2,3:0:0:0:
371,192,104395,1,0,3:0:0:0:
419,131,104489,5,0,3:0:0:0:
371,192,104582,1,0,3:0:0:0:
449,178,104677,5,0,3:0:0:0:
371,192,104770,1,0,3:0:0:0:
441,233,104864,6,0,P|404:267|324:128,1,275.137498005824,0|0,3:0|0:0,0:0:0:0:
234,99,105052,6,0,P|191:70|137:73,1,108.75,4|0,0:3|0:0,0:0:0:0:
68,119,105427,2,0,P|147:149|185:135,1,108.75,0|0,0:3|0:0,0:0:0:0:
386,115,105802,2,0,P|351:71|288:66,1,108.75,2|0,0:3|0:0,0:0:0:0:
239,341,106177,6,0,B|166:329|166:329|87:342,1,147.90000090271,4|0,0:3|0:0,0:0:0:0:
157,102,106739,2,0,L|191:116,1,36.25
346,151,106927,2,0,L|312:136,1,36.25
125,190,107114,1,0,0:3:0:0:
92,176,107208,1,0,0:3:0:0:
60,162,107302,6,0,L|13:141,3,36.25,2|0|0|0,3:0|3:0|3:0|3:0,0:0:0:0:
158,205,107677,5,0,3:0:0:0:
191,219,107770,1,0,3:0:0:0:
223,233,107864,1,0,3:0:0:0:
256,247,107958,1,0,3:0:0:0:
317,283,108052,6,0,B|338:291|335:320|276:345|246:274|270:216|338:231|365:247|372:281|365:316|352:327|349:329,1,181.250006914139,0|0,3:0|0:0,0:0:0:0:
193,99,108427,2,0,B|172:92|175:62|234:37|264:108|240:166|172:151|145:135|138:101|145:66|158:55|161:53,1,181.250006914139,0|0,3:0|0:0,0:0:0:0:
278,299,108802,6,0,B|296:316|281:346|209:347|207:260|257:209|321:254|344:283|337:321|315:355|296:361|291:361,1,205.416670584679,0|0,3:0|0:0,0:0:0:0:
232,83,109177,2,0,B|214:66|229:36|301:35|303:122|253:173|189:128|166:99|173:61|195:27|214:21|219:21,1,205.416670584679,0|0,3:0|0:0,0:0:0:0:
230,322,109552,6,0,B|241:348|212:371|138:340|174:250|247:220|293:294|304:333|280:370|243:395|221:392|216:390,1,229.583327202797,0|0,3:0|0:0,0:0:0:0:
281,61,109927,2,0,B|269:34|298:11|372:42|336:132|263:162|217:88|206:49|230:12|267:-11|289:-8|294:-6,1,229.583327202797,0|0,3:0|0:0,0:0:0:0:
175,314,110302,6,0,B|176:345|137:357|73:294|148:217|235:217|252:312|247:356|208:384|158:394|137:383|133:379,1,253.749992256165,0|0,3:0|0:0,0:0:0:0:
336,69,110677,2,0,B|334:37|373:25|437:88|362:165|275:165|258:70|263:26|302:0|352:-10|373:0|377:3,1,253.749992256165,0|0,3:0|0:0,0:0:0:0:
121,282,111052,6,0,B|108:313|62:308|26:218|135:172|223:209|199:312|174:355|124:366|68:356|53:334|51:329,1,277.916671967507,0|0,3:0|0:0,0:0:0:0:
390,101,111427,2,0,B|402:69|448:74|484:164|375:210|287:173|311:70|336:27|386:16|442:26|457:48|459:53,1,277.916671967507,0|0,3:0|0:0,0:0:0:0:
82,228,111802,6,0,B|58:256|14:233|13:127|142:124|215:197|150:292|108:325|52:315|12:294|-7:255|-7:248,1,302.083333333333,0|0,3:0|0:0,0:0:0:0:
430,156,112177,2,0,B|454:128|498:151|499:257|370:260|297:187|362:92|404:59|460:69|500:90|519:129|519:136,1,302.083333333333,0|0,3:0|0:0,0:0:0:0:
62,153,112552,6,0,B|25:168|-7:127|35:21|164:73|206:177|101:244|46:259|-4:225|-32:183|-35:143|-33:133,1,326.250001244545,0|0,3:0|0:0,0:0:0:0:
449,230,112927,2,0,B|485:214|519:255|475:361|346:309|304:205|409:138|464:123|516:157|541:193|548:242|545:249,1,326.250001244545,0|0,3:0|0:0,0:0:0:0:
74,73,113302,6,0,B|31:73|14:18|100:-67|208:34|208:154|76:179|15:172|-21:117|-32:59|-17:26|-11:12,1,350.416677360535,0|0,3:0|0:0,0:0:0:0:
437,310,113677,2,0,B|480:310|497:365|411:451|303:349|303:229|435:204|496:211|533:266|544:324|529:357|523:371,1,350.416677360535,0|0,3:0|0:0,0:0:0:0:
256,368,114052,5,0,3:0:0:0:
256,368,114239,1,0,3:0:0:0:
328,293,114427,1,2,3:0:0:0:
184,293,114614,1,0,3:0:0:0:
256,368,114802,5,0,3:0:0:0:
256,368,114989,1,0,3:0:0:0:
365,216,115177,1,2,3:0:0:0:
147,216,115364,1,0,3:0:0:0:
256,368,115552,5,0,3:0:0:0:
256,368,115739,1,0,3:0:0:0:
401,139,115927,1,2,3:0:0:0:
111,139,116114,1,0,3:0:0:0:
256,368,116302,5,0,3:0:0:0:
256,368,116489,1,0,3:0:0:0:
438,62,116677,1,2,3:0:0:0:
74,62,116864,1,0,3:0:0:0:
183,293,117052,5,2,3:3:0:0:
232,293,117145,1,0,3:3:0:0:
281,293,117239,1,0,3:3:0:0:
328,293,117333,1,0,3:3:0:0:
365,216,117427,5,2,3:3:0:0:
292,216,117521,1,0,3:3:0:0:
220,216,117615,1,0,3:3:0:0:
147,216,117708,1,0,3:3:0:0:
111,139,117802,5,2,3:3:0:0:
208,139,117895,1,0,3:3:0:0:
305,139,117989,1,0,3:3:0:0:
401,139,118083,1,0,3:3:0:0:
438,62,118177,5,2,3:3:0:0:
317,62,118271,1,0,3:3:0:0:
196,62,118365,1,0,3:3:0:0:
75,62,118458,1,0,3:3:0:0:
256,16,118552,5,0,3:0:0:0:
256,192,118739,12,0,119583,0:0:0:0:
106,247,119677,5,0,3:0:0:0:
99,234,119770,1,0,3:0:0:0:
92,221,119864,1,0,3:0:0:0:
85,208,119958,1,0,3:0:0:0:
122,145,120052,6,0,B|154:120|198:150|188:265|48:253|-23:165|58:69|107:38|166:56|215:93|225:142,1,391.499988052369,4|0,0:3|0:0,0:0:0:0:
416,219,120427,6,0,B|414:197|414:197|312:266,1,145,0|0,3:0|0:0,0:0:0:0:
422,298,120614,2,0,B|423:319|423:319|302:261,1,145,0|0,3:0|0:0,0:0:0:0:
408,108,120802,6,0,L|306:177,1,123.250002350807,2|0,3:0|0:0,0:0:0:0:
350,370,120989,2,0,L|239:315,1,123.250002350807,0|0,3:0|0:0,0:0:0:0:
494,235,121177,2,0,L|503:358,2,123.250002350807,4|0|0,3:0|0:0|0:0,0:0:0:0:
82,98,121552,6,0,B|84:77|84:77|194:153,1,145,0|0,3:0|0:0,0:0:0:0:
76,177,121739,2,0,B|74:199|74:199|186:146,1,145,0|0,3:0|0:0,0:0:0:0:
10,25,121927,6,0,L|-1:155,1,123.250002350807,4|0,3:0|0:0,0:0:0:0:
177,235,122114,2,0,L|65:287,1,123.250002350807,0|0,3:0|0:0,0:0:0:0:
163,37,122302,2,0,L|265:109,1,123.250002350807,2|0,3:0|0:0,0:0:0:0:
496,240,122489,6,0,L|506:244,6,9.0625
453,180,122677,6,0,B|441:205|485:244|526:259|568:219|621:101|478:47|459:160|397:116|339:68|400:-26|384:-56|484:-93|555:44|468:39|467:21,1,478.500014602662,2|0,0:0|0:0,0:0:0:0:
380,280,123052,6,0,P|409:335|340:342,1,152.249995353699,4|0,0:3|0:0,0:0:0:0:
337,177,123427,6,0,B|345:197|345:197|424:88,1,145,0|0,3:0|0:0,0:0:0:0:
304,105,123614,2,0,B|295:85|295:85|425:98,1,145,0|0,3:0|0:0,0:0:0:0:
380,280,123802,6,0,L|453:181,1,123.250002350807,2|0,3:0|0:0,0:0:0:0:
346,13,123989,2,0,L|472:25,1,123.250002350807,0|0,3:0|0:0,0:0:0:0:
255,189,124177,2,0,L|205:76,1,123.250002350807,4|0,3:0|0:0,0:0:0:0:
49,172,124364,5,2,0:0:0:0:
43,264,124458,1,2,0:0:0:0:
89,344,124552,2,0,B|121:342|121:342|209:296,1,123.250002350807,2|0,0:0|0:0,0:0:0:0:
132,109,124739,6,0,B|72:56|72:56|60:10,1,123.250002350807,4|0,0:3|0:3,0:3:0:0:
380,280,124927,2,0,B|440:333|440:333|452:379,1,123.250002350807,4|0,0:3|0:3,0:3:0:0:
453,180,125114,5,2,0:0:0:0:
417,97,125208,1,2,0:0:0:0:
468,24,125302,2,0,L|504:107,1,90.625,2|0,0:3|0:0,0:0:0:0:
366,170,125489,2,0,L|329:86,1,90.625,2|0,0:0|0:3,0:3:0:0:
380,14,125677,2,0,L|453:181,1,181.25,2|0,0:0|0:0,0:0:0:0:
301,304,126052,6,0,B|307:264|260:240|164:304|243:420|354:440|398:323|402:265|357:222|301:204|271:210|251:217,1,391.499988052369,4|0,0:3|0:0,0:0:0:0:
58,225,126427,6,0,B|49:244|49:244|172:229,1,145,0|0,3:0|0:0,0:0:0:0:
89,153,126614,2,0,B|97:131|97:131|171:228,1,145,0|0,3:0|0:0,0:0:0:0:
11,324,126802,6,0,L|134:309,1,123.250002350807,2|0,3:0|0:0,0:0:0:0:
182,117,126989,2,0,L|257:214,1,123.250002350807,0|0,3:0|0:0,0:0:0:0:
0,170,127177,2,0,L|41:57,2,123.250002350807,4|0|0,3:0|0:0|0:0,0:0:0:0:
353,166,127552,6,0,B|334:176|334:176|329:42,1,145,0|0,3:0|0:0,0:0:0:0:
419,122,127739,2,0,B|437:109|437:109|328:52,1,145,0|0,3:0|0:0,0:0:0:0:
337,265,127927,6,0,L|448:195,1,123.250002350807,4|0,3:0|0:0,0:0:0:0:
404,5,128114,2,0,L|512:62,1,123.250002350807,0|0,3:0|0:0,0:0:0:0:
255,134,128302,2,0,L|251:10,1,123.250002350807,2|0,3:0|0:0,0:0:0:0:
47,110,128489,6,0,L|51:120,6,9.0625
0,170,128677,6,0,P|21:38|104:160,1,326.25001244545,2|0,0:0|0:0,0:0:0:0:
136,369,129052,6,0,P|84:369|40:337,1,108.75,4|0,0:3|0:3,0:3:0:0:
11,257,129427,2,0,P|65:258|108:290,1,108.75,0|0,0:3|0:3,0:3:0:0:
353,340,129802,2,0,P|291:323|249:281,1,108.75,2|0,0:3|0:3,0:3:0:0:
189,47,130177,6,0,B|262:35|262:35|335:47,1,147.90000090271,4|0,0:3|0:3,0:3:0:0:
258,294,130739,2,0,L|222:300,1,36.25
223,170,130927,2,0,L|187:176,3,36.25
334,46,131302,5,2,3:0:0:0:
353,70,131395,1,0,3:0:0:0:
373,96,131489,1,0,3:0:0:0:
393,122,131583,1,0,3:0:0:0:
444,178,131677,5,0,3:0:0:0:
430,194,131770,1,0,3:0:0:0:
416,210,131864,1,0,3:0:0:0:
402,227,131958,1,0,3:0:0:0:
357,286,132052,6,0,B|320:265|281:301|307:413|444:382|502:284|408:202|356:178|299:204|262:250|258:279|257:301,1,391.499988052369,4|0,0:3|0:3,0:3:0:0:
32,112,132427,5,0,3:0:0:0:
175,182,132520,1,0,3:0:0:0:
28,163,132614,5,0,3:0:0:0:
136,216,132708,1,0,3:0:0:0:
25,215,132802,5,0,3:0:0:0:
97,250,132895,1,0,3:0:0:0:
22,267,132989,5,0,3:0:0:0:
58,285,133083,1,0,3:0:0:0:
19,319,133177,6,0,L|103:146,1,192.415005005914,0|0,3:0|0:0,0:0:0:0:
337,202,133552,5,0,3:0:0:0:
480,272,133645,1,0,3:0:0:0:
376,168,133739,5,0,3:0:0:0:
484,221,133833,1,0,3:0:0:0:
415,134,133927,5,0,3:0:0:0:
487,169,134020,1,0,3:0:0:0:
454,99,134114,5,0,3:0:0:0:
490,117,134208,1,0,3:0:0:0:
493,65,134302,6,0,L|450:151,1,96.207502502957,0|0,3:0|0:0,0:0:0:0:
351,351,134489,5,0,3:0:0:0:
301,328,134583,1,0,3:0:0:0:
250,306,134677,1,0,3:0:0:0:
227,312,134770,1,0,3:0:0:0:
204,318,134864,1,0,3:0:0:0:
181,324,134958,1,0,3:0:0:0:
109,310,135052,6,0,B|121:260|121:260|167:306|167:306|35:341|35:341|69:209,1,391.499988052369,4|0,0:3|0:0,0:0:0:0:
5,70,135427,5,0,3:0:0:0:
209,144,135520,1,0,3:0:0:0:
84,56,135614,5,0,3:0:0:0:
130,158,135708,1,0,3:0:0:0:
143,6,135802,5,2,3:0:0:0:
70,207,135895,1,0,3:0:0:0:
157,83,135989,5,0,3:0:0:0:
56,130,136083,1,0,3:0:0:0:
209,144,136177,6,0,L|-4:67,1,217.500008296967,4|0,0:3|0:3,0:3:0:0:
303,240,136552,5,0,3:0:0:0:
507,314,136645,1,0,3:0:0:0:
442,177,136739,5,4,3:0:0:0:
369,378,136833,1,0,3:0:0:0:
382,226,136927,5,4,3:0:0:0:
428,328,137020,1,0,3:0:0:0:
456,254,137114,5,0,3:0:0:0:
355,301,137208,1,0,3:0:0:0:
507,313,137302,6,0,L|405:276,1,108.750004148483,2|0,3:0|0:0,0:0:0:0:
303,240,137489,6,0,P|278:276|275:308,1,72.5,2|0,0:0|0:0,0:0:0:0:
107,276,137677,6,0,L|79:298,3,36.25,2|0|0|0,0:0|0:0|0:0|0:0,0:0:0:0:
90,102,138052,6,0,B|103:63|155:61|214:159|93:231|-15:202|-6:79|15:24|74:5|133:12|157:30|172:45,1,391.499988052369,4|0,3:0|0:0,0:0:0:0:
332,24,138427,5,0,3:0:0:0:
458,147,138520,1,0,3:0:0:0:
358,99,138614,5,0,3:0:0:0:
485,221,138708,1,0,3:0:0:0:
311,200,138802,5,2,3:0:0:0:
432,72,138895,1,0,3:0:0:0:
385,173,138989,5,0,3:0:0:0:
506,45,139083,1,0,3:0:0:0:
332,24,139177,6,0,L|385:172,1,158.050001688156,4|0,3:0|0:0,0:0:0:0:
180,360,139552,5,0,3:0:0:0:
54,237,139645,1,0,3:0:0:0:
154,285,139739,5,0,3:0:0:0:
27,163,139833,1,0,3:0:0:0:
201,184,139927,5,4,3:0:0:0:
80,312,140020,1,0,3:0:0:0:
127,211,140114,5,0,3:0:0:0:
6,339,140208,1,0,3:0:0:0:
180,360,140302,6,0,P|226:318|226:253,1,125.859998578851,2|0,3:0|0:0,0:0:0:0:
400,80,140489,6,0,L|396:90,6,9.0625,2|0|0|0|0|0|0,0:0|0:0|0:0|0:0|0:0|0:0|0:0,0:0:0:0:
446,139,140677,6,0,P|425:7|343:128,1,326.25001244545,2|0,0:0|0:0,0:0:0:0:
330,339,141052,6,0,P|408:370|446:355,1,108.75,4|0,0:3|0:3,0:3:0:0:
498,319,141427,2,0,P|454:291|400:294,1,108.75,0|0,0:3|0:3,0:3:0:0:
119,280,141802,2,0,P|146:325|196:345,1,108.75,2|0,0:3|0:3,0:3:0:0:
182,88,142177,6,0,B|109:75|109:75|36:87,1,147.90000090271,4|0,0:3|0:3,0:3:0:0:
4,296,142739,2,0,L|60:288,1,36.25,0|0,0:0|0:0,0:0:0:0:
233,341,142927,2,0,L|197:346,3,36.25,0|0|0|0,0:0|0:0|0:0|0:0,0:0:0:0:
336,192,143302,5,2,3:0:0:0:
328,156,143395,1,0,3:0:0:0:
306,128,143489,1,0,3:0:0:0:
274,112,143583,1,0,3:0:0:0:
238,112,143677,1,0,3:0:0:0:
205,127,143770,1,0,3:0:0:0:
183,156,143864,1,0,3:0:0:0:
176,191,143958,1,0,3:0:0:0:
256,192,144052,5,4,0:3:0:0:
256,192,144145,12,0,153052,0:0:0:0:
362,281,155864,6,0,L|328:271,2,24.1666666666667
443,305,156052,2,0,L|513:327,1,58,2|0,0:0|0:0,0:0:0:0:
506,206,156427,6,0,L|450:188,1,58
457,71,156802,2,0,L|512:88,2,58
287,28,157364,6,0,L|342:10,1,58
294,146,157739,2,0,L|349:128,1,58
186,88,158114,2,0,L|130:105,1,58
192,205,158489,1,0,0:0:0:0:
192,205,158677,2,0,L|137:223,1,58
198,322,159052,5,0,0:0:0:0:
335,367,159239,1,0,0:0:0:0:
443,271,159427,2,0,L|388:253,1,58
440,138,159802,2,0,L|495:156,2,58
244,174,160364,6,0,L|189:192,1,58
1,333,160739,2,0,L|56:315,1,58
43,132,161114,2,0,L|61:187,1,58
202,375,161489,1,0,0:0:0:0:
202,375,161677,2,0,L|184:320,1,58
338,226,162052,5,0,0:0:0:0:
499,172,162239,1,0,0:0:0:0:
372,59,162427,2,0,L|393:118,1,58
465,339,162802,2,0,L|444:280,2,58
240,224,163364,6,0,L|184:170,1,58
287,41,163739,2,0,L|230:54,1,58
51,77,164114,1,0,0:0:0:0:
51,77,164302,2,0,L|107:92,1,58
264,133,164583,5,0,0:0:0:0:
268,137,164677,2,0,L|324:152,3,54.3750020742417,2|0|0|0,0:0|0:0|0:0|0:0,0:0:0:0:
8,240,165052,5,2,0:0:0:0:
8,240,165145,2,0,L|88:261,1,72.5
256,384,165333,2,0,L|185:365,2,72.5
508,148,165614,1,2,0:0:0:0:
504,144,165708,2,0,L|424:123,1,72.5
256,0,165895,2,0,L|327:19,2,72.5
365,204,166177,5,0,3:0:0:0:
388,210,166239,1,0,3:0:0:0:
411,216,166302,1,0,3:0:0:0:
435,222,166364,1,0,3:0:0:0:
458,228,166427,1,0,3:0:0:0:
481,234,166489,1,0,3:0:0:0:
504,240,166552,6,0,L|424:261,2,72.5,2|0|0,0:0|0:0|0:0,0:0:0:0:
256,384,166833,2,0,L|327:366,2,72.5
4,148,167114,5,2,0:0:0:0:
8,144,167208,2,0,L|88:123,1,72.5
256,0,167395,2,0,L|185:18,2,72.5
147,204,167677,5,0,3:0:0:0:
124,210,167739,1,0,3:0:0:0:
101,216,167802,1,0,3:0:0:0:
77,222,167864,1,0,3:0:0:0:
54,228,167927,1,0,3:0:0:0:
31,234,167989,1,0,3:0:0:0:
8,308,168052,5,6,3:3:0:0:
8,308,168614,5,6,3:3:0:0:
376,280,170489,5,0,3:0:0:0:
328,264,170583,1,0,3:0:0:0:
424,296,170677,6,0,L|402:374,3,54.3750020742417,2|0|0|0,3:0|3:0|3:0|3:0,0:0:0:0:
504,32,171052,5,6,3:3:0:0:
504,32,171614,5,6,3:3:0:0:
56,144,173302,6,0,L|-6:126,1,54.3750020742417,0|0,3:0|0:0,0:0:0:0:
169,266,173489,2,0,L|183:329,1,54.3750020742417,0|0,3:0|0:0,0:0:0:0:
218,107,173677,6,0,L|264:64,3,54.3750020742417,2|0|0|0,3:0|3:0|3:0|3:0,0:0:0:0:
22,288,174052,5,6,3:0:0:0:
22,288,174614,5,6,3:3:0:0:
227,324,176489,6,0,L|182:334,2,27.1875010371209
142,268,176677,6,0,L|196:257,3,54.3750020742417,2|0|0|0,3:0|3:0|3:0|3:0,0:0:0:0:
293,357,177052,6,0,P|280:273|196:258,1,181.25,4|0,0:3|0:0,0:0:0:0:
168,377,177614,1,4,0:3:0:0:
424,360,177802,2,0,L|512:184,1,181.25,2|0,0:3|0:0,0:0:0:0:
309,126,178364,1,4,0:3:0:0:
275,114,178458,1,4,0:3:0:0:
240,102,178552,2,0,P|186:116|150:166,2,108.75,4|4|4,0:3|0:3|0:3,0:0:0:0:
229,314,179208,1,0,3:0:0:0:
225,318,179302,2,0,L|137:286,1,72.5,2|0,0:3|0:0,0:0:0:0:
407,294,179677,2,0,L|474:318,1,72.5,2|0,0:3|0:0,0:0:0:0:
427,73,180052,5,6,3:3:0:0:
427,73,180614,5,6,3:3:0:0:
128,208,181927,5,0,3:0:0:0:
139,236,182020,1,0,3:0:0:0:
138,267,182114,1,0,3:0:0:0:
123,294,182208,1,0,3:0:0:0:
98,313,182302,1,0,3:0:0:0:
68,319,182395,1,0,3:0:0:0:
38,312,182489,1,0,3:0:0:0:
14,292,182583,1,0,3:0:0:0:
23,221,182677,6,0,P|49:229|69:247,3,54.3750020742417,2|0|0|0,3:0|3:0|3:0|3:0,0:0:0:0:
288,376,183052,5,6,3:3:0:0:
288,376,183614,5,6,3:3:0:0:
4,81,184927,6,0,L|50:96,2,36.2500013828278,8|0|0,3:0|0:0|0:0,0:0:0:0:
43,211,185114,1,4,3:0:0:0:
95,227,185208,1,4,3:0:0:0:
147,243,185302,2,0,L|195:258,2,36.2500013828278,8|0|0,3:0|3:0|3:0,0:0:0:0:
225,92,185489,1,4,3:0:0:0:
174,75,185583,1,4,3:0:0:0:
277,108,185677,6,0,L|330:125,3,54.3750020742417,2|0|0|0,3:0|3:0|3:0|3:0,0:0:0:0:
484,347,186052,5,6,3:0:0:0:
484,347,186614,5,6,3:0:0:0:
408,344,187927,6,0,L|520:296,1,108.750004148483,0|4,0:3|0:3,0:3:0:0:
344,184,188302,1,0,3:0:0:0:
295,206,188395,1,0,3:0:0:0:
245,227,188489,1,0,3:0:0:0:
444,141,188677,6,0,L|394:163,3,54.3750020742417,2|0|0|0,0:3|0:3|0:3|0:3,0:3:0:0:
186,284,189052,6,0,P|167:200|235:147,1,181.25,4|0,0:3|0:3,0:3:0:0:
296,104,189614,1,4,0:3:0:0:
334,334,189802,2,0,L|396:159,1,181.25,2|0,0:3|0:3,0:3:0:0:
187,285,190364,1,4,0:3:0:0:
173,318,190458,1,4,0:3:0:0:
161,353,190552,2,0,P|115:386|54:383,2,108.75,4|4|4,0:3|0:3|0:3,0:3:0:0:
234,163,191302,5,0,3:0:0:0:
212,134,191395,1,0,3:0:0:0:
190,106,191489,1,0,3:0:0:0:
168,77,191583,1,0,3:0:0:0:
146,49,191677,2,0,L|92:49,3,54.3750020742417,0|0|0|0,3:0|3:0|3:0|3:0,0:3:0:0:
256,192,192052,5,4,3:3:0:0:
400,136,192239,5,2,0:0:0:0:
400,136,192427,1,0,0:0:0:0:
400,136,192614,2,0,P|310:30|445:65,1,362.5,2|0,0:0|0:0,0:0:0:0:
413,231,193739,5,2,0:0:0:0:
373,68,193927,1,0,0:0:0:0:
253,182,194114,2,0,P|222:226|218:279,1,108.75,2|0,0:0|0:0,0:0:0:0:
285,357,194489,2,0,P|314:312|318:258,1,108.75,2|0,0:0|0:0,0:0:0:0:
185,377,194864,1,2,0:0:0:0:
185,134,195239,5,2,0:0:0:0:
185,134,195427,1,0,0:0:0:0:
185,134,195614,2,0,P|176:12|266:126,1,362.5,2|0,0:0|0:0,0:0:0:0:
249,241,196739,5,2,0:0:0:0:
220,72,196927,1,0,0:0:0:0:
87,182,197114,2,0,P|57:227|54:281,1,108.75,2|0,0:0|0:0,0:0:0:0:
118,359,197489,2,0,P|147:313|150:260,1,108.75,2|0,0:0|0:0,0:0:0:0:
185,162,197864,1,2,0:0:0:0:
285,143,198052,1,0,0:0:0:0:
121,83,198239,1,2,0:0:0:0:
221,64,198427,1,0,0:0:0:0:
249,241,198614,2,0,P|299:218|354:224,1,106.140005506531,2|0,0:0|0:0,0:0:0:0:
472,349,199177,6,0,L|518:250,1,108.75,2|0,0:0|0:0,0:0:0:0:
449,203,199552,2,0,L|370:370,1,181.25,2|0,0:0|0:0,0:0:0:0:
272,386,200114,2,0,L|349:222,1,181.25,2|0,0:0|0:0,0:0:0:0:
184,163,200677,6,0,P|232:139|285:144,1,108.75,2|0,0:0|0:0,0:0:0:0:
250,243,201052,2,0,P|207:269|148:261,1,108.75,2|0,0:0|0:0,0:0:0:0:
88,184,201427,1,2,0:0:0:0:
88,184,201614,2,0,P|91:131|121:88,1,106.140005506531
285,144,202177,6,0,L|383:124,1,100.049996641388,2|0,0:0|0:0,0:0:0:0:
320,46,202552,2,0,L|223:67,1,100.049996641388,2|0,0:0|0:0,0:0:0:0:
184,163,202927,5,2,0:0:0:0:
151,262,203114,1,0,0:0:0:0:
88,184,203302,1,2,0:0:0:0:
121,88,203489,1,0,0:0:0:0:
55,283,203677,2,0,P|25:355|80:300,1,217.499993362427,2|0,0:0|0:0,0:0:0:0:
0,217,204239,5,2,0:0:0:0:
0,217,204427,1,0,0:0:0:0:
0,217,204614,2,0,P|125:239|146:380,1,283.040004146094,2|0,0:0|0:0,0:0:0:0:
403,353,205739,5,2,0:0:0:0:
240,312,205927,1,0,0:0:0:0:
359,193,206114,2,0,P|315:224|262:228,1,108.75,2|0,0:0|0:0,0:0:0:0:
184,161,206489,2,0,P|229:132|283:128,1,108.75,2|0,0:0|0:0,0:0:0:0:
164,261,206864,1,2,0:0:0:0:
368,262,207239,5,2,0:0:0:0:
368,262,207427,1,0,0:0:0:0:
368,262,207614,2,0,P|409:376|444:235,1,362.5,2|0,0:0|0:0,0:0:0:0:
429,135,208739,5,2,0:0:0:0:
426,306,208927,1,0,0:0:0:0:
278,218,209114,2,0,P|241:178|229:125,1,108.75,2|0,0:0|0:0,0:0:0:0:
281,38,209489,2,0,P|316:78|328:130,1,108.75,2|0,0:0|0:0,0:0:0:0:
183,34,209864,1,2,0:0:0:0:
132,122,210052,1,0,0:0:0:0:
85,29,210239,1,2,0:0:0:0:
34,117,210427,1,0,0:0:0:0:
81,210,210614,2,0,P|100:269|132:307,1,106.140005506531,2|0,0:0|0:0,0:0:0:0:
277,218,211177,6,0,L|177:213,1,97.8749970130921,2|0,0:0|0:0,0:0:0:0:
227,306,211552,2,0,L|397:314,1,170.374997400284,2|0,0:0|0:0,0:0:0:0:
447,226,212114,2,0,L|276:218,1,170.374997400284,2|0,0:0|0:0,0:0:0:0:
180,213,212677,6,0,P|196:161|238:127,1,108.75,2|0,0:0|0:0,0:0:0:0:
332,84,213052,6,0,L|312:64,4,27.1875010371209,2|0|0|0|0,0:3|0:3|0:3|0:3|0:3,0:3:0:0:
352,104,213333,1,0,0:3:0:0:
371,123,213427,1,0,0:3:0:0:
180,300,213614,6,0,L|200:320,4,27.1875010371209,2|0|0|0|0,0:3|0:3|0:3|0:3|0:3,0:3:0:0:
160,280,213895,1,0,0:3:0:0:
141,261,213989,1,0,0:3:0:0:
332,300,214177,6,0,L|312:320,4,27.1875010371209,2|0|0|0|0,0:3|0:3|0:3|0:3|0:3,0:3:0:0:
352,280,214458,1,0,0:3:0:0:
371,261,214552,6,0,L|479:261,1,108.750004148483,2|0,0:3|0:3,0:3:0:0:
141,123,214927,2,0,L|33:123,1,108.750004148483,2|0,0:3|0:3,0:3:0:0:
378,123,215302,5,0,3:0:0:0:
403,123,215364,1,0,3:0:0:0:
428,123,215427,1,0,3:0:0:0:
454,123,215489,1,0,3:0:0:0:
479,123,215552,1,0,3:0:0:0:
141,261,215677,5,0,3:0:0:0:
115,261,215739,1,0,3:0:0:0:
90,261,215802,1,0,3:0:0:0:
64,261,215864,1,0,3:0:0:0:
39,261,215927,1,0,3:0:0:0:
203,185,216052,6,0,B|156:154|156:154|107:-3,1,217.500008296967,6|0,3:0|0:0,0:0:0:0:
377,9,216614,1,6,3:0:0:0:
219,108,216802,2,0,L|186:4,1,108.750004148483,2|0,0:0|0:0,0:0:0:0:
359,162,217177,6,0,L|385:155,1,27.1875010371209,8|0,0:0|0:0,0:0:0:0:
459,66,217364,2,0,L|452:92,1,27.1875010371209,8|0,0:0|0:0,0:0:0:0:
492,199,217552,2,0,L|472:179,1,27.1875010371209,8|0,0:0|0:0,0:0:0:0:
344,260,217739,5,0,0:0:0:0:
344,260,217927,2,0,L|458:302,1,108.750004148483
256,384,218302,1,0,0:0:0:0:
114,279,218489,1,0,3:0:0:0:
168,260,218583,1,0,3:0:0:0:
66,297,218677,6,0,L|-14:326,3,54.3750020742417,2|0|0|0,3:0|3:0|3:0|3:0,0:0:0:0:
303,222,219052,6,0,B|296:167|296:167|178:51,1,217.500008296967,6|0,3:0|0:0,0:0:0:0:
66,297,219614,1,6,3:0:0:0:
226,201,219802,2,0,L|148:124,1,108.750004148483,2|0,0:0|0:0,0:0:0:0:
403,126,220177,6,0,L|396:152,1,27.1875010371209,8|0,0:0|0:0,0:0:0:0:
303,222,220364,2,0,L|329:215,1,27.1875010371209,8|0,0:0|0:0,0:0:0:0:
436,259,220552,2,0,L|416:239,1,27.1875010371209,8|0,0:0|0:0,0:0:0:0:
159,320,220739,5,0,0:0:0:0:
159,320,220927,2,0,L|259:252,1,108.750004148483
276,240,221208,1,0,3:0:0:0:
303,222,221302,1,0,3:0:0:0:
447,68,221489,1,0,3:0:0:0:
493,99,221583,1,0,3:0:0:0:
401,37,221677,6,0,L|331:-11,3,54.3750020742417,2|0|0|0,3:0|3:0|3:0|3:0,0:0:0:0:
482,292,222052,6,0,B|451:338|451:338|293:387,1,217.500008296967,6|0,3:0|0:0,0:0:0:0:
306,118,222614,1,6,3:0:0:0:
405,276,222802,2,0,L|301:308,1,108.750004148483,2|0,0:0|0:0,0:0:0:0:
193,92,223177,6,0,L|166:98,1,27.1875010371209,8|0,0:0|0:0,0:0:0:0:
59,56,223364,2,0,L|78:75,1,27.1875010371209,8|0,0:0|0:0,0:0:0:0:
94,189,223552,2,0,L|100:162,1,27.1875010371209,8|0,0:0|0:0,0:0:0:0:
301,308,223739,5,0,0:0:0:0:
169,341,223927,2,0,L|105:357,3,54.3750020742417
203,206,224302,2,0,L|256:192,1,54.3750020742417,8|0,0:0|0:0,0:0:0:0:
396,29,224489,5,0,3:0:0:0:
343,43,224583,1,0,3:0:0:0:
449,15,224677,6,0,L|522:-5,3,54.3750020742417,2|0|0|0,3:0|3:0|3:0|3:0,0:3:0:0:
256,192,225052,5,4,3:0:0:0:
256,192,225145,12,0,227958,0:0:0:0:
329,259,228052,6,0,P|354:192|326:122,1,145,0|0,3:0|0:0,0:0:0:0:
256,192,228333,1,0,3:0:0:0:
344,270,228427,6,0,P|370:191|343:111,1,166.750003180504,0|0,3:0|0:0,0:0:0:0:
271,192,228708,1,0,3:0:0:0:
359,281,228802,6,0,P|386:191|355:96,1,188.499991371155,0|0,3:0|0:0,0:0:0:0:
286,192,229083,1,0,3:0:0:0:
374,292,229177,6,0,P|402:192|373:90,1,210.250006416321,0|0,3:0|0:0,0:0:0:0:
301,192,229458,1,0,3:0:0:0:
389,303,229552,6,0,P|418:192|389:80,1,232,0|0,3:0|0:0,0:0:0:0:
316,192,229833,1,0,3:0:0:0:
404,314,229927,6,0,P|434:192|404:69,1,253.750002419949,0|0,3:0|0:0,0:0:0:0:
331,192,230208,1,0,3:0:0:0:
419,325,230302,6,0,P|450:192|412:45,1,275.499992643357,0|0,3:0|0:0,0:0:0:0:
346,192,230583,1,0,3:0:0:0:
434,336,230677,6,0,P|466:192|434:48,1,297.250004535675,0|0,3:0|0:0,0:0:0:0:
183,259,231052,6,0,P|158:192|186:122,1,145,0|0,3:0|0:0,0:0:0:0:
256,192,231333,1,0,3:0:0:0:
168,270,231427,6,0,P|142:191|169:111,1,166.750003180504,0|0,3:0|0:0,0:0:0:0:
241,192,231708,1,0,3:0:0:0:
153,281,231802,6,0,P|126:191|157:96,1,188.499991371155,0|0,3:0|0:0,0:0:0:0:
226,192,232083,1,0,3:0:0:0:
138,292,232177,6,0,P|110:192|139:90,1,210.250006416321,0|0,3:0|0:0,0:0:0:0:
211,192,232458,1,0,3:0:0:0:
123,303,232552,6,0,P|94:192|123:80,1,232,0|0,3:0|0:0,0:0:0:0:
196,192,232833,1,0,3:0:0:0:
108,314,232927,6,0,P|78:192|108:69,1,253.750002419949,0|0,3:0|0:0,0:0:0:0:
181,192,233208,1,0,3:0:0:0:
93,325,233302,6,0,P|62:192|100:45,1,275.499992643357,0|0,3:0|0:0,0:0:0:0:
166,192,233583,1,0,3:0:0:0:
78,336,233677,6,0,P|46:192|78:48,1,297.250004535675,0|0,3:0|0:0,0:0:0:0:
397,263,234052,5,2,3:0:0:0:
348,111,234239,1,0,3:0:0:0:
115,263,234427,1,2,3:0:0:0:
164,111,234614,1,0,3:0:0:0:
425,277,234802,5,2,3:0:0:0:
366,94,234989,1,0,3:0:0:0:
86,277,235177,1,2,3:0:0:0:
145,94,235364,1,0,3:0:0:0:
459,294,235552,5,2,3:0:0:0:
388,75,235739,1,0,3:0:0:0:
52,294,235927,1,2,3:0:0:0:
123,75,236114,1,0,3:0:0:0:
499,314,236302,5,2,3:0:0:0:
416,48,236489,1,0,3:0:0:0:
12,314,236677,1,2,3:0:0:0:
97,52,236864,1,0,3:0:0:0:
282,165,237052,5,2,3:0:0:0:
230,219,237145,1,0,3:0:0:0:
290,157,237239,1,0,3:0:0:0:
222,227,237332,1,0,3:0:0:0:
298,149,237427,1,0,3:0:0:0:
214,235,237520,1,0,3:0:0:0:
306,141,237614,1,0,3:0:0:0:
206,243,237707,1,0,3:0:0:0:
233,112,237802,5,2,3:0:0:0:
278,271,237895,1,0,3:0:0:0:
230,101,237990,1,0,3:0:0:0:
281,282,238083,1,0,3:0:0:0:
154,165,238177,6,0,L|118:155,1,36.25,2|0,3:0|3:0,3:0:0:0:
358,219,238270,2,0,L|393:228,1,36.25,0|0,3:0|3:0,3:0:0:0:
118,155,238364,6,0,L|82:145,1,36.25,0|0,3:0|3:0,3:0:0:0:
394,229,238458,2,0,L|429:238,1,36.25,0|0,3:0|3:0,3:0:0:0:
256,192,238552,5,0,3:0:0:0:
256,192,238645,12,0,239583,0:0:0:0:
481,196,239677,5,0,3:0:0:0:
488,183,239770,1,0,3:0:0:0:
495,170,239864,1,0,3:0:0:0:
502,157,239958,1,0,3:0:0:0:
470,93,240052,6,0,B|438:68|394:98|404:213|544:201|615:113|534:17|485:-14|426:4|377:41|367:90,1,391.499988052369,4|0,0:3|0:0,0:0:0:0:
307,333,240427,2,0,B|175:209|301:61|420:138|409:226|336:250,1,391.499988052369,2|0,0:1|0:0,0:0:0:0:
61,321,240802,6,0,L|125:256,1,90.625,2|0,3:0|0:0,0:0:0:0:
17,240,240895,6,0,L|101:216,1,90.625,0|0,3:0|0:0,0:0:0:0:
17,144,240989,6,0,L|101:168,1,90.625,0|0,3:0|0:0,0:0:0:0:
61,63,241083,6,0,L|125:128,1,90.625,0|0,3:0|0:0,0:0:0:0:
256,127,241177,6,0,L|192:192,1,90.625,4|0,3:0|0:0,0:0:0:0:
280,168,241270,6,0,L|193:192,1,90.625,0|0,3:0|0:0,0:0:0:0:
280,216,241364,6,0,L|186:190,1,90.625,0|0,3:0|0:0,0:0:0:0:
256,256,241458,6,0,L|192:191,1,90.625,0|0,3:0|0:0,0:0:0:0:
189,320,241552,5,0,3:0:0:0:
192,192,241645,1,0,3:0:0:0:
189,64,241739,2,0,P|250:42|322:72,1,137.749996321678,0|0,3:0|0:0,0:0:0:0:
315,317,241927,2,0,P|252:341|189:320,1,137.749996321678,4|0,3:0|0:0,0:0:0:0:
124,256,242114,2,0,P|100:199|138:116,1,140.650003326531,0|0,3:0|0:0,0:0:0:0:
377,129,242302,2,0,P|401:192|378:258,1,140.650003326531,2|0,3:0|0:0,0:0:0:0:
256,256,242489,6,0,L|183:183,1,91.3499972122193,2|0,0:0|0:0,0:0:0:0:
59,65,242677,2,0,B|55:60|34:49|-12:59|-50:86|-54:128|-37:218|43:217|115:147|54:85|15:97|18:127,1,286.65000962265,2|0,0:0|0:0,0:0:0:0:
61,315,243052,6,0,B|-9:380|-9:380|-48:290|-21:236|57:199|101:229|130:262,1,369.750007052422,4|0,0:3|0:0,0:0:0:0:
256,127,243427,2,0,B|288:-47|100:-95|48:35|108:99|182:75,1,369.750007052422,2|0,0:1|0:0,0:0:0:0:
257,256,243802,6,0,L|321:191,1,90.625,2|0,3:0|0:0,0:0:0:0:
233,216,243895,6,0,L|320:192,1,90.625,0|0,3:0|0:0,0:0:0:0:
233,168,243989,6,0,L|320:192,1,90.625,0|0,3:0|0:0,0:0:0:0:
256,127,244083,6,0,L|320:192,1,90.625,0|0,3:0|0:0,0:0:0:0:
451,63,244177,6,0,L|387:128,1,90.625,4|0,3:0|0:0,0:0:0:0:
495,144,244270,6,0,L|411:168,1,90.625,0|0,3:0|0:0,0:0:0:0:
495,240,244364,6,0,L|411:216,1,90.625,0|0,3:0|0:0,0:0:0:0:
451,321,244458,6,0,L|387:256,1,90.625,0|0,3:0|0:0,0:0:0:0:
323,320,244552,5,0,3:0:0:0:
320,192,244645,1,0,3:0:0:0:
323,64,244739,2,0,P|386:39|462:74,1,140.650003326531,4|0,3:0|0:0,0:0:0:0:
451,321,244927,2,0,P|387:345|322:319,1,140.650003326531,4|0,3:0|0:0,0:0:0:0:
256,127,245114,2,0,P|237:38|266:-5,1,140.650003326531,0|0,3:0|0:0,0:0:0:0:
495,240,245302,2,0,P|542:318|520:382,1,140.650003326531,2|0,3:0|0:0,0:0:0:0:
323,320,245489,6,0,L|246:320,1,66.6999977609254,2|0,0:0|0:0,0:0:0:0:
103,318,245677,2,0,B|16:258|75:175|80:175|85:175|142:90|56:30,1,326.25001244545,2|0,0:0|0:0,0:0:0:0:
386,48,246052,6,0,B|417:72|398:122|285:140|263:1|331:-88|443:-33|485:7|482:68|458:124|413:147,1,391.499988052369,4|0,0:3|0:0,0:0:0:0:
256,320,246427,2,0,B|252:304|252:304|260:304|260:304|252:300|252:300|260:300|260:300|252:296|252:296|260:296|260:296|252:292|252:292|260:292|260:292|252:288|252:288|260:288|260:288|252:284|252:284|260:284|260:284|252:280|252:280|260:280|260:280|252:276|252:276|260:276|260:276|252:272|252:272|260:272|260:272|252:268|252:268|260:268|260:268|252:264|252:264|260:264|260:264|252:260|252:260|260:260|260:260|252:256|252:256|260:256|260:256|252:252|252:252|260:252|260:252|252:248|252:248|260:248|260:248|252:244|252:244|260:244|260:244|252:240|252:240|260:240|260:240|252:236|252:236|260:236|260:236|252:232|252:232|260:232|260:232|252:228|252:228|260:228|260:228|252:224|252:224|260:224|260:224|252:220|252:220|260:220|260:220|252:216|252:216|260:216|260:216|252:212|252:212|260:212|260:212|252:208|252:208|260:208|260:208|252:204|252:204|260:204|260:204|256:172,1,476.324986553936,2|0,0:0|0:0,0:0:0:0:
126,48,246802,6,0,L|191:112,1,90.625,0|0,3:0|0:0,0:0:0:0:
208,0,246895,6,0,L|232:84,1,90.625,0|0,3:0|0:0,0:0:0:0:
304,0,246989,6,0,L|280:84,1,90.625,0|0,3:0|0:0,0:0:0:0:
386,48,247083,6,0,L|321:112,1,90.625,0|0,3:0|0:0,0:0:0:0:
321,239,247177,6,0,L|256:175,1,90.625,4|0,3:0|0:0,0:0:0:0:
280,263,247270,6,0,L|256:175,1,90.625,0|0,3:0|0:0,0:0:0:0:
232,263,247364,6,0,L|256:175,1,90.625,0|0,3:0|0:0,0:0:0:0:
191,239,247458,6,0,L|256:175,1,90.625,0|0,3:0|0:0,0:0:0:0:
126,175,247552,5,0,3:0:0:0:
256,175,247645,1,0,3:0:0:0:
386,174,247739,2,0,P|409:238|386:302,1,137.749996321678,0|0,3:0|0:0,0:0:0:0:
126,302,247927,2,0,P|103:240|128:172,1,137.749996321678,4|0,3:0|0:0,0:0:0:0:
191,112,248114,2,0,P|254:88|325:114,1,141.375000539303,0|0,3:0|0:0,0:0:0:0:
321,364,248302,2,0,P|257:387|187:360,1,141.375000539303,2|0,3:0|0:0,0:0:0:0:
192,239,248489,6,0,L|272:159,1,90.625,2|0,0:0|0:0,0:0:0:0:
387,48,248677,2,0,P|412:111|386:174,1,139.200003398438,2|0,0:0|0:0,0:0:0:0:
321,364,248864,2,0,P|295:301|322:239,1,139.200003398438,2|0,0:0|0:0,0:0:0:0:
192,32,249052,6,0,P|144:6|78:13,1,108.75,4|0,0:3|0:3,0:3:0:0:
18,60,249427,2,0,P|64:87|117:83,1,108.75,0|0,0:3|0:3,0:3:0:0:
387,48,249802,2,0,P|336:53|278:90,1,115.275000175896,2|0,0:3|0:3,0:3:0:0:
18,206,250177,6,0,B|6:133|6:133|19:54,1,147.90000090271,4|0,0:3|0:3,0:3:0:0:
258,156,250739,2,0,L|246:190,1,36.25
292,315,250927,2,0,L|302:281,1,36.25
270,119,251114,1,0,0:3:0:0:
282,85,251208,1,0,0:3:0:0:
293,51,251302,6,0,L|308:5,3,36.25,2|0|0|0,3:0|3:0|3:0|3:0,0:0:0:0:
258,156,251677,5,0,3:0:0:0:
246,189,251770,1,0,3:0:0:0:
234,224,251864,1,0,3:0:0:0:
222,259,251958,1,0,3:0:0:0:
199,328,252052,6,0,B|230:304|271:337|254:449|115:428|49:338|139:248|190:220|247:243|295:285|293:326,1,391.499988052369,4|0,0:3|0:3,0:3:0:0:
135,155,252427,2,0,B|159:-24|-31:-60|-75:74|-11:136|57:109,1,391.499988052369,2|0,0:1|0:0,0:0:0:0:
409,1,252802,6,0,L|293:51,1,126.875001209974,2|0,3:0|0:0,0:0:0:0:
392,96,252895,6,0,L|292:139,1,108.750004148483,0|0,3:0|0:0,0:0:0:0:
375,190,252989,6,0,L|275:234,1,90.625,0|0,3:0|0:0,0:0:0:0:
359,286,253083,6,0,L|292:315,1,72.5,0|0,3:0|0:0,0:0:0:0:
226,286,253177,6,0,L|292:315,1,72.5,4|0,3:0|0:0,0:0:0:0:
209,190,253270,6,0,L|308:234,1,90.625,0|0,3:0|0:0,0:0:0:0:
193,95,253364,6,0,L|292:138,1,108.750004148483,0|0,3:0|0:0,0:0:0:0:
176,1,253458,6,0,L|292:51,1,126.875001209974,0|0,3:0|0:0,0:0:0:0:
392,96,253552,5,0,3:0:0:0:
375,190,253645,1,0,3:0:0:0:
359,286,253739,2,0,P|411:280|452:249,1,101.499996902466,0|0,3:0|0:0,0:0:0:0:
176,1,253927,2,0,P|130:21|101:64,1,101.499996902466,4|0,3:0|0:0,0:0:0:0:
409,1,254114,2,0,P|455:23|483:64,1,101.499996902466,0|0,3:0|0:0,0:0:0:0:
226,286,254302,2,0,P|174:280|133:249,1,101.499996902466,2|0,3:0|0:0,0:0:0:0:
292,52,254489,6,0,L|293:141,1,86.2749982886124,2|0,0:0|0:0,0:0:0:0:
359,286,254677,2,0,B|360:293|372:317|424:338|478:338|509:300|553:203|475:149|371:170|395:267|428:279|449:252,1,326.25001244545,2|0,0:0|0:0,0:0:0:0:
85,146,255052,6,0,B|-17:191|-17:191|-47:79|27:22|106:2|167:55|190:113,1,452.39999723877,4|0,0:3|0:0,0:0:0:0:
359,286,255427,2,0,B|224:173|331:5|459:73|452:161|392:194,1,391.499988052369,2|0,0:1|0:0,0:0:0:0:
118,338,255802,6,0,L|185:367,1,72.5,2|0,3:0|0:0,0:0:0:0:
102,242,255895,6,0,L|202:286,1,90.625,0|0,3:0|0:0,0:0:0:0:
85,146,255989,6,0,L|185:189,1,108.750004148483,0|0,3:0|0:0,0:0:0:0:
68,50,256083,6,0,L|184:100,1,126.875001209974,0|0,3:0|0:0,0:0:0:0:
301,50,256177,6,0,L|185:100,1,126.875001209974,4|0,3:0|0:0,0:0:0:0:
285,146,256270,6,0,L|186:189,1,108.750004148483,0|0,3:0|0:0,0:0:0:0:
268,242,256364,6,0,L|169:286,1,90.625,0|0,3:0|0:0,0:0:0:0:
251,338,256458,6,0,L|185:367,1,72.5,0|0,3:0|0:0,0:0:0:0:
102,242,256552,5,0,3:0:0:0:
85,146,256645,1,0,3:0:0:0:
68,50,256739,2,0,P|10:84|-9:124,1,101.499996902466,4|0,3:0|0:0,0:0:0:0:
251,338,256927,2,0,P|316:325|349:293,1,101.499996902466,4|0,3:0|0:0,0:0:0:0:
118,338,257114,2,0,P|52:325|19:293,1,101.499996902466,0|0,3:0|0:0,0:0:0:0:
302,50,257302,2,0,P|359:84|379:124,1,101.499996902466,2|0,3:0|0:0,0:0:0:0:
185,279,257489,6,0,L|185:185,1,89.8999964334108,2|0,0:0|0:0,0:0:0:0:
183,13,257677,2,0,B|252:-67|329:1|328:6|328:11|407:76|475:-3,1,326.25001244545,2|0,0:0|0:0,0:0:0:0:
301,194,258052,6,0,P|327:104|349:176,1,430,12|0,0:3|0:3,0:3:0:0:
388,246,258427,6,0,P|414:156|436:228,1,390,12|0,0:3|0:3,0:3:0:0:
475,298,258802,6,0,P|501:207|522:279,1,355,12|0,0:3|0:3,0:3:0:0:
250,338,259177,6,0,L|184:309,1,72.5,4|0,3:0|0:0,0:0:0:0:
251,249,259270,6,0,L|168:212,1,90.625,0|0,3:0|0:0,0:0:0:0:
252,160,259364,6,0,L|148:113,1,108.750004148483,0|0,3:0|0:0,0:0:0:0:
252,70,259458,6,0,L|129:14,1,126.875001209974,0|0,3:0|0:0,0:0:0:0:
349,115,259552,5,0,3:0:0:0:
333,212,259645,1,0,3:0:0:0:
317,309,259739,2,0,P|382:296|415:264,1,101.499996902466,0|0,3:0|0:0,0:0:0:0:
137,18,259927,2,0,P|92:41|60:85,1,101.499996902466,4|0,3:0|0:0,0:0:0:0:
368,18,260114,2,0,P|413:41|445:85,1,101.499996902466,0|0,3:0|0:0,0:0:0:0:
184,309,260302,2,0,P|135:304|96:276,1,97.8750003733635,2|0,3:0|0:0,0:0:0:0:
252,70,260489,6,0,L|252:167,1,89.8999964334108,2|0,0:0|0:0,0:0:0:0:
407,273,260677,2,0,P|426:222|420:164,1,101.499996902466,2|0,0:0|0:0,0:0:0:0:
79,179,260864,2,0,P|77:230|96:277,1,101.499996902466,2|0,0:0|0:0,0:0:0:0:
380,367,261052,6,0,P|433:365|481:332,1,108.75,4|0,0:3|0:3,0:3:0:0:
407,273,261427,2,0,P|453:244|508:245,1,108.75,0|0,0:3|0:3,0:3:0:0:
332,36,261802,2,0,P|284:52|246:86,1,102.22499844017,2|0,0:3|0:3,0:3:0:0:
506,98,262177,6,0,B|518:170|518:170|506:243,1,147.90000090271,4|0,0:3|0:3,0:3:0:0:
252,160,262739,2,0,L|254:196,1,36.25
178,323,262927,2,0,L|176:287,1,36.25
249,121,263114,1,0,0:3:0:0:
246,86,263208,1,0,0:3:0:0:
244,49,263302,6,0,L|240:1,3,36.25,2|0|0|0,3:0|3:0|3:0|3:0,0:0:0:0:
252,160,263677,5,0,3:3:0:0:
254,195,263770,1,0,3:3:0:0:
257,231,263864,1,0,3:3:0:0:
259,269,263958,1,0,3:3:0:0:
263,345,264052,6,0,P|321:355|371:379,1,108.750004148483,4|0,0:3|0:3,0:3:0:0:
470,236,264427,2,0,P|388:182|380:109,1,163.125006222725,2|0,0:1|0:3,0:3:0:0:
471,28,264802,2,0,L|475:137,1,108.750004148483,2|0,0:3|0:3,0:3:0:0:
265,345,265177,2,0,P|218:377|159:377,1,108.750004148483,4|0,0:3|0:3,0:3:0:0:
189,287,265552,2,0,P|183:234|206:186,1,108.750004148483,0|0,0:3|0:3,0:3:0:0:
355,318,265927,2,0,P|325:272|276:250,1,108.750004148483,4|0,0:3|0:3,0:3:0:0:
102,105,266302,2,0,P|239:37|208:186,1,380.625014519692,2|0,0:3|0:3,0:3:0:0:
124,184,267052,6,0,P|142:134|188:105,1,108.750004148483,4|0,0:3|0:3,0:3:0:0:
432,224,267427,2,0,P|449:162|393:193,1,163.125006222725,2|0,0:1|0:3,0:3:0:0:
332,140,267802,2,0,L|404:58,1,108.750004148483,2|0,0:3|0:3,0:3:0:0:
478,292,268177,2,0,P|426:304|374:282,2,108.750004148483,4|0|0,0:3|0:3|0:3,0:3:0:0:
332,140,268739,1,4,0:3:0:0:
332,140,268927,2,0,P|381:206|374:288,1,163.125006222725,4|0,0:3|0:3,0:3:0:0:
369,367,269302,6,0,L|210:332,1,163.125006222725,2|0,0:3|0:3,0:3:0:0:
198,315,269677,1,0,0:0:0:0:
185,297,269771,1,0,0:0:0:0:
172,279,269865,1,0,0:0:0:0:
159,261,269959,1,0,0:0:0:0:
146,243,270052,6,0,P|210:232|249:181,1,108.750004148483,4|0,0:3|0:3,0:3:0:0:
276,0,270427,2,0,P|180:21|146:86,1,163.125006222725,2|0,0:1|0:3,0:3:0:0:
169,170,270802,2,0,L|245:92,1,108.750004148483,2|0,0:3|0:3,0:3:0:0:
490,93,271177,2,0,P|514:144|503:201,1,108.750004148483,4|0,0:3|0:3,0:3:0:0:
421,157,271552,2,0,P|363:152|319:114,1,108.750004148483,0|0,0:3|0:3,0:3:0:0:
479,0,271927,2,0,P|429:21|399:65,1,108.750004148483,4|0,0:3|0:3,0:3:0:0:
353,311,272302,6,0,L|524:276,1,163.125006222725,2|0,0:3|0:3,0:3:0:0:
366,230,272677,2,0,P|312:237|273:278,1,108.750004148483,0|0,0:3|0:3,0:3:0:0:
74,213,273052,6,0,L|27:263,3,54.3750020742417,4|0|0|0,0:3|0:3|0:3|0:3,0:3:0:0:
90,131,273427,2,0,L|70:65,3,54.3750020742417,0|0|0|0,0:3|0:3|0:3|0:3,0:3:0:0:
67,357,273802,2,0,L|36:250,1,108.750004148483,2|0,0:3|0:3,0:3:0:0:
74,78,274177,1,4,0:3:0:0:
153,186,274364,1,0,0:3:0:0:
157,190,274458,1,0,0:3:0:0:
161,194,274552,2,0,L|237:211,1,54.3750020742417,0|0,0:3|0:3,0:3:0:0:
421,252,274739,1,4,0:3:0:0:
421,252,274927,2,0,P|440:168|508:118,1,163.125006222725,4|0,0:3|0:3,0:3:0:0:
358,45,275302,6,0,L|196:64,1,163.125006222725,2|0,0:3|0:3,0:3:0:0:
183,83,275677,1,0,0:0:0:0:
170,101,275771,1,0,0:0:0:0:
157,119,275865,1,0,0:0:0:0:
144,137,275958,1,0,0:0:0:0:
131,155,276052,6,0,P|76:172|22:140,1,108.750004148483,4|0,0:3|0:3,0:3:0:0:
182,318,276427,2,0,P|274:350|337:313,1,163.125006222725,2|0,0:1|0:3,0:3:0:0:
359,217,276802,2,0,L|257:254,1,108.750004148483,2|0,0:3|0:3,0:3:0:0:
371,49,277177,2,0,P|423:37|473:55,1,108.750004148483,4|0,0:3|0:3,0:3:0:0:
417,131,277552,2,0,P|399:184|351:220,1,108.750004148483,0|0,0:3|0:3,0:3:0:0:
276,39,277927,2,0,P|285:91|322:130,1,108.750004148483,4|0,0:3|0:3,0:3:0:0:
136,150,278302,6,0,L|33:11,1,163.125006222725,2|0,0:3|0:3,0:3:0:0:
189,87,278677,2,0,P|222:137|205:198,1,108.750004148483,0|0,0:3|0:3,0:3:0:0:
339,337,279052,6,0,P|286:317|227:319,1,108.750004148483,4|0,0:3|0:3,0:3:0:0:
322,161,279427,2,0,P|336:63|399:25,1,163.125006222725,2|0,0:1|0:3,0:3:0:0:
481,38,279802,2,0,L|412:122,1,108.750004148483,2|0,0:3|0:3,0:3:0:0:
208,55,280177,6,0,P|159:46|110:6,2,108.750004148483,4|0|0,0:3|0:3|0:3,0:3:0:0:
5,162,280739,1,4,0:3:0:0:
5,162,280927,2,0,P|96:154|151:216,1,163.125006222725,4|0,0:3|0:3,0:3:0:0:
153,301,281302,2,0,L|60:246,2,108.750004148483,2|0|0,0:3|0:3|0:3,0:3:0:0:
183,109,281864,6,0,L|206:93,3,27.1875010371209,0|0|0|0,0:3|0:3|0:3|0:3,0:3:0:0:
280,133,282051,1,4,3:0:0:0:
286,122,282114,1,0,0:0:0:0:
289,111,282176,1,0,0:0:0:0:
291,99,282239,1,0,0:0:0:0:
290,87,282301,1,0,0:0:0:0:
288,75,282364,1,0,0:0:0:0:
285,64,282427,6,0,P|333:122|426:114,1,163.125006222725,2|0,0:1|0:3,0:3:0:0:
481,61,282802,2,0,L|375:37,1,108.750004148483,2|0,0:3|0:3,0:3:0:0:
123,208,283177,2,0,P|89:166|84:113,1,108.750004148483,4|0,0:3|0:3,0:3:0:0:
175,129,283552,2,0,P|227:121|277:142,1,108.750004148483,0|0,0:3|0:3,0:3:0:0:
154,296,283927,2,0,P|197:264|217:214,1,108.750004148483,4|0,0:3|0:3,0:3:0:0:
149,18,284302,2,0,L|23:-1,2,108.750004148483,2|0|0,0:3|0:3|0:3,0:3:0:0:
368,55,284864,5,0,0:3:0:0:
372,59,284958,1,0,0:3:0:0:
376,63,285052,2,0,P|460:58|405:135,1,217.500008296967,4|0,0:3|0:3,0:3:0:0:
256,271,285614,6,0,L|256:192,1,79.7500024337769,0|0,0:3|0:3,0:3:0:0:
325,152,285802,2,0,L|256:192,1,79.7500024337769,2|0,0:3|0:3,0:3:0:0:
187,151,285989,2,0,L|256:192,1,79.7500024337769,0|0,0:3|0:3,0:3:0:0:
326,232,286177,2,0,L|256:192,1,79.7500024337769,4|0,0:3|0:3,0:3:0:0:
186,231,286364,2,0,L|256:192,1,79.7500024337769,0|0,0:3|0:3,0:3:0:0:
256,112,286552,2,0,L|256:192,1,79.7500024337769,0|0,0:3|0:3,0:3:0:0:
325,72,286739,6,0,P|261:30|187:72,1,170.374997400284,4|0,0:3|0:3,0:3:0:0:
325,311,286927,2,0,P|393:277|394:192,1,170.374997400284,4|0,0:3|0:3,0:3:0:0:
117,192,287114,2,0,P|113:268|186:311,1,170.374997400284,0|0,0:3|0:3,0:3:0:0:
324,72,287302,2,0,P|395:110|394:191,1,170.374997400284,2|0,0:3|0:3,0:3:0:0:
186,72,287489,2,0,P|115:111|117:192,1,170.374997400284,0|0,0:3|0:3,0:3:0:0:
187,311,287677,2,0,P|256:353|325:311,1,170.374997400284,0|0,0:3|0:3,0:3:0:0:
256,192,288052,5,4,0:3:0:0:
256,192,288145,12,0,300052,0:0:0:0:
