osu file format v14

[General]
AudioFilename: audio.mp3
AudioLeadIn: 0
PreviewTime: 118555
Countdown: 0
SampleSet: Normal
StackLeniency: 0.7
Mode: 3
LetterboxInBreaks: 0
SpecialStyle: 0
WidescreenStoryboard: 0

[Editor]
DistanceSpacing: 0.22
BeatDivisor: 4
GridSize: 32
TimelineZoom: 2

[Metadata]
Title:Be Wild
TitleUnicode:Be Wild
Artist:Camellia ft. Yukacco
ArtistUnicode:かめりあ ft. Yukacco
Creator:Curiossity
Version:Yasei
Source:
Tags:trap melonbooks shopbgm compilations:001 nature
BeatmapID:1892415
BeatmapSetID:906877

[Difficulty]
HPDrainRate:9.1
CircleSize:4
OverallDifficulty:8.7
ApproachRate:5
SliderMultiplier:1.4
SliderTickRate:1

[Events]
//Background and Video events
0,0,"1430371244195.jpg",0,0
//Break Periods
//Storyboard Layer 0 (Background)
//Storyboard Layer 1 (Fail)
//Storyboard Layer 2 (Pass)
//Storyboard Layer 3 (Foreground)
//Storyboard Sound Samples

[TimingPoints]
55.056201494432,375,4,1,0,50,1,0
84055,-100,4,1,0,50,0,1
108055,-100,4,1,0,50,0,0
120055,-100,4,1,0,50,0,1
144055,-100,4,1,0,50,0,0
240055,-100,4,1,0,50,0,1
264055,-100,4,1,0,50,0,0

[HitObjects]
64,192,55,5,0,0:0:0:0:
320,192,148,1,0,0:0:0:0:
192,192,242,1,0,0:0:0:0:
320,192,336,1,0,0:0:0:0:
448,192,430,1,0,0:0:0:0:
192,192,523,1,0,0:0:0:0:
64,192,617,1,0,0:0:0:0:
320,192,711,1,0,0:0:0:0:
448,192,805,1,0,0:0:0:0:
192,192,898,1,0,0:0:0:0:
320,192,992,1,0,0:0:0:0:
192,192,1086,1,0,0:0:0:0:
64,192,1180,1,0,0:0:0:0:
192,192,1273,1,0,0:0:0:0:
448,192,1367,1,0,0:0:0:0:
320,192,1461,1,0,0:0:0:0:
64,192,1555,1,0,0:0:0:0:
320,192,1648,1,0,0:0:0:0:
448,192,1742,1,0,0:0:0:0:
192,192,1836,1,0,0:0:0:0:
64,192,1930,1,0,0:0:0:0:
320,192,2023,1,0,0:0:0:0:
192,192,2117,1,0,0:0:0:0:
320,192,2211,1,0,0:0:0:0:
448,192,2305,1,0,0:0:0:0:
192,192,2398,1,0,0:0:0:0:
64,192,2492,1,0,0:0:0:0:
192,192,2586,1,0,0:0:0:0:
320,192,2680,1,0,0:0:0:0:
192,192,2773,1,0,0:0:0:0:
448,192,2867,1,0,0:0:0:0:
320,192,2961,1,0,0:0:0:0:
64,192,3055,1,0,0:0:0:0:
320,192,3148,1,0,0:0:0:0:
192,192,3242,1,0,0:0:0:0:
320,192,3336,1,0,0:0:0:0:
448,192,3430,1,0,0:0:0:0:
192,192,3523,1,0,0:0:0:0:
64,192,3617,1,0,0:0:0:0:
192,192,3711,1,0,0:0:0:0:
448,192,3805,1,0,0:0:0:0:
192,192,3898,1,0,0:0:0:0:
320,192,3992,1,0,0:0:0:0:
192,192,4086,1,0,0:0:0:0:
64,192,4180,1,0,0:0:0:0:
320,192,4273,1,0,0:0:0:0:
448,192,4367,1,0,0:0:0:0:
320,192,4461,1,0,0:0:0:0:
64,192,4555,1,0,0:0:0:0:
320,192,4648,1,0,0:0:0:0:
448,192,4742,1,0,0:0:0:0:
192,192,4836,1,0,0:0:0:0:
64,192,4930,1,0,0:0:0:0:
320,192,5023,1,0,0:0:0:0:
192,192,5117,1,0,0:0:0:0:
320,192,5211,1,0,0:0:0:0:
448,192,5305,1,0,0:0:0:0:
192,192,5398,1,0,0:0:0:0:
64,192,5492,1,0,0:0:0:0:
192,192,5586,1,0,0:0:0:0:
320,192,5680,1,0,0:0:0:0:
192,192,5773,1,0,0:0:0:0:
448,192,5867,1,0,0:0:0:0:
320,192,5961,1,0,0:0:0:0:
64,192,6055,1,0,0:0:0:0:
320,192,6148,1,0,0:0:0:0:
192,192,6242,1,0,0:0:0:0:
320,192,6336,1,0,0:0:0:0:
448,192,6430,1,0,0:0:0:0:
192,192,6523,1,0,0:0:0:0:
64,192,6617,1,0,0:0:0:0:
192,192,6711,1,0,0:0:0:0:
448,192,6805,1,0,0:0:0:0:
192,192,6898,1,0,0:0:0:0:
320,192,6992,1,0,0:0:0:0:
192,192,7086,1,0,0:0:0:0:
64,192,7180,1,0,0:0:0:0:
320,192,7273,1,0,0:0:0:0:
448,192,7367,1,0,0:0:0:0:
320,192,7461,1,0,0:0:0:0:
64,192,7555,1,0,0:0:0:0:
320,192,7648,1,0,0:0:0:0:
448,192,7742,1,0,0:0:0:0:
192,192,7836,1,0,0:0:0:0:
64,192,7930,1,0,0:0:0:0:
320,192,8023,1,0,0:0:0:0:
192,192,8117,1,0,0:0:0:0:
320,192,8211,1,0,0:0:0:0:
448,192,8305,1,0,0:0:0:0:
192,192,8398,1,0,0:0:0:0:
64,192,8492,1,0,0:0:0:0:
192,192,8586,1,0,0:0:0:0:
320,192,8680,1,0,0:0:0:0:
192,192,8773,1,0,0:0:0:0:
448,192,8867,1,0,0:0:0:0:
320,192,8961,1,0,0:0:0:0:
64,192,9055,1,0,0:0:0:0:
320,192,9148,1,0,0:0:0:0:
192,192,9242,1,0,0:0:0:0:
320,192,9336,1,0,0:0:0:0:
448,192,9430,1,0,0:0:0:0:
192,192,9523,1,0,0:0:0:0:
64,192,9617,1,0,0:0:0:0:
192,192,9711,1,0,0:0:0:0:
448,192,9805,1,0,0:0:0:0:
192,192,9898,1,0,0:0:0:0:
320,192,9992,1,0,0:0:0:0:
192,192,10086,1,0,0:0:0:0:
64,192,10180,1,0,0:0:0:0:
192,192,10273,1,0,0:0:0:0:
448,192,10367,5,0,0:0:0:0:
320,192,10461,1,0,0:0:0:0:
192,192,10555,1,0,0:0:0:0:
64,192,10555,1,0,0:0:0:0:
448,192,10648,1,0,0:0:0:0:
320,192,10742,1,0,0:0:0:0:
448,192,10836,1,0,0:0:0:0:
64,192,10930,1,0,0:0:0:0:
192,192,10930,1,0,0:0:0:0:
320,192,11023,1,0,0:0:0:0:
448,192,11117,1,0,0:0:0:0:
320,192,11211,1,0,0:0:0:0:
64,192,11305,1,0,0:0:0:0:
192,192,11305,1,0,0:0:0:0:
320,192,11398,1,0,0:0:0:0:
448,192,11492,1,0,0:0:0:0:
320,192,11555,1,0,0:0:0:0:
192,192,11617,1,0,0:0:0:0:
64,192,11680,1,0,0:0:0:0:
448,192,11680,1,0,0:0:0:0:
320,192,11680,1,0,0:0:0:0:
64,192,11867,1,0,0:0:0:0:
448,192,11867,1,0,0:0:0:0:
64,192,12055,128,0,12430:0:0:0:0:
192,192,12055,128,0,12430:0:0:0:0:
320,192,12055,128,0,12430:0:0:0:0:
64,192,12617,128,0,12805:0:0:0:0:
192,192,12617,128,0,12805:0:0:0:0:
320,192,12617,128,0,12805:0:0:0:0:
448,192,12805,1,0,0:0:0:0:
320,192,12992,1,0,0:0:0:0:
64,192,13180,1,0,0:0:0:0:
448,192,13367,1,0,0:0:0:0:
64,192,13555,1,0,0:0:0:0:
448,192,13742,1,0,0:0:0:0:
64,192,13930,1,0,0:0:0:0:
192,192,14117,1,0,0:0:0:0:
320,192,14305,1,0,0:0:0:0:
64,192,14492,1,0,0:0:0:0:
192,192,14492,1,0,0:0:0:0:
320,192,14586,1,0,0:0:0:0:
448,192,14586,1,0,0:0:0:0:
64,192,14680,1,0,0:0:0:0:
448,192,14680,1,0,0:0:0:0:
192,192,14773,1,0,0:0:0:0:
320,192,14867,1,0,0:0:0:0:
448,192,14867,1,0,0:0:0:0:
192,192,14961,1,0,0:0:0:0:
64,192,15055,128,0,15430:0:0:0:0:
320,192,15055,128,0,15430:0:0:0:0:
448,192,15055,128,0,15430:0:0:0:0:
64,192,15617,128,0,15805:0:0:0:0:
320,192,15617,128,0,15805:0:0:0:0:
448,192,15617,128,0,15805:0:0:0:0:
192,192,15805,1,0,0:0:0:0:
320,192,15992,1,0,0:0:0:0:
448,192,16180,1,0,0:0:0:0:
64,192,16367,1,0,0:0:0:0:
448,192,16555,1,0,0:0:0:0:
64,192,16742,1,0,0:0:0:0:
448,192,16930,1,0,0:0:0:0:
320,192,17117,1,0,0:0:0:0:
64,192,17180,1,0,0:0:0:0:
192,192,17242,1,0,0:0:0:0:
448,192,17305,1,0,0:0:0:0:
320,192,17305,1,0,0:0:0:0:
448,192,17492,1,0,0:0:0:0:
64,192,17492,1,0,0:0:0:0:
320,192,17586,1,0,0:0:0:0:
192,192,17633,1,0,0:0:0:0:
64,192,17680,128,0,17961:0:0:0:0:
448,192,17680,128,0,17961:0:0:0:0:
320,192,17773,1,0,0:0:0:0:
192,192,17867,1,0,0:0:0:0:
320,192,17961,1,0,0:0:0:0:
64,192,18055,128,0,18430:0:0:0:0:
192,192,18055,128,0,18430:0:0:0:0:
448,192,18055,128,0,18430:0:0:0:0:
64,192,18617,128,0,18805:0:0:0:0:
192,192,18617,128,0,18805:0:0:0:0:
448,192,18617,128,0,18805:0:0:0:0:
320,192,18805,1,0,0:0:0:0:
192,192,18992,1,0,0:0:0:0:
64,192,19180,1,0,0:0:0:0:
448,192,19367,1,0,0:0:0:0:
64,192,19555,1,0,0:0:0:0:
320,192,19742,1,0,0:0:0:0:
64,192,19930,1,0,0:0:0:0:
192,192,20117,1,0,0:0:0:0:
320,192,20305,1,0,0:0:0:0:
64,192,20492,1,0,0:0:0:0:
192,192,20555,1,0,0:0:0:0:
320,192,20617,1,0,0:0:0:0:
448,192,20680,1,0,0:0:0:0:
64,192,20680,1,0,0:0:0:0:
64,192,20773,1,0,0:0:0:0:
192,192,20867,1,0,0:0:0:0:
320,192,20867,1,0,0:0:0:0:
448,192,20961,1,0,0:0:0:0:
320,192,21055,128,0,21430:0:0:0:0:
192,192,21055,128,0,21430:0:0:0:0:
64,192,21055,128,0,22555:0:0:0:0:
448,192,21430,1,0,0:0:0:0:
320,192,21617,1,0,0:0:0:0:
192,192,21617,1,0,0:0:0:0:
192,192,21805,1,0,0:0:0:0:
320,192,21805,1,0,0:0:0:0:
448,192,21805,1,0,0:0:0:0:
192,192,22180,1,0,0:0:0:0:
320,192,22367,1,0,0:0:0:0:
448,192,22367,1,0,0:0:0:0:
320,192,22461,1,0,0:0:0:0:
448,192,22461,1,0,0:0:0:0:
320,192,22555,1,0,0:0:0:0:
448,192,22555,128,0,24055:0:0:0:0:
192,192,22836,1,0,0:0:0:0:
320,192,22836,1,0,0:0:0:0:
64,192,22930,1,0,0:0:0:0:
192,192,23117,1,0,0:0:0:0:
320,192,23117,1,0,0:0:0:0:
64,192,23211,1,0,0:0:0:0:
320,192,23305,1,0,0:0:0:0:
192,192,23305,1,0,0:0:0:0:
64,192,23305,1,0,0:0:0:0:
64,192,23492,1,0,0:0:0:0:
192,192,23492,1,0,0:0:0:0:
64,192,23680,1,0,0:0:0:0:
192,192,23680,1,0,0:0:0:0:
320,192,23680,1,0,0:0:0:0:
320,192,23867,1,0,0:0:0:0:
64,192,24055,128,0,24430:0:0:0:0:
192,192,24055,128,0,24430:0:0:0:0:
320,192,24055,128,0,24430:0:0:0:0:
64,192,24617,128,0,24805:0:0:0:0:
192,192,24617,128,0,24805:0:0:0:0:
320,192,24617,128,0,24805:0:0:0:0:
448,192,24805,1,0,0:0:0:0:
320,192,24992,1,0,0:0:0:0:
64,192,25180,1,0,0:0:0:0:
448,192,25367,1,0,0:0:0:0:
64,192,25555,1,0,0:0:0:0:
448,192,25742,1,0,0:0:0:0:
192,192,25930,1,0,0:0:0:0:
320,192,26023,1,0,0:0:0:0:
192,192,26117,1,0,0:0:0:0:
320,192,26211,1,0,0:0:0:0:
192,192,26305,1,0,0:0:0:0:
320,192,26398,1,0,0:0:0:0:
192,192,26492,1,0,0:0:0:0:
320,192,26586,1,0,0:0:0:0:
192,192,26680,1,0,0:0:0:0:
64,192,26680,128,0,26961:0:0:0:0:
448,192,26680,128,0,26961:0:0:0:0:
320,192,26773,1,0,0:0:0:0:
192,192,26867,1,0,0:0:0:0:
320,192,26961,1,0,0:0:0:0:
64,192,27055,128,0,27430:0:0:0:0:
192,192,27055,128,0,27430:0:0:0:0:
448,192,27055,128,0,27430:0:0:0:0:
64,192,27617,128,0,27805:0:0:0:0:
192,192,27617,128,0,27805:0:0:0:0:
448,192,27617,128,0,27805:0:0:0:0:
320,192,27805,128,0,27898:0:0:0:0:
192,192,27992,128,0,28086:0:0:0:0:
448,192,28180,128,0,28273:0:0:0:0:
64,192,28367,128,0,28461:0:0:0:0:
448,192,28555,128,0,28648:0:0:0:0:
64,192,28742,128,0,28836:0:0:0:0:
320,192,28930,1,0,0:0:0:0:
448,192,28930,1,0,0:0:0:0:
192,192,28992,1,0,0:0:0:0:
64,192,29117,1,0,0:0:0:0:
320,192,29117,1,0,0:0:0:0:
64,192,29211,1,0,0:0:0:0:
320,192,29305,1,0,0:0:0:0:
448,192,29305,1,0,0:0:0:0:
192,192,29367,1,0,0:0:0:0:
64,192,29492,1,0,0:0:0:0:
448,192,29492,1,0,0:0:0:0:
64,192,29586,1,0,0:0:0:0:
320,192,29680,1,0,0:0:0:0:
448,192,29680,128,0,29961:0:0:0:0:
64,192,29867,1,0,0:0:0:0:
192,192,29961,1,0,0:0:0:0:
64,192,30055,128,0,30430:0:0:0:0:
320,192,30055,128,0,30430:0:0:0:0:
448,192,30055,128,0,30430:0:0:0:0:
64,192,30617,128,0,30805:0:0:0:0:
320,192,30617,128,0,30805:0:0:0:0:
448,192,30617,128,0,30805:0:0:0:0:
192,192,30805,128,0,30945:0:0:0:0:
320,192,30992,128,0,31133:0:0:0:0:
448,192,31180,128,0,31320:0:0:0:0:
64,192,31367,128,0,31508:0:0:0:0:
448,192,31555,128,0,31695:0:0:0:0:
64,192,31742,128,0,32305:0:0:0:0:
192,192,31742,128,0,31883:0:0:0:0:
448,192,31930,128,0,32070:0:0:0:0:
320,192,32117,1,0,0:0:0:0:
192,192,32117,1,0,0:0:0:0:
320,192,32305,1,0,0:0:0:0:
448,192,32398,1,0,0:0:0:0:
192,192,32398,1,0,0:0:0:0:
320,192,32492,1,0,0:0:0:0:
64,192,32492,1,0,0:0:0:0:
192,192,32586,1,0,0:0:0:0:
448,192,32680,1,0,0:0:0:0:
320,192,32680,1,0,0:0:0:0:
64,192,32773,1,0,0:0:0:0:
192,192,32773,1,0,0:0:0:0:
448,192,32867,1,0,0:0:0:0:
320,192,32867,1,0,0:0:0:0:
64,192,32961,1,0,0:0:0:0:
192,192,33055,128,0,33430:0:0:0:0:
320,192,33055,128,0,33430:0:0:0:0:
448,192,33055,128,0,34555:0:0:0:0:
64,192,33430,1,0,0:0:0:0:
192,192,33617,1,0,0:0:0:0:
320,192,33617,1,0,0:0:0:0:
64,192,33805,1,0,0:0:0:0:
192,192,33805,1,0,0:0:0:0:
320,192,33805,1,0,0:0:0:0:
320,192,34180,1,0,0:0:0:0:
64,192,34367,1,0,0:0:0:0:
192,192,34367,1,0,0:0:0:0:
64,192,34461,1,0,0:0:0:0:
192,192,34461,1,0,0:0:0:0:
64,192,34555,128,0,35211:0:0:0:0:
192,192,34555,1,0,0:0:0:0:
192,192,34836,1,0,0:0:0:0:
320,192,34836,1,0,0:0:0:0:
448,192,34930,1,0,0:0:0:0:
192,192,35117,1,0,0:0:0:0:
320,192,35117,1,0,0:0:0:0:
320,192,35211,1,0,0:0:0:0:
448,192,35305,1,0,0:0:0:0:
64,192,35305,1,0,0:0:0:0:
192,192,35305,1,0,0:0:0:0:
320,192,35398,1,0,0:0:0:0:
448,192,35445,1,0,0:0:0:0:
64,192,35492,1,0,0:0:0:0:
192,192,35586,1,0,0:0:0:0:
448,192,35680,1,0,0:0:0:0:
320,192,35726,1,0,0:0:0:0:
64,192,35773,1,0,0:0:0:0:
448,192,35867,1,0,0:0:0:0:
192,192,35961,1,0,0:0:0:0:
320,192,36055,1,0,0:0:0:0:
64,192,36055,1,0,0:0:0:0:
448,192,36055,1,0,0:0:0:0:
192,192,36242,128,0,36617:0:0:0:0:
320,192,36430,128,0,36617:0:0:0:0:
448,192,36617,128,0,37461:0:0:0:0:
64,192,37742,128,0,38117:0:0:0:0:
192,192,37930,128,0,38117:0:0:0:0:
320,192,38117,128,0,38492:0:0:0:0:
448,192,38492,128,0,38867:0:0:0:0:
320,192,38867,128,0,38961:0:0:0:0:
192,192,39242,128,0,39617:0:0:0:0:
320,192,39430,128,0,39617:0:0:0:0:
64,192,39617,128,0,40461:0:0:0:0:
448,192,40742,128,0,41117:0:0:0:0:
320,192,40930,128,0,41117:0:0:0:0:
192,192,41117,128,0,41492:0:0:0:0:
64,192,41492,128,0,41773:0:0:0:0:
192,192,41867,128,0,41961:0:0:0:0:
320,192,42055,128,0,42242:0:0:0:0:
192,192,42242,128,0,42430:0:0:0:0:
320,192,42430,128,0,42617:0:0:0:0:
448,192,42617,128,0,44117:0:0:0:0:
64,192,43180,128,0,44961:0:0:0:0:
192,192,43555,128,0,44961:0:0:0:0:
320,192,44117,128,0,44961:0:0:0:0:
448,192,44680,128,0,45055:0:0:0:0:
320,192,45055,128,0,45336:0:0:0:0:
64,192,45430,128,0,45617:0:0:0:0:
192,192,45617,128,0,47398:0:0:0:0:
448,192,46180,128,0,48055:0:0:0:0:
320,192,46555,128,0,48055:0:0:0:0:
64,192,47117,128,0,48055:0:0:0:0:
192,192,47680,128,0,48055:0:0:0:0:
448,192,48242,128,0,48617:0:0:0:0:
320,192,48430,128,0,48617:0:0:0:0:
64,192,48617,128,0,49461:0:0:0:0:
448,192,49742,128,0,50117:0:0:0:0:
320,192,49930,128,0,50117:0:0:0:0:
192,192,50117,128,0,50492:0:0:0:0:
64,192,50492,128,0,50867:0:0:0:0:
192,192,50867,128,0,50961:0:0:0:0:
320,192,51242,128,0,51617:0:0:0:0:
192,192,51430,128,0,51617:0:0:0:0:
448,192,51617,128,0,52367:0:0:0:0:
64,192,52742,128,0,53117:0:0:0:0:
192,192,52930,128,0,53117:0:0:0:0:
320,192,53117,128,0,53492:0:0:0:0:
448,192,53492,128,0,54055:0:0:0:0:
320,192,53867,128,0,54055:0:0:0:0:
192,192,54055,128,0,54148:0:0:0:0:
64,192,54242,128,0,54430:0:0:0:0:
192,192,54430,128,0,54617:0:0:0:0:
320,192,54617,128,0,55930:0:0:0:0:
64,192,55180,128,0,56961:0:0:0:0:
192,192,55555,128,0,56961:0:0:0:0:
448,192,56117,128,0,56961:0:0:0:0:
320,192,56680,128,0,57055:0:0:0:0:
64,192,57055,128,0,58461:0:0:0:0:
192,192,57242,128,0,58461:0:0:0:0:
448,192,58180,128,0,59586:0:0:0:0:
320,192,58555,128,0,59586:0:0:0:0:
64,192,58555,1,0,0:0:0:0:
64,192,58930,1,0,0:0:0:0:
192,192,59117,128,0,59586:0:0:0:0:
64,192,59305,1,0,0:0:0:0:
192,192,59680,1,0,0:0:0:0:
448,192,59680,1,0,0:0:0:0:
64,192,59680,128,0,59961:0:0:0:0:
448,192,60055,128,0,60430:0:0:0:0:
320,192,60055,128,0,60430:0:0:0:0:
192,192,60055,128,0,60430:0:0:0:0:
192,192,60617,128,0,60805:0:0:0:0:
320,192,60617,128,0,60805:0:0:0:0:
448,192,60617,128,0,60805:0:0:0:0:
64,192,60805,1,0,0:0:0:0:
320,192,60898,1,0,0:0:0:0:
192,192,60992,1,0,0:0:0:0:
320,192,61086,1,0,0:0:0:0:
448,192,61180,1,0,0:0:0:0:
192,192,61273,1,0,0:0:0:0:
448,192,61367,1,0,0:0:0:0:
320,192,61461,1,0,0:0:0:0:
448,192,61555,1,0,0:0:0:0:
192,192,61648,1,0,0:0:0:0:
64,192,61742,1,0,0:0:0:0:
192,192,61836,1,0,0:0:0:0:
448,192,61930,1,0,0:0:0:0:
320,192,62023,1,0,0:0:0:0:
64,192,62117,1,0,0:0:0:0:
192,192,62211,1,0,0:0:0:0:
448,192,62305,1,0,0:0:0:0:
320,192,62398,1,0,0:0:0:0:
192,192,62492,1,0,0:0:0:0:
64,192,62492,1,0,0:0:0:0:
320,192,62586,1,0,0:0:0:0:
448,192,62586,1,0,0:0:0:0:
448,192,62680,1,0,0:0:0:0:
64,192,62680,1,0,0:0:0:0:
192,192,62773,1,0,0:0:0:0:
320,192,62867,1,0,0:0:0:0:
448,192,62867,1,0,0:0:0:0:
192,192,62961,1,0,0:0:0:0:
64,192,63055,128,0,63430:0:0:0:0:
320,192,63055,128,0,63430:0:0:0:0:
448,192,63055,128,0,63430:0:0:0:0:
448,192,63617,128,0,63805:0:0:0:0:
320,192,63617,128,0,63805:0:0:0:0:
64,192,63617,128,0,63805:0:0:0:0:
192,192,63805,1,0,0:0:0:0:
320,192,63898,1,0,0:0:0:0:
64,192,63992,1,0,0:0:0:0:
192,192,64086,1,0,0:0:0:0:
448,192,64180,1,0,0:0:0:0:
320,192,64273,1,0,0:0:0:0:
448,192,64367,1,0,0:0:0:0:
192,192,64461,1,0,0:0:0:0:
448,192,64555,1,0,0:0:0:0:
320,192,64648,1,0,0:0:0:0:
64,192,64742,1,0,0:0:0:0:
320,192,64836,1,0,0:0:0:0:
448,192,64930,1,0,0:0:0:0:
192,192,65023,1,0,0:0:0:0:
64,192,65117,1,0,0:0:0:0:
192,192,65180,1,0,0:0:0:0:
320,192,65242,1,0,0:0:0:0:
448,192,65305,1,0,0:0:0:0:
64,192,65305,1,0,0:0:0:0:
192,192,65492,1,0,0:0:0:0:
320,192,65586,1,0,0:0:0:0:
192,192,65633,1,0,0:0:0:0:
64,192,65680,128,0,65961:0:0:0:0:
448,192,65680,128,0,65961:0:0:0:0:
320,192,65773,1,0,0:0:0:0:
192,192,65867,1,0,0:0:0:0:
320,192,65961,1,0,0:0:0:0:
448,192,66055,128,0,66430:0:0:0:0:
192,192,66055,128,0,66430:0:0:0:0:
64,192,66055,128,0,66430:0:0:0:0:
64,192,66617,128,0,66805:0:0:0:0:
192,192,66617,128,0,66805:0:0:0:0:
448,192,66617,128,0,66805:0:0:0:0:
320,192,66805,1,0,0:0:0:0:
64,192,66898,1,0,0:0:0:0:
192,192,66992,1,0,0:0:0:0:
320,192,67086,1,0,0:0:0:0:
448,192,67180,1,0,0:0:0:0:
192,192,67273,1,0,0:0:0:0:
448,192,67367,1,0,0:0:0:0:
320,192,67461,1,0,0:0:0:0:
448,192,67555,1,0,0:0:0:0:
192,192,67648,1,0,0:0:0:0:
64,192,67742,1,0,0:0:0:0:
320,192,67836,1,0,0:0:0:0:
448,192,67930,1,0,0:0:0:0:
320,192,68023,1,0,0:0:0:0:
192,192,68117,1,0,0:0:0:0:
320,192,68211,1,0,0:0:0:0:
448,192,68305,1,0,0:0:0:0:
192,192,68398,1,0,0:0:0:0:
64,192,68492,1,0,0:0:0:0:
192,192,68555,1,0,0:0:0:0:
320,192,68617,1,0,0:0:0:0:
448,192,68680,1,0,0:0:0:0:
64,192,68680,1,0,0:0:0:0:
64,192,68773,1,0,0:0:0:0:
192,192,68867,1,0,0:0:0:0:
320,192,68867,1,0,0:0:0:0:
448,192,68961,1,0,0:0:0:0:
64,192,69055,128,0,71961:0:0:0:0:
320,192,69055,1,0,0:0:0:0:
192,192,69055,128,0,70555:0:0:0:0:
448,192,69242,1,0,0:0:0:0:
320,192,69430,1,0,0:0:0:0:
320,192,69617,1,0,0:0:0:0:
320,192,69805,128,0,70367:0:0:0:0:
448,192,70086,128,0,70367:0:0:0:0:
448,192,70742,1,0,0:0:0:0:
320,192,70930,1,0,0:0:0:0:
448,192,71023,1,0,0:0:0:0:
192,192,71117,1,0,0:0:0:0:
448,192,71305,128,0,71961:0:0:0:0:
192,192,71398,1,0,0:0:0:0:
320,192,71492,1,0,0:0:0:0:
192,192,71586,128,0,71961:0:0:0:0:
320,192,71680,1,0,0:0:0:0:
448,192,72055,1,0,0:0:0:0:
192,192,72055,1,0,0:0:0:0:
64,192,72055,1,0,0:0:0:0:
320,192,72148,1,0,0:0:0:0:
448,192,72242,1,0,0:0:0:0:
192,192,72336,1,0,0:0:0:0:
64,192,72430,1,0,0:0:0:0:
320,192,72430,1,0,0:0:0:0:
448,192,72430,1,0,0:0:0:0:
192,192,72523,1,0,0:0:0:0:
320,192,72617,1,0,0:0:0:0:
64,192,72711,1,0,0:0:0:0:
192,192,72805,1,0,0:0:0:0:
320,192,72805,1,0,0:0:0:0:
448,192,72805,1,0,0:0:0:0:
64,192,72898,1,0,0:0:0:0:
192,192,72992,1,0,0:0:0:0:
320,192,73086,1,0,0:0:0:0:
448,192,73180,1,0,0:0:0:0:
192,192,73180,1,0,0:0:0:0:
64,192,73180,1,0,0:0:0:0:
320,192,73273,1,0,0:0:0:0:
448,192,73367,1,0,0:0:0:0:
192,192,73461,1,0,0:0:0:0:
64,192,73555,1,0,0:0:0:0:
320,192,73555,1,0,0:0:0:0:
448,192,73555,1,0,0:0:0:0:
192,192,73648,1,0,0:0:0:0:
64,192,73742,1,0,0:0:0:0:
320,192,73836,1,0,0:0:0:0:
192,192,73930,1,0,0:0:0:0:
64,192,73930,1,0,0:0:0:0:
448,192,73930,1,0,0:0:0:0:
320,192,74023,1,0,0:0:0:0:
192,192,74117,1,0,0:0:0:0:
448,192,74211,1,0,0:0:0:0:
320,192,74305,1,0,0:0:0:0:
192,192,74305,1,0,0:0:0:0:
64,192,74305,1,0,0:0:0:0:
448,192,74398,1,0,0:0:0:0:
320,192,74492,1,0,0:0:0:0:
192,192,74586,1,0,0:0:0:0:
64,192,74680,1,0,0:0:0:0:
320,192,74680,1,0,0:0:0:0:
448,192,74680,1,0,0:0:0:0:
192,192,74773,1,0,0:0:0:0:
64,192,74867,1,0,0:0:0:0:
320,192,74961,1,0,0:0:0:0:
448,192,75055,1,0,0:0:0:0:
192,192,75055,1,0,0:0:0:0:
64,192,75055,1,0,0:0:0:0:
320,192,75148,1,0,0:0:0:0:
448,192,75242,1,0,0:0:0:0:
192,192,75336,1,0,0:0:0:0:
320,192,75430,1,0,0:0:0:0:
448,192,75430,1,0,0:0:0:0:
64,192,75430,1,0,0:0:0:0:
192,192,75523,1,0,0:0:0:0:
320,192,75617,1,0,0:0:0:0:
64,192,75711,1,0,0:0:0:0:
192,192,75805,1,0,0:0:0:0:
320,192,75805,1,0,0:0:0:0:
448,192,75805,1,0,0:0:0:0:
64,192,75898,1,0,0:0:0:0:
192,192,75992,1,0,0:0:0:0:
448,192,76086,1,0,0:0:0:0:
320,192,76180,1,0,0:0:0:0:
192,192,76180,1,0,0:0:0:0:
64,192,76180,1,0,0:0:0:0:
448,192,76273,1,0,0:0:0:0:
320,192,76367,1,0,0:0:0:0:
192,192,76461,1,0,0:0:0:0:
64,192,76555,1,0,0:0:0:0:
320,192,76555,1,0,0:0:0:0:
448,192,76555,1,0,0:0:0:0:
192,192,76648,1,0,0:0:0:0:
64,192,76742,1,0,0:0:0:0:
320,192,76836,1,0,0:0:0:0:
192,192,76930,1,0,0:0:0:0:
64,192,76930,1,0,0:0:0:0:
448,192,76930,1,0,0:0:0:0:
320,192,77023,1,0,0:0:0:0:
192,192,77117,1,0,0:0:0:0:
448,192,77211,1,0,0:0:0:0:
320,192,77305,1,0,0:0:0:0:
192,192,77305,1,0,0:0:0:0:
64,192,77305,1,0,0:0:0:0:
448,192,77398,1,0,0:0:0:0:
320,192,77492,1,0,0:0:0:0:
192,192,77586,1,0,0:0:0:0:
64,192,77680,1,0,0:0:0:0:
320,192,77680,1,0,0:0:0:0:
448,192,77680,1,0,0:0:0:0:
192,192,77773,1,0,0:0:0:0:
64,192,77867,1,0,0:0:0:0:
320,192,77961,1,0,0:0:0:0:
64,192,78055,5,0,0:0:0:0:
192,192,78055,1,0,0:0:0:0:
448,192,78055,1,0,0:0:0:0:
448,192,78242,1,0,0:0:0:0:
192,192,78242,1,0,0:0:0:0:
64,192,78242,1,0,0:0:0:0:
64,192,78430,1,0,0:0:0:0:
192,192,78430,1,0,0:0:0:0:
320,192,78430,1,0,0:0:0:0:
448,192,78430,1,0,0:0:0:0:
64,192,78617,1,0,0:0:0:0:
192,192,78617,1,0,0:0:0:0:
448,192,78617,1,0,0:0:0:0:
64,192,78805,1,0,0:0:0:0:
320,192,78805,1,0,0:0:0:0:
448,192,78805,1,0,0:0:0:0:
320,192,78992,1,0,0:0:0:0:
448,192,78992,1,0,0:0:0:0:
64,192,78992,1,0,0:0:0:0:
64,192,79180,1,0,0:0:0:0:
192,192,79180,1,0,0:0:0:0:
320,192,79180,1,0,0:0:0:0:
448,192,79180,1,0,0:0:0:0:
320,192,79367,1,0,0:0:0:0:
448,192,79367,1,0,0:0:0:0:
64,192,79367,1,0,0:0:0:0:
64,192,79555,1,0,0:0:0:0:
192,192,79555,1,0,0:0:0:0:
320,192,79555,1,0,0:0:0:0:
64,192,79742,1,0,0:0:0:0:
192,192,79742,1,0,0:0:0:0:
320,192,79742,1,0,0:0:0:0:
64,192,79930,5,0,0:0:0:0:
192,192,79930,1,0,0:0:0:0:
320,192,79930,1,0,0:0:0:0:
448,192,79930,1,0,0:0:0:0:
320,192,80117,1,0,0:0:0:0:
192,192,80117,1,0,0:0:0:0:
64,192,80117,1,0,0:0:0:0:
192,192,80305,1,0,0:0:0:0:
320,192,80305,1,0,0:0:0:0:
448,192,80305,1,0,0:0:0:0:
192,192,80492,1,0,0:0:0:0:
320,192,80492,1,0,0:0:0:0:
448,192,80492,1,0,0:0:0:0:
320,192,80680,1,0,0:0:0:0:
192,192,80680,1,0,0:0:0:0:
64,192,80680,1,0,0:0:0:0:
448,192,80680,1,0,0:0:0:0:
192,192,80867,1,0,0:0:0:0:
320,192,80867,1,0,0:0:0:0:
448,192,80867,1,0,0:0:0:0:
64,192,81055,5,0,0:0:0:0:
192,192,81055,1,0,0:0:0:0:
448,192,81055,1,0,0:0:0:0:
320,192,81055,1,0,0:0:0:0:
192,192,81148,1,0,0:0:0:0:
320,192,81242,1,0,0:0:0:0:
448,192,81242,1,0,0:0:0:0:
192,192,81336,1,0,0:0:0:0:
64,192,81336,1,0,0:0:0:0:
64,192,81430,1,0,0:0:0:0:
320,192,81430,1,0,0:0:0:0:
448,192,81430,1,0,0:0:0:0:
192,192,81430,1,0,0:0:0:0:
448,192,81523,1,0,0:0:0:0:
192,192,81617,1,0,0:0:0:0:
64,192,81617,1,0,0:0:0:0:
320,192,81711,1,0,0:0:0:0:
448,192,81711,1,0,0:0:0:0:
192,192,81805,1,0,0:0:0:0:
64,192,81805,1,0,0:0:0:0:
448,192,81805,1,0,0:0:0:0:
320,192,81805,1,0,0:0:0:0:
64,192,81898,1,0,0:0:0:0:
448,192,81992,1,0,0:0:0:0:
320,192,81992,1,0,0:0:0:0:
192,192,82086,1,0,0:0:0:0:
64,192,82086,1,0,0:0:0:0:
64,192,82180,1,0,0:0:0:0:
320,192,82180,1,0,0:0:0:0:
448,192,82180,1,0,0:0:0:0:
192,192,82180,1,0,0:0:0:0:
320,192,82273,1,0,0:0:0:0:
192,192,82367,1,0,0:0:0:0:
64,192,82367,1,0,0:0:0:0:
320,192,82461,1,0,0:0:0:0:
448,192,82461,1,0,0:0:0:0:
192,192,82555,1,0,0:0:0:0:
64,192,82555,1,0,0:0:0:0:
448,192,82555,1,0,0:0:0:0:
64,192,82648,1,0,0:0:0:0:
64,192,82742,1,0,0:0:0:0:
64,192,82836,1,0,0:0:0:0:
320,192,82930,1,0,0:0:0:0:
320,192,83023,1,0,0:0:0:0:
320,192,83117,1,0,0:0:0:0:
320,192,83211,1,0,0:0:0:0:
192,192,83305,1,0,0:0:0:0:
192,192,83398,1,0,0:0:0:0:
192,192,83492,1,0,0:0:0:0:
192,192,83586,1,0,0:0:0:0:
320,192,83680,1,0,0:0:0:0:
448,192,83680,1,0,0:0:0:0:
192,192,83773,1,0,0:0:0:0:
320,192,83867,1,0,0:0:0:0:
64,192,83867,1,0,0:0:0:0:
192,192,83961,1,0,0:0:0:0:
64,192,84055,128,0,84242:0:0:0:0:
320,192,84055,128,0,84336:0:0:0:0:
448,192,84055,128,0,84242:0:0:0:0:
64,192,84430,128,0,84523:0:0:0:0:
448,192,84430,128,0,84523:0:0:0:0:
64,192,84805,1,0,0:0:0:0:
192,192,84805,1,0,0:0:0:0:
448,192,84805,1,0,0:0:0:0:
320,192,84805,1,0,0:0:0:0:
192,192,84898,1,0,0:0:0:0:
64,192,84898,1,0,0:0:0:0:
448,192,84992,1,0,0:0:0:0:
320,192,84992,1,0,0:0:0:0:
448,192,85086,1,0,0:0:0:0:
320,192,85086,1,0,0:0:0:0:
64,192,85180,1,0,0:0:0:0:
320,192,85180,1,0,0:0:0:0:
192,192,85180,1,0,0:0:0:0:
192,192,85273,1,0,0:0:0:0:
64,192,85273,1,0,0:0:0:0:
320,192,85367,1,0,0:0:0:0:
448,192,85367,1,0,0:0:0:0:
320,192,85461,1,0,0:0:0:0:
448,192,85461,1,0,0:0:0:0:
64,192,85555,1,0,0:0:0:0:
192,192,85555,1,0,0:0:0:0:
64,192,85648,1,0,0:0:0:0:
192,192,85648,1,0,0:0:0:0:
320,192,85742,128,0,85836:0:0:0:0:
448,192,85742,128,0,85836:0:0:0:0:
64,192,85930,1,0,0:0:0:0:
192,192,85930,128,0,86023:0:0:0:0:
320,192,85930,128,0,86023:0:0:0:0:
64,192,86117,128,0,86211:0:0:0:0:
448,192,86117,128,0,86211:0:0:0:0:
64,192,86305,1,0,0:0:0:0:
192,192,86305,1,0,0:0:0:0:
320,192,86305,128,0,86398:0:0:0:0:
448,192,86305,128,0,86398:0:0:0:0:
192,192,86492,1,0,0:0:0:0:
320,192,86586,1,0,0:0:0:0:
64,192,86680,1,0,0:0:0:0:
192,192,86773,1,0,0:0:0:0:
448,192,86867,1,0,0:0:0:0:
64,192,87055,128,0,87242:0:0:0:0:
192,192,87055,128,0,87336:0:0:0:0:
320,192,87055,128,0,87289:0:0:0:0:
64,192,87430,128,0,87523:0:0:0:0:
448,192,87430,128,0,87523:0:0:0:0:
64,192,87805,1,0,0:0:0:0:
320,192,87805,1,0,0:0:0:0:
448,192,87805,1,0,0:0:0:0:
192,192,87805,1,0,0:0:0:0:
320,192,87898,1,0,0:0:0:0:
448,192,87898,1,0,0:0:0:0:
192,192,87992,1,0,0:0:0:0:
64,192,87992,1,0,0:0:0:0:
192,192,88086,1,0,0:0:0:0:
64,192,88086,1,0,0:0:0:0:
320,192,88180,1,0,0:0:0:0:
448,192,88180,1,0,0:0:0:0:
64,192,88180,1,0,0:0:0:0:
320,192,88273,1,0,0:0:0:0:
448,192,88273,1,0,0:0:0:0:
192,192,88367,1,0,0:0:0:0:
64,192,88367,1,0,0:0:0:0:
192,192,88461,1,0,0:0:0:0:
64,192,88461,1,0,0:0:0:0:
320,192,88555,1,0,0:0:0:0:
448,192,88555,1,0,0:0:0:0:
320,192,88648,1,0,0:0:0:0:
448,192,88648,1,0,0:0:0:0:
320,192,88742,1,0,0:0:0:0:
64,192,88742,128,0,88836:0:0:0:0:
192,192,88742,128,0,88836:0:0:0:0:
320,192,88930,1,0,0:0:0:0:
192,192,88930,128,0,89023:0:0:0:0:
448,192,88930,128,0,89023:0:0:0:0:
320,192,89117,128,0,89211:0:0:0:0:
64,192,89117,128,0,89211:0:0:0:0:
64,192,89305,1,0,0:0:0:0:
448,192,89305,128,0,89680:0:0:0:0:
192,192,89305,128,0,89492:0:0:0:0:
320,192,89305,1,0,0:0:0:0:
320,192,89492,128,0,89680:0:0:0:0:
192,192,89680,128,0,89867:0:0:0:0:
64,192,89680,128,0,89961:0:0:0:0:
320,192,89867,128,0,90055:0:0:0:0:
192,192,90055,128,0,90336:0:0:0:0:
64,192,90055,128,0,90242:0:0:0:0:
448,192,90055,128,0,90242:0:0:0:0:
64,192,90430,128,0,90523:0:0:0:0:
448,192,90430,128,0,90523:0:0:0:0:
64,192,90805,1,0,0:0:0:0:
192,192,90805,1,0,0:0:0:0:
448,192,90805,1,0,0:0:0:0:
320,192,90805,1,0,0:0:0:0:
192,192,90898,1,0,0:0:0:0:
64,192,90898,1,0,0:0:0:0:
448,192,90992,1,0,0:0:0:0:
320,192,90992,1,0,0:0:0:0:
448,192,91086,1,0,0:0:0:0:
320,192,91086,1,0,0:0:0:0:
64,192,91180,1,0,0:0:0:0:
192,192,91180,1,0,0:0:0:0:
448,192,91180,1,0,0:0:0:0:
64,192,91273,1,0,0:0:0:0:
192,192,91273,1,0,0:0:0:0:
448,192,91367,1,0,0:0:0:0:
320,192,91367,1,0,0:0:0:0:
448,192,91461,1,0,0:0:0:0:
320,192,91461,1,0,0:0:0:0:
64,192,91555,1,0,0:0:0:0:
192,192,91555,1,0,0:0:0:0:
64,192,91648,1,0,0:0:0:0:
192,192,91648,1,0,0:0:0:0:
320,192,91742,128,0,91836:0:0:0:0:
448,192,91742,128,0,91836:0:0:0:0:
64,192,91930,1,0,0:0:0:0:
320,192,91930,128,0,92023:0:0:0:0:
192,192,91930,128,0,92023:0:0:0:0:
320,192,92117,128,0,92211:0:0:0:0:
448,192,92117,128,0,92211:0:0:0:0:
320,192,92305,1,0,0:0:0:0:
192,192,92305,1,0,0:0:0:0:
64,192,92305,128,0,92398:0:0:0:0:
448,192,92305,128,0,92398:0:0:0:0:
192,192,92492,1,0,0:0:0:0:
320,192,92586,1,0,0:0:0:0:
64,192,92680,1,0,0:0:0:0:
448,192,92773,1,0,0:0:0:0:
320,192,92867,1,0,0:0:0:0:
192,192,93055,1,0,0:0:0:0:
64,192,93055,128,0,93711:0:0:0:0:
448,192,93055,128,0,93711:0:0:0:0:
192,192,93430,1,0,0:0:0:0:
320,192,93617,1,0,0:0:0:0:
448,192,93805,1,0,0:0:0:0:
192,192,93805,1,0,0:0:0:0:
320,192,93805,1,0,0:0:0:0:
64,192,93805,1,0,0:0:0:0:
64,192,93992,1,0,0:0:0:0:
192,192,94086,1,0,0:0:0:0:
64,192,94180,1,0,0:0:0:0:
320,192,94180,1,0,0:0:0:0:
448,192,94180,128,0,95211:0:0:0:0:
192,192,94367,1,0,0:0:0:0:
320,192,94461,1,0,0:0:0:0:
192,192,94555,1,0,0:0:0:0:
192,192,94836,1,0,0:0:0:0:
64,192,95117,1,0,0:0:0:0:
192,192,95211,1,0,0:0:0:0:
64,192,95305,1,0,0:0:0:0:
320,192,95305,1,0,0:0:0:0:
448,192,95305,1,0,0:0:0:0:
192,192,95398,1,0,0:0:0:0:
448,192,95445,1,0,0:0:0:0:
320,192,95492,1,0,0:0:0:0:
64,192,95586,1,0,0:0:0:0:
320,192,95680,1,0,0:0:0:0:
448,192,95680,1,0,0:0:0:0:
192,192,95726,1,0,0:0:0:0:
64,192,95773,1,0,0:0:0:0:
448,192,95867,1,0,0:0:0:0:
192,192,95961,1,0,0:0:0:0:
320,192,96055,128,0,96336:0:0:0:0:
448,192,96055,128,0,96242:0:0:0:0:
64,192,96055,128,0,96242:0:0:0:0:
64,192,96430,128,0,96523:0:0:0:0:
448,192,96430,128,0,96523:0:0:0:0:
64,192,96805,1,0,0:0:0:0:
320,192,96805,1,0,0:0:0:0:
448,192,96805,1,0,0:0:0:0:
192,192,96805,1,0,0:0:0:0:
320,192,96898,1,0,0:0:0:0:
448,192,96898,1,0,0:0:0:0:
320,192,96992,1,0,0:0:0:0:
448,192,96992,1,0,0:0:0:0:
320,192,97086,1,0,0:0:0:0:
448,192,97086,1,0,0:0:0:0:
192,192,97180,1,0,0:0:0:0:
64,192,97180,1,0,0:0:0:0:
320,192,97180,1,0,0:0:0:0:
192,192,97273,1,0,0:0:0:0:
64,192,97273,1,0,0:0:0:0:
192,192,97367,1,0,0:0:0:0:
64,192,97367,1,0,0:0:0:0:
192,192,97461,1,0,0:0:0:0:
64,192,97461,1,0,0:0:0:0:
320,192,97555,1,0,0:0:0:0:
448,192,97555,1,0,0:0:0:0:
320,192,97648,1,0,0:0:0:0:
448,192,97648,1,0,0:0:0:0:
320,192,97742,128,0,97836:0:0:0:0:
448,192,97742,128,0,97836:0:0:0:0:
320,192,97930,1,0,0:0:0:0:
448,192,97930,128,0,98023:0:0:0:0:
192,192,97930,128,0,98023:0:0:0:0:
320,192,98117,128,0,98211:0:0:0:0:
64,192,98117,128,0,98211:0:0:0:0:
64,192,98305,1,0,0:0:0:0:
192,192,98305,1,0,0:0:0:0:
320,192,98305,128,0,98398:0:0:0:0:
448,192,98305,128,0,98398:0:0:0:0:
192,192,98492,1,0,0:0:0:0:
320,192,98586,1,0,0:0:0:0:
64,192,98680,1,0,0:0:0:0:
192,192,98773,1,0,0:0:0:0:
448,192,98867,1,0,0:0:0:0:
192,192,99055,128,0,99289:0:0:0:0:
320,192,99055,128,0,99336:0:0:0:0:
64,192,99055,128,0,99242:0:0:0:0:
64,192,99430,128,0,99523:0:0:0:0:
448,192,99430,128,0,99523:0:0:0:0:
192,192,99805,1,0,0:0:0:0:
64,192,99805,1,0,0:0:0:0:
448,192,99805,1,0,0:0:0:0:
320,192,99805,1,0,0:0:0:0:
192,192,99898,1,0,0:0:0:0:
64,192,99898,1,0,0:0:0:0:
64,192,99992,1,0,0:0:0:0:
192,192,99992,1,0,0:0:0:0:
192,192,100086,1,0,0:0:0:0:
64,192,100086,1,0,0:0:0:0:
448,192,100180,1,0,0:0:0:0:
320,192,100180,1,0,0:0:0:0:
192,192,100180,1,0,0:0:0:0:
320,192,100273,1,0,0:0:0:0:
448,192,100273,1,0,0:0:0:0:
448,192,100367,1,0,0:0:0:0:
320,192,100367,1,0,0:0:0:0:
320,192,100461,1,0,0:0:0:0:
448,192,100461,1,0,0:0:0:0:
64,192,100555,1,0,0:0:0:0:
192,192,100555,1,0,0:0:0:0:
192,192,100648,1,0,0:0:0:0:
64,192,100648,1,0,0:0:0:0:
320,192,100742,1,0,0:0:0:0:
64,192,100742,128,0,100836:0:0:0:0:
192,192,100742,128,0,100836:0:0:0:0:
448,192,100930,1,0,0:0:0:0:
192,192,100930,128,0,101023:0:0:0:0:
320,192,100930,128,0,101023:0:0:0:0:
448,192,101117,128,0,101211:0:0:0:0:
64,192,101117,128,0,101211:0:0:0:0:
192,192,101305,1,0,0:0:0:0:
448,192,101305,128,0,101680:0:0:0:0:
64,192,101305,128,0,101492:0:0:0:0:
320,192,101305,1,0,0:0:0:0:
320,192,101492,128,0,101680:0:0:0:0:
192,192,101680,128,0,101867:0:0:0:0:
64,192,101680,128,0,101961:0:0:0:0:
448,192,101867,128,0,102055:0:0:0:0:
64,192,102055,128,0,102242:0:0:0:0:
192,192,102055,128,0,102242:0:0:0:0:
320,192,102055,128,0,102336:0:0:0:0:
64,192,102430,128,0,102523:0:0:0:0:
448,192,102430,128,0,102523:0:0:0:0:
64,192,102805,1,0,0:0:0:0:
320,192,102805,1,0,0:0:0:0:
448,192,102805,1,0,0:0:0:0:
192,192,102805,1,0,0:0:0:0:
320,192,102898,1,0,0:0:0:0:
448,192,102898,1,0,0:0:0:0:
320,192,102992,1,0,0:0:0:0:
448,192,102992,1,0,0:0:0:0:
320,192,103086,1,0,0:0:0:0:
448,192,103086,1,0,0:0:0:0:
320,192,103180,1,0,0:0:0:0:
448,192,103180,1,0,0:0:0:0:
64,192,103180,1,0,0:0:0:0:
320,192,103273,1,0,0:0:0:0:
448,192,103273,1,0,0:0:0:0:
320,192,103367,128,0,103461:0:0:0:0:
448,192,103367,128,0,103461:0:0:0:0:
192,192,103555,1,0,0:0:0:0:
64,192,103555,1,0,0:0:0:0:
64,192,103648,1,0,0:0:0:0:
192,192,103648,1,0,0:0:0:0:
64,192,103742,1,0,0:0:0:0:
192,192,103742,1,0,0:0:0:0:
64,192,103836,1,0,0:0:0:0:
192,192,103836,1,0,0:0:0:0:
64,192,103930,1,0,0:0:0:0:
192,192,103930,1,0,0:0:0:0:
448,192,103930,1,0,0:0:0:0:
64,192,104023,1,0,0:0:0:0:
192,192,104023,1,0,0:0:0:0:
192,192,104117,128,0,104211:0:0:0:0:
64,192,104117,128,0,104211:0:0:0:0:
64,192,104305,1,0,0:0:0:0:
320,192,104305,1,0,0:0:0:0:
448,192,104305,1,0,0:0:0:0:
192,192,104305,1,0,0:0:0:0:
320,192,104398,1,0,0:0:0:0:
448,192,104398,1,0,0:0:0:0:
320,192,104492,1,0,0:0:0:0:
448,192,104492,1,0,0:0:0:0:
320,192,104586,1,0,0:0:0:0:
448,192,104586,1,0,0:0:0:0:
320,192,104680,1,0,0:0:0:0:
448,192,104680,1,0,0:0:0:0:
320,192,104773,1,0,0:0:0:0:
448,192,104773,1,0,0:0:0:0:
320,192,104867,128,0,104961:0:0:0:0:
448,192,104867,128,0,104961:0:0:0:0:
192,192,105055,1,0,0:0:0:0:
320,192,105055,128,0,105711:0:0:0:0:
64,192,105055,128,0,105711:0:0:0:0:
448,192,105430,1,0,0:0:0:0:
192,192,105617,1,0,0:0:0:0:
64,192,105805,1,0,0:0:0:0:
448,192,105805,1,0,0:0:0:0:
320,192,105805,1,0,0:0:0:0:
192,192,105805,1,0,0:0:0:0:
64,192,105992,1,0,0:0:0:0:
320,192,106086,1,0,0:0:0:0:
448,192,106180,1,0,0:0:0:0:
64,192,106180,128,0,107211:0:0:0:0:
192,192,106180,1,0,0:0:0:0:
320,192,106367,1,0,0:0:0:0:
448,192,106461,1,0,0:0:0:0:
320,192,106555,1,0,0:0:0:0:
320,192,106836,1,0,0:0:0:0:
192,192,107117,1,0,0:0:0:0:
320,192,107211,1,0,0:0:0:0:
448,192,107305,1,0,0:0:0:0:
192,192,107305,1,0,0:0:0:0:
64,192,107305,1,0,0:0:0:0:
320,192,107398,1,0,0:0:0:0:
448,192,107445,1,0,0:0:0:0:
192,192,107492,1,0,0:0:0:0:
64,192,107586,1,0,0:0:0:0:
320,192,107680,1,0,0:0:0:0:
448,192,107680,1,0,0:0:0:0:
192,192,107726,1,0,0:0:0:0:
64,192,107773,1,0,0:0:0:0:
320,192,107867,1,0,0:0:0:0:
192,192,107961,1,0,0:0:0:0:
448,192,108055,1,0,0:0:0:0:
320,192,108055,1,0,0:0:0:0:
64,192,108055,1,0,0:0:0:0:
448,192,108242,1,0,0:0:0:0:
448,192,108430,1,0,0:0:0:0:
192,192,108430,1,0,0:0:0:0:
64,192,108430,128,0,108523:0:0:0:0:
448,192,108617,1,0,0:0:0:0:
448,192,108805,1,0,0:0:0:0:
320,192,108805,1,0,0:0:0:0:
192,192,108805,128,0,108898:0:0:0:0:
448,192,108992,1,0,0:0:0:0:
192,192,108992,128,0,109086:0:0:0:0:
448,192,109180,1,0,0:0:0:0:
64,192,109180,1,0,0:0:0:0:
320,192,109180,1,0,0:0:0:0:
448,192,109367,1,0,0:0:0:0:
64,192,109367,128,0,109461:0:0:0:0:
320,192,109555,1,0,0:0:0:0:
448,192,109555,1,0,0:0:0:0:
192,192,109555,1,0,0:0:0:0:
320,192,109742,1,0,0:0:0:0:
64,192,109742,128,0,109836:0:0:0:0:
320,192,109930,1,0,0:0:0:0:
192,192,109930,1,0,0:0:0:0:
64,192,109930,1,0,0:0:0:0:
320,192,110117,1,0,0:0:0:0:
192,192,110117,128,0,110211:0:0:0:0:
320,192,110305,1,0,0:0:0:0:
448,192,110305,1,0,0:0:0:0:
64,192,110305,128,0,110398:0:0:0:0:
320,192,110492,1,0,0:0:0:0:
448,192,110492,128,0,110586:0:0:0:0:
320,192,110680,1,0,0:0:0:0:
448,192,110680,1,0,0:0:0:0:
192,192,110680,1,0,0:0:0:0:
320,192,110867,1,0,0:0:0:0:
192,192,110867,128,0,110961:0:0:0:0:
320,192,111055,1,0,0:0:0:0:
64,192,111055,1,0,0:0:0:0:
192,192,111055,1,0,0:0:0:0:
64,192,111242,1,0,0:0:0:0:
448,192,111242,128,0,111336:0:0:0:0:
64,192,111430,1,0,0:0:0:0:
320,192,111430,1,0,0:0:0:0:
448,192,111430,128,0,111523:0:0:0:0:
64,192,111617,1,0,0:0:0:0:
64,192,111805,1,0,0:0:0:0:
192,192,111805,1,0,0:0:0:0:
448,192,111805,128,0,111898:0:0:0:0:
64,192,111992,1,0,0:0:0:0:
320,192,111992,128,0,112086:0:0:0:0:
64,192,112180,1,0,0:0:0:0:
192,192,112180,1,0,0:0:0:0:
320,192,112180,1,0,0:0:0:0:
64,192,112367,1,0,0:0:0:0:
448,192,112367,128,0,112461:0:0:0:0:
64,192,112555,1,0,0:0:0:0:
192,192,112555,1,0,0:0:0:0:
448,192,112555,1,0,0:0:0:0:
192,192,112742,1,0,0:0:0:0:
448,192,112742,128,0,112836:0:0:0:0:
192,192,112930,1,0,0:0:0:0:
320,192,112930,1,0,0:0:0:0:
64,192,112930,128,0,113023:0:0:0:0:
192,192,113117,1,0,0:0:0:0:
192,192,113305,1,0,0:0:0:0:
320,192,113305,1,0,0:0:0:0:
448,192,113305,128,0,113398:0:0:0:0:
192,192,113492,1,0,0:0:0:0:
320,192,113492,128,0,113586:0:0:0:0:
192,192,113680,1,0,0:0:0:0:
64,192,113680,1,0,0:0:0:0:
448,192,113680,1,0,0:0:0:0:
192,192,113867,1,0,0:0:0:0:
448,192,113867,128,0,113961:0:0:0:0:
192,192,114055,1,0,0:0:0:0:
320,192,114055,1,0,0:0:0:0:
64,192,114055,1,0,0:0:0:0:
320,192,114148,1,0,0:0:0:0:
64,192,114242,1,0,0:0:0:0:
192,192,114242,1,0,0:0:0:0:
448,192,114242,1,0,0:0:0:0:
64,192,114430,1,0,0:0:0:0:
192,192,114430,1,0,0:0:0:0:
320,192,114430,1,0,0:0:0:0:
448,192,114430,1,0,0:0:0:0:
64,192,114617,1,0,0:0:0:0:
192,192,114617,1,0,0:0:0:0:
320,192,114617,1,0,0:0:0:0:
192,192,114805,1,0,0:0:0:0:
320,192,114805,1,0,0:0:0:0:
448,192,114805,1,0,0:0:0:0:
192,192,114898,1,0,0:0:0:0:
320,192,114992,1,0,0:0:0:0:
448,192,114992,1,0,0:0:0:0:
64,192,114992,1,0,0:0:0:0:
448,192,115180,1,0,0:0:0:0:
320,192,115180,1,0,0:0:0:0:
192,192,115180,1,0,0:0:0:0:
64,192,115180,1,0,0:0:0:0:
192,192,115367,1,0,0:0:0:0:
320,192,115367,1,0,0:0:0:0:
448,192,115367,1,0,0:0:0:0:
64,192,115555,1,0,0:0:0:0:
320,192,115555,1,0,0:0:0:0:
448,192,115555,1,0,0:0:0:0:
320,192,115648,1,0,0:0:0:0:
448,192,115742,1,0,0:0:0:0:
64,192,115742,1,0,0:0:0:0:
192,192,115742,1,0,0:0:0:0:
64,192,115930,1,0,0:0:0:0:
192,192,115930,1,0,0:0:0:0:
320,192,115930,1,0,0:0:0:0:
448,192,115930,1,0,0:0:0:0:
64,192,116117,1,0,0:0:0:0:
320,192,116117,1,0,0:0:0:0:
448,192,116117,1,0,0:0:0:0:
448,192,116305,1,0,0:0:0:0:
192,192,116305,1,0,0:0:0:0:
64,192,116305,1,0,0:0:0:0:
192,192,116398,1,0,0:0:0:0:
64,192,116492,1,0,0:0:0:0:
448,192,116492,1,0,0:0:0:0:
320,192,116492,1,0,0:0:0:0:
64,192,116680,1,0,0:0:0:0:
192,192,116680,1,0,0:0:0:0:
320,192,116680,1,0,0:0:0:0:
448,192,116680,1,0,0:0:0:0:
448,192,116867,1,0,0:0:0:0:
192,192,116867,1,0,0:0:0:0:
64,192,116867,1,0,0:0:0:0:
64,192,117055,5,0,0:0:0:0:
192,192,117055,1,0,0:0:0:0:
448,192,117055,1,0,0:0:0:0:
320,192,117055,1,0,0:0:0:0:
320,192,117148,1,0,0:0:0:0:
448,192,117148,1,0,0:0:0:0:
192,192,117242,1,0,0:0:0:0:
64,192,117242,1,0,0:0:0:0:
320,192,117336,1,0,0:0:0:0:
320,192,117430,1,0,0:0:0:0:
448,192,117430,1,0,0:0:0:0:
64,192,117430,1,0,0:0:0:0:
192,192,117430,1,0,0:0:0:0:
64,192,117523,1,0,0:0:0:0:
192,192,117523,1,0,0:0:0:0:
320,192,117617,1,0,0:0:0:0:
448,192,117617,1,0,0:0:0:0:
64,192,117711,1,0,0:0:0:0:
64,192,117805,1,0,0:0:0:0:
192,192,117805,1,0,0:0:0:0:
448,192,117805,1,0,0:0:0:0:
320,192,117805,1,0,0:0:0:0:
320,192,117898,1,0,0:0:0:0:
448,192,117898,1,0,0:0:0:0:
192,192,117992,1,0,0:0:0:0:
64,192,117992,1,0,0:0:0:0:
448,192,118086,1,0,0:0:0:0:
320,192,118180,1,0,0:0:0:0:
448,192,118180,1,0,0:0:0:0:
64,192,118180,1,0,0:0:0:0:
192,192,118180,1,0,0:0:0:0:
64,192,118273,1,0,0:0:0:0:
192,192,118273,1,0,0:0:0:0:
320,192,118367,1,0,0:0:0:0:
448,192,118367,1,0,0:0:0:0:
192,192,118461,1,0,0:0:0:0:
64,192,118555,1,0,0:0:0:0:
192,192,118555,1,0,0:0:0:0:
448,192,118555,1,0,0:0:0:0:
320,192,118555,128,0,119492:0:0:0:0:
64,192,118742,1,0,0:0:0:0:
192,192,118930,128,0,119586:0:0:0:0:
448,192,119117,128,0,119492:0:0:0:0:
64,192,119305,128,0,119586:0:0:0:0:
192,192,119680,1,0,0:0:0:0:
64,192,119680,1,0,0:0:0:0:
320,192,119773,1,0,0:0:0:0:
448,192,119867,1,0,0:0:0:0:
192,192,119867,1,0,0:0:0:0:
320,192,119961,1,0,0:0:0:0:
64,192,120055,128,0,120336:0:0:0:0:
192,192,120055,128,0,120242:0:0:0:0:
448,192,120055,128,0,120242:0:0:0:0:
320,192,120430,128,0,120523:0:0:0:0:
448,192,120430,128,0,120523:0:0:0:0:
192,192,120617,128,0,120711:0:0:0:0:
64,192,120617,128,0,120711:0:0:0:0:
64,192,120805,128,0,120898:0:0:0:0:
192,192,120805,128,0,120898:0:0:0:0:
320,192,120805,1,0,0:0:0:0:
448,192,120805,1,0,0:0:0:0:
320,192,120992,128,0,121086:0:0:0:0:
448,192,120992,128,0,121086:0:0:0:0:
64,192,121180,1,0,0:0:0:0:
448,192,121180,1,0,0:0:0:0:
192,192,121180,1,0,0:0:0:0:
320,192,121226,1,0,0:0:0:0:
192,192,121273,1,0,0:0:0:0:
64,192,121320,1,0,0:0:0:0:
448,192,121367,1,0,0:0:0:0:
320,192,121430,1,0,0:0:0:0:
192,192,121492,1,0,0:0:0:0:
64,192,121555,128,0,121617:0:0:0:0:
320,192,121617,1,0,0:0:0:0:
448,192,121680,1,0,0:0:0:0:
64,192,121742,128,0,121805:0:0:0:0:
448,192,121805,1,0,0:0:0:0:
320,192,121867,1,0,0:0:0:0:
64,192,121930,128,0,121992:0:0:0:0:
448,192,121992,1,0,0:0:0:0:
320,192,122055,1,0,0:0:0:0:
64,192,122117,128,0,122180:0:0:0:0:
320,192,122180,1,0,0:0:0:0:
448,192,122242,1,0,0:0:0:0:
64,192,122305,128,0,122367:0:0:0:0:
192,192,122305,1,0,0:0:0:0:
320,192,122367,1,0,0:0:0:0:
448,192,122430,1,0,0:0:0:0:
192,192,122492,1,0,0:0:0:0:
320,192,122539,1,0,0:0:0:0:
448,192,122586,1,0,0:0:0:0:
192,192,122633,1,0,0:0:0:0:
64,192,122680,1,0,0:0:0:0:
448,192,122742,1,0,0:0:0:0:
320,192,122805,1,0,0:0:0:0:
64,192,122867,1,0,0:0:0:0:
448,192,122914,1,0,0:0:0:0:
192,192,122961,1,0,0:0:0:0:
320,192,123008,1,0,0:0:0:0:
448,192,123055,1,0,0:0:0:0:
64,192,123055,1,0,0:0:0:0:
192,192,123101,1,0,0:0:0:0:
320,192,123148,1,0,0:0:0:0:
448,192,123195,1,0,0:0:0:0:
64,192,123242,1,0,0:0:0:0:
192,192,123305,1,0,0:0:0:0:
320,192,123367,1,0,0:0:0:0:
448,192,123430,128,0,123492:0:0:0:0:
192,192,123492,1,0,0:0:0:0:
64,192,123555,1,0,0:0:0:0:
448,192,123617,128,0,123680:0:0:0:0:
64,192,123680,1,0,0:0:0:0:
192,192,123742,1,0,0:0:0:0:
448,192,123805,128,0,123867:0:0:0:0:
64,192,123867,1,0,0:0:0:0:
192,192,123930,1,0,0:0:0:0:
448,192,123992,128,0,124055:0:0:0:0:
192,192,124055,1,0,0:0:0:0:
64,192,124117,1,0,0:0:0:0:
320,192,124180,1,0,0:0:0:0:
448,192,124180,128,0,124242:0:0:0:0:
192,192,124242,1,0,0:0:0:0:
64,192,124305,1,0,0:0:0:0:
320,192,124367,1,0,0:0:0:0:
448,192,124367,1,0,0:0:0:0:
448,192,124461,1,0,0:0:0:0:
320,192,124461,1,0,0:0:0:0:
192,192,124555,1,0,0:0:0:0:
64,192,124555,1,0,0:0:0:0:
320,192,124648,1,0,0:0:0:0:
64,192,124742,1,0,0:0:0:0:
192,192,124742,1,0,0:0:0:0:
448,192,124742,1,0,0:0:0:0:
320,192,124805,1,0,0:0:0:0:
192,192,124867,1,0,0:0:0:0:
320,192,124930,1,0,0:0:0:0:
448,192,124930,1,0,0:0:0:0:
64,192,124930,1,0,0:0:0:0:
192,192,125023,1,0,0:0:0:0:
448,192,125055,1,0,0:0:0:0:
320,192,125117,1,0,0:0:0:0:
448,192,125180,1,0,0:0:0:0:
64,192,125211,1,0,0:0:0:0:
192,192,125211,1,0,0:0:0:0:
64,192,125305,1,0,0:0:0:0:
192,192,125305,1,0,0:0:0:0:
320,192,125305,1,0,0:0:0:0:
448,192,125305,1,0,0:0:0:0:
320,192,125398,1,0,0:0:0:0:
64,192,125492,1,0,0:0:0:0:
192,192,125492,1,0,0:0:0:0:
320,192,125555,1,0,0:0:0:0:
448,192,125617,1,0,0:0:0:0:
64,192,125680,1,0,0:0:0:0:
192,192,125742,1,0,0:0:0:0:
448,192,125805,1,0,0:0:0:0:
320,192,125867,1,0,0:0:0:0:
64,192,125914,1,0,0:0:0:0:
192,192,125961,1,0,0:0:0:0:
320,192,126008,1,0,0:0:0:0:
448,192,126055,128,0,126336:0:0:0:0:
192,192,126055,128,0,126242:0:0:0:0:
64,192,126055,128,0,126242:0:0:0:0:
64,192,126430,128,0,126523:0:0:0:0:
320,192,126430,128,0,126523:0:0:0:0:
192,192,126617,128,0,126711:0:0:0:0:
448,192,126617,128,0,126711:0:0:0:0:
448,192,126805,128,0,126898:0:0:0:0:
192,192,126805,128,0,126898:0:0:0:0:
64,192,126805,1,0,0:0:0:0:
320,192,126805,1,0,0:0:0:0:
64,192,126992,128,0,127086:0:0:0:0:
320,192,126992,128,0,127086:0:0:0:0:
192,192,127180,1,0,0:0:0:0:
64,192,127180,1,0,0:0:0:0:
448,192,127180,1,0,0:0:0:0:
320,192,127226,1,0,0:0:0:0:
192,192,127273,1,0,0:0:0:0:
448,192,127320,1,0,0:0:0:0:
64,192,127367,1,0,0:0:0:0:
192,192,127430,1,0,0:0:0:0:
320,192,127492,1,0,0:0:0:0:
64,192,127555,128,0,127617:0:0:0:0:
448,192,127617,1,0,0:0:0:0:
320,192,127680,1,0,0:0:0:0:
64,192,127742,128,0,127805:0:0:0:0:
320,192,127805,1,0,0:0:0:0:
448,192,127867,1,0,0:0:0:0:
64,192,127930,128,0,127992:0:0:0:0:
320,192,127992,1,0,0:0:0:0:
448,192,128055,1,0,0:0:0:0:
64,192,128117,128,0,128180:0:0:0:0:
448,192,128180,1,0,0:0:0:0:
320,192,128242,1,0,0:0:0:0:
192,192,128305,1,0,0:0:0:0:
64,192,128305,128,0,128367:0:0:0:0:
448,192,128367,1,0,0:0:0:0:
320,192,128430,1,0,0:0:0:0:
192,192,128492,1,0,0:0:0:0:
448,192,128539,1,0,0:0:0:0:
320,192,128586,1,0,0:0:0:0:
64,192,128633,1,0,0:0:0:0:
192,192,128680,1,0,0:0:0:0:
320,192,128742,1,0,0:0:0:0:
64,192,128805,1,0,0:0:0:0:
448,192,128867,1,0,0:0:0:0:
320,192,128930,1,0,0:0:0:0:
192,192,128992,1,0,0:0:0:0:
448,192,129055,1,0,0:0:0:0:
64,192,129055,128,0,129711:0:0:0:0:
320,192,129055,1,0,0:0:0:0:
192,192,129148,1,0,0:0:0:0:
448,192,129242,1,0,0:0:0:0:
320,192,129336,1,0,0:0:0:0:
192,192,129430,1,0,0:0:0:0:
320,192,129523,1,0,0:0:0:0:
448,192,129617,1,0,0:0:0:0:
192,192,129711,1,0,0:0:0:0:
64,192,129805,1,0,0:0:0:0:
192,192,129805,1,0,0:0:0:0:
320,192,129805,1,0,0:0:0:0:
448,192,129805,1,0,0:0:0:0:
448,192,129898,1,0,0:0:0:0:
192,192,129992,1,0,0:0:0:0:
320,192,130086,1,0,0:0:0:0:
64,192,130180,1,0,0:0:0:0:
448,192,130180,128,0,131211:0:0:0:0:
192,192,130180,1,0,0:0:0:0:
320,192,130273,1,0,0:0:0:0:
64,192,130367,1,0,0:0:0:0:
192,192,130367,1,0,0:0:0:0:
192,192,130461,1,0,0:0:0:0:
64,192,130461,1,0,0:0:0:0:
192,192,130555,1,0,0:0:0:0:
64,192,130555,1,0,0:0:0:0:
320,192,130648,1,0,0:0:0:0:
64,192,130742,1,0,0:0:0:0:
192,192,130836,1,0,0:0:0:0:
320,192,130836,1,0,0:0:0:0:
64,192,130930,1,0,0:0:0:0:
320,192,131023,1,0,0:0:0:0:
192,192,131117,1,0,0:0:0:0:
64,192,131117,1,0,0:0:0:0:
320,192,131211,1,0,0:0:0:0:
64,192,131305,5,0,0:0:0:0:
192,192,131305,1,0,0:0:0:0:
448,192,131305,1,0,0:0:0:0:
320,192,131398,1,0,0:0:0:0:
448,192,131445,1,0,0:0:0:0:
64,192,131492,1,0,0:0:0:0:
192,192,131586,1,0,0:0:0:0:
448,192,131680,1,0,0:0:0:0:
320,192,131680,1,0,0:0:0:0:
64,192,131726,1,0,0:0:0:0:
192,192,131773,1,0,0:0:0:0:
320,192,131867,1,0,0:0:0:0:
192,192,131961,1,0,0:0:0:0:
64,192,132055,1,0,0:0:0:0:
320,192,132055,128,0,132148:0:0:0:0:
448,192,132055,128,0,132242:0:0:0:0:
192,192,132242,128,0,132336:0:0:0:0:
64,192,132242,128,0,132336:0:0:0:0:
320,192,132430,5,0,0:0:0:0:
448,192,132430,1,0,0:0:0:0:
320,192,132523,1,0,0:0:0:0:
448,192,132523,1,0,0:0:0:0:
320,192,132617,1,0,0:0:0:0:
448,192,132617,1,0,0:0:0:0:
320,192,132711,1,0,0:0:0:0:
448,192,132711,1,0,0:0:0:0:
64,192,132805,1,0,0:0:0:0:
192,192,132805,1,0,0:0:0:0:
64,192,132898,1,0,0:0:0:0:
192,192,132898,1,0,0:0:0:0:
64,192,132992,1,0,0:0:0:0:
192,192,132992,1,0,0:0:0:0:
64,192,133086,1,0,0:0:0:0:
192,192,133086,1,0,0:0:0:0:
320,192,133180,128,0,133273:0:0:0:0:
448,192,133180,128,0,133273:0:0:0:0:
320,192,133555,1,0,0:0:0:0:
448,192,133555,1,0,0:0:0:0:
320,192,133648,1,0,0:0:0:0:
448,192,133648,1,0,0:0:0:0:
64,192,133742,1,0,0:0:0:0:
192,192,133742,1,0,0:0:0:0:
320,192,133789,1,0,0:0:0:0:
64,192,133836,1,0,0:0:0:0:
192,192,133836,1,0,0:0:0:0:
320,192,133883,1,0,0:0:0:0:
64,192,133930,1,0,0:0:0:0:
192,192,133930,1,0,0:0:0:0:
64,192,134023,1,0,0:0:0:0:
192,192,134023,1,0,0:0:0:0:
448,192,134023,1,0,0:0:0:0:
64,192,134117,1,0,0:0:0:0:
448,192,134117,1,0,0:0:0:0:
320,192,134117,1,0,0:0:0:0:
320,192,134211,1,0,0:0:0:0:
448,192,134211,1,0,0:0:0:0:
320,192,134305,1,0,0:0:0:0:
448,192,134305,1,0,0:0:0:0:
192,192,134398,1,0,0:0:0:0:
320,192,134492,1,0,0:0:0:0:
64,192,134492,1,0,0:0:0:0:
448,192,134586,1,0,0:0:0:0:
192,192,134586,1,0,0:0:0:0:
320,192,134680,1,0,0:0:0:0:
192,192,134773,1,0,0:0:0:0:
64,192,134867,1,0,0:0:0:0:
320,192,134867,1,0,0:0:0:0:
192,192,134961,1,0,0:0:0:0:
320,192,135055,1,0,0:0:0:0:
64,192,135055,1,0,0:0:0:0:
448,192,135055,1,0,0:0:0:0:
192,192,135101,1,0,0:0:0:0:
320,192,135148,1,0,0:0:0:0:
448,192,135195,1,0,0:0:0:0:
64,192,135242,1,0,0:0:0:0:
192,192,135305,1,0,0:0:0:0:
320,192,135367,1,0,0:0:0:0:
448,192,135430,1,0,0:0:0:0:
320,192,135492,1,0,0:0:0:0:
448,192,135523,1,0,0:0:0:0:
192,192,135555,1,0,0:0:0:0:
64,192,135617,1,0,0:0:0:0:
192,192,135680,1,0,0:0:0:0:
64,192,135711,1,0,0:0:0:0:
320,192,135742,1,0,0:0:0:0:
448,192,135805,1,0,0:0:0:0:
320,192,135867,1,0,0:0:0:0:
448,192,135898,1,0,0:0:0:0:
192,192,135930,1,0,0:0:0:0:
64,192,135992,1,0,0:0:0:0:
192,192,136055,1,0,0:0:0:0:
64,192,136086,1,0,0:0:0:0:
320,192,136180,1,0,0:0:0:0:
448,192,136180,1,0,0:0:0:0:
192,192,136242,1,0,0:0:0:0:
64,192,136305,1,0,0:0:0:0:
320,192,136367,1,0,0:0:0:0:
192,192,136430,1,0,0:0:0:0:
448,192,136492,1,0,0:0:0:0:
320,192,136555,1,0,0:0:0:0:
448,192,136617,1,0,0:0:0:0:
320,192,136648,1,0,0:0:0:0:
64,192,136680,1,0,0:0:0:0:
192,192,136742,1,0,0:0:0:0:
64,192,136805,1,0,0:0:0:0:
192,192,136836,1,0,0:0:0:0:
448,192,136867,1,0,0:0:0:0:
320,192,136930,1,0,0:0:0:0:
448,192,136992,1,0,0:0:0:0:
320,192,137023,1,0,0:0:0:0:
64,192,137055,1,0,0:0:0:0:
192,192,137117,1,0,0:0:0:0:
64,192,137180,1,0,0:0:0:0:
192,192,137211,1,0,0:0:0:0:
320,192,137305,1,0,0:0:0:0:
448,192,137305,1,0,0:0:0:0:
64,192,137367,1,0,0:0:0:0:
192,192,137430,1,0,0:0:0:0:
448,192,137492,1,0,0:0:0:0:
320,192,137492,1,0,0:0:0:0:
192,192,137586,1,0,0:0:0:0:
64,192,137586,1,0,0:0:0:0:
448,192,137680,1,0,0:0:0:0:
320,192,137680,1,0,0:0:0:0:
192,192,137773,1,0,0:0:0:0:
64,192,137773,1,0,0:0:0:0:
64,192,137867,1,0,0:0:0:0:
192,192,137867,1,0,0:0:0:0:
320,192,137961,1,0,0:0:0:0:
448,192,137961,1,0,0:0:0:0:
320,192,138055,128,0,138242:0:0:0:0:
64,192,138055,1,0,0:0:0:0:
192,192,138055,128,0,138148:0:0:0:0:
64,192,138242,128,0,138336:0:0:0:0:
192,192,138242,128,0,138336:0:0:0:0:
320,192,138430,1,0,0:0:0:0:
448,192,138430,1,0,0:0:0:0:
320,192,138523,1,0,0:0:0:0:
448,192,138523,1,0,0:0:0:0:
320,192,138617,1,0,0:0:0:0:
448,192,138617,1,0,0:0:0:0:
320,192,138711,1,0,0:0:0:0:
448,192,138711,1,0,0:0:0:0:
448,192,138805,1,0,0:0:0:0:
320,192,138805,1,0,0:0:0:0:
192,192,138805,1,0,0:0:0:0:
64,192,138805,1,0,0:0:0:0:
64,192,138898,1,0,0:0:0:0:
192,192,138898,1,0,0:0:0:0:
64,192,138992,1,0,0:0:0:0:
192,192,138992,1,0,0:0:0:0:
64,192,139086,1,0,0:0:0:0:
192,192,139086,1,0,0:0:0:0:
192,192,139180,1,0,0:0:0:0:
320,192,139180,1,0,0:0:0:0:
448,192,139180,1,0,0:0:0:0:
64,192,139242,1,0,0:0:0:0:
320,192,139305,1,0,0:0:0:0:
192,192,139367,1,0,0:0:0:0:
64,192,139430,1,0,0:0:0:0:
320,192,139492,1,0,0:0:0:0:
448,192,139555,1,0,0:0:0:0:
320,192,139617,1,0,0:0:0:0:
448,192,139648,1,0,0:0:0:0:
192,192,139680,1,0,0:0:0:0:
64,192,139742,1,0,0:0:0:0:
192,192,139805,1,0,0:0:0:0:
64,192,139836,1,0,0:0:0:0:
448,192,139867,1,0,0:0:0:0:
320,192,139930,1,0,0:0:0:0:
448,192,139992,1,0,0:0:0:0:
320,192,140023,1,0,0:0:0:0:
64,192,140055,1,0,0:0:0:0:
192,192,140117,1,0,0:0:0:0:
64,192,140180,1,0,0:0:0:0:
192,192,140211,1,0,0:0:0:0:
320,192,140305,1,0,0:0:0:0:
448,192,140305,1,0,0:0:0:0:
192,192,140367,1,0,0:0:0:0:
64,192,140430,1,0,0:0:0:0:
320,192,140492,1,0,0:0:0:0:
192,192,140539,1,0,0:0:0:0:
448,192,140586,1,0,0:0:0:0:
320,192,140633,1,0,0:0:0:0:
64,192,140680,1,0,0:0:0:0:
192,192,140742,1,0,0:0:0:0:
320,192,140805,1,0,0:0:0:0:
64,192,140867,1,0,0:0:0:0:
448,192,140930,1,0,0:0:0:0:
320,192,140992,1,0,0:0:0:0:
64,192,141055,1,0,0:0:0:0:
448,192,141055,128,0,141711:0:0:0:0:
192,192,141055,1,0,0:0:0:0:
320,192,141148,1,0,0:0:0:0:
64,192,141242,1,0,0:0:0:0:
192,192,141336,1,0,0:0:0:0:
320,192,141430,1,0,0:0:0:0:
192,192,141523,1,0,0:0:0:0:
64,192,141617,1,0,0:0:0:0:
320,192,141711,1,0,0:0:0:0:
448,192,141805,1,0,0:0:0:0:
320,192,141805,1,0,0:0:0:0:
192,192,141805,1,0,0:0:0:0:
64,192,141805,1,0,0:0:0:0:
64,192,141898,1,0,0:0:0:0:
320,192,141992,1,0,0:0:0:0:
192,192,142086,1,0,0:0:0:0:
448,192,142180,1,0,0:0:0:0:
64,192,142180,128,0,143211:0:0:0:0:
320,192,142180,1,0,0:0:0:0:
192,192,142273,1,0,0:0:0:0:
448,192,142367,1,0,0:0:0:0:
320,192,142367,1,0,0:0:0:0:
320,192,142461,1,0,0:0:0:0:
448,192,142461,1,0,0:0:0:0:
320,192,142555,1,0,0:0:0:0:
448,192,142555,1,0,0:0:0:0:
192,192,142648,1,0,0:0:0:0:
448,192,142742,1,0,0:0:0:0:
320,192,142836,1,0,0:0:0:0:
192,192,142836,1,0,0:0:0:0:
448,192,142930,1,0,0:0:0:0:
192,192,143023,1,0,0:0:0:0:
320,192,143117,1,0,0:0:0:0:
448,192,143117,1,0,0:0:0:0:
192,192,143211,1,0,0:0:0:0:
448,192,143305,5,0,0:0:0:0:
320,192,143305,1,0,0:0:0:0:
64,192,143305,1,0,0:0:0:0:
192,192,143398,1,0,0:0:0:0:
448,192,143445,1,0,0:0:0:0:
320,192,143492,1,0,0:0:0:0:
64,192,143586,1,0,0:0:0:0:
448,192,143680,1,0,0:0:0:0:
320,192,143680,1,0,0:0:0:0:
192,192,143726,1,0,0:0:0:0:
64,192,143773,1,0,0:0:0:0:
448,192,143867,1,0,0:0:0:0:
192,192,143961,1,0,0:0:0:0:
64,192,144055,128,0,150805:0:0:0:0:
448,192,144055,128,0,145367:0:0:0:0:
320,192,144055,128,0,145367:0:0:0:0:
192,192,145555,128,0,146398:0:0:0:0:
320,192,145648,128,0,146305:0:0:0:0:
448,192,145742,128,0,146211:0:0:0:0:
448,192,146492,128,0,147711:0:0:0:0:
320,192,146586,128,0,147617:0:0:0:0:
192,192,146680,128,0,147523:0:0:0:0:
320,192,147992,1,0,0:0:0:0:
448,192,148086,1,0,0:0:0:0:
192,192,148180,1,0,0:0:0:0:
320,192,148273,1,0,0:0:0:0:
448,192,148367,1,0,0:0:0:0:
192,192,148461,1,0,0:0:0:0:
320,192,148555,128,0,149680:0:0:0:0:
448,192,148555,1,0,0:0:0:0:
192,192,148742,128,0,150008:0:0:0:0:
448,192,148930,128,0,150430:0:0:0:0:
192,192,151180,1,0,0:0:0:0:
320,192,151367,1,0,0:0:0:0:
320,192,151742,1,0,0:0:0:0:
192,192,152117,1,0,0:0:0:0:
320,192,152305,1,0,0:0:0:0:
192,192,152680,1,0,0:0:0:0:
448,192,152867,1,0,0:0:0:0:
64,192,153055,1,0,0:0:0:0:
320,192,153242,1,0,0:0:0:0:
448,192,153430,1,0,0:0:0:0:
64,192,153617,1,0,0:0:0:0:
448,192,153805,1,0,0:0:0:0:
192,192,153992,1,0,0:0:0:0:
64,192,154180,1,0,0:0:0:0:
320,192,154367,1,0,0:0:0:0:
64,192,154555,1,0,0:0:0:0:
320,192,154742,1,0,0:0:0:0:
64,192,154930,1,0,0:0:0:0:
192,192,155117,1,0,0:0:0:0:
320,192,155305,1,0,0:0:0:0:
64,192,155492,1,0,0:0:0:0:
192,192,155680,1,0,0:0:0:0:
448,192,155867,1,0,0:0:0:0:
320,192,155930,1,0,0:0:0:0:
192,192,155992,1,0,0:0:0:0:
64,192,156055,1,0,0:0:0:0:
448,192,156055,1,0,0:0:0:0:
192,192,156148,1,0,0:0:0:0:
320,192,156242,1,0,0:0:0:0:
192,192,156336,1,0,0:0:0:0:
448,192,156430,1,0,0:0:0:0:
320,192,156523,1,0,0:0:0:0:
64,192,156617,1,0,0:0:0:0:
320,192,156711,1,0,0:0:0:0:
448,192,156805,1,0,0:0:0:0:
320,192,156898,1,0,0:0:0:0:
192,192,156992,1,0,0:0:0:0:
320,192,157086,1,0,0:0:0:0:
64,192,157180,1,0,0:0:0:0:
192,192,157273,1,0,0:0:0:0:
448,192,157367,1,0,0:0:0:0:
192,192,157461,1,0,0:0:0:0:
64,192,157555,1,0,0:0:0:0:
320,192,157648,1,0,0:0:0:0:
448,192,157742,1,0,0:0:0:0:
320,192,157836,1,0,0:0:0:0:
64,192,157930,1,0,0:0:0:0:
320,192,158023,1,0,0:0:0:0:
192,192,158117,1,0,0:0:0:0:
320,192,158211,1,0,0:0:0:0:
448,192,158305,1,0,0:0:0:0:
192,192,158398,1,0,0:0:0:0:
64,192,158492,1,0,0:0:0:0:
192,192,158586,1,0,0:0:0:0:
320,192,158680,1,0,0:0:0:0:
192,192,158773,1,0,0:0:0:0:
448,192,158867,1,0,0:0:0:0:
320,192,158961,1,0,0:0:0:0:
64,192,159055,1,0,0:0:0:0:
192,192,159148,1,0,0:0:0:0:
320,192,159242,1,0,0:0:0:0:
192,192,159336,1,0,0:0:0:0:
448,192,159430,1,0,0:0:0:0:
320,192,159523,1,0,0:0:0:0:
64,192,159617,1,0,0:0:0:0:
192,192,159711,1,0,0:0:0:0:
448,192,159805,1,0,0:0:0:0:
192,192,159898,1,0,0:0:0:0:
320,192,159992,1,0,0:0:0:0:
192,192,160086,1,0,0:0:0:0:
64,192,160180,1,0,0:0:0:0:
320,192,160273,1,0,0:0:0:0:
448,192,160367,1,0,0:0:0:0:
320,192,160461,1,0,0:0:0:0:
64,192,160555,1,0,0:0:0:0:
320,192,160648,1,0,0:0:0:0:
448,192,160742,1,0,0:0:0:0:
192,192,160836,1,0,0:0:0:0:
64,192,160930,1,0,0:0:0:0:
320,192,161023,1,0,0:0:0:0:
192,192,161117,1,0,0:0:0:0:
320,192,161211,1,0,0:0:0:0:
448,192,161305,1,0,0:0:0:0:
192,192,161398,1,0,0:0:0:0:
64,192,161492,1,0,0:0:0:0:
192,192,161586,1,0,0:0:0:0:
320,192,161680,1,0,0:0:0:0:
192,192,161773,1,0,0:0:0:0:
448,192,161867,1,0,0:0:0:0:
320,192,161961,1,0,0:0:0:0:
64,192,162055,1,0,0:0:0:0:
192,192,162148,1,0,0:0:0:0:
320,192,162242,1,0,0:0:0:0:
192,192,162336,1,0,0:0:0:0:
448,192,162430,1,0,0:0:0:0:
320,192,162523,1,0,0:0:0:0:
64,192,162617,1,0,0:0:0:0:
320,192,162711,1,0,0:0:0:0:
448,192,162805,1,0,0:0:0:0:
192,192,162898,1,0,0:0:0:0:
320,192,162992,1,0,0:0:0:0:
192,192,163086,1,0,0:0:0:0:
64,192,163180,1,0,0:0:0:0:
320,192,163273,1,0,0:0:0:0:
448,192,163367,1,0,0:0:0:0:
192,192,163461,1,0,0:0:0:0:
64,192,163555,5,0,0:0:0:0:
192,192,163648,1,0,0:0:0:0:
448,192,163742,1,0,0:0:0:0:
320,192,163836,1,0,0:0:0:0:
64,192,163930,1,0,0:0:0:0:
320,192,164023,1,0,0:0:0:0:
192,192,164117,1,0,0:0:0:0:
320,192,164211,1,0,0:0:0:0:
448,192,164305,1,0,0:0:0:0:
192,192,164398,1,0,0:0:0:0:
64,192,164492,1,0,0:0:0:0:
320,192,164586,5,0,0:0:0:0:
192,192,164680,1,0,0:0:0:0:
64,192,164680,1,0,0:0:0:0:
448,192,164773,1,0,0:0:0:0:
192,192,164867,1,0,0:0:0:0:
64,192,164867,1,0,0:0:0:0:
64,192,164961,1,0,0:0:0:0:
192,192,164961,1,0,0:0:0:0:
320,192,165055,1,0,0:0:0:0:
448,192,165055,1,0,0:0:0:0:
64,192,165148,1,0,0:0:0:0:
192,192,165148,1,0,0:0:0:0:
64,192,165336,1,0,0:0:0:0:
192,192,165336,1,0,0:0:0:0:
64,192,165523,1,0,0:0:0:0:
192,192,165523,1,0,0:0:0:0:
320,192,165617,1,0,0:0:0:0:
448,192,165617,1,0,0:0:0:0:
192,192,165711,1,0,0:0:0:0:
64,192,165711,1,0,0:0:0:0:
64,192,165898,1,0,0:0:0:0:
192,192,165898,1,0,0:0:0:0:
64,192,166086,1,0,0:0:0:0:
192,192,166086,1,0,0:0:0:0:
320,192,166180,1,0,0:0:0:0:
448,192,166180,1,0,0:0:0:0:
192,192,166242,1,0,0:0:0:0:
448,192,166305,1,0,0:0:0:0:
64,192,166367,1,0,0:0:0:0:
320,192,166430,1,0,0:0:0:0:
64,192,166492,1,0,0:0:0:0:
320,192,166555,1,0,0:0:0:0:
448,192,166555,1,0,0:0:0:0:
192,192,166648,1,0,0:0:0:0:
64,192,166648,1,0,0:0:0:0:
64,192,166836,1,0,0:0:0:0:
192,192,166836,1,0,0:0:0:0:
64,192,167023,1,0,0:0:0:0:
192,192,167023,1,0,0:0:0:0:
320,192,167117,1,0,0:0:0:0:
448,192,167117,1,0,0:0:0:0:
192,192,167211,1,0,0:0:0:0:
64,192,167211,1,0,0:0:0:0:
64,192,167398,1,0,0:0:0:0:
192,192,167398,1,0,0:0:0:0:
64,192,167586,1,0,0:0:0:0:
192,192,167586,1,0,0:0:0:0:
320,192,167680,1,0,0:0:0:0:
448,192,167680,1,0,0:0:0:0:
192,192,167742,1,0,0:0:0:0:
64,192,167742,1,0,0:0:0:0:
320,192,167805,1,0,0:0:0:0:
64,192,167867,1,0,0:0:0:0:
448,192,167930,1,0,0:0:0:0:
192,192,167992,1,0,0:0:0:0:
64,192,168055,128,0,168430:0:0:0:0:
320,192,168055,128,0,168430:0:0:0:0:
448,192,168055,128,0,168430:0:0:0:0:
64,192,168617,128,0,168805:0:0:0:0:
320,192,168617,128,0,168805:0:0:0:0:
448,192,168617,128,0,168805:0:0:0:0:
192,192,168805,1,0,0:0:0:0:
320,192,168992,1,0,0:0:0:0:
448,192,169180,1,0,0:0:0:0:
64,192,169367,1,0,0:0:0:0:
448,192,169555,1,0,0:0:0:0:
64,192,169742,1,0,0:0:0:0:
448,192,169930,1,0,0:0:0:0:
192,192,170117,1,0,0:0:0:0:
64,192,170305,1,0,0:0:0:0:
320,192,170492,1,0,0:0:0:0:
448,192,170492,1,0,0:0:0:0:
192,192,170586,1,0,0:0:0:0:
64,192,170586,1,0,0:0:0:0:
64,192,170680,1,0,0:0:0:0:
448,192,170680,1,0,0:0:0:0:
320,192,170773,1,0,0:0:0:0:
192,192,170867,1,0,0:0:0:0:
64,192,170867,1,0,0:0:0:0:
320,192,170961,1,0,0:0:0:0:
64,192,171055,128,0,171430:0:0:0:0:
192,192,171055,128,0,171430:0:0:0:0:
448,192,171055,128,0,171430:0:0:0:0:
448,192,171617,128,0,171805:0:0:0:0:
192,192,171617,128,0,171805:0:0:0:0:
64,192,171617,128,0,171805:0:0:0:0:
320,192,171805,1,0,0:0:0:0:
192,192,171992,1,0,0:0:0:0:
448,192,172180,1,0,0:0:0:0:
64,192,172367,1,0,0:0:0:0:
448,192,172555,1,0,0:0:0:0:
64,192,172742,1,0,0:0:0:0:
448,192,172930,1,0,0:0:0:0:
320,192,173117,1,0,0:0:0:0:
192,192,173180,1,0,0:0:0:0:
448,192,173242,1,0,0:0:0:0:
64,192,173305,1,0,0:0:0:0:
320,192,173305,1,0,0:0:0:0:
320,192,173492,1,0,0:0:0:0:
448,192,173492,1,0,0:0:0:0:
64,192,173586,1,0,0:0:0:0:
192,192,173633,1,0,0:0:0:0:
320,192,173680,128,0,173961:0:0:0:0:
448,192,173680,128,0,173961:0:0:0:0:
64,192,173773,1,0,0:0:0:0:
192,192,173867,1,0,0:0:0:0:
64,192,173961,1,0,0:0:0:0:
192,192,174055,128,0,174430:0:0:0:0:
320,192,174055,128,0,174430:0:0:0:0:
448,192,174055,128,0,174430:0:0:0:0:
192,192,174617,128,0,174805:0:0:0:0:
320,192,174617,128,0,174805:0:0:0:0:
448,192,174617,128,0,174805:0:0:0:0:
64,192,174805,1,0,0:0:0:0:
192,192,174992,1,0,0:0:0:0:
448,192,175180,1,0,0:0:0:0:
64,192,175367,1,0,0:0:0:0:
448,192,175555,1,0,0:0:0:0:
192,192,175742,1,0,0:0:0:0:
448,192,175930,1,0,0:0:0:0:
320,192,176117,1,0,0:0:0:0:
192,192,176305,1,0,0:0:0:0:
448,192,176492,1,0,0:0:0:0:
320,192,176555,1,0,0:0:0:0:
64,192,176617,1,0,0:0:0:0:
192,192,176680,1,0,0:0:0:0:
448,192,176680,1,0,0:0:0:0:
192,192,176773,1,0,0:0:0:0:
320,192,176867,1,0,0:0:0:0:
64,192,176867,1,0,0:0:0:0:
448,192,176961,1,0,0:0:0:0:
192,192,177055,128,0,177430:0:0:0:0:
64,192,177055,128,0,177430:0:0:0:0:
320,192,177055,128,0,178555:0:0:0:0:
448,192,177430,1,0,0:0:0:0:
192,192,177617,1,0,0:0:0:0:
64,192,177617,1,0,0:0:0:0:
64,192,177805,1,0,0:0:0:0:
192,192,177805,1,0,0:0:0:0:
448,192,177805,1,0,0:0:0:0:
448,192,178180,1,0,0:0:0:0:
64,192,178367,1,0,0:0:0:0:
192,192,178367,1,0,0:0:0:0:
64,192,178461,1,0,0:0:0:0:
192,192,178461,1,0,0:0:0:0:
192,192,178555,128,0,180055:0:0:0:0:
64,192,178555,1,0,0:0:0:0:
448,192,178836,1,0,0:0:0:0:
64,192,178836,1,0,0:0:0:0:
320,192,178930,1,0,0:0:0:0:
448,192,179117,1,0,0:0:0:0:
64,192,179117,1,0,0:0:0:0:
320,192,179211,1,0,0:0:0:0:
64,192,179305,1,0,0:0:0:0:
320,192,179305,1,0,0:0:0:0:
448,192,179305,1,0,0:0:0:0:
64,192,179492,1,0,0:0:0:0:
448,192,179492,1,0,0:0:0:0:
448,192,179680,1,0,0:0:0:0:
320,192,179680,1,0,0:0:0:0:
64,192,179680,1,0,0:0:0:0:
320,192,179867,1,0,0:0:0:0:
64,192,180055,128,0,180430:0:0:0:0:
320,192,180055,128,0,180430:0:0:0:0:
448,192,180055,128,0,180430:0:0:0:0:
448,192,180617,128,0,180805:0:0:0:0:
320,192,180617,128,0,180805:0:0:0:0:
64,192,180617,128,0,180805:0:0:0:0:
192,192,180805,1,0,0:0:0:0:
320,192,180992,1,0,0:0:0:0:
64,192,181180,1,0,0:0:0:0:
448,192,181367,1,0,0:0:0:0:
192,192,181555,1,0,0:0:0:0:
320,192,181742,1,0,0:0:0:0:
64,192,181930,1,0,0:0:0:0:
448,192,182023,1,0,0:0:0:0:
64,192,182117,1,0,0:0:0:0:
448,192,182211,1,0,0:0:0:0:
64,192,182305,1,0,0:0:0:0:
448,192,182398,1,0,0:0:0:0:
64,192,182492,1,0,0:0:0:0:
448,192,182586,1,0,0:0:0:0:
64,192,182680,1,0,0:0:0:0:
320,192,182680,128,0,182961:0:0:0:0:
192,192,182680,128,0,182961:0:0:0:0:
448,192,182773,1,0,0:0:0:0:
64,192,182867,1,0,0:0:0:0:
448,192,182961,1,0,0:0:0:0:
320,192,183055,128,0,183430:0:0:0:0:
192,192,183055,128,0,183430:0:0:0:0:
64,192,183055,128,0,183430:0:0:0:0:
320,192,183617,128,0,183805:0:0:0:0:
192,192,183617,128,0,183805:0:0:0:0:
64,192,183617,128,0,183805:0:0:0:0:
448,192,183805,128,0,183898:0:0:0:0:
320,192,183992,128,0,184086:0:0:0:0:
64,192,184180,128,0,184273:0:0:0:0:
448,192,184367,128,0,184461:0:0:0:0:
64,192,184555,128,0,184648:0:0:0:0:
448,192,184742,128,0,184836:0:0:0:0:
64,192,184930,1,0,0:0:0:0:
320,192,184930,1,0,0:0:0:0:
192,192,184976,1,0,0:0:0:0:
448,192,185117,1,0,0:0:0:0:
64,192,185117,1,0,0:0:0:0:
448,192,185211,1,0,0:0:0:0:
64,192,185305,1,0,0:0:0:0:
320,192,185305,1,0,0:0:0:0:
192,192,185351,1,0,0:0:0:0:
320,192,185492,1,0,0:0:0:0:
448,192,185492,1,0,0:0:0:0:
448,192,185586,1,0,0:0:0:0:
64,192,185680,1,0,0:0:0:0:
192,192,185680,128,0,185961:0:0:0:0:
448,192,185867,1,0,0:0:0:0:
64,192,185961,1,0,0:0:0:0:
192,192,186055,128,0,186430:0:0:0:0:
320,192,186055,128,0,186430:0:0:0:0:
448,192,186055,128,0,186430:0:0:0:0:
448,192,186617,128,0,186805:0:0:0:0:
320,192,186617,128,0,186805:0:0:0:0:
192,192,186617,128,0,186805:0:0:0:0:
64,192,186805,128,0,186945:0:0:0:0:
192,192,186992,128,0,187133:0:0:0:0:
448,192,187180,128,0,187320:0:0:0:0:
64,192,187367,128,0,187508:0:0:0:0:
448,192,187555,128,0,187695:0:0:0:0:
192,192,187742,128,0,187883:0:0:0:0:
64,192,187742,128,0,188305:0:0:0:0:
448,192,187930,128,0,188070:0:0:0:0:
192,192,188117,1,0,0:0:0:0:
320,192,188117,1,0,0:0:0:0:
448,192,188305,1,0,0:0:0:0:
64,192,188398,1,0,0:0:0:0:
192,192,188398,1,0,0:0:0:0:
448,192,188492,1,0,0:0:0:0:
320,192,188492,1,0,0:0:0:0:
192,192,188586,1,0,0:0:0:0:
64,192,188680,1,0,0:0:0:0:
448,192,188680,1,0,0:0:0:0:
192,192,188773,1,0,0:0:0:0:
320,192,188773,1,0,0:0:0:0:
64,192,188867,1,0,0:0:0:0:
448,192,188867,1,0,0:0:0:0:
320,192,188961,1,0,0:0:0:0:
192,192,189055,128,0,190555:0:0:0:0:
64,192,189055,128,0,189430:0:0:0:0:
448,192,189055,128,0,189430:0:0:0:0:
448,192,189617,1,0,0:0:0:0:
64,192,189617,1,0,0:0:0:0:
64,192,189805,1,0,0:0:0:0:
320,192,189805,1,0,0:0:0:0:
448,192,189805,1,0,0:0:0:0:
64,192,190180,1,0,0:0:0:0:
320,192,190367,1,0,0:0:0:0:
448,192,190367,1,0,0:0:0:0:
320,192,190461,1,0,0:0:0:0:
448,192,190461,1,0,0:0:0:0:
320,192,190555,128,0,191211:0:0:0:0:
448,192,190555,1,0,0:0:0:0:
64,192,190836,1,0,0:0:0:0:
448,192,190836,1,0,0:0:0:0:
192,192,190930,1,0,0:0:0:0:
64,192,191117,1,0,0:0:0:0:
448,192,191117,1,0,0:0:0:0:
64,192,191211,1,0,0:0:0:0:
192,192,191305,1,0,0:0:0:0:
320,192,191305,1,0,0:0:0:0:
448,192,191305,1,0,0:0:0:0:
64,192,191398,1,0,0:0:0:0:
192,192,191445,1,0,0:0:0:0:
448,192,191492,1,0,0:0:0:0:
320,192,191586,1,0,0:0:0:0:
192,192,191680,1,0,0:0:0:0:
64,192,191726,1,0,0:0:0:0:
448,192,191773,1,0,0:0:0:0:
192,192,191867,1,0,0:0:0:0:
320,192,191961,1,0,0:0:0:0:
192,192,192055,1,0,0:0:0:0:
64,192,192055,1,0,0:0:0:0:
448,192,192055,1,0,0:0:0:0:
320,192,192242,128,0,192617:0:0:0:0:
64,192,192430,128,0,192617:0:0:0:0:
192,192,192617,128,0,193461:0:0:0:0:
448,192,193742,128,0,194117:0:0:0:0:
192,192,193930,128,0,194117:0:0:0:0:
320,192,194117,128,0,194492:0:0:0:0:
192,192,194492,128,0,194867:0:0:0:0:
320,192,194867,128,0,194961:0:0:0:0:
192,192,195242,128,0,195617:0:0:0:0:
448,192,195430,128,0,195617:0:0:0:0:
320,192,195617,128,0,196461:0:0:0:0:
64,192,196742,128,0,197117:0:0:0:0:
320,192,196930,128,0,197117:0:0:0:0:
192,192,197117,128,0,197492:0:0:0:0:
320,192,197492,128,0,197773:0:0:0:0:
192,192,197867,128,0,197961:0:0:0:0:
320,192,198055,128,0,198242:0:0:0:0:
448,192,198242,128,0,198430:0:0:0:0:
320,192,198430,128,0,198617:0:0:0:0:
192,192,198617,128,0,200117:0:0:0:0:
448,192,199180,128,0,200961:0:0:0:0:
320,192,199555,128,0,200961:0:0:0:0:
64,192,200117,128,0,200961:0:0:0:0:
192,192,200680,128,0,201055:0:0:0:0:
320,192,201055,128,0,201336:0:0:0:0:
448,192,201430,128,0,201617:0:0:0:0:
192,192,201617,128,0,203398:0:0:0:0:
448,192,202180,128,0,204055:0:0:0:0:
320,192,202555,128,0,204055:0:0:0:0:
64,192,203117,128,0,204055:0:0:0:0:
192,192,203680,128,0,204055:0:0:0:0:
448,192,204242,128,0,204617:0:0:0:0:
64,192,204430,128,0,204617:0:0:0:0:
192,192,204617,128,0,205461:0:0:0:0:
448,192,205742,128,0,206117:0:0:0:0:
64,192,205930,128,0,206117:0:0:0:0:
320,192,206117,128,0,206492:0:0:0:0:
192,192,206492,128,0,206867:0:0:0:0:
320,192,206867,128,0,206961:0:0:0:0:
64,192,207242,128,0,207617:0:0:0:0:
448,192,207430,128,0,207617:0:0:0:0:
320,192,207617,128,0,208367:0:0:0:0:
64,192,208742,128,0,209117:0:0:0:0:
448,192,208930,128,0,209117:0:0:0:0:
192,192,209117,128,0,209492:0:0:0:0:
320,192,209492,128,0,210055:0:0:0:0:
64,192,209867,128,0,210055:0:0:0:0:
192,192,210055,128,0,210148:0:0:0:0:
448,192,210242,128,0,210430:0:0:0:0:
320,192,210430,128,0,210617:0:0:0:0:
192,192,210617,128,0,211930:0:0:0:0:
448,192,211180,128,0,212961:0:0:0:0:
320,192,211555,128,0,212961:0:0:0:0:
64,192,212117,128,0,212961:0:0:0:0:
192,192,212680,128,0,213055:0:0:0:0:
320,192,213055,1,0,0:0:0:0:
448,192,213055,1,0,0:0:0:0:
64,192,213148,1,0,0:0:0:0:
192,192,213195,1,0,0:0:0:0:
448,192,213242,1,0,0:0:0:0:
320,192,213336,1,0,0:0:0:0:
192,192,213430,1,0,0:0:0:0:
64,192,213617,1,0,0:0:0:0:
448,192,213617,1,0,0:0:0:0:
320,192,213711,1,0,0:0:0:0:
192,192,213758,1,0,0:0:0:0:
448,192,213805,1,0,0:0:0:0:
64,192,213898,1,0,0:0:0:0:
320,192,213992,1,0,0:0:0:0:
64,192,214180,1,0,0:0:0:0:
192,192,214180,1,0,0:0:0:0:
320,192,214273,1,0,0:0:0:0:
192,192,214320,1,0,0:0:0:0:
448,192,214367,1,0,0:0:0:0:
64,192,214461,1,0,0:0:0:0:
192,192,214555,1,0,0:0:0:0:
320,192,214555,1,0,0:0:0:0:
448,192,214555,1,0,0:0:0:0:
320,192,214742,1,0,0:0:0:0:
192,192,214930,1,0,0:0:0:0:
448,192,214930,1,0,0:0:0:0:
64,192,214930,1,0,0:0:0:0:
192,192,215117,1,0,0:0:0:0:
320,192,215211,1,0,0:0:0:0:
192,192,215305,1,0,0:0:0:0:
64,192,215305,1,0,0:0:0:0:
320,192,215367,1,0,0:0:0:0:
64,192,215430,1,0,0:0:0:0:
448,192,215492,1,0,0:0:0:0:
192,192,215555,1,0,0:0:0:0:
320,192,215680,1,0,0:0:0:0:
448,192,215680,1,0,0:0:0:0:
192,192,215742,1,0,0:0:0:0:
448,192,215805,1,0,0:0:0:0:
64,192,215867,1,0,0:0:0:0:
320,192,215930,1,0,0:0:0:0:
64,192,216055,128,0,216430:0:0:0:0:
192,192,216055,128,0,216430:0:0:0:0:
448,192,216055,128,0,216430:0:0:0:0:
448,192,216617,128,0,216805:0:0:0:0:
192,192,216617,128,0,216805:0:0:0:0:
64,192,216617,128,0,216805:0:0:0:0:
320,192,216805,1,0,0:0:0:0:
448,192,216898,1,0,0:0:0:0:
192,192,216992,1,0,0:0:0:0:
320,192,217086,1,0,0:0:0:0:
64,192,217180,1,0,0:0:0:0:
192,192,217273,1,0,0:0:0:0:
64,192,217367,1,0,0:0:0:0:
320,192,217461,1,0,0:0:0:0:
64,192,217555,1,0,0:0:0:0:
192,192,217648,1,0,0:0:0:0:
448,192,217742,1,0,0:0:0:0:
192,192,217836,1,0,0:0:0:0:
64,192,217930,1,0,0:0:0:0:
320,192,218023,1,0,0:0:0:0:
448,192,218117,1,0,0:0:0:0:
320,192,218211,1,0,0:0:0:0:
64,192,218305,1,0,0:0:0:0:
192,192,218398,1,0,0:0:0:0:
320,192,218492,1,0,0:0:0:0:
448,192,218492,1,0,0:0:0:0:
192,192,218586,1,0,0:0:0:0:
64,192,218586,1,0,0:0:0:0:
64,192,218680,1,0,0:0:0:0:
320,192,218680,1,0,0:0:0:0:
192,192,218773,1,0,0:0:0:0:
320,192,218867,1,0,0:0:0:0:
448,192,218867,1,0,0:0:0:0:
192,192,218961,1,0,0:0:0:0:
64,192,219055,128,0,219430:0:0:0:0:
320,192,219055,128,0,219430:0:0:0:0:
448,192,219055,128,0,219430:0:0:0:0:
448,192,219617,128,0,219805:0:0:0:0:
320,192,219617,128,0,219805:0:0:0:0:
64,192,219617,128,0,219805:0:0:0:0:
192,192,219805,1,0,0:0:0:0:
320,192,219898,1,0,0:0:0:0:
448,192,219992,1,0,0:0:0:0:
192,192,220086,1,0,0:0:0:0:
64,192,220180,1,0,0:0:0:0:
320,192,220273,1,0,0:0:0:0:
64,192,220367,1,0,0:0:0:0:
192,192,220461,1,0,0:0:0:0:
64,192,220555,1,0,0:0:0:0:
320,192,220648,1,0,0:0:0:0:
448,192,220742,1,0,0:0:0:0:
320,192,220836,1,0,0:0:0:0:
64,192,220930,1,0,0:0:0:0:
192,192,221023,1,0,0:0:0:0:
448,192,221117,1,0,0:0:0:0:
320,192,221180,1,0,0:0:0:0:
192,192,221242,1,0,0:0:0:0:
64,192,221305,1,0,0:0:0:0:
448,192,221305,1,0,0:0:0:0:
192,192,221492,1,0,0:0:0:0:
448,192,221586,1,0,0:0:0:0:
320,192,221633,1,0,0:0:0:0:
192,192,221680,128,0,221961:0:0:0:0:
64,192,221680,128,0,221961:0:0:0:0:
448,192,221773,1,0,0:0:0:0:
320,192,221867,1,0,0:0:0:0:
448,192,221961,1,0,0:0:0:0:
64,192,222055,128,0,222430:0:0:0:0:
192,192,222055,128,0,222430:0:0:0:0:
320,192,222055,128,0,222430:0:0:0:0:
320,192,222617,128,0,222805:0:0:0:0:
192,192,222617,128,0,222805:0:0:0:0:
64,192,222617,128,0,222805:0:0:0:0:
448,192,222805,1,0,0:0:0:0:
192,192,222898,1,0,0:0:0:0:
320,192,222992,1,0,0:0:0:0:
448,192,223086,1,0,0:0:0:0:
64,192,223180,1,0,0:0:0:0:
192,192,223273,1,0,0:0:0:0:
64,192,223367,1,0,0:0:0:0:
320,192,223461,1,0,0:0:0:0:
64,192,223555,1,0,0:0:0:0:
192,192,223648,1,0,0:0:0:0:
448,192,223742,1,0,0:0:0:0:
320,192,223836,1,0,0:0:0:0:
64,192,223930,1,0,0:0:0:0:
320,192,224023,1,0,0:0:0:0:
448,192,224117,1,0,0:0:0:0:
192,192,224211,1,0,0:0:0:0:
64,192,224305,1,0,0:0:0:0:
192,192,224398,1,0,0:0:0:0:
448,192,224492,1,0,0:0:0:0:
320,192,224555,1,0,0:0:0:0:
64,192,224617,1,0,0:0:0:0:
192,192,224680,1,0,0:0:0:0:
448,192,224680,1,0,0:0:0:0:
448,192,224773,1,0,0:0:0:0:
320,192,224867,1,0,0:0:0:0:
64,192,224867,1,0,0:0:0:0:
192,192,224961,1,0,0:0:0:0:
64,192,225055,1,0,0:0:0:0:
320,192,225055,128,0,226555:0:0:0:0:
448,192,225055,128,0,227961:0:0:0:0:
192,192,225242,1,0,0:0:0:0:
64,192,225430,1,0,0:0:0:0:
64,192,225617,1,0,0:0:0:0:
64,192,225805,128,0,226367:0:0:0:0:
192,192,226086,128,0,226367:0:0:0:0:
64,192,226742,1,0,0:0:0:0:
192,192,226930,1,0,0:0:0:0:
320,192,227117,1,0,0:0:0:0:
64,192,227305,128,0,227961:0:0:0:0:
320,192,227586,128,0,227961:0:0:0:0:
192,192,228055,1,0,0:0:0:0:
64,192,228055,1,0,0:0:0:0:
448,192,228055,1,0,0:0:0:0:
320,192,228148,1,0,0:0:0:0:
192,192,228242,1,0,0:0:0:0:
448,192,228336,1,0,0:0:0:0:
320,192,228430,1,0,0:0:0:0:
64,192,228430,1,0,0:0:0:0:
192,192,228430,1,0,0:0:0:0:
448,192,228523,1,0,0:0:0:0:
320,192,228617,1,0,0:0:0:0:
64,192,228711,1,0,0:0:0:0:
192,192,228805,1,0,0:0:0:0:
320,192,228805,1,0,0:0:0:0:
448,192,228805,1,0,0:0:0:0:
64,192,228898,1,0,0:0:0:0:
192,192,228992,1,0,0:0:0:0:
320,192,229086,1,0,0:0:0:0:
448,192,229180,1,0,0:0:0:0:
192,192,229180,1,0,0:0:0:0:
64,192,229180,1,0,0:0:0:0:
320,192,229273,1,0,0:0:0:0:
448,192,229367,1,0,0:0:0:0:
192,192,229461,1,0,0:0:0:0:
320,192,229555,1,0,0:0:0:0:
448,192,229555,1,0,0:0:0:0:
64,192,229555,1,0,0:0:0:0:
192,192,229648,1,0,0:0:0:0:
64,192,229742,1,0,0:0:0:0:
320,192,229836,1,0,0:0:0:0:
192,192,229930,1,0,0:0:0:0:
64,192,229930,1,0,0:0:0:0:
448,192,229930,1,0,0:0:0:0:
320,192,230023,1,0,0:0:0:0:
192,192,230117,1,0,0:0:0:0:
448,192,230211,1,0,0:0:0:0:
320,192,230305,1,0,0:0:0:0:
192,192,230305,1,0,0:0:0:0:
64,192,230305,1,0,0:0:0:0:
448,192,230398,1,0,0:0:0:0:
320,192,230492,1,0,0:0:0:0:
64,192,230586,1,0,0:0:0:0:
192,192,230680,1,0,0:0:0:0:
320,192,230680,1,0,0:0:0:0:
448,192,230680,1,0,0:0:0:0:
64,192,230773,1,0,0:0:0:0:
192,192,230867,1,0,0:0:0:0:
320,192,230961,1,0,0:0:0:0:
192,192,231055,1,0,0:0:0:0:
64,192,231055,1,0,0:0:0:0:
448,192,231055,1,0,0:0:0:0:
320,192,231148,1,0,0:0:0:0:
448,192,231242,1,0,0:0:0:0:
192,192,231336,1,0,0:0:0:0:
320,192,231430,1,0,0:0:0:0:
448,192,231430,1,0,0:0:0:0:
64,192,231430,1,0,0:0:0:0:
192,192,231523,1,0,0:0:0:0:
320,192,231617,1,0,0:0:0:0:
64,192,231711,1,0,0:0:0:0:
192,192,231805,1,0,0:0:0:0:
320,192,231805,1,0,0:0:0:0:
448,192,231805,1,0,0:0:0:0:
64,192,231898,1,0,0:0:0:0:
192,192,231992,1,0,0:0:0:0:
320,192,232086,1,0,0:0:0:0:
448,192,232180,1,0,0:0:0:0:
192,192,232180,1,0,0:0:0:0:
64,192,232180,1,0,0:0:0:0:
320,192,232273,1,0,0:0:0:0:
448,192,232367,1,0,0:0:0:0:
192,192,232461,1,0,0:0:0:0:
64,192,232555,1,0,0:0:0:0:
320,192,232555,1,0,0:0:0:0:
448,192,232555,1,0,0:0:0:0:
192,192,232648,1,0,0:0:0:0:
64,192,232742,1,0,0:0:0:0:
320,192,232836,1,0,0:0:0:0:
192,192,232930,5,0,0:0:0:0:
64,192,232930,1,0,0:0:0:0:
448,192,232930,1,0,0:0:0:0:
320,192,233023,1,0,0:0:0:0:
192,192,233117,1,0,0:0:0:0:
448,192,233211,1,0,0:0:0:0:
320,192,233305,1,0,0:0:0:0:
192,192,233305,1,0,0:0:0:0:
64,192,233305,1,0,0:0:0:0:
448,192,233398,1,0,0:0:0:0:
320,192,233492,1,0,0:0:0:0:
192,192,233586,1,0,0:0:0:0:
64,192,233680,1,0,0:0:0:0:
320,192,233680,1,0,0:0:0:0:
448,192,233680,1,0,0:0:0:0:
192,192,233773,1,0,0:0:0:0:
64,192,233867,1,0,0:0:0:0:
320,192,233961,1,0,0:0:0:0:
64,192,234055,5,0,0:0:0:0:
192,192,234055,1,0,0:0:0:0:
320,192,234055,1,0,0:0:0:0:
448,192,234055,1,0,0:0:0:0:
64,192,234242,1,0,0:0:0:0:
192,192,234242,1,0,0:0:0:0:
448,192,234242,1,0,0:0:0:0:
64,192,234430,1,0,0:0:0:0:
192,192,234430,1,0,0:0:0:0:
320,192,234430,1,0,0:0:0:0:
448,192,234430,1,0,0:0:0:0:
64,192,234617,1,0,0:0:0:0:
192,192,234617,1,0,0:0:0:0:
448,192,234617,1,0,0:0:0:0:
64,192,234805,1,0,0:0:0:0:
192,192,234805,1,0,0:0:0:0:
320,192,234805,1,0,0:0:0:0:
448,192,234805,1,0,0:0:0:0:
64,192,234992,1,0,0:0:0:0:
448,192,234992,1,0,0:0:0:0:
320,192,234992,1,0,0:0:0:0:
64,192,235180,1,0,0:0:0:0:
192,192,235180,1,0,0:0:0:0:
320,192,235180,1,0,0:0:0:0:
448,192,235180,1,0,0:0:0:0:
448,192,235367,1,0,0:0:0:0:
320,192,235367,1,0,0:0:0:0:
64,192,235367,1,0,0:0:0:0:
448,192,235555,1,0,0:0:0:0:
320,192,235555,1,0,0:0:0:0:
192,192,235555,1,0,0:0:0:0:
64,192,235555,1,0,0:0:0:0:
64,192,235742,1,0,0:0:0:0:
192,192,235742,1,0,0:0:0:0:
320,192,235742,1,0,0:0:0:0:
64,192,235930,1,0,0:0:0:0:
192,192,235930,1,0,0:0:0:0:
320,192,235930,1,0,0:0:0:0:
448,192,235930,1,0,0:0:0:0:
320,192,236117,1,0,0:0:0:0:
192,192,236117,1,0,0:0:0:0:
64,192,236117,1,0,0:0:0:0:
448,192,236305,1,0,0:0:0:0:
320,192,236305,1,0,0:0:0:0:
192,192,236305,1,0,0:0:0:0:
64,192,236305,1,0,0:0:0:0:
192,192,236492,1,0,0:0:0:0:
320,192,236492,1,0,0:0:0:0:
448,192,236492,1,0,0:0:0:0:
64,192,236680,1,0,0:0:0:0:
192,192,236680,1,0,0:0:0:0:
320,192,236680,1,0,0:0:0:0:
448,192,236680,1,0,0:0:0:0:
192,192,236867,1,0,0:0:0:0:
320,192,236867,1,0,0:0:0:0:
448,192,236867,1,0,0:0:0:0:
64,192,237055,1,0,0:0:0:0:
320,192,237055,1,0,0:0:0:0:
192,192,237055,1,0,0:0:0:0:
448,192,237055,1,0,0:0:0:0:
64,192,237148,1,0,0:0:0:0:
192,192,237148,1,0,0:0:0:0:
320,192,237242,1,0,0:0:0:0:
448,192,237242,1,0,0:0:0:0:
64,192,237336,1,0,0:0:0:0:
192,192,237336,1,0,0:0:0:0:
448,192,237430,1,0,0:0:0:0:
320,192,237430,1,0,0:0:0:0:
192,192,237430,1,0,0:0:0:0:
64,192,237430,1,0,0:0:0:0:
448,192,237523,1,0,0:0:0:0:
320,192,237523,1,0,0:0:0:0:
64,192,237617,1,0,0:0:0:0:
192,192,237617,1,0,0:0:0:0:
320,192,237711,1,0,0:0:0:0:
448,192,237711,1,0,0:0:0:0:
448,192,237805,1,0,0:0:0:0:
320,192,237805,1,0,0:0:0:0:
192,192,237805,1,0,0:0:0:0:
64,192,237805,1,0,0:0:0:0:
64,192,237898,1,0,0:0:0:0:
192,192,237898,1,0,0:0:0:0:
320,192,237992,1,0,0:0:0:0:
448,192,237992,1,0,0:0:0:0:
64,192,238086,1,0,0:0:0:0:
192,192,238086,1,0,0:0:0:0:
64,192,238180,1,0,0:0:0:0:
320,192,238180,1,0,0:0:0:0:
448,192,238180,1,0,0:0:0:0:
192,192,238226,1,0,0:0:0:0:
320,192,238273,1,0,0:0:0:0:
448,192,238320,1,0,0:0:0:0:
192,192,238367,1,0,0:0:0:0:
320,192,238414,1,0,0:0:0:0:
64,192,238461,1,0,0:0:0:0:
192,192,238508,1,0,0:0:0:0:
448,192,238555,1,0,0:0:0:0:
320,192,238555,1,0,0:0:0:0:
448,192,238648,1,0,0:0:0:0:
448,192,238742,1,0,0:0:0:0:
448,192,238836,1,0,0:0:0:0:
64,192,238930,1,0,0:0:0:0:
64,192,239023,1,0,0:0:0:0:
64,192,239117,1,0,0:0:0:0:
64,192,239211,1,0,0:0:0:0:
320,192,239305,1,0,0:0:0:0:
320,192,239398,1,0,0:0:0:0:
192,192,239492,1,0,0:0:0:0:
448,192,239492,1,0,0:0:0:0:
192,192,239586,1,0,0:0:0:0:
448,192,239586,1,0,0:0:0:0:
320,192,239680,1,0,0:0:0:0:
64,192,239680,1,0,0:0:0:0:
64,192,239773,1,0,0:0:0:0:
192,192,239867,1,0,0:0:0:0:
448,192,239867,1,0,0:0:0:0:
64,192,240055,128,0,240242:0:0:0:0:
320,192,240055,128,0,240242:0:0:0:0:
448,192,240055,128,0,240336:0:0:0:0:
64,192,240430,1,0,0:0:0:0:
192,192,240430,128,0,240711:0:0:0:0:
320,192,240805,1,0,0:0:0:0:
448,192,240805,1,0,0:0:0:0:
192,192,240851,1,0,0:0:0:0:
64,192,240851,1,0,0:0:0:0:
448,192,240898,1,0,0:0:0:0:
320,192,240945,1,0,0:0:0:0:
192,192,240992,1,0,0:0:0:0:
64,192,240992,1,0,0:0:0:0:
320,192,241039,1,0,0:0:0:0:
448,192,241039,1,0,0:0:0:0:
192,192,241086,1,0,0:0:0:0:
64,192,241133,1,0,0:0:0:0:
320,192,241180,1,0,0:0:0:0:
448,192,241180,1,0,0:0:0:0:
192,192,241226,1,0,0:0:0:0:
64,192,241226,1,0,0:0:0:0:
448,192,241273,1,0,0:0:0:0:
320,192,241320,1,0,0:0:0:0:
192,192,241367,1,0,0:0:0:0:
64,192,241367,1,0,0:0:0:0:
320,192,241414,1,0,0:0:0:0:
448,192,241414,1,0,0:0:0:0:
192,192,241461,1,0,0:0:0:0:
64,192,241508,1,0,0:0:0:0:
320,192,241555,1,0,0:0:0:0:
448,192,241555,1,0,0:0:0:0:
320,192,241648,1,0,0:0:0:0:
448,192,241648,1,0,0:0:0:0:
320,192,241742,128,0,241836:0:0:0:0:
448,192,241742,128,0,241836:0:0:0:0:
448,192,241930,1,0,0:0:0:0:
320,192,241930,128,0,242023:0:0:0:0:
192,192,241930,128,0,242023:0:0:0:0:
192,192,242117,128,0,242211:0:0:0:0:
64,192,242117,128,0,242211:0:0:0:0:
192,192,242305,1,0,0:0:0:0:
448,192,242305,1,0,0:0:0:0:
64,192,242305,128,0,242398:0:0:0:0:
320,192,242305,128,0,242398:0:0:0:0:
64,192,242492,1,0,0:0:0:0:
448,192,242492,1,0,0:0:0:0:
320,192,242586,1,0,0:0:0:0:
192,192,242680,1,0,0:0:0:0:
448,192,242773,1,0,0:0:0:0:
320,192,242867,1,0,0:0:0:0:
192,192,243055,128,0,243336:0:0:0:0:
64,192,243055,128,0,243242:0:0:0:0:
448,192,243055,128,0,243289:0:0:0:0:
448,192,243430,1,0,0:0:0:0:
320,192,243430,128,0,243711:0:0:0:0:
192,192,243805,1,0,0:0:0:0:
64,192,243805,1,0,0:0:0:0:
320,192,243851,1,0,0:0:0:0:
448,192,243851,1,0,0:0:0:0:
64,192,243898,1,0,0:0:0:0:
192,192,243945,1,0,0:0:0:0:
320,192,243992,1,0,0:0:0:0:
448,192,243992,1,0,0:0:0:0:
192,192,244039,1,0,0:0:0:0:
64,192,244039,1,0,0:0:0:0:
320,192,244086,1,0,0:0:0:0:
448,192,244133,1,0,0:0:0:0:
192,192,244180,1,0,0:0:0:0:
64,192,244180,1,0,0:0:0:0:
320,192,244226,1,0,0:0:0:0:
448,192,244226,1,0,0:0:0:0:
64,192,244273,1,0,0:0:0:0:
192,192,244320,1,0,0:0:0:0:
320,192,244367,1,0,0:0:0:0:
448,192,244367,1,0,0:0:0:0:
192,192,244414,1,0,0:0:0:0:
64,192,244414,1,0,0:0:0:0:
320,192,244461,1,0,0:0:0:0:
448,192,244508,1,0,0:0:0:0:
192,192,244555,1,0,0:0:0:0:
64,192,244555,1,0,0:0:0:0:
64,192,244648,1,0,0:0:0:0:
192,192,244648,1,0,0:0:0:0:
320,192,244742,1,0,0:0:0:0:
192,192,244742,128,0,244836:0:0:0:0:
64,192,244742,128,0,244836:0:0:0:0:
448,192,244930,1,0,0:0:0:0:
192,192,244930,128,0,245023:0:0:0:0:
320,192,244930,128,0,245023:0:0:0:0:
320,192,245117,128,0,245211:0:0:0:0:
448,192,245117,128,0,245211:0:0:0:0:
320,192,245305,1,0,0:0:0:0:
64,192,245305,1,0,0:0:0:0:
192,192,245305,128,0,245398:0:0:0:0:
448,192,245305,128,0,245398:0:0:0:0:
448,192,245492,128,0,245680:0:0:0:0:
64,192,245492,128,0,245680:0:0:0:0:
192,192,245680,128,0,245867:0:0:0:0:
320,192,245680,128,0,245961:0:0:0:0:
448,192,245867,128,0,246055:0:0:0:0:
64,192,246055,128,0,246336:0:0:0:0:
192,192,246055,128,0,246242:0:0:0:0:
320,192,246055,128,0,246242:0:0:0:0:
448,192,246430,128,0,246711:0:0:0:0:
320,192,246430,1,0,0:0:0:0:
64,192,246805,1,0,0:0:0:0:
192,192,246805,1,0,0:0:0:0:
320,192,246851,1,0,0:0:0:0:
448,192,246851,1,0,0:0:0:0:
192,192,246898,1,0,0:0:0:0:
64,192,246945,1,0,0:0:0:0:
320,192,246992,1,0,0:0:0:0:
448,192,246992,1,0,0:0:0:0:
192,192,247039,1,0,0:0:0:0:
64,192,247039,1,0,0:0:0:0:
448,192,247086,1,0,0:0:0:0:
320,192,247133,1,0,0:0:0:0:
192,192,247180,1,0,0:0:0:0:
64,192,247180,1,0,0:0:0:0:
320,192,247226,1,0,0:0:0:0:
448,192,247226,1,0,0:0:0:0:
192,192,247273,1,0,0:0:0:0:
64,192,247320,1,0,0:0:0:0:
320,192,247367,1,0,0:0:0:0:
448,192,247367,1,0,0:0:0:0:
192,192,247414,1,0,0:0:0:0:
64,192,247414,1,0,0:0:0:0:
448,192,247461,1,0,0:0:0:0:
320,192,247508,1,0,0:0:0:0:
64,192,247555,1,0,0:0:0:0:
192,192,247555,1,0,0:0:0:0:
64,192,247648,1,0,0:0:0:0:
192,192,247648,1,0,0:0:0:0:
64,192,247742,128,0,247836:0:0:0:0:
192,192,247742,128,0,247836:0:0:0:0:
448,192,247930,1,0,0:0:0:0:
192,192,247930,128,0,248023:0:0:0:0:
320,192,247930,128,0,248023:0:0:0:0:
320,192,248117,128,0,248211:0:0:0:0:
448,192,248117,128,0,248211:0:0:0:0:
64,192,248305,1,0,0:0:0:0:
448,192,248305,128,0,248398:0:0:0:0:
320,192,248305,1,0,0:0:0:0:
192,192,248305,128,0,248398:0:0:0:0:
192,192,248492,128,0,248586:0:0:0:0:
64,192,248492,128,0,248680:0:0:0:0:
448,192,248680,128,0,248867:0:0:0:0:
320,192,248680,128,0,248773:0:0:0:0:
192,192,248773,128,0,248867:0:0:0:0:
64,192,248867,128,0,249055:0:0:0:0:
320,192,248867,128,0,248961:0:0:0:0:
192,192,249055,1,0,0:0:0:0:
448,192,249055,128,0,249711:0:0:0:0:
320,192,249055,128,0,249711:0:0:0:0:
64,192,249430,1,0,0:0:0:0:
192,192,249617,1,0,0:0:0:0:
64,192,249805,1,0,0:0:0:0:
192,192,249805,1,0,0:0:0:0:
320,192,249805,1,0,0:0:0:0:
448,192,249805,1,0,0:0:0:0:
320,192,249992,1,0,0:0:0:0:
192,192,250086,1,0,0:0:0:0:
320,192,250180,1,0,0:0:0:0:
448,192,250180,1,0,0:0:0:0:
64,192,250180,128,0,251211:0:0:0:0:
192,192,250367,1,0,0:0:0:0:
320,192,250461,1,0,0:0:0:0:
192,192,250555,1,0,0:0:0:0:
448,192,250836,1,0,0:0:0:0:
320,192,251117,1,0,0:0:0:0:
192,192,251211,1,0,0:0:0:0:
64,192,251305,1,0,0:0:0:0:
320,192,251305,1,0,0:0:0:0:
448,192,251305,1,0,0:0:0:0:
192,192,251398,1,0,0:0:0:0:
448,192,251445,1,0,0:0:0:0:
320,192,251492,1,0,0:0:0:0:
64,192,251586,1,0,0:0:0:0:
320,192,251680,1,0,0:0:0:0:
448,192,251680,1,0,0:0:0:0:
192,192,251726,1,0,0:0:0:0:
64,192,251773,1,0,0:0:0:0:
448,192,251867,1,0,0:0:0:0:
192,192,251961,1,0,0:0:0:0:
64,192,252055,128,0,252336:0:0:0:0:
320,192,252055,128,0,252242:0:0:0:0:
448,192,252055,128,0,252242:0:0:0:0:
192,192,252430,128,0,252711:0:0:0:0:
64,192,252430,1,0,0:0:0:0:
320,192,252805,1,0,0:0:0:0:
448,192,252805,1,0,0:0:0:0:
192,192,252851,1,0,0:0:0:0:
64,192,252851,1,0,0:0:0:0:
320,192,252898,1,0,0:0:0:0:
448,192,252945,1,0,0:0:0:0:
192,192,252992,1,0,0:0:0:0:
64,192,252992,1,0,0:0:0:0:
320,192,253039,1,0,0:0:0:0:
448,192,253039,1,0,0:0:0:0:
64,192,253086,1,0,0:0:0:0:
192,192,253133,1,0,0:0:0:0:
320,192,253180,1,0,0:0:0:0:
448,192,253180,1,0,0:0:0:0:
192,192,253226,1,0,0:0:0:0:
64,192,253226,1,0,0:0:0:0:
448,192,253273,1,0,0:0:0:0:
320,192,253320,1,0,0:0:0:0:
192,192,253367,1,0,0:0:0:0:
64,192,253367,1,0,0:0:0:0:
448,192,253414,1,0,0:0:0:0:
320,192,253414,1,0,0:0:0:0:
192,192,253461,1,0,0:0:0:0:
64,192,253508,1,0,0:0:0:0:
320,192,253555,1,0,0:0:0:0:
448,192,253555,1,0,0:0:0:0:
320,192,253648,1,0,0:0:0:0:
448,192,253648,1,0,0:0:0:0:
64,192,253742,128,0,253805:0:0:0:0:
320,192,253805,1,0,0:0:0:0:
448,192,253867,1,0,0:0:0:0:
64,192,253930,128,0,253992:0:0:0:0:
192,192,253930,1,0,0:0:0:0:
448,192,253992,1,0,0:0:0:0:
320,192,254055,1,0,0:0:0:0:
64,192,254117,128,0,254180:0:0:0:0:
448,192,254180,1,0,0:0:0:0:
320,192,254242,1,0,0:0:0:0:
64,192,254305,128,0,254367:0:0:0:0:
192,192,254305,1,0,0:0:0:0:
320,192,254367,1,0,0:0:0:0:
448,192,254430,1,0,0:0:0:0:
64,192,254492,128,0,254555:0:0:0:0:
320,192,254555,1,0,0:0:0:0:
448,192,254617,1,0,0:0:0:0:
192,192,254680,1,0,0:0:0:0:
320,192,254742,1,0,0:0:0:0:
64,192,254805,1,0,0:0:0:0:
192,192,254867,1,0,0:0:0:0:
320,192,254930,1,0,0:0:0:0:
448,192,254992,1,0,0:0:0:0:
192,192,255055,1,0,0:0:0:0:
64,192,255055,1,0,0:0:0:0:
320,192,255101,1,0,0:0:0:0:
448,192,255148,1,0,0:0:0:0:
64,192,255195,1,0,0:0:0:0:
192,192,255242,1,0,0:0:0:0:
320,192,255305,1,0,0:0:0:0:
64,192,255367,1,0,0:0:0:0:
448,192,255430,128,0,255711:0:0:0:0:
192,192,255430,1,0,0:0:0:0:
64,192,255805,1,0,0:0:0:0:
192,192,255805,1,0,0:0:0:0:
320,192,255851,1,0,0:0:0:0:
448,192,255851,1,0,0:0:0:0:
192,192,255898,1,0,0:0:0:0:
64,192,255945,1,0,0:0:0:0:
320,192,255992,1,0,0:0:0:0:
448,192,255992,1,0,0:0:0:0:
192,192,256039,1,0,0:0:0:0:
64,192,256039,1,0,0:0:0:0:
448,192,256086,1,0,0:0:0:0:
320,192,256133,1,0,0:0:0:0:
192,192,256180,1,0,0:0:0:0:
64,192,256180,1,0,0:0:0:0:
320,192,256226,1,0,0:0:0:0:
448,192,256226,1,0,0:0:0:0:
64,192,256273,1,0,0:0:0:0:
192,192,256320,1,0,0:0:0:0:
320,192,256367,1,0,0:0:0:0:
448,192,256367,1,0,0:0:0:0:
64,192,256414,1,0,0:0:0:0:
192,192,256414,1,0,0:0:0:0:
320,192,256461,1,0,0:0:0:0:
448,192,256508,1,0,0:0:0:0:
192,192,256555,1,0,0:0:0:0:
64,192,256555,1,0,0:0:0:0:
64,192,256648,1,0,0:0:0:0:
192,192,256648,1,0,0:0:0:0:
320,192,256742,1,0,0:0:0:0:
448,192,256742,128,0,256805:0:0:0:0:
192,192,256805,1,0,0:0:0:0:
64,192,256867,1,0,0:0:0:0:
320,192,256930,1,0,0:0:0:0:
448,192,256930,128,0,256992:0:0:0:0:
192,192,256992,1,0,0:0:0:0:
64,192,257055,1,0,0:0:0:0:
448,192,257117,128,0,257180:0:0:0:0:
64,192,257180,1,0,0:0:0:0:
192,192,257242,1,0,0:0:0:0:
320,192,257305,1,0,0:0:0:0:
448,192,257305,128,0,257367:0:0:0:0:
64,192,257367,1,0,0:0:0:0:
192,192,257430,1,0,0:0:0:0:
320,192,257492,1,0,0:0:0:0:
64,192,257555,1,0,0:0:0:0:
448,192,257617,1,0,0:0:0:0:
320,192,257680,1,0,0:0:0:0:
192,192,257726,1,0,0:0:0:0:
64,192,257773,1,0,0:0:0:0:
320,192,257820,1,0,0:0:0:0:
448,192,257867,1,0,0:0:0:0:
192,192,257930,1,0,0:0:0:0:
64,192,257992,1,0,0:0:0:0:
320,192,258055,1,0,0:0:0:0:
448,192,258055,1,0,0:0:0:0:
192,192,258117,1,0,0:0:0:0:
320,192,258180,1,0,0:0:0:0:
192,192,258242,1,0,0:0:0:0:
320,192,258305,1,0,0:0:0:0:
192,192,258367,1,0,0:0:0:0:
448,192,258430,1,0,0:0:0:0:
320,192,258430,1,0,0:0:0:0:
64,192,258492,1,0,0:0:0:0:
448,192,258555,1,0,0:0:0:0:
64,192,258617,1,0,0:0:0:0:
448,192,258680,1,0,0:0:0:0:
64,192,258742,1,0,0:0:0:0:
320,192,258805,1,0,0:0:0:0:
448,192,258805,1,0,0:0:0:0:
192,192,258867,1,0,0:0:0:0:
64,192,258930,1,0,0:0:0:0:
320,192,258992,1,0,0:0:0:0:
192,192,259055,1,0,0:0:0:0:
64,192,259117,1,0,0:0:0:0:
448,192,259180,1,0,0:0:0:0:
320,192,259180,1,0,0:0:0:0:
192,192,259226,1,0,0:0:0:0:
64,192,259226,1,0,0:0:0:0:
448,192,259273,1,0,0:0:0:0:
320,192,259320,1,0,0:0:0:0:
192,192,259367,1,0,0:0:0:0:
64,192,259367,1,0,0:0:0:0:
320,192,259414,1,0,0:0:0:0:
448,192,259414,1,0,0:0:0:0:
192,192,259461,1,0,0:0:0:0:
64,192,259508,1,0,0:0:0:0:
320,192,259555,1,0,0:0:0:0:
448,192,259555,1,0,0:0:0:0:
320,192,259648,1,0,0:0:0:0:
448,192,259648,1,0,0:0:0:0:
64,192,259742,128,0,259805:0:0:0:0:
448,192,259805,1,0,0:0:0:0:
320,192,259867,1,0,0:0:0:0:
192,192,259930,1,0,0:0:0:0:
64,192,259930,128,0,259992:0:0:0:0:
448,192,259992,1,0,0:0:0:0:
320,192,260055,1,0,0:0:0:0:
64,192,260117,128,0,260180:0:0:0:0:
320,192,260180,1,0,0:0:0:0:
448,192,260242,1,0,0:0:0:0:
192,192,260305,1,0,0:0:0:0:
64,192,260305,128,0,260367:0:0:0:0:
320,192,260367,1,0,0:0:0:0:
448,192,260430,1,0,0:0:0:0:
64,192,260492,128,0,260555:0:0:0:0:
192,192,260492,1,0,0:0:0:0:
320,192,260555,1,0,0:0:0:0:
448,192,260617,1,0,0:0:0:0:
192,192,260680,1,0,0:0:0:0:
64,192,260726,1,0,0:0:0:0:
320,192,260773,1,0,0:0:0:0:
192,192,260820,1,0,0:0:0:0:
448,192,260867,1,0,0:0:0:0:
320,192,260930,1,0,0:0:0:0:
192,192,260992,1,0,0:0:0:0:
448,192,261055,1,0,0:0:0:0:
320,192,261055,1,0,0:0:0:0:
64,192,261055,128,0,261711:0:0:0:0:
192,192,261148,1,0,0:0:0:0:
448,192,261242,1,0,0:0:0:0:
320,192,261336,1,0,0:0:0:0:
192,192,261430,1,0,0:0:0:0:
320,192,261523,1,0,0:0:0:0:
448,192,261617,1,0,0:0:0:0:
192,192,261711,1,0,0:0:0:0:
64,192,261805,1,0,0:0:0:0:
192,192,261805,1,0,0:0:0:0:
448,192,261805,1,0,0:0:0:0:
320,192,261805,1,0,0:0:0:0:
448,192,261898,1,0,0:0:0:0:
192,192,261992,1,0,0:0:0:0:
320,192,262086,1,0,0:0:0:0:
64,192,262180,1,0,0:0:0:0:
192,192,262180,1,0,0:0:0:0:
448,192,262180,128,0,263211:0:0:0:0:
320,192,262273,1,0,0:0:0:0:
64,192,262367,1,0,0:0:0:0:
192,192,262367,1,0,0:0:0:0:
64,192,262461,1,0,0:0:0:0:
192,192,262461,1,0,0:0:0:0:
64,192,262555,1,0,0:0:0:0:
192,192,262555,1,0,0:0:0:0:
320,192,262648,1,0,0:0:0:0:
192,192,262742,1,0,0:0:0:0:
64,192,262836,1,0,0:0:0:0:
320,192,262836,1,0,0:0:0:0:
192,192,262930,1,0,0:0:0:0:
64,192,263023,1,0,0:0:0:0:
192,192,263117,1,0,0:0:0:0:
320,192,263117,1,0,0:0:0:0:
64,192,263211,1,0,0:0:0:0:
192,192,263305,1,0,0:0:0:0:
320,192,263305,1,0,0:0:0:0:
448,192,263305,1,0,0:0:0:0:
64,192,263398,1,0,0:0:0:0:
320,192,263445,1,0,0:0:0:0:
448,192,263492,1,0,0:0:0:0:
192,192,263586,1,0,0:0:0:0:
448,192,263680,1,0,0:0:0:0:
64,192,263680,1,0,0:0:0:0:
320,192,263726,1,0,0:0:0:0:
192,192,263773,1,0,0:0:0:0:
64,192,263867,1,0,0:0:0:0:
320,192,263961,1,0,0:0:0:0:
192,192,264055,1,0,0:0:0:0:
64,192,264055,1,0,0:0:0:0:
448,192,264055,1,0,0:0:0:0:
320,192,264242,1,0,0:0:0:0:
64,192,264430,128,0,264711:0:0:0:0:
448,192,264430,1,0,0:0:0:0:
192,192,264617,1,0,0:0:0:0:
448,192,264805,1,0,0:0:0:0:
320,192,264805,1,0,0:0:0:0:
192,192,264867,1,0,0:0:0:0:
448,192,264930,1,0,0:0:0:0:
64,192,264992,1,0,0:0:0:0:
320,192,265055,1,0,0:0:0:0:
192,192,265117,1,0,0:0:0:0:
64,192,265180,1,0,0:0:0:0:
320,192,265180,1,0,0:0:0:0:
448,192,265180,1,0,0:0:0:0:
192,192,265273,1,0,0:0:0:0:
448,192,265367,1,0,0:0:0:0:
64,192,265367,1,0,0:0:0:0:
320,192,265461,1,0,0:0:0:0:
192,192,265555,1,0,0:0:0:0:
320,192,265617,1,0,0:0:0:0:
192,192,265680,1,0,0:0:0:0:
448,192,265742,1,0,0:0:0:0:
64,192,265805,1,0,0:0:0:0:
320,192,265867,1,0,0:0:0:0:
448,192,265930,1,0,0:0:0:0:
192,192,265930,1,0,0:0:0:0:
64,192,265930,1,0,0:0:0:0:
320,192,266055,1,0,0:0:0:0:
64,192,266180,1,0,0:0:0:0:
192,192,266180,1,0,0:0:0:0:
64,192,266305,1,0,0:0:0:0:
320,192,266305,1,0,0:0:0:0:
448,192,266305,128,0,267336:0:0:0:0:
192,192,266305,1,0,0:0:0:0:
192,192,266492,1,0,0:0:0:0:
320,192,266680,1,0,0:0:0:0:
192,192,266680,1,0,0:0:0:0:
64,192,266867,1,0,0:0:0:0:
320,192,267055,1,0,0:0:0:0:
64,192,267055,1,0,0:0:0:0:
192,192,267055,1,0,0:0:0:0:
192,192,267242,1,0,0:0:0:0:
192,192,267430,128,0,267711:0:0:0:0:
64,192,267430,128,0,267711:0:0:0:0:
448,192,267617,1,0,0:0:0:0:
64,192,267805,1,0,0:0:0:0:
192,192,267805,1,0,0:0:0:0:
320,192,267805,1,0,0:0:0:0:
448,192,267805,1,0,0:0:0:0:
64,192,267992,128,0,268086:0:0:0:0:
192,192,267992,1,0,0:0:0:0:
64,192,268180,1,0,0:0:0:0:
448,192,268180,128,0,268273:0:0:0:0:
320,192,268180,128,0,268273:0:0:0:0:
192,192,268367,128,0,268461:0:0:0:0:
448,192,268367,1,0,0:0:0:0:
64,192,268555,128,0,268648:0:0:0:0:
320,192,268555,128,0,268742:0:0:0:0:
64,192,268742,1,0,0:0:0:0:
192,192,268742,1,0,0:0:0:0:
448,192,268742,1,0,0:0:0:0:
320,192,268836,1,0,0:0:0:0:
192,192,268930,1,0,0:0:0:0:
448,192,268930,1,0,0:0:0:0:
64,192,268930,128,0,269211:0:0:0:0:
320,192,269117,1,0,0:0:0:0:
64,192,269305,1,0,0:0:0:0:
192,192,269305,1,0,0:0:0:0:
320,192,269305,1,0,0:0:0:0:
448,192,269305,1,0,0:0:0:0:
320,192,269492,1,0,0:0:0:0:
192,192,269586,1,0,0:0:0:0:
64,192,269680,1,0,0:0:0:0:
448,192,269680,1,0,0:0:0:0:
320,192,269773,1,0,0:0:0:0:
192,192,269867,1,0,0:0:0:0:
320,192,269961,1,0,0:0:0:0:
448,192,270055,1,0,0:0:0:0:
192,192,270055,1,0,0:0:0:0:
64,192,270055,1,0,0:0:0:0:
64,192,270242,1,0,0:0:0:0:
448,192,270430,128,0,270711:0:0:0:0:
320,192,270430,128,0,270617:0:0:0:0:
64,192,270617,1,0,0:0:0:0:
64,192,270805,1,0,0:0:0:0:
192,192,270805,1,0,0:0:0:0:
320,192,270805,1,0,0:0:0:0:
448,192,270805,1,0,0:0:0:0:
192,192,270992,1,0,0:0:0:0:
64,192,271180,1,0,0:0:0:0:
320,192,271180,1,0,0:0:0:0:
448,192,271180,1,0,0:0:0:0:
320,192,271367,1,0,0:0:0:0:
192,192,271555,128,0,271648:0:0:0:0:
64,192,271555,128,0,271742:0:0:0:0:
448,192,271742,1,0,0:0:0:0:
64,192,271930,5,0,0:0:0:0:
192,192,271930,128,0,272023:0:0:0:0:
320,192,271930,128,0,272117:0:0:0:0:
448,192,272117,1,0,0:0:0:0:
192,192,272305,1,0,0:0:0:0:
320,192,272305,1,0,0:0:0:0:
448,192,272305,128,0,272961:0:0:0:0:
64,192,272305,128,0,272586:0:0:0:0:
192,192,272492,1,0,0:0:0:0:
64,192,272680,1,0,0:0:0:0:
320,192,272680,1,0,0:0:0:0:
320,192,272867,1,0,0:0:0:0:
64,192,273055,5,0,0:0:0:0:
192,192,273055,1,0,0:0:0:0:
320,192,273117,1,0,0:0:0:0:
192,192,273180,1,0,0:0:0:0:
320,192,273242,1,0,0:0:0:0:
192,192,273305,1,0,0:0:0:0:
320,192,273367,1,0,0:0:0:0:
192,192,273430,1,0,0:0:0:0:
320,192,273492,1,0,0:0:0:0:
192,192,273555,1,0,0:0:0:0:
320,192,273617,1,0,0:0:0:0:
192,192,273680,1,0,0:0:0:0:
320,192,273742,1,0,0:0:0:0:
448,192,273805,1,0,0:0:0:0:
64,192,273805,1,0,0:0:0:0:
192,192,273805,1,0,0:0:0:0:
192,192,273992,1,0,0:0:0:0:
64,192,274180,1,0,0:0:0:0:
320,192,274180,1,0,0:0:0:0:
448,192,274180,1,0,0:0:0:0:
192,192,274367,1,0,0:0:0:0:
320,192,274430,1,0,0:0:0:0:
448,192,274492,1,0,0:0:0:0:
64,192,274555,1,0,0:0:0:0:
192,192,274555,128,0,274742:0:0:0:0:
64,192,274742,1,0,0:0:0:0:
320,192,274742,1,0,0:0:0:0:
448,192,274742,1,0,0:0:0:0:
192,192,274836,1,0,0:0:0:0:
64,192,274930,1,0,0:0:0:0:
320,192,274930,1,0,0:0:0:0:
448,192,274930,128,0,275211:0:0:0:0:
192,192,275117,1,0,0:0:0:0:
192,192,275305,1,0,0:0:0:0:
320,192,275305,1,0,0:0:0:0:
64,192,275305,128,0,275961:0:0:0:0:
448,192,275305,128,0,275586:0:0:0:0:
320,192,275492,1,0,0:0:0:0:
192,192,275680,1,0,0:0:0:0:
448,192,275680,1,0,0:0:0:0:
320,192,275773,1,0,0:0:0:0:
448,192,275867,1,0,0:0:0:0:
192,192,275961,1,0,0:0:0:0:
64,192,276055,1,0,0:0:0:0:
320,192,276055,1,0,0:0:0:0:
448,192,276055,1,0,0:0:0:0:
192,192,276242,1,0,0:0:0:0:
64,192,276430,128,0,276711:0:0:0:0:
448,192,276430,128,0,276711:0:0:0:0:
320,192,276617,1,0,0:0:0:0:
64,192,276805,1,0,0:0:0:0:
192,192,276805,1,0,0:0:0:0:
320,192,276805,1,0,0:0:0:0:
448,192,276805,1,0,0:0:0:0:
192,192,276992,1,0,0:0:0:0:
64,192,277180,1,0,0:0:0:0:
448,192,277180,1,0,0:0:0:0:
320,192,277180,1,0,0:0:0:0:
320,192,277367,128,0,277461:0:0:0:0:
64,192,277367,128,0,277461:0:0:0:0:
192,192,277555,128,0,277648:0:0:0:0:
448,192,277555,128,0,278211:0:0:0:0:
64,192,277742,1,0,0:0:0:0:
64,192,277930,1,0,0:0:0:0:
192,192,277930,1,0,0:0:0:0:
320,192,277930,1,0,0:0:0:0:
320,192,278117,1,0,0:0:0:0:
192,192,278305,1,0,0:0:0:0:
320,192,278305,1,0,0:0:0:0:
448,192,278305,1,0,0:0:0:0:
64,192,278305,128,0,278961:0:0:0:0:
320,192,278492,1,0,0:0:0:0:
448,192,278680,1,0,0:0:0:0:
192,192,278680,1,0,0:0:0:0:
448,192,278867,1,0,0:0:0:0:
64,192,279055,1,0,0:0:0:0:
192,192,279055,1,0,0:0:0:0:
320,192,279055,1,0,0:0:0:0:
192,192,279242,1,0,0:0:0:0:
448,192,279430,128,0,279711:0:0:0:0:
64,192,279430,1,0,0:0:0:0:
192,192,279617,1,0,0:0:0:0:
64,192,279805,1,0,0:0:0:0:
320,192,279805,1,0,0:0:0:0:
448,192,279805,1,0,0:0:0:0:
192,192,279805,128,0,280086:0:0:0:0:
320,192,279992,1,0,0:0:0:0:
448,192,280180,128,0,280273:0:0:0:0:
192,192,280180,1,0,0:0:0:0:
64,192,280180,1,0,0:0:0:0:
448,192,280367,128,0,280461:0:0:0:0:
64,192,280367,1,0,0:0:0:0:
192,192,280555,128,0,280742:0:0:0:0:
320,192,280555,1,0,0:0:0:0:
64,192,280742,1,0,0:0:0:0:
320,192,280742,1,0,0:0:0:0:
448,192,280742,1,0,0:0:0:0:
192,192,280836,1,0,0:0:0:0:
64,192,280930,5,0,0:0:0:0:
448,192,280930,1,0,0:0:0:0:
320,192,280930,128,0,281117:0:0:0:0:
192,192,281117,1,0,0:0:0:0:
192,192,281305,1,0,0:0:0:0:
448,192,281305,1,0,0:0:0:0:
320,192,281305,1,0,0:0:0:0:
64,192,281305,128,0,281680:0:0:0:0:
320,192,281492,1,0,0:0:0:0:
448,192,281680,1,0,0:0:0:0:
192,192,281680,1,0,0:0:0:0:
320,192,281867,1,0,0:0:0:0:
448,192,281867,1,0,0:0:0:0:
192,192,281961,1,0,0:0:0:0:
64,192,282055,5,0,0:0:0:0:
448,192,282055,1,0,0:0:0:0:
320,192,282055,1,0,0:0:0:0:
192,192,282117,1,0,0:0:0:0:
320,192,282180,1,0,0:0:0:0:
64,192,282242,1,0,0:0:0:0:
192,192,282305,1,0,0:0:0:0:
448,192,282367,1,0,0:0:0:0:
64,192,282430,1,0,0:0:0:0:
320,192,282492,1,0,0:0:0:0:
448,192,282555,1,0,0:0:0:0:
192,192,282617,1,0,0:0:0:0:
320,192,282680,1,0,0:0:0:0:
64,192,282742,1,0,0:0:0:0:
192,192,282805,1,0,0:0:0:0:
448,192,282805,1,0,0:0:0:0:
320,192,282805,128,0,282992:0:0:0:0:
64,192,282992,1,0,0:0:0:0:
192,192,282992,128,0,283555:0:0:0:0:
64,192,283180,1,0,0:0:0:0:
320,192,283180,1,0,0:0:0:0:
448,192,283180,1,0,0:0:0:0:
320,192,283367,1,0,0:0:0:0:
448,192,283555,1,0,0:0:0:0:
64,192,283555,1,0,0:0:0:0:
192,192,283742,1,0,0:0:0:0:
64,192,283930,1,0,0:0:0:0:
320,192,283930,1,0,0:0:0:0:
448,192,283930,1,0,0:0:0:0:
320,192,284117,1,0,0:0:0:0:
64,192,284305,1,0,0:0:0:0:
192,192,284305,1,0,0:0:0:0:
448,192,284305,1,0,0:0:0:0:
320,192,284305,1,0,0:0:0:0:
192,192,284492,128,0,284586:0:0:0:0:
64,192,284492,128,0,284586:0:0:0:0:
192,192,284680,128,0,284773:0:0:0:0:
320,192,284680,128,0,284773:0:0:0:0:
320,192,284867,128,0,284961:0:0:0:0:
448,192,284867,128,0,284961:0:0:0:0:
192,192,285055,128,0,285148:0:0:0:0:
64,192,285055,128,0,285336:0:0:0:0:
448,192,285055,128,0,285242:0:0:0:0:
320,192,285242,1,0,0:0:0:0:
448,192,285430,1,0,0:0:0:0:
192,192,285430,1,0,0:0:0:0:
192,192,285617,128,0,285711:0:0:0:0:
320,192,285617,128,0,285711:0:0:0:0:
64,192,285805,128,0,285898:0:0:0:0:
448,192,285805,128,0,285898:0:0:0:0:
192,192,285805,1,0,0:0:0:0:
320,192,285805,1,0,0:0:0:0:
448,192,285992,128,0,286086:0:0:0:0:
64,192,285992,128,0,286086:0:0:0:0:
64,192,286180,128,0,286273:0:0:0:0:
448,192,286180,128,0,286273:0:0:0:0:
192,192,286180,1,0,0:0:0:0:
448,192,286367,128,0,286461:0:0:0:0:
64,192,286367,128,0,286461:0:0:0:0:
192,192,286555,128,0,286836:0:0:0:0:
320,192,286555,128,0,286836:0:0:0:0:
64,192,286742,1,0,0:0:0:0:
448,192,286742,1,0,0:0:0:0:
64,192,286930,128,0,287023:0:0:0:0:
448,192,286930,128,0,287023:0:0:0:0:
320,192,286930,1,0,0:0:0:0:
192,192,287117,128,0,287211:0:0:0:0:
320,192,287117,128,0,287211:0:0:0:0:
64,192,287305,128,0,287398:0:0:0:0:
448,192,287305,128,0,287398:0:0:0:0:
192,192,287305,1,0,0:0:0:0:
320,192,287305,1,0,0:0:0:0:
320,192,287492,1,0,0:0:0:0:
192,192,287492,1,0,0:0:0:0:
64,192,287586,1,0,0:0:0:0:
448,192,287586,1,0,0:0:0:0:
192,192,287680,128,0,288055:0:0:0:0:
320,192,287680,128,0,288055:0:0:0:0:
64,192,288055,5,0,0:0:0:0:
448,192,288055,1,0,0:0:0:0:
