osu file format v14

[General]
AudioFilename: .mp3
AudioLeadIn: 0
PreviewTime: -1
Countdown: 1
SampleSet: Soft
StackLeniency: 0.7
Mode: 3
LetterboxInBreaks: 0
SpecialStyle: 0
WidescreenStoryboard: 1

[Editor]
DistanceSpacing: 0.5
BeatDivisor: 4
GridSize: 4
TimelineZoom: 2

[Metadata]
Title:Shakunetsu? Candle Master? Tomoshii
TitleUnicode:灼熱?キャンドルマスター?ともしぃ
Artist:Camellia ft. Nanahira
ArtistUnicode:かめりあ ft。 ななひら
Creator:Hayabusa
Version:4K Master
Source:
Tags:Nanahira Camellia
BeatmapID:821312
BeatmapSetID:374947

[Difficulty]
HPDrainRate:8
CircleSize:4
OverallDifficulty:8
ApproachRate:5
SliderMultiplier:1.4
SliderTickRate:1

[Events]
//Background and Video events
0,0,"Nanahira.jpg",0,0
//Break Periods
//Storyboard Layer 0 (Background)
//Storyboard Layer 1 (Fail)
//Storyboard Layer 2 (Pass)
//Storyboard Layer 3 (Foreground)
//Storyboard Sound Samples

[TimingPoints]
1085,240,4,2,0,50,1,0
240965,240,4,2,0,50,1,0

[HitObjects]
320,192,605,5,0,2:0:0:0:
64,192,685,1,0,2:0:0:0:
320,192,765,1,0,2:0:0:0:
64,192,845,1,4,2:0:0:0:
192,192,845,1,4,2:0:0:0:
192,192,1085,1,0,2:0:0:0:
192,192,1325,1,0,2:0:0:0:
448,192,1475,1,0,2:0:0:0:
192,192,1565,1,4,2:0:0:0:
64,192,1565,1,4,2:0:0:0:
192,192,1805,1,0,0:0:0:0:
320,192,1965,1,0,2:0:0:0:
64,192,2045,1,4,2:0:0:0:
192,192,2045,1,4,2:0:0:0:
64,192,2285,1,0,2:0:0:0:
64,192,2445,1,0,2:0:0:0:
320,192,2525,1,4,2:0:0:0:
448,192,2525,1,4,2:0:0:0:
448,192,2765,1,0,2:0:0:0:
448,192,2925,1,0,2:0:0:0:
192,192,3005,1,4,2:0:0:0:
64,192,3005,1,4,2:0:0:0:
192,192,3245,1,0,2:0:0:0:
192,192,3405,1,0,2:0:0:0:
448,192,3485,1,4,2:0:0:0:
64,192,3485,1,4,2:0:0:0:
448,192,3725,1,0,2:0:0:0:
448,192,3885,1,0,2:0:0:0:
320,192,3965,1,4,2:0:0:0:
64,192,3965,1,4,2:0:0:0:
320,192,4205,1,0,0:0:0:0:
320,192,4365,1,0,2:0:0:0:
192,192,4445,1,4,2:0:0:0:
448,192,4445,1,4,2:0:0:0:
192,192,4685,1,0,2:0:0:0:
320,192,4845,1,0,2:0:0:0:
192,192,4925,1,4,2:0:0:0:
64,192,4925,1,4,2:0:0:0:
192,192,5165,1,0,2:0:0:0:
320,192,5325,1,0,2:0:0:0:
64,192,5405,1,4,2:0:0:0:
448,192,5405,1,4,2:0:0:0:
448,192,5645,1,0,2:0:0:0:
448,192,5805,1,0,2:0:0:0:
64,192,5885,1,4,2:0:0:0:
320,192,5885,1,4,2:0:0:0:
320,192,6125,1,0,2:0:0:0:
320,192,6285,1,0,3:3:0:0:
448,192,6285,1,0,3:3:0:0:
64,192,6365,1,0,3:3:0:0:
192,192,6365,1,0,3:3:0:0:
64,192,6525,1,0,3:3:0:0:
192,192,6525,1,0,3:3:0:0:
448,192,6605,1,0,3:3:0:0:
320,192,6605,1,0,3:3:0:0:
320,192,6765,1,0,3:3:0:0:
64,192,6845,128,0,7805:3:3:0:0:
192,192,6845,1,0,3:3:0:0:
192,192,7725,5,0,3:0:0:0:
320,192,7725,1,0,3:0:0:0:
448,192,7805,128,0,8795:3:0:0:0:
320,192,7965,1,0,0:0:0:0:
192,192,8045,1,0,0:0:0:0:
64,192,8205,1,0,3:0:0:0:
320,192,8285,1,0,3:0:0:0:
64,192,8365,1,0,3:0:0:0:
320,192,8445,1,0,3:0:0:0:
64,192,8525,1,0,3:0:0:0:
64,192,8795,128,0,9755:2:0:0:0:
192,192,8795,1,0,2:0:0:0:
320,192,9035,1,0,2:0:0:0:
448,192,9275,1,0,2:0:0:0:
192,192,9515,1,0,2:0:0:0:
320,192,9755,128,0,10475:2:0:0:0:
192,192,9755,1,0,2:0:0:0:
64,192,9995,1,0,2:0:0:0:
448,192,10235,1,0,2:0:0:0:
448,192,10475,128,0,10715:2:0:0:0:
64,192,10475,1,0,2:0:0:0:
192,192,10715,128,0,11675:2:0:0:0:
320,192,10715,1,0,2:0:0:0:
64,192,10865,1,0,2:0:0:0:
320,192,10955,1,0,2:0:0:0:
448,192,11195,1,0,2:0:0:0:
320,192,11435,1,0,2:0:0:0:
320,192,11675,128,0,12635:2:0:0:0:
64,192,11675,1,0,2:0:0:0:
448,192,11915,1,0,2:0:0:0:
192,192,12155,1,0,2:0:0:0:
64,192,12395,1,0,2:0:0:0:
192,192,12635,128,0,13595:2:0:0:0:
448,192,12635,1,0,2:0:0:0:
64,192,12875,1,0,2:0:0:0:
320,192,13115,1,0,2:0:0:0:
448,192,13355,1,0,2:0:0:0:
64,192,13595,1,0,2:0:0:0:
320,192,13595,128,0,14525:2:0:0:0:
192,192,13835,1,0,2:0:0:0:
448,192,14075,1,0,2:0:0:0:
192,192,14315,1,0,2:0:0:0:
64,192,14525,1,0,3:0:0:0:
448,192,14605,1,0,3:0:0:0:
320,192,14605,1,0,3:0:0:0:
64,192,14685,1,0,3:0:0:0:
320,192,14765,1,0,3:0:0:0:
448,192,14765,1,0,3:0:0:0:
64,192,14845,1,0,3:0:0:0:
320,192,14925,1,0,3:0:0:0:
448,192,14925,1,0,3:0:0:0:
64,192,15005,1,0,3:0:0:0:
320,192,15085,1,0,3:0:0:0:
448,192,15085,1,0,3:0:0:0:
64,192,15165,1,0,3:0:0:0:
320,192,15245,1,0,3:0:0:0:
448,192,15245,1,0,3:0:0:0:
64,192,15325,1,0,3:0:0:0:
320,192,15405,1,0,3:0:0:0:
448,192,15405,1,0,3:0:0:0:
64,192,15485,1,0,3:0:0:0:
64,192,15725,1,0,3:0:0:0:
448,192,15725,1,0,3:0:0:0:
320,192,15725,1,0,3:0:0:0:
192,192,15725,1,0,3:0:0:0:
192,192,15965,1,0,3:0:0:0:
320,192,15965,1,0,3:0:0:0:
64,192,16125,1,0,3:0:0:0:
448,192,16125,1,0,3:0:0:0:
64,192,16365,128,0,17405:3:0:0:0:
320,192,16365,128,0,17405:3:0:0:0:
192,192,17645,1,0,2:0:0:0:
448,192,17885,1,0,3:0:0:0:
320,192,17885,1,0,3:0:0:0:
64,192,18005,1,0,3:0:0:0:
192,192,18005,1,0,3:0:0:0:
448,192,18125,1,0,3:0:0:0:
320,192,18125,1,0,3:0:0:0:
64,192,18365,1,0,3:0:0:0:
192,192,18365,1,0,3:0:0:0:
448,192,18365,1,0,3:0:0:0:
320,192,18485,1,0,3:0:0:0:
192,192,18545,1,0,3:0:0:0:
448,192,18605,1,0,3:0:0:0:
320,192,18605,1,0,3:0:0:0:
64,192,18605,1,0,3:0:0:0:
192,192,18725,1,0,3:0:0:0:
320,192,18785,1,0,3:0:0:0:
448,192,18845,1,0,3:0:0:0:
64,192,18845,1,0,3:0:0:0:
192,192,18845,1,0,3:0:0:0:
320,192,18965,1,0,3:0:0:0:
64,192,19085,1,0,3:0:0:0:
192,192,19085,1,0,3:0:0:0:
320,192,19085,1,0,3:0:0:0:
192,192,19205,1,0,3:0:0:0:
448,192,19325,1,0,3:0:0:0:
320,192,19325,1,0,3:0:0:0:
64,192,19325,1,0,3:0:0:0:
320,192,19445,1,0,3:0:0:0:
192,192,19565,1,0,3:0:0:0:
320,192,19565,1,0,3:0:0:0:
448,192,19565,1,0,3:0:0:0:
192,192,19685,1,0,3:0:0:0:
64,192,19805,1,0,3:0:0:0:
320,192,19805,1,0,3:0:0:0:
448,192,19805,1,0,3:0:0:0:
320,192,19925,1,0,3:0:0:0:
448,192,20045,1,0,3:0:0:0:
192,192,20045,1,0,3:0:0:0:
64,192,20045,1,0,3:0:0:0:
192,192,20165,1,0,3:0:0:0:
320,192,20225,1,0,3:0:0:0:
192,192,20285,1,0,3:0:0:0:
64,192,20285,1,0,3:0:0:0:
448,192,20285,1,0,3:0:0:0:
320,192,20405,1,0,3:0:0:0:
192,192,20465,1,0,3:0:0:0:
320,192,20525,1,0,3:0:0:0:
448,192,20525,1,0,3:0:0:0:
64,192,20525,1,0,3:0:0:0:
192,192,20645,1,0,3:0:0:0:
320,192,20705,1,0,3:0:0:0:
448,192,20765,1,0,3:0:0:0:
192,192,20765,1,0,3:0:0:0:
64,192,20765,1,0,3:0:0:0:
320,192,20885,1,0,3:0:0:0:
448,192,21005,1,0,3:0:0:0:
192,192,21005,1,0,3:0:0:0:
320,192,21005,1,0,3:0:0:0:
192,192,21125,1,0,3:0:0:0:
64,192,21245,1,0,3:0:0:0:
448,192,21245,1,0,3:0:0:0:
320,192,21245,1,0,3:0:0:0:
320,192,21365,1,0,3:0:0:0:
320,192,21485,1,0,3:0:0:0:
448,192,21485,1,0,3:0:0:0:
64,192,21485,1,0,3:0:0:0:
192,192,21605,1,0,3:0:0:0:
64,192,21725,1,0,3:0:0:0:
192,192,21725,1,0,3:0:0:0:
320,192,21725,1,0,3:0:0:0:
320,192,21845,1,0,3:0:0:0:
448,192,21965,1,0,3:0:0:0:
320,192,21965,1,0,3:0:0:0:
64,192,21965,1,0,3:0:0:0:
192,192,22085,1,0,3:0:0:0:
64,192,22205,1,0,3:0:0:0:
192,192,22205,1,0,3:0:0:0:
448,192,22205,1,0,3:0:0:0:
320,192,22325,1,0,3:0:0:0:
192,192,22385,1,0,3:0:0:0:
448,192,22445,1,0,3:0:0:0:
320,192,22445,1,0,3:0:0:0:
64,192,22445,1,0,3:0:0:0:
192,192,22565,1,0,3:0:0:0:
320,192,22625,1,0,3:0:0:0:
192,192,22685,1,0,3:0:0:0:
64,192,22685,1,0,3:0:0:0:
448,192,22685,1,0,3:0:0:0:
192,192,22805,1,0,3:0:0:0:
64,192,22925,1,0,3:0:0:0:
192,192,22925,1,0,3:0:0:0:
320,192,22925,1,0,3:0:0:0:
320,192,23045,1,0,3:0:0:0:
320,192,23165,1,0,3:0:0:0:
448,192,23165,1,0,3:0:0:0:
64,192,23165,1,0,3:0:0:0:
192,192,23285,1,0,3:0:0:0:
64,192,23405,1,0,3:0:0:0:
192,192,23405,1,0,3:0:0:0:
320,192,23405,1,0,3:0:0:0:
320,192,23525,1,0,3:0:0:0:
192,192,23645,1,0,3:0:0:0:
320,192,23645,1,0,3:0:0:0:
448,192,23645,1,0,3:0:0:0:
64,192,23765,1,0,3:0:0:0:
64,192,23885,1,0,3:0:0:0:
192,192,23885,1,0,3:0:0:0:
448,192,23885,1,0,3:0:0:0:
448,192,24005,1,0,3:0:0:0:
448,192,24125,1,0,3:0:0:0:
320,192,24125,1,0,3:0:0:0:
64,192,24125,1,0,3:0:0:0:
192,192,24245,1,0,3:0:0:0:
320,192,24305,1,0,3:0:0:0:
192,192,24365,1,0,3:0:0:0:
64,192,24365,1,0,3:0:0:0:
448,192,24365,1,0,3:0:0:0:
320,192,24485,1,0,3:0:0:0:
192,192,24545,1,0,3:0:0:0:
320,192,24605,1,0,3:0:0:0:
448,192,24605,1,0,3:0:0:0:
64,192,24605,1,0,3:0:0:0:
64,192,24765,1,0,3:0:0:0:
192,192,24765,1,0,3:0:0:0:
320,192,24765,1,0,3:0:0:0:
64,192,24925,1,0,3:0:0:0:
192,192,24925,1,0,3:0:0:0:
448,192,24925,1,0,3:0:0:0:
192,192,25085,1,0,3:0:0:0:
320,192,25085,1,0,3:0:0:0:
448,192,25085,1,0,3:0:0:0:
192,192,25205,1,0,3:0:0:0:
64,192,25325,1,0,3:0:0:0:
192,192,25325,1,0,3:0:0:0:
320,192,25325,1,0,3:0:0:0:
448,192,25325,1,0,3:0:0:0:
320,192,25445,1,0,3:0:0:0:
64,192,25565,1,0,3:0:0:0:
192,192,25565,1,0,3:0:0:0:
320,192,25565,1,0,3:0:0:0:
448,192,25565,1,0,3:0:0:0:
64,192,26045,1,0,3:0:0:0:
192,192,26045,1,0,3:0:0:0:
448,192,26045,1,0,3:0:0:0:
320,192,26165,1,0,3:0:0:0:
192,192,26225,1,0,3:0:0:0:
320,192,26285,1,0,3:0:0:0:
448,192,26285,1,0,3:0:0:0:
64,192,26285,1,0,3:0:0:0:
192,192,26405,1,0,3:0:0:0:
320,192,26465,1,0,3:0:0:0:
192,192,26525,1,0,3:0:0:0:
64,192,26525,1,0,3:0:0:0:
448,192,26525,1,0,3:0:0:0:
192,192,26645,1,0,3:0:0:0:
192,192,26765,1,0,3:0:0:0:
64,192,26765,1,0,3:0:0:0:
320,192,26765,1,0,3:0:0:0:
320,192,26885,1,0,3:0:0:0:
448,192,27005,1,0,3:0:0:0:
320,192,27005,1,0,3:0:0:0:
64,192,27005,1,0,3:0:0:0:
448,192,27125,1,0,3:0:0:0:
448,192,27245,1,0,3:0:0:0:
320,192,27245,1,0,3:0:0:0:
192,192,27245,1,0,3:0:0:0:
192,192,27365,1,0,3:0:0:0:
64,192,27485,1,0,3:0:0:0:
192,192,27485,1,0,3:0:0:0:
448,192,27485,1,0,3:0:0:0:
64,192,27605,1,0,3:0:0:0:
64,192,27725,1,0,3:0:0:0:
320,192,27725,1,0,3:0:0:0:
448,192,27725,1,0,3:0:0:0:
192,192,27845,1,0,3:0:0:0:
320,192,27905,1,0,3:0:0:0:
64,192,27965,1,0,3:0:0:0:
192,192,27965,1,0,3:0:0:0:
448,192,27965,1,0,3:0:0:0:
320,192,28085,1,0,3:0:0:0:
192,192,28145,1,0,3:0:0:0:
320,192,28205,1,0,3:0:0:0:
448,192,28205,1,0,3:0:0:0:
64,192,28205,1,0,3:0:0:0:
192,192,28325,1,0,3:0:0:0:
320,192,28385,1,0,3:0:0:0:
448,192,28445,1,0,3:0:0:0:
64,192,28445,1,0,3:0:0:0:
192,192,28445,1,0,3:0:0:0:
192,192,28565,1,0,3:0:0:0:
64,192,28685,1,0,3:0:0:0:
192,192,28685,1,0,3:0:0:0:
448,192,28685,1,0,3:0:0:0:
320,192,28805,1,0,3:0:0:0:
192,192,28925,1,0,3:0:0:0:
320,192,28925,1,0,3:0:0:0:
448,192,28925,1,0,3:0:0:0:
64,192,29045,1,0,3:0:0:0:
64,192,29165,1,0,3:0:0:0:
448,192,29165,1,0,3:0:0:0:
320,192,29165,1,0,3:0:0:0:
320,192,29285,1,0,3:0:0:0:
320,192,29405,1,0,3:0:0:0:
192,192,29405,1,0,3:0:0:0:
64,192,29405,1,0,3:0:0:0:
448,192,29525,1,0,3:0:0:0:
320,192,29525,1,0,3:0:0:0:
64,192,29585,1,0,3:0:0:0:
192,192,29585,1,0,3:0:0:0:
320,192,29645,1,0,3:0:0:0:
448,192,29645,1,0,3:0:0:0:
64,192,29705,1,0,3:0:0:0:
192,192,29705,1,0,3:0:0:0:
320,192,29765,1,0,3:0:0:0:
448,192,29765,1,0,3:0:0:0:
64,192,29825,1,0,3:0:0:0:
192,192,29825,1,0,3:0:0:0:
320,192,29885,1,0,3:0:0:0:
448,192,29885,1,0,3:0:0:0:
192,192,30005,1,0,3:0:0:0:
64,192,30125,1,0,3:0:0:0:
320,192,30125,1,0,3:0:0:0:
448,192,30125,1,0,3:0:0:0:
320,192,30245,1,0,3:0:0:0:
448,192,30365,1,0,3:0:0:0:
320,192,30365,1,0,3:0:0:0:
192,192,30365,1,0,3:0:0:0:
192,192,30485,1,0,3:0:0:0:
64,192,30725,1,0,3:0:0:0:
192,192,30725,1,0,3:0:0:0:
448,192,30725,1,0,3:0:0:0:
320,192,30725,1,0,3:0:0:0:
448,192,30965,1,0,3:0:0:0:
320,192,30965,1,0,3:0:0:0:
64,192,31025,1,0,3:0:0:0:
192,192,31085,1,0,3:0:0:0:
320,192,31085,1,0,3:0:0:0:
448,192,31145,1,0,3:0:0:0:
64,192,31205,1,0,3:0:0:0:
192,192,31205,1,0,3:0:0:0:
448,192,31265,1,0,3:0:0:0:
320,192,31325,1,0,3:0:0:0:
192,192,31325,1,0,3:0:0:0:
64,192,31385,1,0,3:0:0:0:
448,192,31445,1,0,3:0:0:0:
320,192,31445,1,0,3:0:0:0:
64,192,31505,1,0,3:0:0:0:
192,192,31565,1,0,3:0:0:0:
320,192,31565,1,0,3:0:0:0:
448,192,31625,1,0,3:0:0:0:
64,192,31685,1,0,3:0:0:0:
192,192,31685,1,0,3:0:0:0:
320,192,31745,1,0,3:0:0:0:
192,192,31805,1,0,3:0:0:0:
64,192,31805,1,0,3:0:0:0:
448,192,31805,1,0,3:0:0:0:
320,192,31925,1,0,3:0:0:0:
448,192,32045,1,0,3:0:0:0:
320,192,32045,1,0,3:0:0:0:
64,192,32045,1,0,3:0:0:0:
192,192,32165,1,0,3:0:0:0:
64,192,32285,1,0,3:0:0:0:
192,192,32285,1,0,3:0:0:0:
448,192,32285,1,0,3:0:0:0:
320,192,32405,1,0,3:0:0:0:
320,192,32525,1,0,3:0:0:0:
448,192,32525,1,0,3:0:0:0:
192,192,32525,1,0,3:0:0:0:
192,192,32645,1,0,3:0:0:0:
64,192,32765,1,0,3:0:0:0:
192,192,32765,1,0,3:0:0:0:
448,192,32765,1,0,3:0:0:0:
320,192,32885,1,0,3:0:0:0:
192,192,33005,1,0,3:0:0:0:
320,192,33005,1,0,3:0:0:0:
64,192,33005,1,0,3:0:0:0:
64,192,33125,1,0,3:0:0:0:
448,192,33245,1,0,3:0:0:0:
320,192,33245,1,0,3:0:0:0:
64,192,33245,1,0,3:0:0:0:
192,192,33365,1,0,3:0:0:0:
320,192,33485,1,0,3:0:0:0:
192,192,33485,1,0,3:0:0:0:
64,192,33485,1,0,3:0:0:0:
448,192,33605,1,0,3:0:0:0:
448,192,33725,1,0,3:0:0:0:
320,192,33725,1,0,3:0:0:0:
64,192,33725,1,0,3:0:0:0:
64,192,33845,1,0,3:0:0:0:
64,192,33965,1,0,3:0:0:0:
192,192,33965,1,0,3:0:0:0:
448,192,33965,1,0,3:0:0:0:
320,192,34085,1,0,3:0:0:0:
192,192,34205,1,0,3:0:0:0:
320,192,34205,1,0,3:0:0:0:
448,192,34205,1,0,3:0:0:0:
192,192,34325,1,0,3:0:0:0:
64,192,34445,1,0,3:0:0:0:
192,192,34445,1,0,3:0:0:0:
448,192,34445,1,0,3:0:0:0:
448,192,34565,1,0,3:0:0:0:
448,192,34685,1,0,3:0:0:0:
320,192,34685,1,0,3:0:0:0:
192,192,34685,1,0,3:0:0:0:
64,192,34805,1,0,3:0:0:0:
64,192,34925,1,0,3:0:0:0:
192,192,34925,1,0,3:0:0:0:
448,192,34925,1,0,3:0:0:0:
320,192,35045,1,0,3:0:0:0:
320,192,35165,1,0,3:0:0:0:
448,192,35165,1,0,3:0:0:0:
64,192,35165,1,0,3:0:0:0:
192,192,35285,1,0,3:0:0:0:
64,192,35405,1,0,3:0:0:0:
192,192,35405,1,0,3:0:0:0:
448,192,35405,1,0,3:0:0:0:
448,192,35525,1,0,3:0:0:0:
448,192,35645,1,0,3:0:0:0:
192,192,35645,1,0,3:0:0:0:
64,192,35645,1,0,3:0:0:0:
192,192,35765,1,0,3:0:0:0:
64,192,35885,1,0,3:0:0:0:
192,192,35885,1,0,3:0:0:0:
320,192,35885,1,0,3:0:0:0:
320,192,36005,1,0,3:0:0:0:
192,192,36125,1,0,3:0:0:0:
320,192,36125,1,0,3:0:0:0:
448,192,36125,1,0,3:0:0:0:
64,192,36245,1,0,3:0:0:0:
64,192,36365,1,0,3:0:0:0:
320,192,36365,1,0,3:0:0:0:
448,192,36365,1,0,3:0:0:0:
192,192,36485,1,0,3:0:0:0:
64,192,36605,1,0,3:0:0:0:
192,192,36605,1,0,3:0:0:0:
448,192,36605,1,0,3:0:0:0:
320,192,36725,1,0,3:0:0:0:
448,192,36845,1,0,3:0:0:0:
320,192,36845,1,0,3:0:0:0:
64,192,36845,1,0,3:0:0:0:
448,192,36965,1,0,3:0:0:0:
448,192,37085,1,0,3:0:0:0:
320,192,37085,1,0,3:0:0:0:
192,192,37085,1,0,3:0:0:0:
192,192,37205,1,0,3:0:0:0:
64,192,37325,1,0,3:0:0:0:
448,192,37325,1,0,3:0:0:0:
320,192,37325,1,0,3:0:0:0:
320,192,37445,1,0,3:0:0:0:
192,192,37565,1,0,3:0:0:0:
64,192,37565,1,0,3:0:0:0:
448,192,37565,1,0,3:0:0:0:
320,192,37685,1,0,3:0:0:0:
192,192,37805,1,0,3:0:0:0:
320,192,37805,1,0,3:0:0:0:
448,192,37805,1,0,3:0:0:0:
192,192,37925,1,0,3:0:0:0:
64,192,38045,1,0,3:0:0:0:
192,192,38045,1,0,3:0:0:0:
448,192,38045,1,0,3:0:0:0:
448,192,38165,1,0,3:0:0:0:
320,192,38165,1,0,3:0:0:0:
64,192,38225,1,0,3:0:0:0:
192,192,38225,1,0,3:0:0:0:
320,192,38285,1,0,3:0:0:0:
448,192,38285,1,0,3:0:0:0:
64,192,38405,1,0,3:0:0:0:
192,192,38405,1,0,3:0:0:0:
320,192,38465,1,0,3:0:0:0:
448,192,38465,1,0,3:0:0:0:
64,192,38525,128,0,39485:3:0:0:0:
192,192,38525,128,0,39485:3:0:0:0:
448,192,39485,1,0,3:0:0:0:
320,192,39605,1,0,3:0:0:0:
192,192,39725,1,0,3:0:0:0:
64,192,39725,1,0,3:0:0:0:
448,192,39725,1,0,3:0:0:0:
192,192,39845,1,0,3:0:0:0:
64,192,39965,1,0,3:0:0:0:
320,192,39965,1,0,3:0:0:0:
448,192,39965,1,0,3:0:0:0:
320,192,40085,1,0,3:0:0:0:
320,192,40205,1,0,3:0:0:0:
192,192,40205,1,0,3:0:0:0:
64,192,40205,1,0,3:0:0:0:
192,192,40325,1,0,3:0:0:0:
192,192,40445,1,0,3:0:0:0:
320,192,40445,1,0,3:0:0:0:
448,192,40445,1,0,3:0:0:0:
192,192,40565,1,0,3:0:0:0:
448,192,40685,1,0,3:0:0:0:
320,192,40685,1,0,3:0:0:0:
64,192,40685,1,0,3:0:0:0:
192,192,40805,1,0,3:0:0:0:
320,192,40925,1,0,3:0:0:0:
192,192,40925,1,0,3:0:0:0:
64,192,40925,1,0,3:0:0:0:
320,192,41045,1,0,3:0:0:0:
192,192,41165,1,0,3:0:0:0:
320,192,41165,1,0,3:0:0:0:
448,192,41165,1,0,3:0:0:0:
192,192,41285,1,0,3:0:0:0:
64,192,41405,1,0,3:0:0:0:
192,192,41405,1,0,3:0:0:0:
448,192,41405,1,0,3:0:0:0:
448,192,41525,1,0,3:0:0:0:
448,192,41645,1,0,3:0:0:0:
320,192,41645,1,0,3:0:0:0:
64,192,41645,1,0,3:0:0:0:
192,192,41765,1,0,3:0:0:0:
64,192,41885,1,0,3:0:0:0:
192,192,41885,1,0,3:0:0:0:
448,192,41885,1,0,3:0:0:0:
320,192,42005,1,0,3:0:0:0:
448,192,42125,1,0,3:0:0:0:
320,192,42125,1,0,3:0:0:0:
192,192,42125,1,0,3:0:0:0:
192,192,42245,1,0,3:0:0:0:
64,192,42365,1,0,3:0:0:0:
192,192,42365,1,0,3:0:0:0:
448,192,42365,1,0,3:0:0:0:
320,192,42485,1,0,3:0:0:0:
64,192,42605,1,0,3:0:0:0:
192,192,42605,1,0,3:0:0:0:
448,192,42605,1,0,3:0:0:0:
192,192,42725,1,0,3:0:0:0:
448,192,42845,1,0,3:0:0:0:
320,192,42845,1,0,3:0:0:0:
64,192,42845,1,0,3:0:0:0:
192,192,42965,1,0,3:0:0:0:
448,192,43085,1,0,3:0:0:0:
320,192,43085,1,0,3:0:0:0:
64,192,43085,1,0,3:0:0:0:
320,192,43205,1,0,3:0:0:0:
320,192,43325,1,0,3:0:0:0:
448,192,43325,1,0,3:0:0:0:
192,192,43325,1,0,3:0:0:0:
192,192,43445,1,0,3:0:0:0:
64,192,43565,1,0,3:0:0:0:
192,192,43565,1,0,3:0:0:0:
320,192,43565,1,0,3:0:0:0:
320,192,43685,1,0,3:0:0:0:
192,192,43805,1,0,3:0:0:0:
320,192,43805,1,0,3:0:0:0:
448,192,43805,1,0,3:0:0:0:
64,192,43925,1,0,3:0:0:0:
64,192,44045,1,0,3:0:0:0:
192,192,44045,1,0,3:0:0:0:
448,192,44045,1,0,3:0:0:0:
320,192,44165,1,0,3:0:0:0:
448,192,44165,1,0,3:0:0:0:
64,192,44165,1,0,3:0:0:0:
192,192,44285,1,0,3:0:0:0:
64,192,44405,1,0,3:0:0:0:
192,192,44405,1,0,3:0:0:0:
448,192,44405,1,0,3:0:0:0:
320,192,44525,1,0,3:0:0:0:
64,192,44645,1,0,3:0:0:0:
448,192,44645,1,0,3:0:0:0:
320,192,44645,1,0,3:0:0:0:
192,192,44765,1,0,3:0:0:0:
64,192,44885,1,0,3:0:0:0:
192,192,44885,1,0,3:0:0:0:
448,192,44885,1,0,3:0:0:0:
320,192,45005,1,0,3:0:0:0:
448,192,45125,1,0,3:0:0:0:
320,192,45125,1,0,3:0:0:0:
64,192,45125,1,0,3:0:0:0:
320,192,45245,1,0,3:0:0:0:
192,192,45365,1,0,3:0:0:0:
64,192,45365,1,0,3:0:0:0:
448,192,45365,1,0,3:0:0:0:
64,192,45485,1,0,3:0:0:0:
192,192,45485,1,0,3:0:0:0:
448,192,45485,1,0,3:0:0:0:
448,192,45605,1,0,3:0:0:0:
320,192,45605,1,0,3:0:0:0:
64,192,45605,1,0,3:0:0:0:
448,192,45725,1,0,3:0:0:0:
320,192,45725,1,0,3:0:0:0:
64,192,45725,1,0,3:0:0:0:
64,192,45845,1,0,3:0:0:0:
192,192,45845,1,0,3:0:0:0:
448,192,45845,1,0,3:0:0:0:
64,192,45965,1,0,3:0:0:0:
192,192,45965,1,0,3:0:0:0:
448,192,45965,1,0,3:0:0:0:
448,192,46085,1,0,3:0:0:0:
320,192,46085,1,0,3:0:0:0:
64,192,46085,1,0,3:0:0:0:
64,192,46205,1,0,3:0:0:0:
320,192,46205,128,0,46445:3:0:0:0:
448,192,46205,128,0,46445:3:0:0:0:
192,192,46325,1,0,3:0:0:0:
192,192,46445,128,0,46685:3:0:0:0:
64,192,46445,128,0,46685:3:0:0:0:
320,192,46565,1,0,3:0:0:0:
320,192,46685,128,0,46925:3:0:0:0:
448,192,46685,128,0,46925:3:0:0:0:
192,192,46805,1,0,3:0:0:0:
192,192,46925,128,0,47165:3:0:0:0:
64,192,46925,128,0,47165:3:0:0:0:
320,192,47045,1,0,3:0:0:0:
320,192,47165,128,0,47405:3:0:0:0:
448,192,47165,128,0,47405:3:0:0:0:
64,192,47405,1,0,3:0:0:0:
320,192,47525,1,0,3:0:0:0:
448,192,47645,1,0,3:0:0:0:
320,192,47645,1,0,3:0:0:0:
64,192,47645,1,0,3:0:0:0:
64,192,47765,1,0,3:0:0:0:
192,192,47765,1,0,3:0:0:0:
448,192,47765,1,0,3:0:0:0:
448,192,47885,1,0,3:0:0:0:
320,192,47885,1,0,3:0:0:0:
64,192,47885,1,0,3:0:0:0:
192,192,48005,1,0,3:0:0:0:
448,192,48125,1,0,3:0:0:0:
64,192,48125,1,0,3:0:0:0:
192,192,48125,1,0,3:0:0:0:
320,192,48245,1,0,3:0:0:0:
448,192,48365,1,0,3:0:0:0:
320,192,48365,1,0,3:0:0:0:
192,192,48365,1,0,3:0:0:0:
64,192,48485,1,0,3:0:0:0:
192,192,48485,1,0,3:0:0:0:
448,192,48485,1,0,3:0:0:0:
320,192,48605,1,0,3:0:0:0:
192,192,48725,1,0,3:0:0:0:
64,192,48725,1,0,3:0:0:0:
448,192,48725,1,0,3:0:0:0:
448,192,48845,1,0,3:0:0:0:
320,192,48845,1,0,3:0:0:0:
192,192,48845,1,0,3:0:0:0:
64,192,48965,128,0,50405:3:0:0:0:
192,192,48965,128,0,50405:3:0:0:0:
320,192,49325,1,0,3:0:0:0:
448,192,49325,1,0,3:0:0:0:
320,192,49565,1,0,3:0:0:0:
448,192,49565,1,0,3:0:0:0:
320,192,50045,1,0,3:0:0:0:
448,192,50045,1,0,3:0:0:0:
320,192,50405,1,0,3:0:0:0:
448,192,50405,1,0,3:0:0:0:
192,192,50645,1,0,3:0:0:0:
64,192,50645,1,0,3:0:0:0:
448,192,50765,1,0,3:0:0:0:
320,192,50765,1,0,3:0:0:0:
64,192,50825,1,0,3:0:0:0:
192,192,50825,1,0,3:0:0:0:
320,192,50885,1,0,3:0:0:0:
448,192,50885,1,0,3:0:0:0:
64,192,50945,1,0,3:0:0:0:
192,192,50945,1,0,3:0:0:0:
320,192,51005,1,0,3:0:0:0:
448,192,51005,1,0,3:0:0:0:
192,192,51125,1,0,3:0:0:0:
448,192,51245,1,0,3:0:0:0:
320,192,51245,1,0,3:0:0:0:
64,192,51245,1,0,3:0:0:0:
320,192,51365,1,0,3:0:0:0:
192,192,51485,1,0,3:0:0:0:
64,192,51485,1,0,3:0:0:0:
448,192,51485,1,0,3:0:0:0:
448,192,51605,1,0,3:0:0:0:
320,192,51605,1,0,3:0:0:0:
64,192,51605,1,0,3:0:0:0:
192,192,51725,1,0,3:0:0:0:
64,192,51725,1,0,3:0:0:0:
448,192,51725,1,0,3:0:0:0:
320,192,51845,1,0,3:0:0:0:
448,192,51965,1,0,3:0:0:0:
320,192,51965,1,0,3:0:0:0:
64,192,51965,1,0,3:0:0:0:
192,192,52085,1,0,3:0:0:0:
64,192,52205,1,0,3:0:0:0:
192,192,52205,1,0,3:0:0:0:
320,192,52205,1,0,3:0:0:0:
448,192,52325,1,0,3:0:0:0:
320,192,52325,1,0,3:0:0:0:
64,192,52325,1,0,3:0:0:0:
192,192,52445,1,0,3:0:0:0:
320,192,52565,1,0,3:0:0:0:
448,192,52565,1,0,3:0:0:0:
64,192,52565,1,0,3:0:0:0:
64,192,52685,1,0,3:0:0:0:
192,192,52685,1,0,3:0:0:0:
320,192,52685,1,0,3:0:0:0:
320,192,52805,128,0,54365:3:0:0:0:
64,192,52805,1,0,3:0:0:0:
448,192,52805,1,0,3:0:0:0:
192,192,52805,1,0,3:0:0:0:
64,192,53165,1,0,3:0:0:0:
192,192,53165,1,0,3:0:0:0:
448,192,53285,1,0,2:0:0:0:
192,192,53405,1,0,3:0:0:0:
64,192,53405,1,0,3:0:0:0:
448,192,53525,1,0,2:0:0:0:
64,192,53765,1,0,2:0:0:0:
192,192,53885,1,0,3:0:0:0:
64,192,53885,1,0,3:0:0:0:
448,192,53885,1,0,3:0:0:0:
64,192,54045,1,0,3:0:0:0:
192,192,54045,1,0,3:0:0:0:
448,192,54045,1,0,3:0:0:0:
64,192,54205,1,0,3:0:0:0:
192,192,54205,1,0,3:0:0:0:
448,192,54205,1,0,3:0:0:0:
192,192,54365,1,0,3:0:0:0:
64,192,54365,1,0,3:0:0:0:
448,192,54365,1,0,3:0:0:0:
448,192,54525,1,0,3:0:0:0:
320,192,54525,1,0,3:0:0:0:
192,192,54525,1,0,3:0:0:0:
64,192,54525,1,0,3:0:0:0:
192,192,54685,1,0,3:0:0:0:
64,192,54685,1,0,3:0:0:0:
320,192,54685,1,0,3:0:0:0:
448,192,54685,1,0,3:0:0:0:
448,192,54845,1,0,3:0:0:0:
64,192,54845,1,0,3:0:0:0:
192,192,54905,1,0,2:0:0:0:
64,192,54965,1,0,2:0:0:0:
192,192,55025,1,0,2:0:0:0:
448,192,55085,1,0,2:0:0:0:
320,192,55145,1,0,2:0:0:0:
448,192,55205,1,0,2:0:0:0:
320,192,55265,1,0,2:0:0:0:
64,192,55325,1,0,2:0:0:0:
192,192,55385,1,0,2:0:0:0:
64,192,55445,1,0,2:0:0:0:
192,192,55505,1,0,2:0:0:0:
448,192,55565,1,0,2:0:0:0:
320,192,55625,1,0,2:0:0:0:
448,192,55685,1,0,2:0:0:0:
320,192,55745,1,0,2:0:0:0:
64,192,55805,1,0,3:0:0:0:
448,192,55805,1,0,3:0:0:0:
192,192,55865,1,0,2:0:0:0:
64,192,55925,1,0,2:0:0:0:
192,192,55985,1,0,2:0:0:0:
448,192,56045,1,0,2:0:0:0:
320,192,56105,1,0,2:0:0:0:
448,192,56165,1,0,2:0:0:0:
320,192,56225,1,0,2:0:0:0:
64,192,56285,1,0,2:0:0:0:
192,192,56345,1,0,2:0:0:0:
64,192,56405,1,0,2:0:0:0:
192,192,56465,1,0,2:0:0:0:
448,192,56525,1,0,2:0:0:0:
320,192,56585,1,0,2:0:0:0:
448,192,56645,1,0,2:0:0:0:
320,192,56705,1,0,2:0:0:0:
64,192,56765,1,0,3:0:0:0:
448,192,56765,1,0,3:0:0:0:
192,192,56825,1,0,2:0:0:0:
320,192,56885,1,0,2:0:0:0:
448,192,56945,1,0,2:0:0:0:
320,192,57005,1,0,2:0:0:0:
192,192,57065,1,0,2:0:0:0:
64,192,57125,1,0,2:0:0:0:
448,192,57185,1,0,2:0:0:0:
320,192,57245,1,0,2:0:0:0:
192,192,57305,1,0,2:0:0:0:
64,192,57365,1,0,2:0:0:0:
192,192,57425,1,0,2:0:0:0:
320,192,57485,1,0,2:0:0:0:
448,192,57545,1,0,2:0:0:0:
320,192,57605,1,0,2:0:0:0:
192,192,57665,1,0,2:0:0:0:
64,192,57725,1,0,3:0:0:0:
448,192,57725,1,0,3:0:0:0:
320,192,57725,1,0,3:0:0:0:
192,192,57785,1,0,2:0:0:0:
320,192,57845,1,0,2:0:0:0:
448,192,57905,1,0,2:0:0:0:
320,192,57965,1,0,2:0:0:0:
192,192,58025,1,0,2:0:0:0:
64,192,58085,1,0,2:0:0:0:
192,192,58145,1,0,2:0:0:0:
320,192,58205,1,0,2:0:0:0:
448,192,58265,1,0,2:0:0:0:
64,192,58325,1,0,2:0:0:0:
192,192,58385,1,0,2:0:0:0:
320,192,58445,1,0,2:0:0:0:
448,192,58505,1,0,2:0:0:0:
320,192,58565,1,0,2:0:0:0:
192,192,58625,1,0,2:0:0:0:
64,192,58685,1,0,3:0:0:0:
320,192,58685,1,0,3:0:0:0:
448,192,58685,1,0,3:0:0:0:
192,192,58745,1,0,2:0:0:0:
64,192,58805,1,0,2:0:0:0:
192,192,58865,1,0,2:0:0:0:
448,192,58925,1,0,2:0:0:0:
320,192,58985,1,0,2:0:0:0:
448,192,59045,1,0,2:0:0:0:
320,192,59105,1,0,2:0:0:0:
64,192,59165,1,0,3:0:0:0:
448,192,59165,1,0,3:0:0:0:
192,192,59225,1,0,2:0:0:0:
64,192,59285,1,0,2:0:0:0:
192,192,59345,1,0,2:0:0:0:
448,192,59405,1,0,2:0:0:0:
320,192,59465,1,0,2:0:0:0:
448,192,59525,1,0,2:0:0:0:
320,192,59585,1,0,2:0:0:0:
64,192,59645,1,0,3:0:0:0:
448,192,59645,1,0,3:0:0:0:
192,192,59705,1,0,2:0:0:0:
64,192,59765,1,0,2:0:0:0:
192,192,59825,1,0,2:0:0:0:
448,192,59885,1,0,2:0:0:0:
320,192,59945,1,0,2:0:0:0:
448,192,60005,1,0,2:0:0:0:
320,192,60065,1,0,2:0:0:0:
448,192,60125,1,0,3:0:0:0:
64,192,60125,1,0,3:0:0:0:
192,192,60185,1,0,2:0:0:0:
64,192,60245,1,0,2:0:0:0:
192,192,60305,1,0,2:0:0:0:
448,192,60365,1,0,2:0:0:0:
320,192,60425,1,0,2:0:0:0:
448,192,60485,1,0,2:0:0:0:
320,192,60545,1,0,2:0:0:0:
448,192,60605,1,0,3:0:0:0:
64,192,60605,1,0,3:0:0:0:
192,192,60665,1,0,2:0:0:0:
320,192,60725,1,0,2:0:0:0:
448,192,60785,1,0,2:0:0:0:
64,192,60845,1,0,3:0:0:0:
192,192,60845,1,0,3:0:0:0:
320,192,60845,1,0,3:0:0:0:
448,192,60905,1,0,2:0:0:0:
320,192,60965,1,0,2:0:0:0:
192,192,61025,1,0,2:0:0:0:
448,192,61085,1,0,3:0:0:0:
64,192,61085,1,0,3:0:0:0:
192,192,61145,1,0,2:0:0:0:
320,192,61205,1,0,2:0:0:0:
448,192,61265,1,0,2:0:0:0:
64,192,61325,1,0,3:0:0:0:
192,192,61325,1,0,3:0:0:0:
320,192,61325,1,0,3:0:0:0:
448,192,61385,1,0,2:0:0:0:
320,192,61445,1,0,2:0:0:0:
192,192,61505,1,0,2:0:0:0:
448,192,61565,1,0,3:0:0:0:
64,192,61565,1,0,3:0:0:0:
64,192,61685,1,0,3:0:0:0:
192,192,61685,1,0,3:0:0:0:
448,192,61685,1,0,3:0:0:0:
448,192,61805,1,0,3:0:0:0:
320,192,61805,1,0,3:0:0:0:
64,192,61805,1,0,3:0:0:0:
64,192,61925,1,0,3:0:0:0:
448,192,61925,1,0,3:0:0:0:
320,192,61925,1,0,3:0:0:0:
64,192,62045,1,0,3:0:0:0:
192,192,62045,1,0,3:0:0:0:
320,192,62105,1,0,3:0:0:0:
448,192,62105,1,0,3:0:0:0:
64,192,62165,1,0,3:0:0:0:
192,192,62165,1,0,3:0:0:0:
320,192,62225,1,0,3:0:0:0:
448,192,62225,1,0,3:0:0:0:
192,192,62285,1,0,3:0:0:0:
64,192,62285,1,0,3:0:0:0:
320,192,62345,1,0,3:0:0:0:
448,192,62345,1,0,3:0:0:0:
64,192,62405,1,0,3:0:0:0:
192,192,62405,1,0,3:0:0:0:
320,192,62465,1,0,3:0:0:0:
448,192,62465,1,0,3:0:0:0:
64,192,62525,1,0,3:0:0:0:
192,192,62525,1,0,3:0:0:0:
320,192,62645,1,0,2:0:0:0:
448,192,62765,1,0,2:0:0:0:
320,192,62885,1,0,2:0:0:0:
192,192,63005,1,0,2:0:0:0:
64,192,63125,1,0,2:0:0:0:
192,192,63245,1,0,2:0:0:0:
320,192,63485,1,0,2:0:0:0:
448,192,63605,1,0,2:0:0:0:
320,192,63725,1,0,2:0:0:0:
192,192,63845,1,0,2:0:0:0:
64,192,63965,1,0,3:0:0:0:
192,192,63965,1,0,3:0:0:0:
448,192,64025,1,0,3:0:0:0:
320,192,64025,1,0,3:0:0:0:
64,192,64085,1,0,3:0:0:0:
192,192,64085,1,0,3:0:0:0:
320,192,64145,1,0,3:0:0:0:
448,192,64145,1,0,3:0:0:0:
192,192,64205,1,0,3:0:0:0:
64,192,64205,1,0,3:0:0:0:
64,192,64445,1,0,3:0:0:0:
192,192,64445,1,0,3:0:0:0:
448,192,64445,1,0,3:0:0:0:
320,192,64565,1,0,3:0:0:0:
448,192,64685,1,0,3:0:0:0:
320,192,64685,1,0,3:0:0:0:
64,192,64685,1,0,3:0:0:0:
192,192,64805,1,0,3:0:0:0:
64,192,64925,1,0,3:0:0:0:
192,192,64925,1,0,3:0:0:0:
320,192,64925,1,0,3:0:0:0:
448,192,65045,1,0,3:0:0:0:
448,192,65165,1,0,3:0:0:0:
320,192,65165,1,0,3:0:0:0:
192,192,65165,1,0,3:0:0:0:
192,192,65285,1,0,3:0:0:0:
64,192,65405,1,0,3:0:0:0:
192,192,65405,1,0,3:0:0:0:
448,192,65405,1,0,3:0:0:0:
320,192,65525,1,0,3:0:0:0:
64,192,65645,1,0,3:0:0:0:
192,192,65645,1,0,3:0:0:0:
448,192,65645,1,0,3:0:0:0:
192,192,65765,1,0,3:0:0:0:
448,192,65885,1,0,3:0:0:0:
320,192,65885,1,0,3:0:0:0:
64,192,65885,1,0,3:0:0:0:
192,192,66005,1,0,3:0:0:0:
448,192,66125,1,0,3:0:0:0:
320,192,66125,1,0,3:0:0:0:
64,192,66125,1,0,3:0:0:0:
320,192,66245,1,0,3:0:0:0:
448,192,66365,1,0,3:0:0:0:
320,192,66365,1,0,3:0:0:0:
192,192,66365,1,0,3:0:0:0:
192,192,66485,1,0,3:0:0:0:
64,192,66605,1,0,3:0:0:0:
192,192,66605,1,0,3:0:0:0:
448,192,66605,1,0,3:0:0:0:
320,192,66725,1,0,3:0:0:0:
320,192,66845,1,0,3:0:0:0:
448,192,66845,1,0,3:0:0:0:
64,192,66845,1,0,3:0:0:0:
64,192,66965,1,0,3:0:0:0:
64,192,67085,1,0,3:0:0:0:
192,192,67085,1,0,3:0:0:0:
320,192,67085,1,0,3:0:0:0:
320,192,67205,1,0,3:0:0:0:
448,192,67325,1,0,3:0:0:0:
320,192,67325,1,0,3:0:0:0:
64,192,67325,1,0,3:0:0:0:
448,192,67445,1,0,3:0:0:0:
448,192,67565,1,0,3:0:0:0:
64,192,67565,1,0,3:0:0:0:
192,192,67565,1,0,3:0:0:0:
192,192,67685,1,0,3:0:0:0:
64,192,67805,1,0,3:0:0:0:
320,192,67805,1,0,3:0:0:0:
448,192,67805,1,0,3:0:0:0:
320,192,67925,1,0,3:0:0:0:
64,192,68045,1,0,3:0:0:0:
192,192,68045,1,0,3:0:0:0:
448,192,68045,1,0,3:0:0:0:
320,192,68165,1,0,3:0:0:0:
192,192,68285,1,0,3:0:0:0:
64,192,68285,1,0,3:0:0:0:
448,192,68285,1,0,3:0:0:0:
192,192,68405,1,0,3:0:0:0:
64,192,68525,1,0,3:0:0:0:
192,192,68525,1,0,3:0:0:0:
320,192,68525,1,0,3:0:0:0:
320,192,68645,1,0,3:0:0:0:
192,192,68765,1,0,3:0:0:0:
320,192,68765,1,0,3:0:0:0:
448,192,68765,1,0,3:0:0:0:
192,192,68885,1,0,3:0:0:0:
64,192,69005,1,0,3:0:0:0:
192,192,69005,1,0,3:0:0:0:
320,192,69005,1,0,3:0:0:0:
320,192,69125,1,0,3:0:0:0:
320,192,69245,1,0,3:0:0:0:
448,192,69245,1,0,3:0:0:0:
192,192,69245,1,0,3:0:0:0:
192,192,69365,1,0,3:0:0:0:
64,192,69485,1,0,3:0:0:0:
192,192,69485,1,0,3:0:0:0:
320,192,69485,1,0,3:0:0:0:
320,192,69605,1,0,3:0:0:0:
448,192,69725,1,0,3:0:0:0:
320,192,69725,1,0,3:0:0:0:
64,192,69725,1,0,3:0:0:0:
192,192,69845,1,0,3:0:0:0:
64,192,69965,1,0,3:0:0:0:
192,192,69965,1,0,3:0:0:0:
320,192,69965,1,0,3:0:0:0:
320,192,70085,1,0,3:0:0:0:
320,192,70205,1,0,3:0:0:0:
64,192,70205,1,0,3:0:0:0:
448,192,70205,1,0,3:0:0:0:
192,192,70325,1,0,3:0:0:0:
64,192,70445,1,0,3:0:0:0:
192,192,70445,1,0,3:0:0:0:
448,192,70445,1,0,3:0:0:0:
320,192,70565,1,0,3:0:0:0:
448,192,70685,1,0,3:0:0:0:
320,192,70685,1,0,3:0:0:0:
64,192,70685,1,0,3:0:0:0:
192,192,70805,1,0,3:0:0:0:
64,192,70925,1,0,3:0:0:0:
192,192,70925,1,0,3:0:0:0:
448,192,70925,1,0,3:0:0:0:
320,192,71045,1,0,3:0:0:0:
320,192,71165,1,0,3:0:0:0:
448,192,71165,1,0,3:0:0:0:
64,192,71165,1,0,3:0:0:0:
192,192,71285,1,0,3:0:0:0:
64,192,71405,1,0,3:0:0:0:
192,192,71405,1,0,3:0:0:0:
448,192,71405,1,0,3:0:0:0:
64,192,71645,1,0,3:0:0:0:
192,192,71645,1,0,3:0:0:0:
320,192,71645,1,0,3:0:0:0:
448,192,71645,1,0,3:0:0:0:
448,192,71765,1,0,3:0:0:0:
320,192,71765,1,0,3:0:0:0:
192,192,71765,1,0,3:0:0:0:
64,192,71765,1,0,3:0:0:0:
64,192,71885,1,0,3:0:0:0:
192,192,71885,1,0,3:0:0:0:
320,192,71885,1,0,3:0:0:0:
448,192,71885,1,0,3:0:0:0:
64,192,72125,1,0,3:0:0:0:
192,192,72125,1,0,3:0:0:0:
448,192,72125,1,0,3:0:0:0:
448,192,72245,1,0,3:0:0:0:
320,192,72245,1,0,3:0:0:0:
64,192,72245,1,0,3:0:0:0:
448,192,72485,1,0,3:0:0:0:
192,192,72485,1,0,3:0:0:0:
64,192,72485,1,0,3:0:0:0:
320,192,72605,1,0,2:0:0:0:
64,192,72725,1,0,3:0:0:0:
192,192,72725,1,0,3:0:0:0:
320,192,72725,1,0,3:0:0:0:
448,192,72725,1,0,3:0:0:0:
64,192,73085,1,0,3:0:0:0:
192,192,73085,1,0,3:0:0:0:
448,192,73085,1,0,3:0:0:0:
448,192,73205,1,0,3:0:0:0:
320,192,73205,1,0,3:0:0:0:
64,192,73205,1,0,3:0:0:0:
64,192,73445,1,0,3:0:0:0:
192,192,73445,1,0,3:0:0:0:
448,192,73445,1,0,3:0:0:0:
320,192,73565,1,0,2:0:0:0:
64,192,73685,1,0,3:0:0:0:
192,192,73685,1,0,3:0:0:0:
320,192,73685,1,0,3:0:0:0:
448,192,73685,1,0,3:0:0:0:
192,192,74285,1,0,3:0:0:0:
448,192,74285,1,0,3:0:0:0:
64,192,74285,1,0,3:0:0:0:
320,192,74405,1,0,3:0:0:0:
448,192,74525,1,0,3:0:0:0:
320,192,74525,1,0,3:0:0:0:
64,192,74525,1,0,3:0:0:0:
192,192,74645,1,0,3:0:0:0:
64,192,74765,1,0,3:0:0:0:
192,192,74765,1,0,3:0:0:0:
448,192,74765,1,0,3:0:0:0:
320,192,74885,1,0,3:0:0:0:
448,192,75005,1,0,3:0:0:0:
320,192,75005,1,0,3:0:0:0:
64,192,75005,1,0,3:0:0:0:
192,192,75125,1,0,3:0:0:0:
64,192,75245,1,0,3:0:0:0:
192,192,75245,1,0,3:0:0:0:
320,192,75245,1,0,3:0:0:0:
192,192,75365,1,0,3:0:0:0:
320,192,75365,1,0,3:0:0:0:
448,192,75365,1,0,3:0:0:0:
192,192,75485,1,0,3:0:0:0:
448,192,75605,1,0,3:0:0:0:
320,192,75605,1,0,3:0:0:0:
64,192,75665,1,0,3:0:0:0:
192,192,75665,1,0,3:0:0:0:
320,192,75725,1,0,3:0:0:0:
448,192,75725,1,0,3:0:0:0:
448,192,75965,1,0,3:0:0:0:
192,192,75965,1,0,3:0:0:0:
64,192,75965,1,0,3:0:0:0:
192,192,76085,1,0,3:0:0:0:
64,192,76205,1,0,3:0:0:0:
192,192,76205,1,0,3:0:0:0:
320,192,76205,1,0,3:0:0:0:
320,192,76325,1,0,3:0:0:0:
192,192,76445,1,0,3:0:0:0:
320,192,76445,1,0,3:0:0:0:
448,192,76445,1,0,3:0:0:0:
192,192,76565,1,0,3:0:0:0:
64,192,76685,1,0,3:0:0:0:
448,192,76685,1,0,3:0:0:0:
320,192,76685,1,0,3:0:0:0:
192,192,76805,1,0,3:0:0:0:
64,192,76925,1,0,3:0:0:0:
192,192,76925,1,0,3:0:0:0:
448,192,76925,1,0,3:0:0:0:
320,192,77045,1,0,3:0:0:0:
192,192,77165,1,0,3:0:0:0:
320,192,77165,1,0,3:0:0:0:
448,192,77165,1,0,3:0:0:0:
192,192,77285,1,0,3:0:0:0:
64,192,77405,1,0,3:0:0:0:
192,192,77405,1,0,3:0:0:0:
448,192,77405,1,0,3:0:0:0:
320,192,77525,1,0,3:0:0:0:
320,192,77645,1,0,3:0:0:0:
448,192,77645,1,0,3:0:0:0:
64,192,77645,1,0,3:0:0:0:
192,192,77765,1,0,3:0:0:0:
64,192,77885,1,0,3:0:0:0:
192,192,77885,1,0,3:0:0:0:
320,192,77885,1,0,3:0:0:0:
320,192,78005,1,0,3:0:0:0:
448,192,78125,1,0,3:0:0:0:
192,192,78125,1,0,3:0:0:0:
64,192,78125,1,0,3:0:0:0:
320,192,78245,1,0,3:0:0:0:
320,192,78365,1,0,3:0:0:0:
448,192,78365,1,0,3:0:0:0:
192,192,78365,1,0,3:0:0:0:
192,192,78485,1,0,3:0:0:0:
64,192,78605,1,0,3:0:0:0:
320,192,78605,1,0,3:0:0:0:
448,192,78605,1,0,3:0:0:0:
320,192,78725,1,0,3:0:0:0:
448,192,78845,1,0,3:0:0:0:
192,192,78845,1,0,3:0:0:0:
64,192,78845,1,0,3:0:0:0:
320,192,78965,1,0,3:0:0:0:
64,192,79085,1,0,3:0:0:0:
192,192,79085,1,0,3:0:0:0:
320,192,79145,1,0,3:0:0:0:
448,192,79145,1,0,3:0:0:0:
64,192,79205,1,0,3:0:0:0:
192,192,79205,1,0,3:0:0:0:
320,192,79265,1,0,3:0:0:0:
448,192,79265,1,0,3:0:0:0:
192,192,79325,1,0,3:0:0:0:
64,192,79325,1,0,3:0:0:0:
320,192,79385,1,0,3:0:0:0:
448,192,79385,1,0,3:0:0:0:
192,192,79445,1,0,3:0:0:0:
64,192,79445,1,0,3:0:0:0:
320,192,79505,1,0,3:0:0:0:
448,192,79505,1,0,3:0:0:0:
192,192,79565,1,0,3:0:0:0:
64,192,79565,1,0,3:0:0:0:
320,192,79625,1,0,3:0:0:0:
448,192,79625,1,0,3:0:0:0:
192,192,79685,1,0,3:0:0:0:
64,192,79685,1,0,3:0:0:0:
320,192,79745,1,0,3:0:0:0:
448,192,79745,1,0,3:0:0:0:
192,192,79805,1,0,3:0:0:0:
64,192,79805,1,0,3:0:0:0:
320,192,79925,1,0,3:0:0:0:
448,192,80045,1,0,3:0:0:0:
320,192,80045,1,0,3:0:0:0:
64,192,80045,1,0,3:0:0:0:
192,192,80165,1,0,3:0:0:0:
64,192,80285,1,0,3:0:0:0:
320,192,80285,1,0,3:0:0:0:
448,192,80285,1,0,3:0:0:0:
192,192,80405,1,0,3:0:0:0:
64,192,80525,1,0,3:0:0:0:
192,192,80525,1,0,3:0:0:0:
320,192,80525,1,0,3:0:0:0:
320,192,80645,1,0,3:0:0:0:
192,192,80765,1,0,3:0:0:0:
448,192,80765,1,0,3:0:0:0:
64,192,80765,1,0,3:0:0:0:
320,192,80885,1,0,3:0:0:0:
192,192,81005,1,0,3:0:0:0:
448,192,81005,1,0,3:0:0:0:
320,192,81005,1,0,3:0:0:0:
192,192,81125,1,0,3:0:0:0:
64,192,81245,1,0,3:0:0:0:
320,192,81245,1,0,3:0:0:0:
448,192,81245,1,0,3:0:0:0:
192,192,81365,1,0,3:0:0:0:
320,192,81485,1,0,3:0:0:0:
448,192,81485,1,0,3:0:0:0:
64,192,81485,1,0,3:0:0:0:
320,192,81605,1,0,3:0:0:0:
320,192,81725,1,0,3:0:0:0:
448,192,81725,1,0,3:0:0:0:
192,192,81725,1,0,3:0:0:0:
192,192,81845,1,0,3:0:0:0:
64,192,81965,1,0,3:0:0:0:
192,192,81965,1,0,3:0:0:0:
448,192,81965,1,0,3:0:0:0:
320,192,82085,1,0,3:0:0:0:
192,192,82205,1,0,3:0:0:0:
64,192,82205,1,0,3:0:0:0:
448,192,82205,1,0,3:0:0:0:
192,192,82325,1,0,3:0:0:0:
64,192,82445,1,0,3:0:0:0:
192,192,82445,1,0,3:0:0:0:
320,192,82445,1,0,3:0:0:0:
320,192,82565,1,0,3:0:0:0:
448,192,82685,1,0,3:0:0:0:
320,192,82685,1,0,3:0:0:0:
64,192,82685,1,0,3:0:0:0:
192,192,82805,1,0,3:0:0:0:
64,192,82925,1,0,3:0:0:0:
448,192,82925,1,0,3:0:0:0:
192,192,82925,1,0,3:0:0:0:
320,192,83045,1,0,3:0:0:0:
192,192,83165,1,0,3:0:0:0:
448,192,83165,1,0,3:0:0:0:
64,192,83165,1,0,3:0:0:0:
192,192,83285,1,0,3:0:0:0:
192,192,83405,1,0,3:0:0:0:
320,192,83405,1,0,3:0:0:0:
448,192,83405,1,0,3:0:0:0:
320,192,83525,1,0,3:0:0:0:
64,192,83645,1,0,3:0:0:0:
192,192,83645,1,0,3:0:0:0:
448,192,83645,1,0,3:0:0:0:
320,192,83765,1,0,3:0:0:0:
448,192,83885,1,0,3:0:0:0:
192,192,83885,1,0,3:0:0:0:
320,192,83885,1,0,3:0:0:0:
192,192,84005,1,0,3:0:0:0:
64,192,84125,1,0,3:0:0:0:
192,192,84125,1,0,3:0:0:0:
448,192,84125,1,0,3:0:0:0:
320,192,84245,1,0,3:0:0:0:
320,192,84365,1,0,3:0:0:0:
448,192,84365,1,0,3:0:0:0:
64,192,84365,1,0,3:0:0:0:
192,192,84485,1,0,3:0:0:0:
64,192,84605,1,0,3:0:0:0:
192,192,84605,1,0,3:0:0:0:
320,192,84605,1,0,3:0:0:0:
320,192,84725,1,0,3:0:0:0:
448,192,84845,1,0,3:0:0:0:
192,192,84845,1,0,3:0:0:0:
64,192,84845,1,0,3:0:0:0:
192,192,84965,1,0,3:0:0:0:
64,192,85085,1,0,3:0:0:0:
448,192,85085,1,0,3:0:0:0:
320,192,85085,1,0,3:0:0:0:
192,192,85205,1,0,3:0:0:0:
192,192,85325,1,0,3:0:0:0:
64,192,85325,1,0,3:0:0:0:
448,192,85325,1,0,3:0:0:0:
448,192,85445,1,0,3:0:0:0:
320,192,85445,1,0,3:0:0:0:
64,192,85505,1,0,3:0:0:0:
192,192,85505,1,0,3:0:0:0:
320,192,85565,1,0,3:0:0:0:
448,192,85565,1,0,3:0:0:0:
64,192,85805,1,0,3:0:0:0:
192,192,85805,1,0,3:0:0:0:
448,192,85805,1,0,3:0:0:0:
448,192,85925,1,0,3:0:0:0:
320,192,85925,1,0,3:0:0:0:
64,192,85925,1,0,3:0:0:0:
64,192,86165,1,0,3:0:0:0:
192,192,86165,1,0,3:0:0:0:
320,192,86165,1,0,3:0:0:0:
192,192,86285,1,0,3:0:0:0:
320,192,86285,1,0,3:0:0:0:
448,192,86285,1,0,3:0:0:0:
448,192,86525,1,0,3:0:0:0:
320,192,86525,1,0,3:0:0:0:
64,192,86525,1,0,3:0:0:0:
64,192,86645,1,0,3:0:0:0:
192,192,86645,1,0,3:0:0:0:
448,192,86645,1,0,3:0:0:0:
448,192,86885,1,0,3:0:0:0:
320,192,86885,1,0,3:0:0:0:
192,192,86885,1,0,3:0:0:0:
64,192,87005,1,0,3:0:0:0:
192,192,87005,1,0,3:0:0:0:
320,192,87005,1,0,3:0:0:0:
64,192,87245,1,0,3:0:0:0:
192,192,87245,1,0,3:0:0:0:
320,192,87245,1,0,3:0:0:0:
448,192,87245,1,0,3:0:0:0:
448,192,87365,1,0,3:0:0:0:
320,192,87365,1,0,3:0:0:0:
192,192,87365,1,0,3:0:0:0:
64,192,87365,1,0,3:0:0:0:
64,192,87725,1,0,3:0:0:0:
192,192,87725,1,0,3:0:0:0:
320,192,87725,1,0,3:0:0:0:
448,192,87725,1,0,3:0:0:0:
64,192,88085,1,0,3:0:0:0:
192,192,88085,1,0,3:0:0:0:
320,192,88085,1,0,3:0:0:0:
448,192,88085,1,0,3:0:0:0:
64,192,88325,1,0,3:0:0:0:
192,192,88325,1,0,3:0:0:0:
320,192,88325,1,0,3:0:0:0:
448,192,88325,1,0,3:0:0:0:
64,192,88565,1,0,2:0:0:0:
448,192,88625,1,0,2:0:0:0:
192,192,88685,1,0,2:0:0:0:
320,192,88745,1,0,2:0:0:0:
64,192,88805,1,0,2:0:0:0:
448,192,88865,1,0,2:0:0:0:
192,192,88925,1,0,2:0:0:0:
320,192,88985,1,0,2:0:0:0:
64,192,89045,1,0,2:0:0:0:
448,192,89105,1,0,2:0:0:0:
192,192,89165,1,0,2:0:0:0:
320,192,89225,1,0,2:0:0:0:
192,192,89285,1,0,3:0:0:0:
64,192,89285,1,0,3:0:0:0:
448,192,89285,1,0,3:0:0:0:
64,192,89645,1,0,3:0:0:0:
192,192,89645,1,0,3:0:0:0:
320,192,89645,1,0,3:0:0:0:
448,192,89645,1,0,3:0:0:0:
64,192,90005,1,0,3:0:0:0:
192,192,90005,1,0,3:0:0:0:
320,192,90005,1,0,3:0:0:0:
448,192,90005,1,0,3:0:0:0:
64,192,90245,1,0,3:0:0:0:
192,192,90245,1,0,3:0:0:0:
320,192,90245,1,0,3:0:0:0:
448,192,90245,1,0,3:0:0:0:
64,192,90365,1,0,2:0:0:0:
448,192,90425,1,0,2:0:0:0:
192,192,90485,1,0,2:0:0:0:
320,192,90545,1,0,2:0:0:0:
64,192,90605,1,0,2:0:0:0:
448,192,90665,1,0,2:0:0:0:
192,192,90725,1,0,2:0:0:0:
320,192,90785,1,0,2:0:0:0:
64,192,90845,1,0,3:0:0:0:
448,192,90845,1,0,3:0:0:0:
192,192,90845,1,0,3:0:0:0:
320,192,90965,1,0,2:0:0:0:
64,192,91085,1,0,3:0:0:0:
192,192,91085,1,0,3:0:0:0:
320,192,91085,1,0,3:0:0:0:
448,192,91085,1,0,3:0:0:0:
192,192,91205,1,0,2:0:0:0:
64,192,91325,1,0,3:0:0:0:
192,192,91325,1,0,3:0:0:0:
320,192,91325,1,0,3:0:0:0:
448,192,91325,1,0,3:0:0:0:
192,192,91565,1,0,2:0:0:0:
448,192,91805,1,0,2:0:0:0:
192,192,91925,1,0,2:0:0:0:
320,192,92045,1,0,2:0:0:0:
64,192,92165,1,0,2:0:0:0:
448,192,92285,1,0,2:0:0:0:
192,192,92405,1,0,2:0:0:0:
320,192,92525,1,0,2:0:0:0:
448,192,92645,1,0,3:0:0:0:
64,192,92645,128,0,94295:3:0:0:0:
192,192,92645,128,0,94295:3:0:0:0:
320,192,94295,1,0,2:0:0:0:
448,192,94475,1,0,2:0:0:0:
64,192,94715,1,0,2:0:0:0:
192,192,94955,1,0,2:0:0:0:
320,192,95195,1,0,2:0:0:0:
448,192,95435,1,0,2:0:0:0:
320,192,95675,1,0,2:0:0:0:
192,192,95915,1,0,2:0:0:0:
64,192,96155,1,0,2:0:0:0:
192,192,96305,1,0,2:0:0:0:
320,192,96395,1,0,2:0:0:0:
448,192,96635,1,0,2:0:0:0:
320,192,96875,1,0,2:0:0:0:
64,192,97115,1,0,2:0:0:0:
320,192,97355,1,0,2:0:0:0:
64,192,97595,1,0,2:0:0:0:
448,192,97835,1,0,2:0:0:0:
192,192,98075,1,0,2:0:0:0:
320,192,98225,1,0,2:0:0:0:
448,192,98315,1,0,2:0:0:0:
320,192,98555,1,0,2:0:0:0:
192,192,98795,1,0,2:0:0:0:
64,192,99035,1,0,2:0:0:0:
192,192,99275,1,0,2:0:0:0:
448,192,99515,1,0,2:0:0:0:
320,192,99755,1,0,2:0:0:0:
64,192,99995,1,0,2:0:0:0:
192,192,100145,1,0,2:0:0:0:
448,192,100235,1,0,2:0:0:0:
320,192,100475,1,0,2:0:0:0:
64,192,100715,1,0,2:0:0:0:
192,192,100955,1,0,2:0:0:0:
320,192,101195,1,0,2:0:0:0:
448,192,101435,1,0,2:0:0:0:
64,192,101675,1,0,2:0:0:0:
64,192,101885,1,0,3:0:0:0:
320,192,101885,1,0,3:0:0:0:
448,192,101885,1,0,3:0:0:0:
192,192,102005,1,0,3:0:0:0:
320,192,102065,1,0,3:0:0:0:
192,192,102125,1,0,3:0:0:0:
64,192,102125,1,0,3:0:0:0:
448,192,102125,1,0,3:0:0:0:
320,192,102245,1,0,3:0:0:0:
192,192,102305,1,0,3:0:0:0:
320,192,102365,1,0,3:0:0:0:
448,192,102365,1,0,3:0:0:0:
64,192,102365,1,0,3:0:0:0:
192,192,102485,1,0,3:0:0:0:
64,192,102605,1,0,3:0:0:0:
192,192,102605,1,0,3:0:0:0:
448,192,102605,1,0,3:0:0:0:
320,192,102725,1,0,3:0:0:0:
448,192,102845,1,0,3:0:0:0:
320,192,102845,1,0,3:0:0:0:
192,192,102845,1,0,3:0:0:0:
192,192,102965,1,0,3:0:0:0:
64,192,103085,1,0,3:0:0:0:
320,192,103085,1,0,3:0:0:0:
448,192,103085,1,0,3:0:0:0:
320,192,103205,1,0,3:0:0:0:
448,192,103325,1,0,3:0:0:0:
192,192,103325,1,0,3:0:0:0:
64,192,103325,1,0,3:0:0:0:
320,192,103445,1,0,3:0:0:0:
64,192,103565,1,0,3:0:0:0:
320,192,103565,1,0,3:0:0:0:
448,192,103565,1,0,3:0:0:0:
192,192,103685,1,0,3:0:0:0:
320,192,103745,1,0,3:0:0:0:
64,192,103805,1,0,3:0:0:0:
192,192,103805,1,0,3:0:0:0:
448,192,103805,1,0,3:0:0:0:
320,192,103925,1,0,3:0:0:0:
192,192,103985,1,0,3:0:0:0:
320,192,104045,1,0,3:0:0:0:
448,192,104045,1,0,3:0:0:0:
64,192,104045,1,0,3:0:0:0:
192,192,104165,1,0,3:0:0:0:
320,192,104225,1,0,3:0:0:0:
192,192,104285,1,0,3:0:0:0:
64,192,104285,1,0,3:0:0:0:
448,192,104285,1,0,3:0:0:0:
320,192,104405,1,0,3:0:0:0:
320,192,104525,1,0,3:0:0:0:
448,192,104525,1,0,3:0:0:0:
64,192,104525,1,0,3:0:0:0:
192,192,104645,1,0,3:0:0:0:
64,192,104765,1,0,3:0:0:0:
192,192,104765,1,0,3:0:0:0:
320,192,104765,1,0,3:0:0:0:
320,192,104885,1,0,3:0:0:0:
448,192,105005,1,0,3:0:0:0:
192,192,105005,1,0,3:0:0:0:
64,192,105005,1,0,3:0:0:0:
192,192,105125,1,0,3:0:0:0:
64,192,105245,1,0,3:0:0:0:
448,192,105245,1,0,3:0:0:0:
192,192,105245,1,0,3:0:0:0:
320,192,105365,1,0,3:0:0:0:
192,192,105485,1,0,3:0:0:0:
320,192,105485,1,0,3:0:0:0:
448,192,105485,1,0,3:0:0:0:
192,192,105605,1,0,3:0:0:0:
320,192,105665,1,0,3:0:0:0:
64,192,105725,1,0,3:0:0:0:
448,192,105725,1,0,3:0:0:0:
192,192,105725,1,0,3:0:0:0:
320,192,105845,1,0,3:0:0:0:
192,192,105905,1,0,3:0:0:0:
320,192,105965,1,0,3:0:0:0:
448,192,105965,1,0,3:0:0:0:
64,192,105965,1,0,3:0:0:0:
192,192,106085,1,0,3:0:0:0:
320,192,106145,1,0,3:0:0:0:
64,192,106205,1,0,3:0:0:0:
192,192,106205,1,0,3:0:0:0:
448,192,106205,1,0,3:0:0:0:
320,192,106325,1,0,3:0:0:0:
448,192,106445,1,0,3:0:0:0:
320,192,106445,1,0,3:0:0:0:
192,192,106445,1,0,3:0:0:0:
192,192,106565,1,0,3:0:0:0:
64,192,106685,1,0,3:0:0:0:
320,192,106685,1,0,3:0:0:0:
448,192,106685,1,0,3:0:0:0:
320,192,106805,1,0,3:0:0:0:
192,192,106925,1,0,3:0:0:0:
64,192,106925,1,0,3:0:0:0:
448,192,106925,1,0,3:0:0:0:
192,192,107045,1,0,3:0:0:0:
64,192,107165,1,0,3:0:0:0:
192,192,107165,1,0,3:0:0:0:
320,192,107165,1,0,3:0:0:0:
320,192,107285,1,0,3:0:0:0:
192,192,107405,1,0,3:0:0:0:
320,192,107405,1,0,3:0:0:0:
448,192,107405,1,0,3:0:0:0:
192,192,107525,1,0,3:0:0:0:
320,192,107585,1,0,3:0:0:0:
64,192,107645,1,0,3:0:0:0:
448,192,107645,1,0,3:0:0:0:
192,192,107645,1,0,3:0:0:0:
320,192,107765,1,0,3:0:0:0:
192,192,107825,1,0,3:0:0:0:
320,192,107885,1,0,3:0:0:0:
448,192,107885,1,0,3:0:0:0:
64,192,107885,1,0,3:0:0:0:
192,192,108005,1,0,3:0:0:0:
320,192,108065,1,0,3:0:0:0:
192,192,108125,1,0,3:0:0:0:
64,192,108125,1,0,3:0:0:0:
448,192,108125,1,0,3:0:0:0:
192,192,108285,1,0,3:0:0:0:
64,192,108285,1,0,3:0:0:0:
448,192,108285,1,0,3:0:0:0:
320,192,108285,1,0,3:0:0:0:
64,192,108445,1,0,3:0:0:0:
192,192,108445,1,0,3:0:0:0:
448,192,108445,1,0,3:0:0:0:
320,192,108445,1,0,3:0:0:0:
64,192,108605,1,0,3:0:0:0:
192,192,108605,1,0,3:0:0:0:
320,192,108605,1,0,3:0:0:0:
448,192,108605,1,0,3:0:0:0:
192,192,108725,1,0,2:0:0:0:
192,192,108845,1,0,3:0:0:0:
64,192,108845,1,0,3:0:0:0:
320,192,108845,1,0,3:0:0:0:
448,192,108845,1,0,3:0:0:0:
320,192,108965,1,0,2:0:0:0:
64,192,109085,1,0,3:0:0:0:
192,192,109085,1,0,3:0:0:0:
320,192,109085,1,0,3:0:0:0:
448,192,109085,1,0,3:0:0:0:
64,192,109565,1,0,3:0:0:0:
448,192,109565,1,0,3:0:0:0:
320,192,109565,1,0,3:0:0:0:
192,192,109685,1,0,3:0:0:0:
320,192,109745,1,0,3:0:0:0:
192,192,109805,1,0,3:0:0:0:
64,192,109805,1,0,3:0:0:0:
448,192,109805,1,0,3:0:0:0:
320,192,109925,1,0,3:0:0:0:
192,192,109985,1,0,3:0:0:0:
320,192,110045,1,0,3:0:0:0:
448,192,110045,1,0,3:0:0:0:
64,192,110045,1,0,3:0:0:0:
192,192,110165,1,0,3:0:0:0:
64,192,110285,1,0,3:0:0:0:
192,192,110285,1,0,3:0:0:0:
448,192,110285,1,0,3:0:0:0:
320,192,110405,1,0,3:0:0:0:
448,192,110525,1,0,3:0:0:0:
320,192,110525,1,0,3:0:0:0:
192,192,110525,1,0,3:0:0:0:
192,192,110645,1,0,3:0:0:0:
64,192,110765,1,0,3:0:0:0:
320,192,110765,1,0,3:0:0:0:
448,192,110765,1,0,3:0:0:0:
192,192,110885,1,0,3:0:0:0:
192,192,111005,1,0,3:0:0:0:
64,192,111005,1,0,3:0:0:0:
448,192,111005,1,0,3:0:0:0:
320,192,111125,1,0,3:0:0:0:
448,192,111245,1,0,3:0:0:0:
320,192,111245,1,0,3:0:0:0:
192,192,111245,1,0,3:0:0:0:
192,192,111365,1,0,3:0:0:0:
320,192,111425,1,0,3:0:0:0:
192,192,111485,1,0,3:0:0:0:
64,192,111485,1,0,3:0:0:0:
448,192,111485,1,0,3:0:0:0:
320,192,111605,1,0,3:0:0:0:
192,192,111665,1,0,3:0:0:0:
320,192,111725,1,0,3:0:0:0:
448,192,111725,1,0,3:0:0:0:
64,192,111725,1,0,3:0:0:0:
192,192,111845,1,0,3:0:0:0:
320,192,111905,1,0,3:0:0:0:
192,192,111965,1,0,3:0:0:0:
64,192,111965,1,0,3:0:0:0:
448,192,111965,1,0,3:0:0:0:
320,192,112085,1,0,3:0:0:0:
448,192,112205,1,0,3:0:0:0:
320,192,112205,1,0,3:0:0:0:
192,192,112205,1,0,3:0:0:0:
192,192,112325,1,0,3:0:0:0:
64,192,112445,1,0,3:0:0:0:
320,192,112445,1,0,3:0:0:0:
448,192,112445,1,0,3:0:0:0:
192,192,112565,1,0,3:0:0:0:
64,192,112685,1,0,3:0:0:0:
192,192,112685,1,0,3:0:0:0:
320,192,112685,1,0,3:0:0:0:
320,192,112805,1,0,3:0:0:0:
448,192,112925,1,0,3:0:0:0:
64,192,112925,1,0,3:0:0:0:
192,192,112925,1,0,3:0:0:0:
192,192,113045,1,0,3:0:0:0:
64,192,113045,1,0,3:0:0:0:
448,192,113105,1,0,3:0:0:0:
320,192,113105,1,0,3:0:0:0:
192,192,113165,1,0,3:0:0:0:
64,192,113165,1,0,3:0:0:0:
320,192,113225,1,0,3:0:0:0:
448,192,113225,1,0,3:0:0:0:
192,192,113285,1,0,3:0:0:0:
64,192,113285,1,0,3:0:0:0:
320,192,113345,1,0,3:0:0:0:
448,192,113345,1,0,3:0:0:0:
192,192,113405,1,0,3:0:0:0:
64,192,113405,1,0,3:0:0:0:
320,192,113525,1,0,2:0:0:0:
192,192,113645,1,0,2:0:0:0:
64,192,113765,1,0,2:0:0:0:
192,192,113885,1,0,2:0:0:0:
320,192,114005,1,0,2:0:0:0:
320,192,114245,1,0,3:0:0:0:
192,192,114245,1,0,3:0:0:0:
64,192,114245,1,0,3:0:0:0:
448,192,114245,1,0,3:0:0:0:
320,192,114485,1,0,3:0:0:0:
64,192,114605,1,0,3:0:0:0:
192,192,114725,1,0,3:2:0:0:
64,192,114725,1,0,3:2:0:0:
320,192,114785,1,0,3:2:0:0:
448,192,114785,1,0,3:2:0:0:
192,192,114845,1,0,3:2:0:0:
64,192,114845,1,0,3:2:0:0:
320,192,114905,1,0,3:2:0:0:
448,192,114905,1,0,3:2:0:0:
192,192,114965,1,0,3:2:0:0:
64,192,114965,1,0,3:2:0:0:
320,192,115025,1,0,3:2:0:0:
448,192,115025,1,0,3:2:0:0:
192,192,115085,1,0,3:2:0:0:
64,192,115085,1,0,3:2:0:0:
320,192,115205,1,0,3:0:0:0:
64,192,115325,1,0,3:0:0:0:
192,192,115325,1,0,3:0:0:0:
320,192,115325,1,0,3:0:0:0:
448,192,115325,1,0,3:0:0:0:
192,192,115595,1,0,2:0:0:0:
320,192,115835,1,0,2:0:0:0:
448,192,116075,1,0,2:0:0:0:
320,192,116315,1,0,2:0:0:0:
192,192,116555,1,0,2:0:0:0:
64,192,116795,1,0,2:0:0:0:
192,192,117035,1,0,2:0:0:0:
320,192,117275,1,0,2:0:0:0:
448,192,117425,1,0,2:0:0:0:
192,192,117515,1,0,2:0:0:0:
64,192,117755,1,0,2:0:0:0:
320,192,117995,1,0,2:0:0:0:
192,192,118235,1,0,2:0:0:0:
448,192,118475,1,0,2:0:0:0:
320,192,118715,1,0,2:0:0:0:
192,192,118955,1,0,2:0:0:0:
64,192,119195,1,0,2:0:0:0:
192,192,119435,1,0,2:0:0:0:
448,192,119675,1,0,2:0:0:0:
320,192,119915,1,0,2:0:0:0:
64,192,120155,1,0,2:0:0:0:
192,192,120395,1,0,2:0:0:0:
320,192,120635,1,0,2:0:0:0:
64,192,120875,1,0,2:0:0:0:
448,192,121115,1,0,2:0:0:0:
192,192,121265,1,0,2:0:0:0:
448,192,121355,1,0,2:0:0:0:
320,192,121595,1,0,2:0:0:0:
192,192,121835,1,0,2:0:0:0:
64,192,122075,1,0,2:0:0:0:
192,192,122315,1,0,2:0:0:0:
320,192,122555,1,0,2:0:0:0:
448,192,122795,1,0,2:0:0:0:
64,192,123005,1,0,3:0:0:0:
192,192,123005,1,0,3:0:0:0:
448,192,123005,1,0,3:0:0:0:
320,192,123125,1,0,3:0:0:0:
448,192,123245,1,0,3:0:0:0:
320,192,123245,1,0,3:0:0:0:
64,192,123245,1,0,3:0:0:0:
192,192,123365,1,0,3:0:0:0:
64,192,123485,1,0,3:0:0:0:
192,192,123485,1,0,3:0:0:0:
320,192,123485,1,0,3:0:0:0:
448,192,123605,1,0,3:0:0:0:
448,192,123725,1,0,3:0:0:0:
192,192,123725,1,0,3:0:0:0:
64,192,123725,1,0,3:0:0:0:
192,192,123845,1,0,3:0:0:0:
64,192,123965,1,0,3:0:0:0:
320,192,123965,1,0,3:0:0:0:
448,192,123965,1,0,3:0:0:0:
320,192,124085,1,0,3:0:0:0:
320,192,124205,1,0,3:0:0:0:
448,192,124205,1,0,3:0:0:0:
192,192,124205,1,0,3:0:0:0:
64,192,124325,1,0,3:0:0:0:
64,192,124445,1,0,3:0:0:0:
192,192,124445,1,0,3:0:0:0:
448,192,124445,1,0,3:0:0:0:
320,192,124565,1,0,3:0:0:0:
448,192,124685,1,0,3:0:0:0:
320,192,124685,1,0,3:0:0:0:
64,192,124685,1,0,3:0:0:0:
192,192,124805,1,0,3:0:0:0:
64,192,124925,1,0,3:0:0:0:
192,192,124925,1,0,3:0:0:0:
320,192,124925,1,0,3:0:0:0:
448,192,125045,1,0,3:0:0:0:
320,192,125165,1,0,3:0:0:0:
448,192,125165,1,0,3:0:0:0:
64,192,125165,1,0,3:0:0:0:
192,192,125285,1,0,3:0:0:0:
64,192,125405,1,0,3:0:0:0:
192,192,125405,1,0,3:0:0:0:
448,192,125405,1,0,3:0:0:0:
320,192,125525,1,0,3:0:0:0:
192,192,125645,1,0,3:0:0:0:
320,192,125645,1,0,3:0:0:0:
448,192,125645,1,0,3:0:0:0:
192,192,125765,1,0,3:0:0:0:
64,192,125885,1,0,3:0:0:0:
192,192,125885,1,0,3:0:0:0:
320,192,125885,1,0,3:0:0:0:
448,192,126005,1,0,3:0:0:0:
320,192,126125,1,0,3:0:0:0:
448,192,126125,1,0,3:0:0:0:
64,192,126125,1,0,3:0:0:0:
192,192,126245,1,0,3:0:0:0:
64,192,126365,1,0,3:0:0:0:
320,192,126365,1,0,3:0:0:0:
448,192,126365,1,0,3:0:0:0:
320,192,126485,1,0,3:0:0:0:
192,192,126605,1,0,3:0:0:0:
64,192,126605,1,0,3:0:0:0:
448,192,126605,1,0,3:0:0:0:
320,192,126725,1,0,3:0:0:0:
448,192,126845,1,0,3:0:0:0:
192,192,126845,1,0,3:0:0:0:
64,192,126845,1,0,3:0:0:0:
320,192,126965,1,0,3:0:0:0:
64,192,127085,1,0,3:0:0:0:
448,192,127085,1,0,3:0:0:0:
320,192,127085,1,0,3:0:0:0:
192,192,127205,1,0,3:0:0:0:
64,192,127325,1,0,3:0:0:0:
192,192,127325,1,0,3:0:0:0:
448,192,127325,1,0,3:0:0:0:
320,192,127445,1,0,3:0:0:0:
320,192,127565,1,0,3:0:0:0:
448,192,127565,1,0,3:0:0:0:
192,192,127565,1,0,3:0:0:0:
64,192,127685,1,0,3:0:0:0:
64,192,127805,1,0,3:0:0:0:
320,192,127805,1,0,3:0:0:0:
448,192,127805,1,0,3:0:0:0:
192,192,127925,1,0,3:0:0:0:
64,192,128045,1,0,3:0:0:0:
192,192,128045,1,0,3:0:0:0:
320,192,128045,1,0,3:0:0:0:
320,192,128165,1,0,3:0:0:0:
192,192,128285,1,0,3:0:0:0:
320,192,128285,1,0,3:0:0:0:
448,192,128285,1,0,3:0:0:0:
192,192,128405,1,0,3:0:0:0:
64,192,128525,1,0,3:0:0:0:
192,192,128525,1,0,3:0:0:0:
448,192,128525,1,0,3:0:0:0:
320,192,128645,1,0,3:0:0:0:
448,192,128765,1,0,3:0:0:0:
320,192,128765,1,0,3:0:0:0:
64,192,128825,1,0,3:0:0:0:
192,192,128825,1,0,3:0:0:0:
320,192,128885,1,0,3:0:0:0:
448,192,128885,1,0,3:0:0:0:
192,192,128945,1,0,3:0:0:0:
64,192,128945,1,0,3:0:0:0:
320,192,129005,1,0,3:0:0:0:
448,192,129005,1,0,3:0:0:0:
64,192,129125,1,0,3:0:0:0:
192,192,129125,1,0,3:0:0:0:
320,192,129125,1,0,3:0:0:0:
448,192,129125,1,0,3:0:0:0:
64,192,129245,1,0,3:0:0:0:
192,192,129245,1,0,3:0:0:0:
320,192,129305,1,0,3:0:0:0:
448,192,129305,1,0,3:0:0:0:
192,192,129365,1,0,3:0:0:0:
64,192,129365,1,0,3:0:0:0:
320,192,129425,1,0,3:0:0:0:
448,192,129425,1,0,3:0:0:0:
192,192,129485,1,0,3:0:0:0:
64,192,129485,1,0,3:0:0:0:
320,192,129605,1,0,3:0:0:0:
448,192,129605,1,0,3:0:0:0:
192,192,129665,1,0,3:0:0:0:
64,192,129665,1,0,3:0:0:0:
320,192,129725,128,0,130685:3:0:0:0:
448,192,129725,128,0,130685:3:0:0:0:
64,192,130685,1,0,3:0:0:0:
192,192,130805,1,0,3:0:0:0:
320,192,130925,1,0,3:0:0:0:
192,192,130925,1,0,3:0:0:0:
64,192,130925,1,0,3:0:0:0:
448,192,131045,1,0,3:0:0:0:
448,192,131165,1,0,3:0:0:0:
320,192,131165,1,0,3:0:0:0:
64,192,131165,1,0,3:0:0:0:
192,192,131285,1,0,3:0:0:0:
64,192,131405,1,0,3:0:0:0:
192,192,131405,1,0,3:0:0:0:
448,192,131405,1,0,3:0:0:0:
320,192,131525,1,0,3:0:0:0:
448,192,131645,1,0,3:0:0:0:
320,192,131645,1,0,3:0:0:0:
64,192,131645,1,0,3:0:0:0:
192,192,131765,1,0,3:0:0:0:
64,192,131885,1,0,3:0:0:0:
192,192,131885,1,0,3:0:0:0:
320,192,131885,1,0,3:0:0:0:
448,192,132005,1,0,3:0:0:0:
448,192,132125,1,0,3:0:0:0:
320,192,132125,1,0,3:0:0:0:
64,192,132125,1,0,3:0:0:0:
192,192,132245,1,0,3:0:0:0:
320,192,132365,1,0,3:0:0:0:
64,192,132365,1,0,3:0:0:0:
448,192,132365,1,0,3:0:0:0:
320,192,132485,1,0,3:0:0:0:
192,192,132605,1,0,3:0:0:0:
320,192,132605,1,0,3:0:0:0:
448,192,132605,1,0,3:0:0:0:
64,192,132725,1,0,3:0:0:0:
64,192,132845,1,0,3:0:0:0:
192,192,132845,1,0,3:0:0:0:
448,192,132845,1,0,3:0:0:0:
320,192,132965,1,0,3:0:0:0:
192,192,133085,1,0,3:0:0:0:
448,192,133085,1,0,3:0:0:0:
64,192,133085,1,0,3:0:0:0:
192,192,133205,1,0,3:0:0:0:
64,192,133325,1,0,3:0:0:0:
320,192,133325,1,0,3:0:0:0:
448,192,133325,1,0,3:0:0:0:
192,192,133445,1,0,3:0:0:0:
64,192,133565,1,0,3:0:0:0:
448,192,133565,1,0,3:0:0:0:
320,192,133565,1,0,3:0:0:0:
320,192,133685,1,0,3:0:0:0:
448,192,133805,1,0,3:0:0:0:
320,192,133805,1,0,3:0:0:0:
192,192,133805,1,0,3:0:0:0:
64,192,133925,1,0,3:0:0:0:
64,192,134045,1,0,3:0:0:0:
192,192,134045,1,0,3:0:0:0:
448,192,134045,1,0,3:0:0:0:
320,192,134165,1,0,3:0:0:0:
448,192,134285,1,0,3:0:0:0:
192,192,134285,1,0,3:0:0:0:
64,192,134285,1,0,3:0:0:0:
192,192,134405,1,0,3:0:0:0:
64,192,134525,1,0,3:0:0:0:
192,192,134525,1,0,3:0:0:0:
320,192,134525,1,0,3:0:0:0:
448,192,134645,1,0,3:0:0:0:
448,192,134765,1,0,3:0:0:0:
320,192,134765,1,0,3:0:0:0:
192,192,134765,1,0,3:0:0:0:
64,192,134885,1,0,3:0:0:0:
64,192,135005,1,0,3:0:0:0:
192,192,135005,1,0,3:0:0:0:
448,192,135005,1,0,3:0:0:0:
320,192,135125,1,0,3:0:0:0:
320,192,135245,1,0,3:0:0:0:
448,192,135245,1,0,3:0:0:0:
64,192,135245,1,0,3:0:0:0:
64,192,135365,1,0,3:0:0:0:
320,192,135365,1,0,3:0:0:0:
448,192,135365,1,0,3:0:0:0:
64,192,135605,1,0,3:0:0:0:
192,192,135605,1,0,3:0:0:0:
320,192,135605,1,0,3:0:0:0:
448,192,135605,1,0,3:0:0:0:
192,192,135725,1,0,2:0:0:0:
64,192,135845,1,0,3:0:0:0:
192,192,135845,1,0,3:0:0:0:
448,192,135845,1,0,3:0:0:0:
320,192,135845,1,0,3:0:0:0:
448,192,136085,1,0,3:0:0:0:
320,192,136085,1,0,3:0:0:0:
192,192,136085,1,0,3:0:0:0:
64,192,136085,1,0,3:0:0:0:
320,192,136205,1,0,2:0:0:0:
64,192,136325,1,0,3:0:0:0:
192,192,136325,1,0,3:0:0:0:
320,192,136325,1,0,3:0:0:0:
448,192,136325,1,0,3:0:0:0:
64,192,136565,1,0,3:0:0:0:
320,192,136565,1,0,3:0:0:0:
448,192,136565,1,0,3:0:0:0:
320,192,136685,1,0,3:0:0:0:
448,192,136685,1,0,3:0:0:0:
64,192,136685,1,0,3:0:0:0:
64,192,136805,1,0,3:0:0:0:
192,192,136805,1,0,3:0:0:0:
448,192,136805,1,0,3:0:0:0:
64,192,136925,1,0,3:0:0:0:
192,192,136925,1,0,3:0:0:0:
448,192,136925,1,0,3:0:0:0:
320,192,137045,1,0,3:0:0:0:
448,192,137045,1,0,3:0:0:0:
64,192,137045,1,0,3:0:0:0:
448,192,137165,1,0,3:0:0:0:
320,192,137165,1,0,3:0:0:0:
64,192,137165,1,0,3:0:0:0:
64,192,137285,1,0,3:0:0:0:
192,192,137285,1,0,3:0:0:0:
448,192,137285,1,0,3:0:0:0:
448,192,137405,1,0,3:0:0:0:
64,192,137405,128,0,137645:3:0:0:0:
192,192,137405,128,0,137645:3:0:0:0:
320,192,137525,1,0,3:0:0:0:
320,192,137645,128,0,137885:3:0:0:0:
448,192,137645,128,0,137885:3:0:0:0:
192,192,137765,1,0,3:0:0:0:
192,192,137885,128,0,138125:3:0:0:0:
64,192,137885,128,0,138125:3:0:0:0:
320,192,138005,1,0,3:0:0:0:
320,192,138125,128,0,138365:3:0:0:0:
448,192,138125,128,0,138365:3:0:0:0:
192,192,138245,1,0,3:0:0:0:
192,192,138365,128,0,138605:3:0:0:0:
64,192,138365,128,0,138605:3:0:0:0:
448,192,138605,1,0,3:0:0:0:
320,192,138725,1,0,3:0:0:0:
64,192,138845,1,0,3:0:0:0:
320,192,138845,1,0,3:0:0:0:
448,192,138845,1,0,3:0:0:0:
64,192,138965,1,0,3:0:0:0:
192,192,138965,1,0,3:0:0:0:
448,192,138965,1,0,3:0:0:0:
320,192,139085,1,0,3:0:0:0:
192,192,139205,1,0,3:0:0:0:
64,192,139325,1,0,3:0:0:0:
448,192,139325,1,0,3:0:0:0:
192,192,139325,1,0,3:0:0:0:
320,192,139445,1,0,3:0:0:0:
192,192,139565,1,0,3:0:0:0:
320,192,139565,1,0,3:0:0:0:
448,192,139565,1,0,3:0:0:0:
64,192,139685,1,0,3:0:0:0:
192,192,139685,1,0,3:0:0:0:
448,192,139685,1,0,3:0:0:0:
320,192,139805,1,0,3:0:0:0:
64,192,139925,1,0,3:0:0:0:
192,192,139925,1,0,3:0:0:0:
448,192,139925,1,0,3:0:0:0:
192,192,140045,1,0,3:0:0:0:
320,192,140045,1,0,3:0:0:0:
448,192,140045,1,0,3:0:0:0:
192,192,140165,128,0,141485:3:0:0:0:
64,192,140165,128,0,141485:3:0:0:0:
320,192,140525,1,0,3:0:0:0:
448,192,140525,1,0,3:0:0:0:
320,192,140765,1,0,3:0:0:0:
448,192,140765,1,0,3:0:0:0:
320,192,141245,1,0,3:0:0:0:
448,192,141245,1,0,3:0:0:0:
320,192,141605,1,0,3:0:0:0:
448,192,141605,1,0,3:0:0:0:
320,192,141845,1,0,3:0:0:0:
448,192,141845,1,0,3:0:0:0:
192,192,141905,1,0,3:0:0:0:
64,192,141905,1,0,3:0:0:0:
320,192,141965,1,0,3:0:0:0:
448,192,141965,1,0,3:0:0:0:
192,192,142025,1,0,3:0:0:0:
64,192,142025,1,0,3:0:0:0:
320,192,142085,1,0,3:0:0:0:
448,192,142085,1,0,3:0:0:0:
192,192,142145,1,0,3:0:0:0:
64,192,142145,1,0,3:0:0:0:
320,192,142205,1,0,3:0:0:0:
448,192,142205,1,0,3:0:0:0:
192,192,142325,1,0,3:0:0:0:
64,192,142445,1,0,3:0:0:0:
192,192,142445,1,0,3:0:0:0:
448,192,142445,1,0,3:0:0:0:
320,192,142565,1,0,3:0:0:0:
448,192,142685,1,0,3:0:0:0:
320,192,142685,1,0,3:0:0:0:
64,192,142685,1,0,3:0:0:0:
64,192,142805,1,0,3:0:0:0:
192,192,142805,1,0,3:0:0:0:
448,192,142805,1,0,3:0:0:0:
320,192,142925,1,0,3:0:0:0:
448,192,142925,1,0,3:0:0:0:
64,192,142925,1,0,3:0:0:0:
320,192,143045,1,0,3:0:0:0:
448,192,143165,1,0,3:0:0:0:
64,192,143165,1,0,3:0:0:0:
192,192,143165,1,0,3:0:0:0:
320,192,143285,1,0,3:0:0:0:
320,192,143405,1,0,3:0:0:0:
64,192,143405,1,0,3:0:0:0:
192,192,143405,1,0,3:0:0:0:
320,192,143525,1,0,3:0:0:0:
448,192,143525,1,0,3:0:0:0:
64,192,143525,1,0,3:0:0:0:
192,192,143645,1,0,3:0:0:0:
64,192,143765,1,0,3:0:0:0:
448,192,143765,1,0,3:0:0:0:
320,192,143765,1,0,3:0:0:0:
192,192,143885,1,0,3:0:0:0:
320,192,143885,1,0,3:0:0:0:
64,192,143885,1,0,3:0:0:0:
448,192,144005,1,0,3:0:0:0:
192,192,144005,1,0,3:0:0:0:
320,192,144005,128,0,145565:3:0:0:0:
64,192,144005,1,0,3:0:0:0:
192,192,144365,1,0,3:0:0:0:
64,192,144365,1,0,3:0:0:0:
448,192,144485,1,0,3:0:0:0:
64,192,144605,1,0,3:0:0:0:
192,192,144605,1,0,3:0:0:0:
448,192,144725,1,0,3:0:0:0:
64,192,144965,1,0,3:0:0:0:
448,192,145085,1,0,3:0:0:0:
64,192,145085,1,0,3:0:0:0:
192,192,145085,1,0,3:0:0:0:
448,192,145245,1,0,3:0:0:0:
192,192,145245,1,0,3:0:0:0:
64,192,145245,1,0,3:0:0:0:
448,192,145405,1,0,3:0:0:0:
192,192,145405,1,0,3:0:0:0:
64,192,145405,1,0,3:0:0:0:
448,192,145565,1,0,3:0:0:0:
64,192,145565,1,0,3:0:0:0:
192,192,145565,1,0,3:0:0:0:
192,192,145725,1,0,3:0:0:0:
64,192,145725,1,0,3:0:0:0:
448,192,145725,1,0,3:0:0:0:
320,192,145725,1,0,3:0:0:0:
320,192,145885,1,0,3:0:0:0:
448,192,145885,1,0,3:0:0:0:
192,192,145885,1,0,3:0:0:0:
64,192,145885,1,0,3:0:0:0:
64,192,146045,1,0,3:0:0:0:
448,192,146045,1,0,3:0:0:0:
192,192,146105,1,0,2:0:0:0:
64,192,146165,1,0,2:0:0:0:
192,192,146225,1,0,2:0:0:0:
448,192,146285,1,0,2:0:0:0:
320,192,146345,1,0,2:0:0:0:
448,192,146405,1,0,2:0:0:0:
320,192,146465,1,0,2:0:0:0:
64,192,146525,1,0,2:0:0:0:
192,192,146585,1,0,2:0:0:0:
64,192,146645,1,0,2:0:0:0:
192,192,146705,1,0,2:0:0:0:
448,192,146765,1,0,2:0:0:0:
320,192,146825,1,0,2:0:0:0:
448,192,146885,1,0,2:0:0:0:
320,192,146945,1,0,2:0:0:0:
448,192,147005,1,0,3:0:0:0:
64,192,147005,1,0,3:0:0:0:
192,192,147065,1,0,2:0:0:0:
64,192,147125,1,0,2:0:0:0:
192,192,147185,1,0,2:0:0:0:
448,192,147245,1,0,2:0:0:0:
320,192,147305,1,0,2:0:0:0:
448,192,147365,1,0,2:0:0:0:
320,192,147425,1,0,2:0:0:0:
64,192,147485,1,0,2:0:0:0:
192,192,147545,1,0,2:0:0:0:
64,192,147605,1,0,2:0:0:0:
192,192,147665,1,0,2:0:0:0:
448,192,147725,1,0,2:0:0:0:
320,192,147785,1,0,2:0:0:0:
448,192,147845,1,0,2:0:0:0:
320,192,147905,1,0,2:0:0:0:
448,192,147965,1,0,3:0:0:0:
64,192,147965,1,0,3:0:0:0:
192,192,148025,1,0,2:0:0:0:
320,192,148085,1,0,2:0:0:0:
448,192,148145,1,0,2:0:0:0:
320,192,148205,1,0,2:0:0:0:
192,192,148265,1,0,2:0:0:0:
64,192,148325,1,0,2:0:0:0:
448,192,148385,1,0,2:0:0:0:
320,192,148445,1,0,2:0:0:0:
192,192,148505,1,0,2:0:0:0:
64,192,148565,1,0,2:0:0:0:
192,192,148625,1,0,2:0:0:0:
320,192,148685,1,0,2:0:0:0:
448,192,148745,1,0,2:0:0:0:
320,192,148805,1,0,2:0:0:0:
192,192,148865,1,0,2:0:0:0:
64,192,148925,1,0,3:0:0:0:
320,192,148925,1,0,3:0:0:0:
448,192,148925,1,0,3:0:0:0:
192,192,148985,1,0,2:0:0:0:
320,192,149045,1,0,2:0:0:0:
448,192,149105,1,0,2:0:0:0:
320,192,149165,1,0,2:0:0:0:
192,192,149225,1,0,2:0:0:0:
64,192,149285,1,0,2:0:0:0:
448,192,149345,1,0,2:0:0:0:
320,192,149405,1,0,2:0:0:0:
192,192,149465,1,0,2:0:0:0:
64,192,149525,1,0,2:0:0:0:
192,192,149585,1,0,2:0:0:0:
320,192,149645,1,0,2:0:0:0:
448,192,149705,1,0,2:0:0:0:
320,192,149765,1,0,2:0:0:0:
192,192,149825,1,0,2:0:0:0:
448,192,149885,1,0,3:0:0:0:
320,192,149885,1,0,3:0:0:0:
64,192,149885,1,0,3:0:0:0:
192,192,149945,1,0,2:0:0:0:
64,192,150005,1,0,2:0:0:0:
192,192,150065,1,0,2:0:0:0:
448,192,150125,1,0,2:0:0:0:
320,192,150185,1,0,2:0:0:0:
448,192,150245,1,0,2:0:0:0:
320,192,150305,1,0,2:0:0:0:
448,192,150365,1,0,3:0:0:0:
64,192,150365,1,0,3:0:0:0:
192,192,150425,1,0,2:0:0:0:
64,192,150485,1,0,2:0:0:0:
192,192,150545,1,0,2:0:0:0:
448,192,150605,1,0,2:0:0:0:
320,192,150665,1,0,2:0:0:0:
448,192,150725,1,0,2:0:0:0:
320,192,150785,1,0,2:0:0:0:
448,192,150845,1,0,3:0:0:0:
64,192,150845,1,0,3:0:0:0:
192,192,150905,1,0,2:0:0:0:
64,192,150965,1,0,2:0:0:0:
192,192,151025,1,0,2:0:0:0:
448,192,151085,1,0,2:0:0:0:
320,192,151145,1,0,2:0:0:0:
448,192,151205,1,0,2:0:0:0:
320,192,151265,1,0,2:0:0:0:
64,192,151325,1,0,3:0:0:0:
448,192,151325,1,0,3:0:0:0:
192,192,151385,1,0,2:0:0:0:
64,192,151445,1,0,2:0:0:0:
192,192,151505,1,0,2:0:0:0:
448,192,151565,1,0,2:0:0:0:
320,192,151625,1,0,2:0:0:0:
448,192,151685,1,0,2:0:0:0:
320,192,151745,1,0,2:0:0:0:
64,192,151805,1,0,3:0:0:0:
448,192,151805,1,0,3:0:0:0:
192,192,151865,1,0,2:0:0:0:
320,192,151925,1,0,2:0:0:0:
448,192,151985,1,0,2:0:0:0:
320,192,152045,1,0,3:0:0:0:
192,192,152045,1,0,3:0:0:0:
64,192,152045,1,0,3:0:0:0:
448,192,152105,1,0,2:0:0:0:
320,192,152165,1,0,2:0:0:0:
192,192,152225,1,0,2:0:0:0:
64,192,152285,1,0,3:0:0:0:
448,192,152285,1,0,3:0:0:0:
192,192,152345,1,0,2:0:0:0:
320,192,152405,1,0,2:0:0:0:
448,192,152465,1,0,2:0:0:0:
320,192,152525,1,0,3:0:0:0:
192,192,152525,1,0,3:0:0:0:
64,192,152525,1,0,3:0:0:0:
448,192,152585,1,0,2:0:0:0:
320,192,152645,1,0,2:0:0:0:
192,192,152705,1,0,2:0:0:0:
64,192,152765,1,0,3:0:0:0:
448,192,152765,1,0,3:0:0:0:
448,192,152885,1,0,3:0:0:0:
192,192,152885,1,0,3:0:0:0:
64,192,152885,1,0,3:0:0:0:
64,192,153005,1,0,3:0:0:0:
320,192,153005,1,0,3:0:0:0:
448,192,153005,1,0,3:0:0:0:
320,192,153125,1,0,3:0:0:0:
448,192,153125,1,0,3:0:0:0:
64,192,153125,1,0,3:0:0:0:
192,192,153245,1,0,3:0:0:0:
64,192,153245,1,0,3:0:0:0:
448,192,153305,1,0,3:0:0:0:
320,192,153305,1,0,3:0:0:0:
192,192,153365,1,0,3:0:0:0:
64,192,153365,1,0,3:0:0:0:
448,192,153425,1,0,3:0:0:0:
320,192,153425,1,0,3:0:0:0:
64,192,153485,1,0,3:0:0:0:
192,192,153485,1,0,3:0:0:0:
448,192,153545,1,0,3:0:0:0:
320,192,153545,1,0,3:0:0:0:
192,192,153605,1,0,3:0:0:0:
64,192,153605,1,0,3:0:0:0:
448,192,153665,1,0,3:0:0:0:
320,192,153665,1,0,3:0:0:0:
64,192,153725,1,0,3:0:0:0:
192,192,153725,128,0,155645:3:0:0:0:
64,192,155645,1,0,3:0:0:0:
320,192,155645,1,0,3:0:0:0:
448,192,155645,1,0,3:0:0:0:
64,192,155765,1,0,3:0:0:0:
192,192,155765,1,0,3:0:0:0:
320,192,155765,1,0,3:0:0:0:
448,192,155765,1,0,3:0:0:0:
64,192,155885,1,0,3:0:0:0:
192,192,155885,1,0,3:0:0:0:
320,192,155885,1,0,3:0:0:0:
448,192,155885,1,0,3:0:0:0:
320,192,156005,1,0,2:0:0:0:
64,192,156125,1,0,3:0:0:0:
320,192,156125,1,0,3:0:0:0:
448,192,156125,1,0,3:0:0:0:
192,192,156125,1,0,3:0:0:0:
192,192,156245,1,0,2:0:0:0:
64,192,156365,1,0,3:0:0:0:
192,192,156365,1,0,3:0:0:0:
320,192,156365,1,0,3:0:0:0:
448,192,156365,1,0,3:0:0:0:
64,192,156605,1,0,3:0:0:0:
192,192,156605,1,0,3:0:0:0:
448,192,156605,1,0,3:0:0:0:
320,192,156605,1,0,3:0:0:0:
64,192,156725,1,0,3:0:0:0:
192,192,156725,1,0,3:0:0:0:
320,192,156725,1,0,3:0:0:0:
448,192,156725,1,0,3:0:0:0:
448,192,156845,1,0,3:0:0:0:
320,192,156845,1,0,3:0:0:0:
192,192,156845,1,0,3:0:0:0:
64,192,156845,1,0,3:0:0:0:
192,192,156965,1,0,2:0:0:0:
448,192,157085,1,0,3:0:0:0:
320,192,157085,1,0,3:0:0:0:
192,192,157085,1,0,3:0:0:0:
64,192,157085,1,0,3:0:0:0:
320,192,157205,1,0,3:0:0:0:
192,192,157265,1,0,3:0:0:0:
64,192,157325,1,0,3:0:0:0:
448,192,157325,1,0,3:0:0:0:
320,192,157325,1,0,3:0:0:0:
64,192,157565,1,0,3:0:0:0:
192,192,157565,1,0,3:0:0:0:
448,192,157565,1,0,3:0:0:0:
320,192,157685,1,0,3:0:0:0:
192,192,157805,1,0,3:0:0:0:
448,192,157805,1,0,3:0:0:0:
320,192,157805,1,0,3:0:0:0:
64,192,157925,1,0,3:0:0:0:
64,192,158045,1,0,3:0:0:0:
320,192,158045,1,0,3:0:0:0:
448,192,158045,1,0,3:0:0:0:
320,192,158165,1,0,3:0:0:0:
448,192,158285,1,0,3:0:0:0:
320,192,158285,1,0,3:0:0:0:
192,192,158285,1,0,3:0:0:0:
64,192,158405,1,0,3:0:0:0:
320,192,158525,1,0,3:0:0:0:
64,192,158525,1,0,3:0:0:0:
448,192,158525,1,0,3:0:0:0:
192,192,158645,1,0,3:0:0:0:
448,192,158765,1,0,3:0:0:0:
192,192,158765,1,0,3:0:0:0:
64,192,158765,1,0,3:0:0:0:
320,192,158885,1,0,3:0:0:0:
448,192,159005,1,0,3:0:0:0:
320,192,159005,1,0,3:0:0:0:
64,192,159005,1,0,3:0:0:0:
192,192,159125,1,0,3:0:0:0:
64,192,159245,1,0,3:0:0:0:
192,192,159245,1,0,3:0:0:0:
320,192,159245,1,0,3:0:0:0:
320,192,159365,1,0,3:0:0:0:
192,192,159485,1,0,3:0:0:0:
320,192,159485,1,0,3:0:0:0:
448,192,159485,1,0,3:0:0:0:
192,192,159605,1,0,3:0:0:0:
64,192,159725,1,0,3:0:0:0:
320,192,159725,1,0,3:0:0:0:
448,192,159725,1,0,3:0:0:0:
320,192,159845,1,0,3:0:0:0:
448,192,159965,1,0,3:0:0:0:
192,192,159965,1,0,3:0:0:0:
64,192,159965,1,0,3:0:0:0:
320,192,160085,1,0,3:0:0:0:
192,192,160205,1,0,3:0:0:0:
320,192,160205,1,0,3:0:0:0:
448,192,160205,1,0,3:0:0:0:
64,192,160325,1,0,3:0:0:0:
64,192,160445,1,0,3:0:0:0:
320,192,160445,1,0,3:0:0:0:
448,192,160445,1,0,3:0:0:0:
192,192,160565,1,0,3:0:0:0:
448,192,160685,1,0,3:0:0:0:
192,192,160685,1,0,3:0:0:0:
64,192,160685,1,0,3:0:0:0:
320,192,160805,1,0,3:0:0:0:
320,192,160925,1,0,3:0:0:0:
448,192,160925,1,0,3:0:0:0:
192,192,160925,1,0,3:0:0:0:
192,192,161045,1,0,3:0:0:0:
64,192,161165,1,0,3:0:0:0:
192,192,161165,1,0,3:0:0:0:
320,192,161165,1,0,3:0:0:0:
448,192,161285,1,0,3:0:0:0:
448,192,161405,1,0,3:0:0:0:
192,192,161405,1,0,3:0:0:0:
64,192,161405,1,0,3:0:0:0:
320,192,161525,1,0,3:0:0:0:
64,192,161645,1,0,3:0:0:0:
192,192,161645,1,0,3:0:0:0:
448,192,161645,1,0,3:0:0:0:
192,192,161765,1,0,3:0:0:0:
64,192,161885,1,0,3:0:0:0:
320,192,161885,1,0,3:0:0:0:
448,192,161885,1,0,3:0:0:0:
192,192,162005,1,0,3:0:0:0:
64,192,162125,1,0,3:0:0:0:
192,192,162125,1,0,3:0:0:0:
320,192,162125,1,0,3:0:0:0:
448,192,162245,1,0,3:0:0:0:
448,192,162365,1,0,3:0:0:0:
192,192,162365,1,0,3:0:0:0:
64,192,162365,1,0,3:0:0:0:
192,192,162485,1,0,3:0:0:0:
64,192,162605,1,0,3:0:0:0:
192,192,162605,1,0,3:0:0:0:
448,192,162605,1,0,3:0:0:0:
320,192,162725,1,0,3:0:0:0:
448,192,162845,1,0,3:0:0:0:
192,192,162845,1,0,3:0:0:0:
64,192,162845,1,0,3:0:0:0:
192,192,162965,1,0,3:0:0:0:
64,192,163085,1,0,3:0:0:0:
192,192,163085,1,0,3:0:0:0:
320,192,163085,1,0,3:0:0:0:
320,192,163205,1,0,3:0:0:0:
192,192,163325,1,0,3:0:0:0:
64,192,163325,1,0,3:0:0:0:
448,192,163325,1,0,3:0:0:0:
64,192,163445,1,0,3:0:0:0:
192,192,163445,1,0,3:0:0:0:
448,192,163445,1,0,3:0:0:0:
448,192,163565,1,0,3:0:0:0:
320,192,163565,1,0,3:0:0:0:
64,192,163565,1,0,3:0:0:0:
64,192,163685,1,0,3:0:0:0:
320,192,163685,1,0,3:0:0:0:
448,192,163685,1,0,3:0:0:0:
64,192,163805,1,0,3:0:0:0:
192,192,163805,1,0,3:0:0:0:
448,192,163805,1,0,3:0:0:0:
64,192,163925,1,0,3:0:0:0:
192,192,163925,1,0,3:0:0:0:
448,192,163925,1,0,3:0:0:0:
320,192,164045,1,0,3:0:0:0:
448,192,164045,1,0,3:0:0:0:
64,192,164045,1,0,3:0:0:0:
448,192,164165,1,0,3:0:0:0:
320,192,164165,1,0,3:0:0:0:
64,192,164165,1,0,3:0:0:0:
64,192,164285,1,0,3:0:0:0:
192,192,164285,1,0,3:0:0:0:
448,192,164285,1,0,3:0:0:0:
320,192,164525,1,0,3:0:0:0:
448,192,164525,1,0,3:0:0:0:
64,192,164525,1,0,3:0:0:0:
64,192,164765,1,0,3:0:0:0:
320,192,164765,1,0,3:0:0:0:
448,192,164765,1,0,3:0:0:0:
192,192,164765,1,0,3:0:0:0:
64,192,164885,1,0,3:0:0:0:
192,192,164885,1,0,3:0:0:0:
320,192,164885,1,0,3:0:0:0:
448,192,164885,1,0,3:0:0:0:
64,192,165005,1,0,3:0:0:0:
192,192,165005,1,0,3:0:0:0:
320,192,165005,1,0,3:0:0:0:
448,192,165005,1,0,3:0:0:0:
64,192,165245,1,0,3:0:0:0:
192,192,165245,1,0,3:0:0:0:
448,192,165245,1,0,3:0:0:0:
448,192,165365,1,0,3:0:0:0:
320,192,165365,1,0,3:0:0:0:
64,192,165365,1,0,3:0:0:0:
64,192,165605,1,0,3:0:0:0:
192,192,165605,1,0,3:0:0:0:
448,192,165605,1,0,3:0:0:0:
320,192,165605,1,0,3:0:0:0:
64,192,165845,1,0,3:0:0:0:
192,192,165845,1,0,3:0:0:0:
320,192,165845,1,0,3:0:0:0:
448,192,165845,1,0,3:0:0:0:
64,192,166205,1,0,3:0:0:0:
320,192,166205,1,0,3:0:0:0:
448,192,166205,1,0,3:0:0:0:
448,192,166325,1,0,3:0:0:0:
192,192,166325,1,0,3:0:0:0:
64,192,166325,1,0,3:0:0:0:
64,192,166565,1,0,3:0:0:0:
192,192,166565,1,0,3:0:0:0:
320,192,166565,1,0,3:0:0:0:
448,192,166565,1,0,3:0:0:0:
64,192,166805,1,0,3:0:0:0:
192,192,166805,1,0,3:0:0:0:
320,192,166805,1,0,3:0:0:0:
448,192,166805,1,0,3:0:0:0:
192,192,167405,1,0,3:0:0:0:
64,192,167405,1,0,3:0:0:0:
448,192,167405,1,0,3:0:0:0:
320,192,167525,1,0,3:0:0:0:
448,192,167645,1,0,3:0:0:0:
320,192,167645,1,0,3:0:0:0:
64,192,167645,1,0,3:0:0:0:
192,192,167765,1,0,3:0:0:0:
64,192,167885,1,0,3:0:0:0:
192,192,167885,1,0,3:0:0:0:
448,192,167885,1,0,3:0:0:0:
320,192,168005,1,0,3:0:0:0:
448,192,168125,1,0,3:0:0:0:
320,192,168125,1,0,3:0:0:0:
64,192,168125,1,0,3:0:0:0:
192,192,168245,1,0,3:0:0:0:
64,192,168365,1,0,3:0:0:0:
192,192,168365,1,0,3:0:0:0:
320,192,168365,1,0,3:0:0:0:
192,192,168485,1,0,3:0:0:0:
320,192,168485,1,0,3:0:0:0:
448,192,168485,1,0,3:0:0:0:
192,192,168605,1,0,3:0:0:0:
64,192,168725,1,0,3:0:0:0:
192,192,168725,1,0,3:0:0:0:
320,192,168785,1,0,3:0:0:0:
448,192,168785,1,0,3:0:0:0:
192,192,168845,1,0,3:0:0:0:
64,192,168845,1,0,3:0:0:0:
320,192,168965,1,0,3:0:0:0:
64,192,169085,1,0,3:0:0:0:
192,192,169085,1,0,3:0:0:0:
320,192,169085,1,0,3:0:0:0:
448,192,169085,1,0,3:0:0:0:
192,192,169205,1,0,3:0:0:0:
64,192,169325,1,0,3:0:0:0:
448,192,169325,1,0,3:0:0:0:
192,192,169325,1,0,3:0:0:0:
320,192,169445,1,0,3:0:0:0:
320,192,169565,1,0,3:0:0:0:
448,192,169565,1,0,3:0:0:0:
64,192,169565,1,0,3:0:0:0:
192,192,169685,1,0,3:0:0:0:
64,192,169805,1,0,3:0:0:0:
192,192,169805,1,0,3:0:0:0:
320,192,169805,1,0,3:0:0:0:
448,192,169925,1,0,3:0:0:0:
448,192,170045,1,0,3:0:0:0:
320,192,170045,1,0,3:0:0:0:
192,192,170045,1,0,3:0:0:0:
64,192,170165,1,0,3:0:0:0:
64,192,170285,1,0,3:0:0:0:
192,192,170285,1,0,3:0:0:0:
448,192,170285,1,0,3:0:0:0:
320,192,170405,1,0,3:0:0:0:
320,192,170525,1,0,3:0:0:0:
448,192,170525,1,0,3:0:0:0:
64,192,170525,1,0,3:0:0:0:
192,192,170645,1,0,3:0:0:0:
64,192,170765,1,0,3:0:0:0:
192,192,170765,1,0,3:0:0:0:
448,192,170765,1,0,3:0:0:0:
320,192,170885,1,0,3:0:0:0:
192,192,171005,1,0,3:0:0:0:
320,192,171005,1,0,3:0:0:0:
448,192,171005,1,0,3:0:0:0:
192,192,171125,1,0,3:0:0:0:
64,192,171245,1,0,3:0:0:0:
192,192,171245,1,0,3:0:0:0:
448,192,171245,1,0,3:0:0:0:
320,192,171365,1,0,3:0:0:0:
320,192,171485,1,0,3:0:0:0:
448,192,171485,1,0,3:0:0:0:
64,192,171485,1,0,3:0:0:0:
192,192,171605,1,0,3:0:0:0:
64,192,171725,1,0,3:0:0:0:
320,192,171725,1,0,3:0:0:0:
192,192,171725,1,0,3:0:0:0:
320,192,171845,1,0,3:0:0:0:
192,192,171965,1,0,3:0:0:0:
320,192,171965,1,0,3:0:0:0:
448,192,171965,1,0,3:0:0:0:
64,192,172085,1,0,3:0:0:0:
64,192,172205,1,0,3:0:0:0:
448,192,172205,1,0,3:0:0:0:
320,192,172205,1,0,3:0:0:0:
192,192,172325,1,0,3:0:0:0:
64,192,172325,1,0,3:0:0:0:
320,192,172385,1,0,3:0:0:0:
448,192,172385,1,0,3:0:0:0:
192,192,172445,1,0,3:0:0:0:
64,192,172445,1,0,3:0:0:0:
320,192,172505,1,0,3:0:0:0:
448,192,172505,1,0,3:0:0:0:
192,192,172565,1,0,3:0:0:0:
64,192,172565,1,0,3:0:0:0:
320,192,172625,1,0,3:0:0:0:
448,192,172625,1,0,3:0:0:0:
192,192,172685,1,0,3:0:0:0:
64,192,172685,1,0,3:0:0:0:
320,192,172745,1,0,3:0:0:0:
448,192,172745,1,0,3:0:0:0:
192,192,172805,1,0,3:0:0:0:
64,192,172805,1,0,3:0:0:0:
320,192,172865,1,0,3:0:0:0:
448,192,172865,1,0,3:0:0:0:
192,192,172925,1,0,3:0:0:0:
64,192,172925,1,0,3:0:0:0:
320,192,173045,1,0,3:0:0:0:
320,192,173165,1,0,3:0:0:0:
448,192,173165,1,0,3:0:0:0:
64,192,173165,1,0,3:0:0:0:
192,192,173285,1,0,3:0:0:0:
64,192,173405,1,0,3:0:0:0:
192,192,173405,1,0,3:0:0:0:
448,192,173405,1,0,3:0:0:0:
320,192,173525,1,0,3:0:0:0:
320,192,173645,1,0,3:0:0:0:
448,192,173645,1,0,3:0:0:0:
192,192,173645,1,0,3:0:0:0:
64,192,173765,1,0,3:0:0:0:
64,192,173885,1,0,3:0:0:0:
192,192,173885,1,0,3:0:0:0:
448,192,173885,1,0,3:0:0:0:
320,192,174005,1,0,3:0:0:0:
448,192,174125,1,0,3:0:0:0:
320,192,174125,1,0,3:0:0:0:
192,192,174125,1,0,3:0:0:0:
64,192,174245,1,0,3:0:0:0:
64,192,174365,1,0,3:0:0:0:
320,192,174365,1,0,3:0:0:0:
448,192,174365,1,0,3:0:0:0:
192,192,174485,1,0,3:0:0:0:
192,192,174605,1,0,3:0:0:0:
64,192,174605,1,0,3:0:0:0:
448,192,174605,1,0,3:0:0:0:
320,192,174725,1,0,3:0:0:0:
448,192,174845,1,0,3:0:0:0:
320,192,174845,1,0,3:0:0:0:
64,192,174845,1,0,3:0:0:0:
448,192,174965,1,0,3:0:0:0:
448,192,175085,1,0,3:0:0:0:
192,192,175085,1,0,3:0:0:0:
64,192,175085,1,0,3:0:0:0:
192,192,175205,1,0,3:0:0:0:
64,192,175325,1,0,3:0:0:0:
192,192,175325,1,0,3:0:0:0:
320,192,175325,1,0,3:0:0:0:
448,192,175445,1,0,3:0:0:0:
448,192,175565,1,0,3:0:0:0:
320,192,175565,1,0,3:0:0:0:
64,192,175565,1,0,3:0:0:0:
192,192,175685,1,0,3:0:0:0:
64,192,175805,1,0,3:0:0:0:
320,192,175805,1,0,3:0:0:0:
448,192,175805,1,0,3:0:0:0:
320,192,175925,1,0,3:0:0:0:
64,192,176045,1,0,3:0:0:0:
192,192,176045,1,0,3:0:0:0:
448,192,176045,1,0,3:0:0:0:
192,192,176165,1,0,3:0:0:0:
64,192,176285,1,0,3:0:0:0:
192,192,176285,1,0,3:0:0:0:
320,192,176285,1,0,3:0:0:0:
448,192,176405,1,0,3:0:0:0:
448,192,176525,1,0,3:0:0:0:
320,192,176525,1,0,3:0:0:0:
192,192,176525,1,0,3:0:0:0:
192,192,176645,1,0,3:0:0:0:
64,192,176765,1,0,3:0:0:0:
320,192,176765,1,0,3:0:0:0:
448,192,176765,1,0,3:0:0:0:
320,192,176885,1,0,3:0:0:0:
448,192,177005,1,0,3:0:0:0:
192,192,177005,1,0,3:0:0:0:
64,192,177005,1,0,3:0:0:0:
192,192,177125,1,0,3:0:0:0:
64,192,177245,1,0,3:0:0:0:
192,192,177245,1,0,3:0:0:0:
320,192,177245,1,0,3:0:0:0:
448,192,177365,1,0,3:0:0:0:
320,192,177485,1,0,3:0:0:0:
448,192,177485,1,0,3:0:0:0:
64,192,177485,1,0,3:0:0:0:
192,192,177605,1,0,3:0:0:0:
64,192,177725,1,0,3:0:0:0:
192,192,177725,1,0,3:0:0:0:
448,192,177725,1,0,3:0:0:0:
320,192,177845,1,0,3:0:0:0:
192,192,177965,1,0,3:0:0:0:
320,192,177965,1,0,3:0:0:0:
448,192,177965,1,0,3:0:0:0:
64,192,178085,1,0,3:0:0:0:
64,192,178205,1,0,3:0:0:0:
192,192,178205,1,0,3:0:0:0:
320,192,178205,1,0,3:0:0:0:
448,192,178325,1,0,3:0:0:0:
320,192,178445,1,0,3:0:0:0:
448,192,178445,1,0,3:0:0:0:
64,192,178445,1,0,3:0:0:0:
320,192,178565,1,0,3:0:0:0:
64,192,178685,1,0,3:0:0:0:
320,192,178685,1,0,3:0:0:0:
448,192,178685,1,0,3:0:0:0:
192,192,178745,1,0,2:0:0:0:
320,192,178805,1,0,2:0:0:0:
448,192,178865,1,0,2:0:0:0:
320,192,178925,1,0,2:0:0:0:
192,192,178985,1,0,2:0:0:0:
64,192,179045,1,0,3:0:0:0:
448,192,179105,1,0,2:0:0:0:
320,192,179165,1,0,2:0:0:0:
448,192,179225,1,0,2:0:0:0:
320,192,179285,1,0,2:0:0:0:
64,192,179345,1,0,2:0:0:0:
192,192,179405,1,0,3:0:0:0:
64,192,179465,1,0,2:0:0:0:
192,192,179525,1,0,2:0:0:0:
448,192,179585,1,0,2:0:0:0:
320,192,179645,1,0,2:0:0:0:
192,192,179705,1,0,2:0:0:0:
64,192,179765,1,0,3:0:0:0:
192,192,179825,1,0,2:0:0:0:
320,192,179885,1,0,2:0:0:0:
448,192,179945,1,0,2:0:0:0:
64,192,180005,1,0,2:0:0:0:
192,192,180065,1,0,2:0:0:0:
64,192,180125,1,0,3:0:0:0:
192,192,180185,1,0,2:0:0:0:
448,192,180245,1,0,2:0:0:0:
320,192,180305,1,0,2:0:0:0:
448,192,180365,1,0,2:0:0:0:
320,192,180425,1,0,2:0:0:0:
64,192,180485,1,0,3:0:0:0:
448,192,180485,1,0,3:0:0:0:
192,192,180485,1,0,3:0:0:0:
64,192,180845,1,0,3:0:0:0:
192,192,180845,1,0,3:0:0:0:
320,192,180845,1,0,3:0:0:0:
448,192,180845,1,0,3:0:0:0:
64,192,181205,1,0,3:0:0:0:
192,192,181205,1,0,3:0:0:0:
320,192,181205,1,0,3:0:0:0:
448,192,181205,1,0,3:0:0:0:
64,192,181445,1,0,3:0:0:0:
192,192,181445,1,0,3:0:0:0:
320,192,181445,1,0,3:0:0:0:
448,192,181445,1,0,3:0:0:0:
64,192,181685,1,0,2:0:0:0:
192,192,181745,1,0,2:0:0:0:
320,192,181805,1,0,2:0:0:0:
448,192,181865,1,0,2:0:0:0:
320,192,181925,1,0,2:0:0:0:
192,192,181985,1,0,2:0:0:0:
64,192,182045,1,0,2:0:0:0:
448,192,182105,1,0,2:0:0:0:
320,192,182165,1,0,2:0:0:0:
192,192,182225,1,0,2:0:0:0:
64,192,182285,1,0,2:0:0:0:
192,192,182345,1,0,2:0:0:0:
448,192,182405,1,0,3:0:0:0:
64,192,182405,1,0,3:0:0:0:
320,192,182405,1,0,3:0:0:0:
192,192,182765,1,0,3:0:0:0:
448,192,182765,1,0,3:0:0:0:
64,192,182765,1,0,3:0:0:0:
64,192,183125,1,0,3:0:0:0:
192,192,183125,1,0,3:0:0:0:
320,192,183125,1,0,3:0:0:0:
448,192,183125,1,0,3:0:0:0:
192,192,183365,1,0,3:0:0:0:
64,192,183365,1,0,3:0:0:0:
320,192,183365,1,0,3:0:0:0:
448,192,183365,1,0,3:0:0:0:
448,192,183605,1,0,2:0:0:0:
64,192,183665,1,0,2:0:0:0:
320,192,183725,1,0,2:0:0:0:
192,192,183785,1,0,2:0:0:0:
448,192,183845,1,0,2:0:0:0:
64,192,183905,1,0,2:0:0:0:
320,192,183965,1,0,3:0:0:0:
192,192,183965,1,0,3:0:0:0:
448,192,183965,1,0,3:0:0:0:
64,192,184205,1,0,3:0:0:0:
192,192,184205,1,0,3:0:0:0:
320,192,184205,1,0,3:0:0:0:
448,192,184205,1,0,3:0:0:0:
64,192,184445,1,0,3:0:0:0:
192,192,184445,1,0,3:0:0:0:
320,192,184445,1,0,3:0:0:0:
448,192,184445,1,0,3:0:0:0:
64,192,184685,1,0,2:0:0:0:
448,192,184925,1,0,2:0:0:0:
320,192,185045,1,0,2:0:0:0:
192,192,185165,1,0,2:0:0:0:
64,192,185285,1,0,2:0:0:0:
192,192,185405,1,0,2:0:0:0:
320,192,185525,1,0,2:0:0:0:
448,192,185645,1,0,2:0:0:0:
320,192,185765,1,0,3:0:0:0:
192,192,185765,128,0,187445:3:0:0:0:
64,192,185765,128,0,187445:3:0:0:0:
320,192,187355,1,0,2:0:0:0:
448,192,187595,1,0,2:0:0:0:
320,192,187835,1,0,2:0:0:0:
192,192,188075,1,0,2:0:0:0:
64,192,188315,1,0,2:0:0:0:
192,192,188555,1,0,2:0:0:0:
320,192,188795,1,0,2:0:0:0:
448,192,189035,1,0,2:0:0:0:
320,192,189275,1,0,2:0:0:0:
64,192,189425,1,0,2:0:0:0:
448,192,189515,1,0,2:0:0:0:
64,192,189755,1,0,2:0:0:0:
448,192,189995,1,0,2:0:0:0:
320,192,190235,1,0,2:0:0:0:
192,192,190475,1,0,2:0:0:0:
64,192,190715,1,0,2:0:0:0:
192,192,190955,1,0,2:0:0:0:
448,192,191195,1,0,2:0:0:0:
320,192,191435,1,0,2:0:0:0:
192,192,191675,1,0,2:0:0:0:
64,192,191915,1,0,2:0:0:0:
448,192,192155,1,0,2:0:0:0:
320,192,192395,1,0,2:0:0:0:
192,192,192635,1,0,2:0:0:0:
64,192,192875,1,0,2:0:0:0:
320,192,193115,1,0,2:0:0:0:
192,192,193355,1,0,2:0:0:0:
448,192,193595,1,0,2:0:0:0:
64,192,193835,1,0,2:0:0:0:
320,192,194045,1,0,3:0:0:0:
448,192,194045,1,0,3:0:0:0:
64,192,194125,1,0,3:0:0:0:
192,192,194125,1,0,3:0:0:0:
320,192,194205,1,0,3:0:0:0:
448,192,194205,1,0,3:0:0:0:
64,192,194285,1,0,3:0:0:0:
192,192,194285,1,0,3:0:0:0:
320,192,194365,1,0,3:0:0:0:
448,192,194365,1,0,3:0:0:0:
64,192,194445,1,0,3:0:0:0:
192,192,194445,1,0,3:0:0:0:
320,192,194525,1,0,3:0:0:0:
448,192,194525,1,0,3:0:0:0:
64,192,194605,1,0,3:0:0:0:
192,192,194605,1,0,3:0:0:0:
320,192,194685,1,0,3:0:0:0:
448,192,194685,1,0,3:0:0:0:
64,192,194765,1,0,3:0:0:0:
192,192,194765,1,0,3:0:0:0:
320,192,194845,1,0,3:0:0:0:
448,192,194845,1,0,3:0:0:0:
64,192,194925,1,0,3:0:0:0:
192,192,194925,1,0,3:0:0:0:
320,192,195005,1,0,3:0:0:0:
448,192,195005,1,0,3:0:0:0:
64,192,195005,1,0,3:0:0:0:
192,192,195125,1,0,3:0:0:0:
64,192,195245,1,0,3:0:0:0:
192,192,195245,1,0,3:0:0:0:
448,192,195245,1,0,3:0:0:0:
320,192,195245,1,0,3:0:0:0:
320,192,195365,1,0,3:0:0:0:
320,192,195485,1,0,3:0:0:0:
448,192,195485,1,0,3:0:0:0:
64,192,195485,1,0,3:0:0:0:
192,192,195485,1,0,3:0:0:0:
192,192,195605,1,0,3:0:0:0:
64,192,195725,1,0,3:0:0:0:
192,192,195725,1,0,3:0:0:0:
448,192,195725,1,0,3:0:0:0:
320,192,195725,1,0,3:0:0:0:
320,192,195845,1,0,3:0:0:0:
448,192,195965,1,0,3:0:0:0:
320,192,195965,1,0,3:0:0:0:
192,192,195965,1,0,3:0:0:0:
64,192,195965,1,0,3:0:0:0:
64,192,196085,1,0,3:0:0:0:
64,192,196205,1,0,3:0:0:0:
192,192,196205,1,0,3:0:0:0:
448,192,196205,1,0,3:0:0:0:
320,192,196205,1,0,3:0:0:0:
320,192,196325,1,0,3:0:0:0:
448,192,196445,1,0,3:0:0:0:
320,192,196445,1,0,3:0:0:0:
192,192,196445,1,0,3:0:0:0:
64,192,196445,1,0,3:0:0:0:
64,192,196565,1,0,3:0:0:0:
64,192,196685,1,0,3:0:0:0:
320,192,196685,1,0,3:0:0:0:
448,192,196685,1,0,3:0:0:0:
192,192,196685,1,0,3:0:0:0:
320,192,196805,1,0,3:0:0:0:
320,192,196925,1,0,3:0:0:0:
64,192,196925,1,0,3:0:0:0:
448,192,196925,1,0,3:0:0:0:
192,192,196925,1,0,3:0:0:0:
192,192,197045,1,0,3:0:0:0:
64,192,197165,1,0,3:0:0:0:
192,192,197165,1,0,3:0:0:0:
448,192,197165,1,0,3:0:0:0:
320,192,197165,1,0,3:0:0:0:
320,192,197285,1,0,3:0:0:0:
192,192,197405,1,0,3:0:0:0:
320,192,197405,1,0,3:0:0:0:
448,192,197405,1,0,3:0:0:0:
64,192,197405,1,0,3:0:0:0:
64,192,197525,1,0,3:0:0:0:
448,192,197645,1,0,3:0:0:0:
192,192,197645,1,0,3:0:0:0:
64,192,197645,1,0,3:0:0:0:
320,192,197645,1,0,3:0:0:0:
320,192,197765,1,0,3:0:0:0:
192,192,197885,1,0,3:0:0:0:
320,192,197885,1,0,3:0:0:0:
448,192,197885,1,0,3:0:0:0:
64,192,197885,1,0,3:0:0:0:
64,192,198005,1,0,3:0:0:0:
64,192,198125,1,0,3:0:0:0:
192,192,198125,1,0,3:0:0:0:
448,192,198125,1,0,3:0:0:0:
320,192,198125,1,0,3:0:0:0:
320,192,198245,1,0,3:0:0:0:
320,192,198365,1,0,3:0:0:0:
448,192,198365,1,0,3:0:0:0:
192,192,198365,1,0,3:0:0:0:
64,192,198365,1,0,3:0:0:0:
64,192,198485,1,0,3:0:0:0:
64,192,198605,1,0,3:0:0:0:
192,192,198605,1,0,3:0:0:0:
320,192,198605,1,0,3:0:0:0:
448,192,198605,1,0,3:0:0:0:
448,192,198725,1,0,3:0:0:0:
320,192,198845,1,0,3:0:0:0:
448,192,198845,1,0,3:0:0:0:
64,192,198845,1,0,3:0:0:0:
192,192,198845,1,0,3:0:0:0:
192,192,198965,1,0,3:0:0:0:
64,192,199085,1,0,3:0:0:0:
320,192,199085,1,0,3:0:0:0:
448,192,199085,1,0,3:0:0:0:
192,192,199085,1,0,3:0:0:0:
192,192,199205,1,0,3:0:0:0:
64,192,199325,1,0,3:0:0:0:
192,192,199325,1,0,3:0:0:0:
448,192,199325,1,0,3:0:0:0:
320,192,199325,1,0,3:0:0:0:
320,192,199445,1,0,3:0:0:0:
448,192,199565,1,0,3:0:0:0:
192,192,199565,1,0,3:0:0:0:
64,192,199565,1,0,3:0:0:0:
320,192,199565,1,0,3:0:0:0:
320,192,199685,1,0,3:0:0:0:
448,192,199805,1,0,3:0:0:0:
320,192,199805,1,0,3:0:0:0:
192,192,199805,1,0,3:0:0:0:
64,192,199805,1,0,3:0:0:0:
64,192,199925,1,0,3:0:0:0:
64,192,200045,1,0,3:0:0:0:
192,192,200045,1,0,3:0:0:0:
320,192,200045,1,0,3:0:0:0:
448,192,200045,1,0,3:0:0:0:
320,192,200165,1,0,3:0:0:0:
448,192,200285,1,0,3:0:0:0:
320,192,200285,1,0,3:0:0:0:
192,192,200285,1,0,3:0:0:0:
64,192,200285,1,0,3:0:0:0:
192,192,200405,1,0,3:0:0:0:
64,192,200525,1,0,3:0:0:0:
192,192,200525,1,0,3:0:0:0:
320,192,200525,1,0,3:0:0:0:
448,192,200525,1,0,3:0:0:0:
448,192,200645,1,0,3:0:0:0:
448,192,200765,1,0,3:0:0:0:
320,192,200765,1,0,3:0:0:0:
192,192,200765,1,0,3:0:0:0:
64,192,200765,1,0,3:0:0:0:
192,192,200885,1,0,3:0:0:0:
64,192,201005,1,0,3:0:0:0:
192,192,201005,1,0,3:0:0:0:
320,192,201005,1,0,3:0:0:0:
448,192,201005,1,0,3:0:0:0:
320,192,201125,1,0,3:0:0:0:
64,192,201245,1,0,3:0:0:0:
192,192,201245,1,0,3:0:0:0:
320,192,201245,1,0,3:0:0:0:
448,192,201245,1,0,3:0:0:0:
64,192,201365,1,0,3:0:0:0:
64,192,201485,1,0,3:0:0:0:
192,192,201485,1,0,3:0:0:0:
320,192,201485,1,0,3:0:0:0:
448,192,201485,1,0,3:0:0:0:
320,192,201605,1,0,3:0:0:0:
448,192,201725,1,0,3:0:0:0:
320,192,201725,1,0,3:0:0:0:
192,192,201725,1,0,3:0:0:0:
64,192,201725,1,0,3:0:0:0:
192,192,201845,1,0,3:0:0:0:
64,192,201965,1,0,3:0:0:0:
192,192,201965,1,0,3:0:0:0:
320,192,201965,1,0,3:0:0:0:
448,192,201965,1,0,3:0:0:0:
320,192,202085,1,0,3:0:0:0:
448,192,202205,1,0,3:0:0:0:
320,192,202205,1,0,3:0:0:0:
192,192,202205,1,0,3:0:0:0:
64,192,202205,1,0,3:0:0:0:
64,192,202325,1,0,3:0:0:0:
64,192,202445,1,0,3:0:0:0:
192,192,202445,1,0,3:0:0:0:
320,192,202445,1,0,3:0:0:0:
448,192,202445,1,0,3:0:0:0:
320,192,202565,1,0,3:0:0:0:
64,192,202685,1,0,3:0:0:0:
448,192,202685,1,0,3:0:0:0:
320,192,202685,1,0,3:0:0:0:
192,192,202685,1,0,3:0:0:0:
192,192,202805,1,0,0:0:0:0:
64,192,202925,1,0,2:0:0:0:
192,192,203045,1,0,2:0:0:0:
320,192,203165,1,0,2:0:0:0:
448,192,203285,1,0,2:0:0:0:
320,192,203405,1,0,2:0:0:0:
192,192,203525,1,0,2:0:0:0:
64,192,203645,1,0,3:0:0:0:
192,192,203645,1,0,3:0:0:0:
448,192,203765,1,0,3:0:0:0:
320,192,203765,1,0,3:0:0:0:
64,192,203825,1,0,3:0:0:0:
192,192,203825,1,0,3:0:0:0:
320,192,203885,1,0,3:0:0:0:
448,192,203885,1,0,3:0:0:0:
192,192,204005,1,0,3:0:0:0:
64,192,204005,1,0,3:0:0:0:
320,192,204125,1,0,3:0:0:0:
448,192,204125,1,0,3:0:0:0:
192,192,204185,1,0,3:0:0:0:
64,192,204185,1,0,3:0:0:0:
320,192,204245,1,0,3:0:0:0:
448,192,204245,1,0,3:0:0:0:
192,192,204305,1,0,3:0:0:0:
64,192,204305,1,0,3:0:0:0:
320,192,204365,1,0,3:0:0:0:
448,192,204365,1,0,3:0:0:0:
64,192,204605,1,0,3:0:0:0:
192,192,204605,1,0,3:0:0:0:
448,192,204605,1,0,3:0:0:0:
448,192,204725,1,0,3:0:0:0:
320,192,204725,1,0,3:0:0:0:
64,192,204725,1,0,3:0:0:0:
64,192,204965,1,0,3:0:0:0:
192,192,204965,1,0,3:0:0:0:
448,192,204965,1,0,3:0:0:0:
320,192,204965,1,0,3:0:0:0:
64,192,205205,1,0,3:0:0:0:
320,192,205205,1,0,3:0:0:0:
448,192,205205,1,0,3:0:0:0:
192,192,205205,1,0,3:0:0:0:
64,192,205565,1,0,3:0:0:0:
320,192,205565,1,0,3:0:0:0:
448,192,205565,1,0,3:0:0:0:
448,192,205685,1,0,3:0:0:0:
192,192,205685,1,0,3:0:0:0:
64,192,205685,1,0,3:0:0:0:
64,192,205925,1,0,3:0:0:0:
192,192,205925,1,0,3:0:0:0:
320,192,205925,1,0,3:0:0:0:
448,192,205925,1,0,3:0:0:0:
64,192,206165,1,0,3:0:0:0:
192,192,206165,1,0,3:0:0:0:
320,192,206165,1,0,3:0:0:0:
448,192,206165,1,0,3:0:0:0:
192,192,206525,1,0,3:0:0:0:
64,192,206525,1,0,3:0:0:0:
320,192,206525,1,0,3:0:0:0:
448,192,206525,1,0,3:0:0:0:
192,192,206765,1,0,2:0:0:0:
64,192,207005,1,0,3:0:0:0:
192,192,207005,1,0,3:0:0:0:
320,192,207005,1,0,3:0:0:0:
448,192,207005,1,0,3:0:0:0:
320,192,207245,1,0,2:0:0:0:
448,192,207485,1,0,0:0:0:0:
320,192,207485,1,0,0:0:0:0:
192,192,207485,1,0,0:0:0:0:
64,192,207485,1,0,0:0:0:0:
320,192,207725,1,0,2:0:0:0:
64,192,207845,1,0,3:0:0:0:
192,192,207845,1,0,3:0:0:0:
320,192,207845,1,0,3:0:0:0:
448,192,207845,1,0,3:0:0:0:
64,192,208205,1,0,3:0:0:0:
192,192,208205,1,0,3:0:0:0:
320,192,208205,1,0,3:0:0:0:
448,192,208205,1,0,3:0:0:0:
64,192,208445,1,0,3:0:0:0:
192,192,208445,1,0,3:0:0:0:
320,192,208445,1,0,3:0:0:0:
448,192,208445,1,0,3:0:0:0:
192,192,208685,1,0,2:0:0:0:
320,192,208925,1,0,2:0:0:0:
192,192,209165,1,0,2:0:0:0:
448,192,209405,1,0,2:0:0:0:
320,192,209645,1,0,3:0:0:0:
64,192,209765,1,0,3:0:0:0:
192,192,209765,1,0,3:0:0:0:
192,192,209885,1,0,3:0:0:0:
448,192,210005,1,0,3:0:0:0:
320,192,210005,1,0,3:0:0:0:
320,192,210125,1,0,3:0:0:0:
64,192,210245,1,0,3:0:0:0:
192,192,210245,1,0,3:0:0:0:
320,192,210365,1,0,3:0:0:0:
448,192,210365,1,0,3:0:0:0:
320,192,210485,1,0,3:0:0:0:
64,192,210605,1,0,3:0:0:0:
192,192,210605,1,0,3:0:0:0:
192,192,210725,1,0,3:0:0:0:
320,192,210845,1,0,3:0:0:0:
448,192,210845,1,0,3:0:0:0:
320,192,210965,1,0,3:0:0:0:
64,192,211085,1,0,3:0:0:0:
192,192,211085,1,0,3:0:0:0:
192,192,211205,1,0,3:0:0:0:
320,192,211325,1,0,3:0:0:0:
448,192,211325,1,0,3:0:0:0:
64,192,211445,1,0,3:0:0:0:
192,192,211445,1,0,3:0:0:0:
320,192,211505,1,0,3:0:0:0:
448,192,211505,1,0,3:0:0:0:
192,192,211565,1,0,3:0:0:0:
64,192,211565,1,0,3:0:0:0:
320,192,211625,1,0,3:0:0:0:
448,192,211625,1,0,3:0:0:0:
192,192,211685,1,0,3:0:0:0:
64,192,211685,1,0,3:0:0:0:
320,192,211745,1,0,3:0:0:0:
448,192,211745,1,0,3:0:0:0:
192,192,211805,1,0,3:0:0:0:
64,192,211805,1,0,3:0:0:0:
320,192,211925,1,0,3:0:0:0:
448,192,211925,1,0,3:0:0:0:
192,192,211925,1,0,3:0:0:0:
64,192,211925,1,0,3:0:0:0:
192,192,212045,1,0,3:0:0:0:
64,192,212045,1,0,3:0:0:0:
320,192,212045,1,0,3:0:0:0:
448,192,212045,1,0,3:0:0:0:
64,192,212285,1,0,3:0:0:0:
448,192,212285,1,0,3:0:0:0:
320,192,212285,1,0,3:0:0:0:
64,192,212405,1,0,3:0:0:0:
192,192,212405,1,0,3:0:0:0:
448,192,212405,1,0,3:0:0:0:
64,192,212645,1,0,3:0:0:0:
192,192,212645,1,0,3:0:0:0:
320,192,212645,1,0,3:0:0:0:
448,192,212645,1,0,3:0:0:0:
64,192,212885,1,0,3:0:0:0:
192,192,212885,1,0,3:0:0:0:
320,192,212885,1,0,3:0:0:0:
448,192,212885,1,0,3:0:0:0:
64,192,213245,1,0,3:0:0:0:
192,192,213245,1,0,3:0:0:0:
448,192,213245,1,0,3:0:0:0:
448,192,213365,1,0,3:0:0:0:
320,192,213365,1,0,3:0:0:0:
64,192,213365,1,0,3:0:0:0:
64,192,213605,1,0,3:0:0:0:
192,192,213605,1,0,3:0:0:0:
320,192,213605,1,0,3:0:0:0:
448,192,213605,1,0,3:0:0:0:
448,192,213845,1,0,3:0:0:0:
320,192,213845,1,0,3:0:0:0:
192,192,213845,1,0,3:0:0:0:
64,192,213845,1,0,3:0:0:0:
64,192,214445,1,0,3:0:0:0:
192,192,214445,1,0,3:0:0:0:
448,192,214445,1,0,3:0:0:0:
320,192,214565,1,0,2:0:0:0:
448,192,214685,1,0,3:0:0:0:
320,192,214685,1,0,3:0:0:0:
64,192,214685,1,0,3:0:0:0:
192,192,214805,1,0,2:0:0:0:
64,192,214925,1,0,3:0:0:0:
192,192,214925,1,0,3:0:0:0:
448,192,214925,1,0,3:0:0:0:
320,192,215045,1,0,2:0:0:0:
320,192,215165,1,0,3:0:0:0:
448,192,215165,1,0,3:0:0:0:
64,192,215165,1,0,3:0:0:0:
320,192,215405,1,0,3:0:0:0:
448,192,215405,1,0,3:0:0:0:
192,192,215525,1,0,3:0:0:0:
64,192,215525,1,0,3:0:0:0:
320,192,215765,1,0,3:0:0:0:
448,192,215765,1,0,3:0:0:0:
192,192,215825,1,0,3:0:0:0:
64,192,215825,1,0,3:0:0:0:
320,192,215885,1,0,3:0:0:0:
448,192,215885,1,0,3:0:0:0:
64,192,216125,1,0,3:0:0:0:
320,192,216125,1,0,3:0:0:0:
64,192,216365,1,0,3:0:0:0:
192,192,216365,1,0,3:0:0:0:
448,192,216365,1,0,3:0:0:0:
320,192,216485,1,0,3:0:0:0:
448,192,216605,1,0,3:0:0:0:
320,192,216605,1,0,3:0:0:0:
64,192,216605,1,0,3:0:0:0:
192,192,216725,1,0,3:0:0:0:
64,192,216845,1,0,3:0:0:0:
192,192,216845,1,0,3:0:0:0:
320,192,216845,1,0,3:0:0:0:
448,192,216965,1,0,3:0:0:0:
448,192,217085,1,0,3:0:0:0:
320,192,217085,1,0,3:0:0:0:
192,192,217085,1,0,3:0:0:0:
64,192,217205,1,0,3:0:0:0:
64,192,217325,1,0,3:0:0:0:
192,192,217325,1,0,3:0:0:0:
448,192,217325,1,0,3:0:0:0:
320,192,217445,1,0,3:0:0:0:
320,192,217565,1,0,3:0:0:0:
448,192,217565,1,0,3:0:0:0:
64,192,217565,1,0,3:0:0:0:
192,192,217685,1,0,3:0:0:0:
64,192,217805,1,0,3:0:0:0:
192,192,217805,1,0,3:0:0:0:
320,192,217805,1,0,3:0:0:0:
448,192,217925,1,0,3:0:0:0:
320,192,218045,1,0,3:0:0:0:
448,192,218045,1,0,3:0:0:0:
64,192,218045,1,0,3:0:0:0:
192,192,218165,1,0,3:0:0:0:
64,192,218285,1,0,3:0:0:0:
192,192,218285,1,0,3:0:0:0:
448,192,218285,1,0,3:0:0:0:
320,192,218405,1,0,3:0:0:0:
192,192,218525,1,0,3:0:0:0:
448,192,218525,1,0,3:0:0:0:
320,192,218525,1,0,3:0:0:0:
64,192,218645,1,0,3:0:0:0:
64,192,218765,1,0,3:0:0:0:
320,192,218765,1,0,3:0:0:0:
448,192,218765,1,0,3:0:0:0:
192,192,218885,1,0,3:0:0:0:
192,192,219005,1,0,3:0:0:0:
64,192,219005,1,0,3:0:0:0:
448,192,219005,1,0,3:0:0:0:
320,192,219125,1,0,3:0:0:0:
320,192,219245,1,0,3:0:0:0:
448,192,219245,1,0,3:0:0:0:
64,192,219245,1,0,3:0:0:0:
64,192,219365,1,0,3:0:0:0:
192,192,219365,1,0,3:0:0:0:
320,192,219425,1,0,3:0:0:0:
448,192,219425,1,0,3:0:0:0:
64,192,219485,1,0,3:0:0:0:
192,192,219485,1,0,3:0:0:0:
320,192,219545,1,0,3:0:0:0:
448,192,219545,1,0,3:0:0:0:
64,192,219605,1,0,3:0:0:0:
192,192,219605,1,0,3:0:0:0:
320,192,219665,1,0,3:0:0:0:
448,192,219665,1,0,3:0:0:0:
192,192,219725,1,0,3:0:0:0:
64,192,219725,1,0,3:0:0:0:
320,192,219785,1,0,3:0:0:0:
448,192,219785,1,0,3:0:0:0:
192,192,219845,1,0,3:0:0:0:
64,192,219845,1,0,3:0:0:0:
320,192,219905,1,0,3:0:0:0:
448,192,219905,1,0,3:0:0:0:
64,192,219965,1,0,3:0:0:0:
192,192,219965,1,0,3:0:0:0:
320,192,220085,1,0,3:0:0:0:
320,192,220205,1,0,3:0:0:0:
448,192,220205,1,0,3:0:0:0:
64,192,220205,1,0,3:0:0:0:
192,192,220325,1,0,3:0:0:0:
64,192,220445,1,0,3:0:0:0:
192,192,220445,1,0,3:0:0:0:
448,192,220445,1,0,3:0:0:0:
320,192,220565,1,0,3:0:0:0:
448,192,220685,1,0,3:0:0:0:
320,192,220685,1,0,3:0:0:0:
192,192,220685,1,0,3:0:0:0:
64,192,220805,1,0,3:0:0:0:
64,192,220925,1,0,3:0:0:0:
192,192,220925,1,0,3:0:0:0:
320,192,220925,1,0,3:0:0:0:
448,192,221045,1,0,3:0:0:0:
448,192,221165,1,0,3:0:0:0:
192,192,221165,1,0,3:0:0:0:
64,192,221165,1,0,3:0:0:0:
320,192,221285,1,0,3:0:0:0:
64,192,221405,1,0,3:0:0:0:
320,192,221405,1,0,3:0:0:0:
448,192,221405,1,0,3:0:0:0:
192,192,221525,1,0,3:0:0:0:
64,192,221645,1,0,3:0:0:0:
192,192,221645,1,0,3:0:0:0:
448,192,221645,1,0,3:0:0:0:
320,192,221765,1,0,3:0:0:0:
192,192,221885,1,0,3:0:0:0:
64,192,221885,1,0,3:0:0:0:
448,192,221885,1,0,3:0:0:0:
192,192,222005,1,0,3:0:0:0:
64,192,222125,1,0,3:0:0:0:
448,192,222125,1,0,3:0:0:0:
320,192,222125,1,0,3:0:0:0:
192,192,222245,1,0,3:0:0:0:
64,192,222365,1,0,3:0:0:0:
192,192,222365,1,0,3:0:0:0:
320,192,222365,1,0,3:0:0:0:
448,192,222485,1,0,3:0:0:0:
448,192,222605,1,0,3:0:0:0:
320,192,222605,1,0,3:0:0:0:
64,192,222605,1,0,3:0:0:0:
192,192,222725,1,0,3:0:0:0:
64,192,222845,1,0,3:0:0:0:
192,192,222845,1,0,3:0:0:0:
448,192,222845,1,0,3:0:0:0:
320,192,222965,1,0,3:0:0:0:
192,192,223085,1,0,3:0:0:0:
320,192,223085,1,0,3:0:0:0:
448,192,223085,1,0,3:0:0:0:
64,192,223205,1,0,3:0:0:0:
64,192,223325,1,0,3:0:0:0:
192,192,223325,1,0,3:0:0:0:
320,192,223325,1,0,3:0:0:0:
448,192,223445,1,0,3:0:0:0:
448,192,223565,1,0,3:0:0:0:
320,192,223565,1,0,3:0:0:0:
64,192,223565,1,0,3:0:0:0:
192,192,223685,1,0,3:0:0:0:
64,192,223805,1,0,3:0:0:0:
192,192,223805,1,0,3:0:0:0:
448,192,223805,1,0,3:0:0:0:
320,192,223925,1,0,3:0:0:0:
448,192,224045,1,0,3:0:0:0:
320,192,224045,1,0,3:0:0:0:
64,192,224045,1,0,3:0:0:0:
192,192,224165,1,0,3:0:0:0:
64,192,224285,1,0,3:0:0:0:
192,192,224285,1,0,3:0:0:0:
320,192,224285,1,0,3:0:0:0:
448,192,224405,1,0,3:0:0:0:
320,192,224525,1,0,3:0:0:0:
448,192,224525,1,0,3:0:0:0:
64,192,224525,1,0,3:0:0:0:
192,192,224645,1,0,3:0:0:0:
64,192,224765,1,0,3:0:0:0:
320,192,224765,1,0,3:0:0:0:
448,192,224765,1,0,3:0:0:0:
320,192,224885,1,0,3:0:0:0:
448,192,225005,1,0,3:0:0:0:
320,192,225005,1,0,3:0:0:0:
192,192,225005,1,0,3:0:0:0:
64,192,225125,1,0,3:0:0:0:
64,192,225245,1,0,3:0:0:0:
192,192,225245,1,0,3:0:0:0:
320,192,225245,1,0,3:0:0:0:
448,192,225365,1,0,3:0:0:0:
320,192,225485,1,0,3:0:0:0:
448,192,225485,1,0,3:0:0:0:
64,192,225485,1,0,3:0:0:0:
192,192,225605,1,0,3:0:0:0:
448,192,225725,1,0,3:0:0:0:
192,192,225725,1,0,3:0:0:0:
64,192,225725,1,0,3:0:0:0:
64,192,225965,1,0,3:0:0:0:
448,192,225965,1,0,3:0:0:0:
448,192,226085,1,0,3:0:0:0:
320,192,226085,1,0,3:0:0:0:
192,192,226085,1,0,3:0:0:0:
64,192,226085,1,0,3:0:0:0:
192,192,226325,1,0,3:0:0:0:
320,192,226325,1,0,3:0:0:0:
64,192,226445,1,0,3:0:0:0:
192,192,226445,1,0,3:0:0:0:
320,192,226445,1,0,3:0:0:0:
448,192,226445,1,0,3:0:0:0:
64,192,226685,1,0,3:0:0:0:
448,192,226685,1,0,3:0:0:0:
64,192,226805,1,0,3:0:0:0:
192,192,226805,1,0,3:0:0:0:
320,192,226805,1,0,3:0:0:0:
448,192,226805,1,0,3:0:0:0:
192,192,227045,1,0,3:0:0:0:
320,192,227045,1,0,3:0:0:0:
64,192,227165,1,0,3:0:0:0:
192,192,227165,1,0,3:0:0:0:
320,192,227165,1,0,3:0:0:0:
448,192,227165,1,0,3:0:0:0:
64,192,227405,1,0,3:0:0:0:
448,192,227405,1,0,3:0:0:0:
64,192,227525,1,0,3:0:0:0:
192,192,227525,1,0,3:0:0:0:
320,192,227525,1,0,3:0:0:0:
448,192,227525,1,0,3:0:0:0:
64,192,227885,1,0,3:0:0:0:
192,192,227885,1,0,3:0:0:0:
320,192,227885,1,0,3:0:0:0:
448,192,227885,1,0,3:0:0:0:
64,192,228245,1,0,3:0:0:0:
192,192,228245,1,0,3:0:0:0:
320,192,228245,1,0,3:0:0:0:
448,192,228245,1,0,3:0:0:0:
192,192,228365,1,0,2:0:0:0:
64,192,228485,1,0,3:0:0:0:
192,192,228485,1,0,3:0:0:0:
320,192,228485,1,0,3:0:0:0:
448,192,228485,1,0,3:0:0:0:
64,192,228605,1,0,2:0:0:0:
448,192,228665,1,0,2:0:0:0:
192,192,228725,1,0,2:0:0:0:
320,192,228785,1,0,2:0:0:0:
64,192,228845,1,0,2:0:0:0:
448,192,228905,1,0,2:0:0:0:
192,192,228965,1,0,2:0:0:0:
320,192,229025,1,0,2:0:0:0:
64,192,229085,1,0,2:0:0:0:
448,192,229145,1,0,2:0:0:0:
192,192,229205,1,0,2:0:0:0:
320,192,229265,1,0,2:0:0:0:
64,192,229325,1,0,2:0:0:0:
448,192,229385,1,0,2:0:0:0:
192,192,229445,1,0,3:0:0:0:
64,192,229445,1,0,3:0:0:0:
320,192,229445,1,0,3:0:0:0:
64,192,229805,1,0,3:0:0:0:
192,192,229805,1,0,3:0:0:0:
320,192,229805,1,0,3:0:0:0:
448,192,229805,1,0,3:0:0:0:
64,192,230165,1,0,3:0:0:0:
192,192,230165,1,0,3:0:0:0:
320,192,230165,1,0,3:0:0:0:
448,192,230165,1,0,3:0:0:0:
320,192,230285,1,0,2:0:0:0:
64,192,230405,1,0,3:0:0:0:
192,192,230405,1,0,3:0:0:0:
448,192,230405,1,0,3:0:0:0:
320,192,230405,1,0,3:0:0:0:
64,192,230525,1,0,2:0:0:0:
192,192,230585,1,0,2:0:0:0:
320,192,230645,1,0,2:0:0:0:
448,192,230705,1,0,2:0:0:0:
320,192,230765,1,0,2:0:0:0:
192,192,230825,1,0,2:0:0:0:
64,192,230885,1,0,2:0:0:0:
448,192,230945,1,0,2:0:0:0:
320,192,231005,1,0,2:0:0:0:
192,192,231065,1,0,2:0:0:0:
64,192,231125,1,0,2:0:0:0:
192,192,231185,1,0,2:0:0:0:
320,192,231245,1,0,2:0:0:0:
448,192,231305,1,0,2:0:0:0:
320,192,231365,1,0,3:0:0:0:
192,192,231365,1,0,3:0:0:0:
64,192,231365,1,0,3:0:0:0:
64,192,231725,1,0,3:0:0:0:
192,192,231725,1,0,3:0:0:0:
320,192,231725,1,0,3:0:0:0:
448,192,231725,1,0,3:0:0:0:
64,192,232085,1,0,3:0:0:0:
192,192,232085,1,0,3:0:0:0:
320,192,232085,1,0,3:0:0:0:
448,192,232085,1,0,3:0:0:0:
192,192,232205,1,0,2:0:0:0:
64,192,232325,1,0,3:0:0:0:
192,192,232325,1,0,3:0:0:0:
320,192,232325,1,0,3:0:0:0:
448,192,232325,1,0,3:0:0:0:
64,192,232445,1,0,2:0:0:0:
192,192,232505,1,0,2:0:0:0:
64,192,232565,1,0,2:0:0:0:
192,192,232625,1,0,2:0:0:0:
448,192,232685,1,0,2:0:0:0:
320,192,232745,1,0,2:0:0:0:
448,192,232805,1,0,2:0:0:0:
320,192,232865,1,0,2:0:0:0:
64,192,232925,1,0,2:0:0:0:
192,192,232985,1,0,2:0:0:0:
64,192,233045,1,0,2:0:0:0:
192,192,233105,1,0,2:0:0:0:
448,192,233165,1,0,2:0:0:0:
320,192,233225,1,0,2:0:0:0:
64,192,233285,1,0,3:0:0:0:
192,192,233285,1,0,3:0:0:0:
448,192,233285,1,0,3:0:0:0:
64,192,233645,1,0,3:0:0:0:
192,192,233645,1,0,3:0:0:0:
320,192,233645,1,0,3:0:0:0:
448,192,233645,1,0,3:0:0:0:
64,192,234005,1,0,3:0:0:0:
192,192,234005,1,0,3:0:0:0:
320,192,234005,1,0,3:0:0:0:
448,192,234005,1,0,3:0:0:0:
320,192,234125,1,0,2:0:0:0:
448,192,234245,1,0,3:0:0:0:
320,192,234245,1,0,3:0:0:0:
192,192,234245,1,0,3:0:0:0:
64,192,234245,1,0,3:0:0:0:
64,192,234365,1,0,2:0:0:0:
192,192,234425,1,0,2:0:0:0:
320,192,234485,1,0,2:0:0:0:
192,192,234545,1,0,2:0:0:0:
64,192,234605,1,0,2:0:0:0:
192,192,234665,1,0,2:0:0:0:
320,192,234725,1,0,2:0:0:0:
448,192,234785,1,0,2:0:0:0:
64,192,234845,1,0,3:0:0:0:
320,192,234845,1,0,3:0:0:0:
192,192,234845,1,0,3:0:0:0:
64,192,235085,1,0,3:0:0:0:
192,192,235085,1,0,3:0:0:0:
320,192,235085,1,0,3:0:0:0:
448,192,235085,1,0,3:0:0:0:
448,192,235325,1,0,3:0:0:0:
320,192,235325,1,0,3:0:0:0:
192,192,235325,1,0,3:0:0:0:
64,192,235325,1,0,3:0:0:0:
192,192,235595,1,0,2:0:0:0:
448,192,235835,1,0,2:0:0:0:
320,192,235955,1,0,2:0:0:0:
192,192,236075,1,0,2:0:0:0:
320,192,236195,1,0,2:0:0:0:
64,192,236315,1,0,2:0:0:0:
320,192,236465,1,0,2:0:0:0:
64,192,236585,1,0,0:0:0:0:
192,192,236585,1,0,0:0:0:0:
448,192,236765,128,0,240005:3:0:0:0:
320,192,236765,128,0,240005:3:0:0:0:
64,192,240005,1,0,3:0:0:0:
192,192,240005,1,0,3:0:0:0:
192,192,240125,1,0,3:0:0:0:
320,192,240245,1,0,3:0:0:0:
448,192,240245,1,0,3:0:0:0:
320,192,240365,1,0,3:0:0:0:
192,192,240485,1,0,3:0:0:0:
64,192,240485,1,0,3:0:0:0:
448,192,240605,1,0,3:0:0:0:
320,192,240605,1,0,3:0:0:0:
64,192,240725,1,0,3:0:0:0:
192,192,240725,1,0,3:0:0:0:
320,192,240845,1,0,3:0:0:0:
448,192,240845,1,0,3:0:0:0:
64,192,240965,1,0,3:0:0:0:
448,192,240965,1,0,3:0:0:0:
320,192,240965,1,0,3:0:0:0:
192,192,241085,1,0,3:0:0:0:
320,192,241145,1,0,3:0:0:0:
448,192,241205,1,0,3:0:0:0:
64,192,241205,1,0,3:0:0:0:
192,192,241205,1,0,3:0:0:0:
320,192,241325,1,0,3:0:0:0:
192,192,241385,1,0,3:0:0:0:
320,192,241445,1,0,3:0:0:0:
448,192,241445,1,0,3:0:0:0:
64,192,241445,1,0,3:0:0:0:
192,192,241565,1,0,3:0:0:0:
64,192,241685,1,0,3:0:0:0:
192,192,241685,1,0,3:0:0:0:
448,192,241685,1,0,3:0:0:0:
320,192,241805,1,0,3:0:0:0:
192,192,241925,1,0,3:0:0:0:
320,192,241925,1,0,3:0:0:0:
448,192,241925,1,0,3:0:0:0:
64,192,242045,1,0,3:0:0:0:
64,192,242165,1,0,3:0:0:0:
192,192,242165,1,0,3:0:0:0:
448,192,242165,1,0,3:0:0:0:
320,192,242285,1,0,3:0:0:0:
448,192,242405,1,0,3:0:0:0:
320,192,242405,1,0,3:0:0:0:
64,192,242405,1,0,3:0:0:0:
192,192,242525,1,0,3:0:0:0:
64,192,242645,1,0,3:0:0:0:
320,192,242645,1,0,3:0:0:0:
448,192,242645,1,0,3:0:0:0:
192,192,242765,1,0,3:0:0:0:
320,192,242825,1,0,3:0:0:0:
192,192,242885,1,0,3:0:0:0:
64,192,242885,1,0,3:0:0:0:
448,192,242885,1,0,3:0:0:0:
320,192,243005,1,0,3:0:0:0:
192,192,243065,1,0,3:0:0:0:
320,192,243125,1,0,3:0:0:0:
448,192,243125,1,0,3:0:0:0:
64,192,243125,1,0,3:0:0:0:
192,192,243245,1,0,3:0:0:0:
320,192,243305,1,0,3:0:0:0:
192,192,243365,1,0,3:0:0:0:
64,192,243365,1,0,3:0:0:0:
448,192,243365,1,0,3:0:0:0:
320,192,243485,1,0,3:0:0:0:
320,192,243605,1,0,3:0:0:0:
448,192,243605,1,0,3:0:0:0:
64,192,243605,1,0,3:0:0:0:
192,192,243725,1,0,3:0:0:0:
64,192,243845,1,0,3:0:0:0:
192,192,243845,1,0,3:0:0:0:
320,192,243845,1,0,3:0:0:0:
448,192,243965,1,0,3:0:0:0:
448,192,244085,1,0,3:0:0:0:
320,192,244085,1,0,3:0:0:0:
64,192,244085,1,0,3:0:0:0:
192,192,244205,1,0,3:0:0:0:
64,192,244325,1,0,3:0:0:0:
448,192,244325,1,0,3:0:0:0:
192,192,244325,1,0,3:0:0:0:
320,192,244445,1,0,3:0:0:0:
448,192,244565,1,0,3:0:0:0:
64,192,244565,1,0,3:0:0:0:
320,192,244565,1,0,3:0:0:0:
192,192,244685,1,0,3:0:0:0:
320,192,244745,1,0,3:0:0:0:
192,192,244805,1,0,3:0:0:0:
64,192,244805,1,0,3:0:0:0:
448,192,244805,1,0,3:0:0:0:
320,192,244925,1,0,3:0:0:0:
192,192,244985,1,0,3:0:0:0:
320,192,245045,1,0,3:0:0:0:
448,192,245045,1,0,3:0:0:0:
64,192,245045,1,0,3:0:0:0:
192,192,245165,1,0,3:0:0:0:
320,192,245225,1,0,3:0:0:0:
192,192,245285,1,0,3:0:0:0:
64,192,245285,1,0,3:0:0:0:
448,192,245285,1,0,3:0:0:0:
320,192,245405,1,0,3:0:0:0:
320,192,245525,1,0,3:0:0:0:
448,192,245525,1,0,3:0:0:0:
192,192,245525,1,0,3:0:0:0:
64,192,245645,1,0,3:0:0:0:
64,192,245765,1,0,3:0:0:0:
192,192,245765,1,0,3:0:0:0:
320,192,245765,1,0,3:0:0:0:
448,192,245885,1,0,3:0:0:0:
320,192,246005,1,0,3:0:0:0:
448,192,246005,1,0,3:0:0:0:
64,192,246005,1,0,3:0:0:0:
192,192,246125,1,0,3:0:0:0:
64,192,246245,1,0,3:0:0:0:
192,192,246245,1,0,3:0:0:0:
448,192,246245,1,0,3:0:0:0:
320,192,246365,1,0,3:0:0:0:
320,192,246485,1,0,3:0:0:0:
448,192,246485,1,0,3:0:0:0:
64,192,246485,1,0,3:0:0:0:
192,192,246605,1,0,3:0:0:0:
64,192,246725,1,0,3:0:0:0:
320,192,246725,1,0,3:0:0:0:
448,192,246725,1,0,3:0:0:0:
192,192,246845,1,0,3:0:0:0:
320,192,246905,1,0,3:0:0:0:
192,192,246965,1,0,3:0:0:0:
64,192,246965,1,0,3:0:0:0:
448,192,246965,1,0,3:0:0:0:
320,192,247085,1,0,3:0:0:0:
320,192,247205,1,0,3:0:0:0:
448,192,247205,1,0,3:0:0:0:
64,192,247205,1,0,3:0:0:0:
64,192,247325,1,0,3:0:0:0:
192,192,247325,1,0,3:0:0:0:
448,192,247325,1,0,3:0:0:0:
64,192,247505,1,0,3:0:0:0:
320,192,247505,1,0,3:0:0:0:
448,192,247505,1,0,3:0:0:0:
192,192,247505,1,0,3:0:0:0:
64,192,247685,1,0,3:0:0:0:
192,192,247685,1,0,3:0:0:0:
320,192,247685,1,0,3:0:0:0:
448,192,247685,1,0,3:0:0:0:
192,192,247805,1,0,2:0:0:0:
64,192,247925,1,0,3:0:0:0:
192,192,247925,1,0,3:0:0:0:
320,192,247925,1,0,3:0:0:0:
448,192,247925,1,0,3:0:0:0:
320,192,248045,1,0,2:0:0:0:
64,192,248165,1,0,3:0:0:0:
192,192,248165,1,0,3:0:0:0:
320,192,248165,1,0,3:0:0:0:
448,192,248165,1,0,3:0:0:0:
64,192,248285,1,0,2:0:0:0:
192,192,248345,1,0,2:0:0:0:
320,192,248405,1,0,2:0:0:0:
448,192,248465,1,0,2:0:0:0:
320,192,248525,1,0,2:0:0:0:
192,192,248585,1,0,2:0:0:0:
64,192,248645,1,0,3:0:0:0:
448,192,248645,1,0,3:0:0:0:
320,192,248645,1,0,3:0:0:0:
192,192,248765,1,0,3:0:0:0:
320,192,248825,1,0,3:0:0:0:
192,192,248885,1,0,3:0:0:0:
64,192,248885,1,0,3:0:0:0:
448,192,248885,1,0,3:0:0:0:
320,192,249005,1,0,3:0:0:0:
192,192,249065,1,0,3:0:0:0:
320,192,249125,1,0,3:0:0:0:
448,192,249125,1,0,3:0:0:0:
64,192,249125,1,0,3:0:0:0:
192,192,249245,1,0,3:0:0:0:
64,192,249365,1,0,3:0:0:0:
192,192,249365,1,0,3:0:0:0:
448,192,249365,1,0,3:0:0:0:
320,192,249485,1,0,3:0:0:0:
448,192,249605,1,0,3:0:0:0:
320,192,249605,1,0,3:0:0:0:
192,192,249605,1,0,3:0:0:0:
64,192,249725,1,0,3:0:0:0:
64,192,249845,1,0,3:0:0:0:
192,192,249845,1,0,3:0:0:0:
320,192,249845,1,0,3:0:0:0:
448,192,249965,1,0,3:0:0:0:
448,192,250085,1,0,3:0:0:0:
320,192,250085,1,0,3:0:0:0:
64,192,250085,1,0,3:0:0:0:
192,192,250205,1,0,3:0:0:0:
64,192,250325,1,0,3:0:0:0:
448,192,250325,1,0,3:0:0:0:
320,192,250325,1,0,3:0:0:0:
192,192,250445,1,0,3:0:0:0:
320,192,250505,1,0,3:0:0:0:
192,192,250565,1,0,3:0:0:0:
64,192,250565,1,0,3:0:0:0:
448,192,250565,1,0,3:0:0:0:
320,192,250685,1,0,3:0:0:0:
192,192,250745,1,0,3:0:0:0:
320,192,250805,1,0,3:0:0:0:
448,192,250805,1,0,3:0:0:0:
64,192,250805,1,0,3:0:0:0:
192,192,250925,1,0,3:0:0:0:
320,192,250985,1,0,3:0:0:0:
192,192,251045,1,0,3:0:0:0:
64,192,251045,1,0,3:0:0:0:
448,192,251045,1,0,3:0:0:0:
320,192,251165,1,0,3:0:0:0:
320,192,251285,1,0,3:0:0:0:
448,192,251285,1,0,3:0:0:0:
192,192,251285,1,0,3:0:0:0:
64,192,251405,1,0,3:0:0:0:
64,192,251525,1,0,3:0:0:0:
192,192,251525,1,0,3:0:0:0:
320,192,251525,1,0,3:0:0:0:
448,192,251645,1,0,3:0:0:0:
320,192,251765,1,0,3:0:0:0:
448,192,251765,1,0,3:0:0:0:
64,192,251765,1,0,3:0:0:0:
192,192,251885,1,0,3:0:0:0:
64,192,252005,1,0,3:0:0:0:
448,192,252005,1,0,3:0:0:0:
320,192,252005,1,0,3:0:0:0:
64,192,252125,1,0,3:0:0:0:
192,192,252125,1,0,3:0:0:0:
448,192,252185,1,0,3:0:0:0:
320,192,252185,1,0,3:0:0:0:
192,192,252245,1,0,3:0:0:0:
64,192,252245,1,0,3:0:0:0:
320,192,252305,1,0,3:0:0:0:
448,192,252305,1,0,3:0:0:0:
192,192,252365,1,0,3:0:0:0:
64,192,252365,1,0,3:0:0:0:
320,192,252425,1,0,3:0:0:0:
448,192,252425,1,0,3:0:0:0:
192,192,252485,1,0,3:0:0:0:
64,192,252485,1,0,3:0:0:0:
320,192,252605,1,0,3:0:0:0:
64,192,252725,1,0,3:0:0:0:
448,192,252845,1,0,3:0:0:0:
192,192,252965,1,0,3:0:0:0:
320,192,253085,1,0,3:0:0:0:
64,192,253205,1,0,3:0:0:0:
64,192,253325,1,0,3:0:0:0:
192,192,253325,1,0,3:0:0:0:
320,192,253325,1,0,3:0:0:0:
448,192,253325,1,0,3:0:0:0:
320,192,253445,1,0,3:0:0:0:
192,192,253565,1,0,3:0:0:0:
64,192,253565,1,0,3:0:0:0:
448,192,253625,1,0,3:0:0:0:
320,192,253685,1,0,3:0:0:0:
192,192,253685,1,0,3:0:0:0:
64,192,253745,1,0,3:0:0:0:
320,192,253805,1,0,3:0:0:0:
448,192,253805,1,0,3:0:0:0:
64,192,253865,1,0,3:0:0:0:
192,192,253925,1,0,3:0:0:0:
320,192,253925,1,0,3:0:0:0:
448,192,253985,1,0,3:0:0:0:
64,192,254045,1,0,3:0:0:0:
192,192,254045,1,0,3:0:0:0:
448,192,254105,1,0,3:0:0:0:
320,192,254165,1,0,3:0:0:0:
192,192,254165,1,0,3:0:0:0:
64,192,254225,1,0,3:0:0:0:
448,192,254285,1,0,3:0:0:0:
320,192,254285,1,0,3:0:0:0:
448,192,254645,1,0,3:0:0:0:
320,192,254645,1,0,3:0:0:0:
192,192,254645,1,0,3:0:0:0:
64,192,254645,1,0,3:0:0:0:
64,192,255005,1,0,3:0:0:0:
192,192,255005,1,0,3:0:0:0:
320,192,255005,1,0,3:0:0:0:
448,192,255005,1,0,3:0:0:0:
64,192,255365,1,0,3:0:0:0:
192,192,255365,1,0,3:0:0:0:
320,192,255365,1,0,3:0:0:0:
448,192,255365,1,0,3:0:0:0:
64,192,255725,1,0,3:0:0:0:
192,192,255725,1,0,3:0:0:0:
320,192,255725,1,0,3:0:0:0:
448,192,255725,1,0,3:0:0:0:
64,192,256085,128,0,260705:3:0:0:0:
448,192,256085,128,0,259205:3:0:0:0:
320,192,256085,128,0,259685:3:0:0:0:
192,192,256085,128,0,260165:3:0:0:0:
