osu file format v14

[General]
AudioFilename: audio.mp3
AudioLeadIn: 0
PreviewTime: 53276
Countdown: 1
SampleSet: Normal
StackLeniency: 0.7
Mode: 0
LetterboxInBreaks: 0
WidescreenStoryboard: 1

[Editor]
Bookmarks: 11245,12495,20620,21401,31088,42495,83901,103432,109682,112494
DistanceSpacing: 1
BeatDivisor: 4
GridSize: 4
TimelineZoom: 0.9

[Metadata]
Title:Origamical Sweet Love
TitleUnicode:オリガミカル・スウィートラヴ
Artist:Camellia ft. Nanahira
ArtistUnicode:かめりあ ft. ななひら
Creator:AlexLovesYou
Version:Normal
Source:Force!
Tags:Camellia Nanahira Electronic J-Pop
BeatmapID:1911690
BeatmapSetID:891195

[Difficulty]
HPDrainRate:2
CircleSize:3.5
OverallDifficulty:3
ApproachRate:5
SliderMultiplier:1
SliderTickRate:1

[Events]
//Background and Video events
0,0,"bgosumap.jpg",0,0
//Break Periods
//Storyboard Layer 0 (Background)
//Storyboard Layer 1 (Fail)
//Storyboard Layer 2 (Pass)
//Storyboard Layer 3 (Foreground)
//Storyboard Sound Samples

[TimingPoints]
1245,312.5,4,1,0,100,1,0
21401,-133.333333333333,4,1,0,100,0,0
31401,-117.647058823529,4,1,0,100,0,0
42651,-133.333333333333,4,1,0,100,0,0
53901,-100,4,1,0,100,0,1
63276,-100,4,1,0,100,0,0
63901,-100,4,1,0,100,0,1
73745,-100,4,1,0,100,0,0

[Colours]
Combo1 : 50,209,233
Combo2 : 253,217,47
Combo3 : 248,52,162
Combo4 : 0,206,0

[HitObjects]
46,59,1245,6,0,L|165:73,1,100
294,93,2026,1,0,0:0:0:0:
294,93,2182,1,0,0:0:0:0:
358,169,2495,6,0,L|247:181,1,100
109,200,3276,1,0,0:0:0:0:
109,200,3432,1,0,0:0:0:0:
173,276,3745,6,0,L|286:288,1,100
472,357,4526,1,0,0:0:0:0:
472,357,4682,1,0,0:0:0:0:
405,256,4995,5,0,0:0:0:0:
319,226,5307,1,0,0:0:0:0:
263,296,5620,1,0,0:0:0:0:
184,252,5932,1,0,0:0:0:0:
65,278,6245,6,0,P|48:247|49:209,1,75
62,104,6713,1,0,0:0:0:0:
167,161,7026,1,0,0:0:0:0:
167,161,7182,1,0,0:0:0:0:
271,101,7495,6,0,P|311:89|345:92,1,75
382,115,7807,1,0,0:0:0:0:
382,115,7963,1,0,0:0:0:0:
236,221,8432,1,0,0:0:0:0:
356,221,8745,1,0,0:0:0:0:
256,192,8901,12,0,9995,0:0:0:0:
448,156,11401,6,0,P|430:221|381:259,1,125
334,148,12026,1,0,0:0:0:0:
334,148,12182,1,0,0:0:0:0:
414,58,12495,1,0,0:0:0:0:
295,43,12807,2,0,L|226:36,1,50
119,67,13276,2,0,L|50:74,1,50
99,186,13745,5,0,0:0:0:0:
183,271,14057,1,0,0:0:0:0:
183,271,14213,1,0,0:0:0:0:
252,172,14526,2,0,P|308:120|374:104,1,125
406,119,14995,5,0,0:0:0:0:
450,196,15307,1,0,0:0:0:0:
377,249,15620,1,0,0:0:0:0:
420,327,15932,2,0,L|452:388,2,50
242,356,16713,5,0,0:0:0:0:
169,260,17026,2,0,P|143:221|137:192,1,75
157,89,17495,1,0,0:0:0:0:
250,164,17807,1,0,0:0:0:0:
250,164,17963,1,0,0:0:0:0:
322,259,18276,2,0,P|348:298|354:327,1,75
256,192,18745,12,0,19995,0:0:0:0:
74,90,21401,6,0,P|81:145|111:184,1,90.0000034332277
160,107,22026,1,0,0:0:0:0:
217,176,22338,1,0,0:0:0:0:
217,176,22495,2,0,P|239:214|242:259,1,90.0000034332277
271,344,23120,2,0,P|227:344|186:324,1,90.0000034332277
98,304,23745,6,0,P|119:265|157:240,1,90.0000034332277
157,240,24213,1,0,0:0:0:0:
106,114,24838,2,0,P|68:89|47:50,1,90.0000034332277
135,32,25463,1,0,0:0:0:0:
135,32,25620,2,0,P|173:57|194:96,1,90.0000034332277
146,172,26245,6,0,P|97:262|17:311,1,180.000006866455
34,304,27026,1,0,0:0:0:0:
97,368,27338,1,0,0:0:0:0:
177,328,27651,2,0,L|267:298,1,90.0000034332277
305,313,28120,2,0,L|395:343,1,90.0000034332277
317,227,28901,6,0,P|271:213|215:223,1,90.0000034332277
229,217,29370,1,0,0:0:0:0:
150,259,29682,1,0,0:0:0:0:
150,259,29838,2,0,B|81:133|179:195|131:80,1,180.000006866455
223,72,30776,2,0,L|262:31,2,45.0000017166138
295,144,31401,6,0,B|328:195|328:195|312:232|312:232|339:288,1,153.000002918243
334,278,32026,1,0,0:0:0:0:
235,256,32338,1,0,0:0:0:0:
235,256,32495,2,0,B|212:209|212:209|228:172|228:172|195:121,1,153.000002918243
195,121,33120,1,0,0:0:0:0:
280,65,33432,1,0,0:0:0:0:
351,138,33745,1,0,0:0:0:0:
440,89,34057,5,0,0:0:0:0:
440,89,34213,2,0,P|455:148|402:230,1,153.000002918243
320,272,34995,2,0,L|262:306,1,51.0000009727478
181,260,35463,1,0,0:0:0:0:
181,260,35620,2,0,P|168:314|115:348,1,102.000001945496
85,253,36245,6,0,L|108:26,1,204.000003890991
105,50,37026,1,0,0:0:0:0:
195,96,37338,1,0,0:0:0:0:
285,142,37651,2,0,L|439:208,1,153.000002918243
463,297,38432,1,0,0:0:0:0:
365,265,38745,6,0,L|244:241,1,102.000001945496
212,332,39370,2,0,L|91:356,1,102.000001945496
256,192,39995,12,0,41713,0:0:0:0:
405,86,42651,6,0,B|259:230|419:182|279:351,1,300.000011444092
228,346,45151,2,0,B|92:182|252:230|107:86,1,300.000011444092
256,190,47026,1,0,0:0:0:0:
