osu file format v14

[General]
AudioFilename: audio.mp3
AudioLeadIn: 0
PreviewTime: 0
Countdown: 0
SampleSet: Normal
StackLeniency: 0.7
Mode: 3
LetterboxInBreaks: 0
SpecialStyle: 1
WidescreenStoryboard: 0

[Editor]
DistanceSpacing: 1
BeatDivisor: 8
GridSize: 4
TimelineZoom: 1.6

[Metadata]
Title:Can I Friend You On Bassbook ? Lol
TitleUnicode:Can I Friend You On Bassbook ? Lol
Artist:Camellia feat.Nanahira
ArtistUnicode:Camellia feat.Nanahira
Creator:Strugatskaya
Version:4k
Source:nono
Tags:nanahira
BeatmapID:1691061
BeatmapSetID:805625

[Difficulty]
HPDrainRate:8
CircleSize:4
OverallDifficulty:6
ApproachRate:5
SliderMultiplier:1.4
SliderTickRate:1

[Events]
//Background and Video events
//Break Periods
//Storyboard Layer 0 (Background)
//Storyboard Layer 1 (Fail)
//Storyboard Layer 2 (Pass)
//Storyboard Layer 3 (Foreground)
//Storyboard Sound Samples

[TimingPoints]
4220,468.75,4,1,0,0,1,0
34278,-133.333333333333,4,1,0,0,0,0
64278,-100,4,1,0,0,0,0
81563,-83.3333333333333,4,2,2,5,0,0
81622,-1000,4,2,2,5,0,0
81680,-333.333333333333,4,2,2,5,0,0
81739,-250,4,2,2,5,0,0
81798,-200,4,2,2,5,0,0
81856,-166.666666666667,4,2,2,5,0,0
81915,-142.857142857143,4,2,2,5,0,0
81973,-125,4,2,2,5,0,0
82032,-83.3333333333333,4,2,2,5,0,0
82091,-1000,4,2,2,5,0,0
82149,-333.333333333333,4,2,2,5,0,0
82208,-250,4,2,2,5,0,0
82266,-200,4,2,2,5,0,0
82325,-166.666666666667,4,2,2,5,0,0
82384,-142.857142857143,4,2,2,5,0,0
82442,-125,4,2,2,5,0,0
82501,-83.3333333333333,4,2,2,5,0,0
83028,-100,4,2,2,5,0,0

[Colours]
Combo1 : 0,204,255
Combo2 : 0,102,255
Combo3 : 0,100,200
Combo4 : 255,255,255

[HitObjects]
64,192,4220,5,0,0:0:0:0:
448,192,4220,1,0,0:0:0:0:
192,192,4688,1,0,0:0:0:0:
192,192,5626,1,0,0:0:0:0:
64,192,6095,1,0,0:0:0:0:
448,192,6095,1,0,0:0:0:0:
192,192,6563,1,0,0:0:0:0:
320,192,6798,1,0,0:0:0:0:
448,192,7032,1,0,0:0:0:0:
320,192,7149,1,0,0:0:0:0:
192,192,7384,1,0,0:0:0:0:
320,192,7618,1,0,0:0:0:0:
192,192,7735,1,0,0:0:0:0:
64,192,7970,1,0,0:0:0:0:
448,192,7970,1,0,0:0:0:0:
192,192,8438,1,0,0:0:0:0:
192,192,9376,1,0,0:0:0:0:
448,192,9845,1,0,0:0:0:0:
64,192,9845,128,0,11720:0:0:0:0:
192,192,10313,1,0,0:0:0:0:
192,192,10782,128,0,11720:0:0:0:0:
448,192,11251,1,0,0:0:0:0:
320,192,11720,1,0,0:0:0:0:
448,192,11720,1,0,0:0:0:0:
320,192,11954,1,0,0:0:0:0:
192,192,12188,1,0,0:0:0:0:
448,192,12188,1,0,0:0:0:0:
192,192,12423,1,0,0:0:0:0:
64,192,12657,1,0,0:0:0:0:
320,192,12657,1,0,0:0:0:0:
320,192,12891,1,0,0:0:0:0:
448,192,12891,1,0,0:0:0:0:
192,192,13126,1,0,0:0:0:0:
448,192,13126,1,0,0:0:0:0:
192,192,13360,1,0,0:0:0:0:
64,192,13595,1,0,0:0:0:0:
192,192,13595,1,0,0:0:0:0:
320,192,13829,1,0,0:0:0:0:
320,192,14063,1,0,0:0:0:0:
64,192,14063,1,0,0:0:0:0:
192,192,14298,1,0,0:0:0:0:
192,192,14532,1,0,0:0:0:0:
448,192,14532,1,0,0:0:0:0:
64,192,14649,1,0,0:0:0:0:
320,192,14649,1,0,0:0:0:0:
448,192,14923,1,0,0:0:0:0:
320,192,14923,1,0,0:0:0:0:
64,192,15001,1,0,0:0:0:0:
192,192,15001,1,0,0:0:0:0:
320,192,15118,1,0,0:0:0:0:
448,192,15118,1,0,0:0:0:0:
64,192,15235,1,0,0:0:0:0:
192,192,15235,1,0,0:0:0:0:
448,192,15313,1,0,0:0:0:0:
320,192,15313,1,0,0:0:0:0:
192,192,15470,1,0,0:0:0:0:
320,192,15470,1,0,0:0:0:0:
448,192,15470,1,0,0:0:0:0:
64,192,15470,128,0,15938:0:0:0:0:
320,192,15704,1,0,0:0:0:0:
320,192,15938,1,0,0:0:0:0:
192,192,16173,1,0,0:0:0:0:
320,192,16231,1,0,0:0:0:0:
320,192,16407,1,0,0:0:0:0:
192,192,16466,1,0,0:0:0:0:
64,192,16524,1,0,0:0:0:0:
192,192,16583,1,0,0:0:0:0:
320,192,16641,1,0,0:0:0:0:
448,192,16641,1,0,0:0:0:0:
192,192,16759,1,0,0:0:0:0:
320,192,16876,1,0,0:0:0:0:
448,192,16993,1,0,0:0:0:0:
320,192,17110,1,0,0:0:0:0:
192,192,17169,1,0,0:0:0:0:
64,192,17227,1,0,0:0:0:0:
192,192,17286,1,0,0:0:0:0:
320,192,17345,1,0,0:0:0:0:
448,192,17345,1,0,0:0:0:0:
64,192,17403,1,0,0:0:0:0:
192,192,17462,1,0,0:0:0:0:
320,192,17520,1,0,0:0:0:0:
448,192,17579,1,0,0:0:0:0:
192,192,17637,1,0,0:0:0:0:
320,192,17696,1,0,0:0:0:0:
448,192,17755,1,0,0:0:0:0:
64,192,17813,1,0,0:0:0:0:
192,192,17872,1,0,0:0:0:0:
320,192,17930,1,0,0:0:0:0:
448,192,17989,1,0,0:0:0:0:
64,192,18048,1,0,0:0:0:0:
192,192,18106,1,0,0:0:0:0:
448,192,18165,1,0,0:0:0:0:
320,192,18223,1,0,0:0:0:0:
64,192,18282,1,0,0:0:0:0:
192,192,18341,1,0,0:0:0:0:
448,192,18399,1,0,0:0:0:0:
320,192,18458,1,0,0:0:0:0:
64,192,18516,1,0,0:0:0:0:
192,192,18575,1,0,0:0:0:0:
448,192,18634,1,0,0:0:0:0:
320,192,18692,1,0,0:0:0:0:
64,192,18751,1,0,0:0:0:0:
192,192,18809,1,0,0:0:0:0:
192,192,18985,1,0,0:0:0:0:
320,192,19044,1,0,0:0:0:0:
192,192,19161,1,0,0:0:0:0:
320,192,19220,1,0,0:0:0:0:
64,192,19220,1,0,0:0:0:0:
448,192,19220,1,0,0:0:0:0:
320,192,19454,1,0,0:0:0:0:
448,192,19688,1,0,0:0:0:0:
192,192,19688,1,0,0:0:0:0:
448,192,19923,1,0,0:0:0:0:
192,192,20040,1,0,0:0:0:0:
64,192,20157,1,0,0:0:0:0:
320,192,20157,1,0,0:0:0:0:
448,192,20157,1,0,0:0:0:0:
192,192,20274,1,0,0:0:0:0:
320,192,20509,1,0,0:0:0:0:
192,192,20743,1,0,0:0:0:0:
448,192,20743,1,0,0:0:0:0:
64,192,20860,1,0,0:0:0:0:
320,192,20860,1,0,0:0:0:0:
64,192,21095,1,0,0:0:0:0:
192,192,21095,1,0,0:0:0:0:
320,192,21095,1,0,0:0:0:0:
448,192,21095,1,0,0:0:0:0:
192,192,21329,1,0,0:0:0:0:
64,192,21563,1,0,0:0:0:0:
320,192,21563,1,0,0:0:0:0:
448,192,21798,128,0,21915:0:0:0:0:
320,192,21798,1,0,0:0:0:0:
320,192,22032,128,0,22149:0:0:0:0:
192,192,22032,1,0,0:0:0:0:
192,192,22149,128,0,22266:0:0:0:0:
64,192,22149,1,0,0:0:0:0:
64,192,22384,128,0,22501:0:0:0:0:
192,192,22501,1,0,0:0:0:0:
320,192,22501,1,0,0:0:0:0:
192,192,22618,128,0,22735:0:0:0:0:
448,192,22618,128,0,22735:0:0:0:0:
320,192,22735,128,0,22852:0:0:0:0:
64,192,22735,128,0,22852:0:0:0:0:
64,192,22970,1,0,0:0:0:0:
192,192,22970,1,0,0:0:0:0:
320,192,22970,1,0,0:0:0:0:
448,192,22970,1,0,0:0:0:0:
192,192,23204,1,0,0:0:0:0:
64,192,23438,1,0,0:0:0:0:
320,192,23438,1,0,0:0:0:0:
64,192,23673,1,0,0:0:0:0:
192,192,23731,1,0,0:0:0:0:
320,192,23790,1,0,0:0:0:0:
448,192,23848,1,0,0:0:0:0:
64,192,23907,1,0,0:0:0:0:
320,192,23907,1,0,0:0:0:0:
192,192,24024,1,0,0:0:0:0:
320,192,24141,1,0,0:0:0:0:
448,192,24259,1,0,0:0:0:0:
320,192,24376,1,0,0:0:0:0:
64,192,24376,1,0,0:0:0:0:
192,192,24493,1,0,0:0:0:0:
320,192,24552,1,0,0:0:0:0:
64,192,24845,128,0,25782:0:0:0:0:
192,192,24845,1,0,0:0:0:0:
448,192,24845,1,0,0:0:0:0:
320,192,25079,1,0,0:0:0:0:
320,192,25313,1,0,0:0:0:0:
448,192,25313,1,0,0:0:0:0:
192,192,25548,1,0,0:0:0:0:
192,192,25782,128,0,26720:0:0:0:0:
320,192,25782,1,0,0:0:0:0:
448,192,25782,1,0,0:0:0:0:
320,192,26016,1,0,0:0:0:0:
64,192,26251,1,0,0:0:0:0:
448,192,26251,1,0,0:0:0:0:
320,192,26485,1,0,0:0:0:0:
64,192,26720,1,0,0:0:0:0:
448,192,26720,1,0,0:0:0:0:
192,192,26876,1,0,0:0:0:0:
448,192,26876,1,0,0:0:0:0:
320,192,26954,1,0,0:0:0:0:
64,192,26954,1,0,0:0:0:0:
64,192,27110,1,0,0:0:0:0:
192,192,27110,1,0,0:0:0:0:
320,192,27188,1,0,0:0:0:0:
448,192,27188,1,0,0:0:0:0:
64,192,27345,1,0,0:0:0:0:
320,192,27345,1,0,0:0:0:0:
192,192,27423,1,0,0:0:0:0:
448,192,27423,1,0,0:0:0:0:
320,192,27579,1,0,0:0:0:0:
448,192,27579,1,0,0:0:0:0:
192,192,27657,1,0,0:0:0:0:
64,192,27657,1,0,0:0:0:0:
192,192,27813,1,0,0:0:0:0:
448,192,27813,1,0,0:0:0:0:
320,192,27891,1,0,0:0:0:0:
64,192,27891,1,0,0:0:0:0:
192,192,28048,1,0,0:0:0:0:
64,192,28048,1,0,0:0:0:0:
320,192,28126,1,0,0:0:0:0:
448,192,28126,1,0,0:0:0:0:
192,192,28243,1,0,0:0:0:0:
64,192,28360,1,0,0:0:0:0:
192,192,28419,1,0,0:0:0:0:
320,192,28477,1,0,0:0:0:0:
448,192,28536,1,0,0:0:0:0:
320,192,28595,1,0,0:0:0:0:
192,192,28595,1,0,0:0:0:0:
64,192,28595,1,0,0:0:0:0:
64,192,28751,1,0,0:0:0:0:
320,192,28751,1,0,0:0:0:0:
192,192,28829,1,0,0:0:0:0:
448,192,28829,1,0,0:0:0:0:
320,192,28985,1,0,0:0:0:0:
448,192,28985,1,0,0:0:0:0:
192,192,29063,1,0,0:0:0:0:
64,192,29063,1,0,0:0:0:0:
192,192,29220,1,0,0:0:0:0:
320,192,29220,1,0,0:0:0:0:
64,192,29298,1,0,0:0:0:0:
448,192,29298,1,0,0:0:0:0:
64,192,29454,1,0,0:0:0:0:
448,192,29454,1,0,0:0:0:0:
192,192,29532,1,0,0:0:0:0:
320,192,29532,1,0,0:0:0:0:
192,192,29688,1,0,0:0:0:0:
448,192,29688,1,0,0:0:0:0:
320,192,29766,1,0,0:0:0:0:
64,192,29766,1,0,0:0:0:0:
64,192,29923,1,0,0:0:0:0:
192,192,29923,1,0,0:0:0:0:
320,192,30001,1,0,0:0:0:0:
448,192,30001,1,0,0:0:0:0:
192,192,30118,1,0,0:0:0:0:
448,192,30235,1,0,0:0:0:0:
320,192,30294,1,0,0:0:0:0:
192,192,30352,1,0,0:0:0:0:
64,192,30411,1,0,0:0:0:0:
192,192,30470,1,0,0:0:0:0:
448,192,30528,1,0,0:0:0:0:
320,192,30587,1,0,0:0:0:0:
64,192,30645,1,0,0:0:0:0:
192,192,30704,1,0,0:0:0:0:
320,192,30762,1,0,0:0:0:0:
448,192,30821,1,0,0:0:0:0:
64,192,30880,1,0,0:0:0:0:
192,192,30938,1,0,0:0:0:0:
320,192,30997,1,0,0:0:0:0:
448,192,31055,1,0,0:0:0:0:
64,192,31114,1,0,0:0:0:0:
192,192,31173,1,0,0:0:0:0:
320,192,31231,1,0,0:0:0:0:
448,192,31290,1,0,0:0:0:0:
320,192,31348,1,0,0:0:0:0:
192,192,31407,1,0,0:0:0:0:
64,192,31466,1,0,0:0:0:0:
192,192,31524,1,0,0:0:0:0:
320,192,31583,1,0,0:0:0:0:
448,192,31641,1,0,0:0:0:0:
320,192,31700,1,0,0:0:0:0:
192,192,31759,1,0,0:0:0:0:
64,192,31817,1,0,0:0:0:0:
192,192,31876,1,0,0:0:0:0:
448,192,31934,1,0,0:0:0:0:
320,192,31993,1,0,0:0:0:0:
192,192,32052,1,0,0:0:0:0:
448,192,32110,1,0,0:0:0:0:
64,192,32110,1,0,0:0:0:0:
320,192,32169,1,0,0:0:0:0:
192,192,32227,1,0,0:0:0:0:
448,192,32286,1,0,0:0:0:0:
320,192,32345,1,0,0:0:0:0:
64,192,32345,128,0,33282:0:0:0:0:
192,192,32403,1,0,0:0:0:0:
448,192,32462,1,0,0:0:0:0:
320,192,32520,1,0,0:0:0:0:
192,192,32579,1,0,0:0:0:0:
448,192,32637,1,0,0:0:0:0:
320,192,32696,1,0,0:0:0:0:
192,192,32755,1,0,0:0:0:0:
448,192,32813,1,0,0:0:0:0:
320,192,32872,1,0,0:0:0:0:
192,192,32930,1,0,0:0:0:0:
448,192,32989,1,0,0:0:0:0:
320,192,33048,1,0,0:0:0:0:
192,192,33106,1,0,0:0:0:0:
448,192,33165,1,0,0:0:0:0:
320,192,33223,1,0,0:0:0:0:
448,192,33282,128,0,34220:0:0:0:0:
192,192,33282,1,0,0:0:0:0:
320,192,33341,1,0,0:0:0:0:
192,192,33399,1,0,0:0:0:0:
64,192,33458,1,0,0:0:0:0:
320,192,33516,1,0,0:0:0:0:
192,192,33575,1,0,0:0:0:0:
64,192,33634,1,0,0:0:0:0:
320,192,33692,1,0,0:0:0:0:
192,192,33751,1,0,0:0:0:0:
64,192,33809,1,0,0:0:0:0:
320,192,33868,1,0,0:0:0:0:
192,192,33927,1,0,0:0:0:0:
64,192,33985,1,0,0:0:0:0:
320,192,34044,1,0,0:0:0:0:
192,192,34102,1,0,0:0:0:0:
192,192,34220,1,0,0:0:0:0:
320,192,34220,1,0,0:0:0:0:
64,192,34220,1,0,0:0:0:0:
64,192,34688,1,0,0:0:0:0:
320,192,34805,1,0,0:0:0:0:
448,192,35040,1,0,0:0:0:0:
192,192,35391,1,0,0:0:0:0:
64,192,35626,1,0,0:0:0:0:
192,192,35860,1,0,0:0:0:0:
320,192,36095,1,0,0:0:0:0:
192,192,36329,1,0,0:0:0:0:
64,192,36563,1,0,0:0:0:0:
192,192,36680,1,0,0:0:0:0:
448,192,36915,1,0,0:0:0:0:
64,192,37266,128,0,37501:0:0:0:0:
448,192,37501,128,0,37735:0:0:0:0:
192,192,37970,1,0,0:0:0:0:
320,192,37970,1,0,0:0:0:0:
64,192,38438,1,0,0:0:0:0:
192,192,38438,1,0,0:0:0:0:
192,192,38555,1,0,0:0:0:0:
320,192,38555,1,0,0:0:0:0:
320,192,38790,1,0,0:0:0:0:
448,192,38790,1,0,0:0:0:0:
320,192,39141,1,0,0:0:0:0:
448,192,39141,1,0,0:0:0:0:
320,192,39376,1,0,0:0:0:0:
192,192,39376,1,0,0:0:0:0:
192,192,39610,1,0,0:0:0:0:
64,192,39610,1,0,0:0:0:0:
192,192,39845,1,0,0:0:0:0:
320,192,39845,1,0,0:0:0:0:
320,192,40079,1,0,0:0:0:0:
448,192,40079,1,0,0:0:0:0:
192,192,40313,1,0,0:0:0:0:
320,192,40313,1,0,0:0:0:0:
192,192,40430,1,0,0:0:0:0:
64,192,40430,1,0,0:0:0:0:
64,192,40665,1,0,0:0:0:0:
192,192,40665,1,0,0:0:0:0:
64,192,41016,128,0,41134:0:0:0:0:
192,192,41134,128,0,41251:0:0:0:0:
320,192,41251,128,0,41368:0:0:0:0:
448,192,41368,128,0,41485:0:0:0:0:
320,192,41485,128,0,41602:0:0:0:0:
192,192,41602,128,0,41720:0:0:0:0:
320,192,41720,1,0,0:0:0:0:
448,192,41720,1,0,0:0:0:0:
192,192,42188,1,0,0:0:0:0:
320,192,42188,1,0,0:0:0:0:
64,192,42188,1,0,0:0:0:0:
320,192,42305,1,0,0:0:0:0:
448,192,42305,1,0,0:0:0:0:
192,192,42305,1,0,0:0:0:0:
64,192,42540,1,0,0:0:0:0:
192,192,42540,1,0,0:0:0:0:
320,192,42540,1,0,0:0:0:0:
192,192,42891,1,0,0:0:0:0:
320,192,42891,1,0,0:0:0:0:
448,192,42891,1,0,0:0:0:0:
64,192,43126,1,0,0:0:0:0:
192,192,43126,1,0,0:0:0:0:
320,192,43126,1,0,0:0:0:0:
192,192,43360,1,0,0:0:0:0:
320,192,43360,1,0,0:0:0:0:
448,192,43360,1,0,0:0:0:0:
64,192,43595,1,0,0:0:0:0:
320,192,43595,1,0,0:0:0:0:
448,192,43595,1,0,0:0:0:0:
448,192,43829,1,0,0:0:0:0:
64,192,43829,1,0,0:0:0:0:
192,192,43829,1,0,0:0:0:0:
192,192,44063,1,0,0:0:0:0:
320,192,44063,1,0,0:0:0:0:
448,192,44063,1,0,0:0:0:0:
320,192,44180,1,0,0:0:0:0:
192,192,44180,1,0,0:0:0:0:
64,192,44180,1,0,0:0:0:0:
64,192,44415,1,0,0:0:0:0:
192,192,44415,1,0,0:0:0:0:
320,192,44415,1,0,0:0:0:0:
64,192,44766,128,0,45001:0:0:0:0:
192,192,44766,128,0,45001:0:0:0:0:
320,192,45001,128,0,45235:0:0:0:0:
448,192,45001,128,0,45235:0:0:0:0:
64,192,45470,1,0,0:0:0:0:
320,192,45470,1,0,0:0:0:0:
192,192,45470,1,0,0:0:0:0:
448,192,45470,1,0,0:0:0:0:
64,192,45938,1,0,0:0:0:0:
192,192,45938,1,0,0:0:0:0:
320,192,45938,1,0,0:0:0:0:
448,192,45938,1,0,0:0:0:0:
64,192,46055,1,0,0:0:0:0:
192,192,46055,1,0,0:0:0:0:
320,192,46055,1,0,0:0:0:0:
448,192,46055,1,0,0:0:0:0:
64,192,46290,1,0,0:0:0:0:
192,192,46290,1,0,0:0:0:0:
320,192,46290,1,0,0:0:0:0:
448,192,46290,1,0,0:0:0:0:
64,192,46641,1,0,0:0:0:0:
192,192,46641,1,0,0:0:0:0:
320,192,46641,1,0,0:0:0:0:
448,192,46641,1,0,0:0:0:0:
64,192,46876,1,0,0:0:0:0:
192,192,46876,1,0,0:0:0:0:
320,192,46876,1,0,0:0:0:0:
448,192,46876,1,0,0:0:0:0:
192,192,47110,1,0,0:0:0:0:
64,192,47110,1,0,0:0:0:0:
320,192,47110,1,0,0:0:0:0:
448,192,47110,1,0,0:0:0:0:
64,192,47345,1,0,0:0:0:0:
192,192,47345,1,0,0:0:0:0:
448,192,47345,1,0,0:0:0:0:
320,192,47345,1,0,0:0:0:0:
64,192,47579,1,0,0:0:0:0:
192,192,47579,1,0,0:0:0:0:
320,192,47579,1,0,0:0:0:0:
448,192,47579,1,0,0:0:0:0:
64,192,47813,1,0,0:0:0:0:
192,192,47813,1,0,0:0:0:0:
320,192,47813,1,0,0:0:0:0:
448,192,47813,1,0,0:0:0:0:
64,192,47930,1,0,0:0:0:0:
192,192,47930,1,0,0:0:0:0:
320,192,47930,1,0,0:0:0:0:
448,192,47930,1,0,0:0:0:0:
64,192,48165,1,0,0:0:0:0:
192,192,48165,1,0,0:0:0:0:
320,192,48165,1,0,0:0:0:0:
448,192,48165,1,0,0:0:0:0:
448,192,48516,128,0,49220:0:0:0:0:
192,192,48751,128,0,48868:0:0:0:0:
320,192,48868,128,0,48985:0:0:0:0:
64,192,48868,128,0,48985:0:0:0:0:
192,192,48985,128,0,49102:0:0:0:0:
64,192,49102,128,0,49220:0:0:0:0:
320,192,49102,128,0,49220:0:0:0:0:
192,192,49220,1,0,0:0:0:0:
192,192,49688,128,0,49747:0:0:0:0:
320,192,49688,128,0,49747:0:0:0:0:
64,192,49688,128,0,49747:0:0:0:0:
192,192,49805,128,0,49864:0:0:0:0:
320,192,49805,128,0,49864:0:0:0:0:
448,192,49805,128,0,49864:0:0:0:0:
64,192,50040,128,0,50098:0:0:0:0:
192,192,50040,128,0,50098:0:0:0:0:
320,192,50040,128,0,50098:0:0:0:0:
192,192,50391,128,0,50450:0:0:0:0:
320,192,50391,128,0,50450:0:0:0:0:
448,192,50391,128,0,50450:0:0:0:0:
320,192,50626,128,0,50684:0:0:0:0:
192,192,50626,128,0,50684:0:0:0:0:
64,192,50626,128,0,50684:0:0:0:0:
64,192,50860,128,0,50919:0:0:0:0:
192,192,50860,128,0,50919:0:0:0:0:
448,192,50860,128,0,50919:0:0:0:0:
64,192,51095,128,0,51153:0:0:0:0:
320,192,51095,128,0,51153:0:0:0:0:
448,192,51095,128,0,51153:0:0:0:0:
320,192,51329,128,0,51387:0:0:0:0:
192,192,51329,128,0,51387:0:0:0:0:
448,192,51329,128,0,51387:0:0:0:0:
192,192,51563,128,0,51622:0:0:0:0:
320,192,51563,128,0,51622:0:0:0:0:
448,192,51563,128,0,51622:0:0:0:0:
192,192,51680,128,0,51739:0:0:0:0:
320,192,51680,128,0,51739:0:0:0:0:
64,192,51680,128,0,51739:0:0:0:0:
64,192,51915,128,0,51973:0:0:0:0:
320,192,51915,128,0,51973:0:0:0:0:
192,192,51915,128,0,51973:0:0:0:0:
64,192,52266,128,0,52501:0:0:0:0:
192,192,52266,128,0,52442:0:0:0:0:
320,192,52266,128,0,52442:0:0:0:0:
192,192,52501,128,0,52735:0:0:0:0:
320,192,52501,128,0,52735:0:0:0:0:
448,192,52501,128,0,52735:0:0:0:0:
64,192,52970,128,0,53087:0:0:0:0:
192,192,52970,128,0,53028:0:0:0:0:
320,192,52970,128,0,53028:0:0:0:0:
448,192,52970,128,0,53028:0:0:0:0:
64,192,53438,128,0,53497:0:0:0:0:
192,192,53438,128,0,53614:0:0:0:0:
320,192,53438,128,0,53614:0:0:0:0:
448,192,53438,128,0,53497:0:0:0:0:
64,192,53555,128,0,53614:0:0:0:0:
448,192,53555,128,0,53614:0:0:0:0:
64,192,53790,128,0,53848:0:0:0:0:
192,192,53790,128,0,53848:0:0:0:0:
320,192,53790,128,0,53907:0:0:0:0:
448,192,53790,128,0,53848:0:0:0:0:
64,192,54141,128,0,54259:0:0:0:0:
192,192,54141,128,0,54200:0:0:0:0:
320,192,54141,128,0,54200:0:0:0:0:
448,192,54141,128,0,54200:0:0:0:0:
64,192,54376,128,0,54434:0:0:0:0:
192,192,54376,128,0,54493:0:0:0:0:
320,192,54376,128,0,54434:0:0:0:0:
448,192,54376,128,0,54434:0:0:0:0:
192,192,54610,128,0,54669:0:0:0:0:
64,192,54610,128,0,54669:0:0:0:0:
320,192,54610,128,0,54727:0:0:0:0:
448,192,54610,128,0,54669:0:0:0:0:
64,192,54845,128,0,54903:0:0:0:0:
192,192,54845,128,0,54903:0:0:0:0:
320,192,54845,128,0,54903:0:0:0:0:
448,192,54845,128,0,54962:0:0:0:0:
64,192,55079,128,0,55137:0:0:0:0:
192,192,55079,128,0,55137:0:0:0:0:
320,192,55079,128,0,55196:0:0:0:0:
448,192,55079,128,0,55137:0:0:0:0:
64,192,55313,128,0,55372:0:0:0:0:
192,192,55313,128,0,55372:0:0:0:0:
320,192,55313,128,0,55489:0:0:0:0:
448,192,55313,128,0,55489:0:0:0:0:
192,192,55430,128,0,55489:0:0:0:0:
64,192,55430,128,0,55489:0:0:0:0:
64,192,55665,128,0,55723:0:0:0:0:
192,192,55665,128,0,55782:0:0:0:0:
320,192,55665,128,0,55782:0:0:0:0:
448,192,55665,128,0,55723:0:0:0:0:
64,192,56016,128,0,56134:0:0:0:0:
320,192,56016,128,0,56075:0:0:0:0:
192,192,56134,128,0,56192:0:0:0:0:
448,192,56134,128,0,56251:0:0:0:0:
320,192,56251,128,0,56309:0:0:0:0:
64,192,56251,128,0,56368:0:0:0:0:
192,192,56368,128,0,56427:0:0:0:0:
448,192,56368,128,0,56485:0:0:0:0:
320,192,56485,128,0,56544:0:0:0:0:
64,192,56485,128,0,56602:0:0:0:0:
192,192,56602,128,0,56661:0:0:0:0:
448,192,56602,128,0,56720:0:0:0:0:
64,192,56720,1,0,0:0:0:0:
320,192,56720,1,0,0:0:0:0:
64,192,57188,128,0,57364:0:0:0:0:
448,192,57188,128,0,57247:0:0:0:0:
320,192,57188,128,0,57364:0:0:0:0:
192,192,57188,128,0,57247:0:0:0:0:
448,192,57305,128,0,57364:0:0:0:0:
192,192,57305,128,0,57364:0:0:0:0:
64,192,57540,128,0,57598:0:0:0:0:
192,192,57540,128,0,57657:0:0:0:0:
320,192,57540,128,0,57657:0:0:0:0:
448,192,57540,128,0,57598:0:0:0:0:
64,192,57891,128,0,58009:0:0:0:0:
192,192,57891,128,0,58009:0:0:0:0:
320,192,57891,128,0,57950:0:0:0:0:
448,192,57891,128,0,57950:0:0:0:0:
192,192,58126,128,0,58243:0:0:0:0:
320,192,58126,128,0,58243:0:0:0:0:
64,192,58126,128,0,58184:0:0:0:0:
448,192,58126,128,0,58184:0:0:0:0:
320,192,58360,128,0,58477:0:0:0:0:
448,192,58360,128,0,58477:0:0:0:0:
192,192,58360,128,0,58419:0:0:0:0:
64,192,58360,128,0,58419:0:0:0:0:
192,192,58595,128,0,58712:0:0:0:0:
320,192,58595,128,0,58712:0:0:0:0:
448,192,58595,128,0,58653:0:0:0:0:
64,192,58595,128,0,58653:0:0:0:0:
64,192,58829,128,0,58946:0:0:0:0:
192,192,58829,128,0,58946:0:0:0:0:
320,192,58829,128,0,58887:0:0:0:0:
448,192,58829,128,0,58887:0:0:0:0:
64,192,59063,128,0,59122:0:0:0:0:
192,192,59063,128,0,59239:0:0:0:0:
448,192,59063,128,0,59239:0:0:0:0:
320,192,59063,128,0,59122:0:0:0:0:
64,192,59180,128,0,59239:0:0:0:0:
320,192,59180,128,0,59239:0:0:0:0:
192,192,59415,128,0,59532:0:0:0:0:
320,192,59415,128,0,59532:0:0:0:0:
64,192,59415,128,0,59473:0:0:0:0:
448,192,59415,128,0,59473:0:0:0:0:
64,192,59766,128,0,59942:0:0:0:0:
192,192,59766,128,0,60352:0:0:0:0:
448,192,59766,128,0,60352:0:0:0:0:
320,192,59766,128,0,59942:0:0:0:0:
320,192,60001,128,0,60352:0:0:0:0:
64,192,60001,128,0,60352:0:0:0:0:
64,192,60470,128,0,60880:0:0:0:0:
192,192,60470,128,0,60880:0:0:0:0:
320,192,60470,128,0,60997:0:0:0:0:
448,192,60470,128,0,60997:0:0:0:0:
64,192,60938,128,0,61583:0:0:0:0:
192,192,60938,128,0,61583:0:0:0:0:
320,192,61055,128,0,61231:0:0:0:0:
448,192,61055,128,0,61231:0:0:0:0:
320,192,61290,128,0,61817:0:0:0:0:
448,192,61290,128,0,62052:0:0:0:0:
192,192,61641,128,0,61817:0:0:0:0:
64,192,61641,128,0,62520:0:0:0:0:
192,192,61876,128,0,62286:0:0:0:0:
320,192,61876,128,0,62052:0:0:0:0:
320,192,62110,128,0,62286:0:0:0:0:
448,192,62110,128,0,62755:0:0:0:0:
192,192,62345,128,0,62520:0:0:0:0:
320,192,62345,128,0,62755:0:0:0:0:
64,192,62579,128,0,62872:0:0:0:0:
192,192,62579,128,0,62872:0:0:0:0:
448,192,62813,128,0,63458:0:0:0:0:
320,192,62813,128,0,63692:0:0:0:0:
192,192,62930,128,0,63106:0:0:0:0:
64,192,62930,128,0,63106:0:0:0:0:
192,192,63165,128,0,63927:0:0:0:0:
64,192,63165,128,0,64161:0:0:0:0:
448,192,63516,128,0,63751:0:0:0:0:
320,192,63751,128,0,63985:0:0:0:0:
192,192,63985,128,0,64220:0:0:0:0:
64,192,64220,128,0,64454:0:0:0:0:
320,192,64220,1,0,0:0:0:0:
448,192,64220,1,0,0:0:0:0:
192,192,64454,1,0,0:0:0:0:
320,192,64454,1,0,0:0:0:0:
192,192,64610,1,0,0:0:0:0:
64,192,64610,1,0,0:0:0:0:
320,192,64688,1,0,0:0:0:0:
448,192,64688,1,0,0:0:0:0:
448,192,64845,1,0,0:0:0:0:
320,192,64845,1,0,0:0:0:0:
192,192,64923,1,0,0:0:0:0:
64,192,64923,1,0,0:0:0:0:
64,192,65079,1,0,0:0:0:0:
320,192,65079,1,0,0:0:0:0:
192,192,65157,1,0,0:0:0:0:
448,192,65157,1,0,0:0:0:0:
192,192,65313,1,0,0:0:0:0:
448,192,65313,1,0,0:0:0:0:
320,192,65391,1,0,0:0:0:0:
64,192,65391,1,0,0:0:0:0:
64,192,65548,1,0,0:0:0:0:
448,192,65548,1,0,0:0:0:0:
192,192,65626,1,0,0:0:0:0:
320,192,65626,1,0,0:0:0:0:
192,192,65782,1,0,0:0:0:0:
320,192,65782,1,0,0:0:0:0:
448,192,65860,1,0,0:0:0:0:
64,192,65860,1,0,0:0:0:0:
320,192,65919,1,0,0:0:0:0:
192,192,65977,1,0,0:0:0:0:
64,192,66036,1,0,0:0:0:0:
192,192,66095,1,0,0:0:0:0:
320,192,66095,1,0,0:0:0:0:
64,192,66251,1,0,0:0:0:0:
192,192,66251,1,0,0:0:0:0:
320,192,66329,1,0,0:0:0:0:
448,192,66329,1,0,0:0:0:0:
64,192,66485,1,0,0:0:0:0:
320,192,66485,1,0,0:0:0:0:
192,192,66563,1,0,0:0:0:0:
448,192,66563,1,0,0:0:0:0:
320,192,66720,1,0,0:0:0:0:
448,192,66720,1,0,0:0:0:0:
192,192,66798,1,0,0:0:0:0:
64,192,66798,1,0,0:0:0:0:
448,192,67032,1,0,0:0:0:0:
320,192,67032,1,0,0:0:0:0:
64,192,67032,1,0,0:0:0:0:
64,192,67188,1,0,0:0:0:0:
320,192,67188,1,0,0:0:0:0:
192,192,67266,1,0,0:0:0:0:
448,192,67266,1,0,0:0:0:0:
320,192,67423,1,0,0:0:0:0:
448,192,67501,1,0,0:0:0:0:
64,192,67501,1,0,0:0:0:0:
192,192,67618,1,0,0:0:0:0:
64,192,67735,1,0,0:0:0:0:
192,192,67794,1,0,0:0:0:0:
320,192,67852,1,0,0:0:0:0:
448,192,67911,1,0,0:0:0:0:
320,192,67970,1,0,0:0:0:0:
64,192,67970,1,0,0:0:0:0:
64,192,68126,1,0,0:0:0:0:
192,192,68126,1,0,0:0:0:0:
448,192,68204,1,0,0:0:0:0:
320,192,68204,1,0,0:0:0:0:
64,192,68360,1,0,0:0:0:0:
320,192,68360,1,0,0:0:0:0:
192,192,68438,1,0,0:0:0:0:
448,192,68438,1,0,0:0:0:0:
192,192,68595,1,0,0:0:0:0:
448,192,68595,1,0,0:0:0:0:
320,192,68673,1,0,0:0:0:0:
64,192,68673,1,0,0:0:0:0:
64,192,68829,1,0,0:0:0:0:
192,192,68829,1,0,0:0:0:0:
320,192,68907,1,0,0:0:0:0:
448,192,68907,1,0,0:0:0:0:
320,192,69063,1,0,0:0:0:0:
448,192,69063,1,0,0:0:0:0:
192,192,69141,1,0,0:0:0:0:
64,192,69141,1,0,0:0:0:0:
192,192,69298,1,0,0:0:0:0:
320,192,69298,1,0,0:0:0:0:
64,192,69376,1,0,0:0:0:0:
448,192,69376,1,0,0:0:0:0:
64,192,69532,1,0,0:0:0:0:
448,192,69532,1,0,0:0:0:0:
192,192,69610,1,0,0:0:0:0:
320,192,69610,1,0,0:0:0:0:
64,192,69766,1,0,0:0:0:0:
320,192,69766,1,0,0:0:0:0:
192,192,69845,1,0,0:0:0:0:
448,192,69845,1,0,0:0:0:0:
64,192,70001,1,0,0:0:0:0:
192,192,70001,1,0,0:0:0:0:
320,192,70079,1,0,0:0:0:0:
448,192,70079,1,0,0:0:0:0:
64,192,70235,1,0,0:0:0:0:
320,192,70235,1,0,0:0:0:0:
192,192,70313,1,0,0:0:0:0:
448,192,70313,128,0,71251:0:0:0:0:
64,192,70470,1,0,0:0:0:0:
192,192,70548,1,0,0:0:0:0:
320,192,70548,1,0,0:0:0:0:
192,192,70704,1,0,0:0:0:0:
64,192,70782,1,0,0:0:0:0:
320,192,70782,1,0,0:0:0:0:
320,192,70938,1,0,0:0:0:0:
192,192,71016,1,0,0:0:0:0:
64,192,71016,1,0,0:0:0:0:
192,192,71173,1,0,0:0:0:0:
64,192,71251,1,0,0:0:0:0:
320,192,71251,1,0,0:0:0:0:
448,192,71407,1,0,0:0:0:0:
320,192,71407,1,0,0:0:0:0:
64,192,71485,1,0,0:0:0:0:
192,192,71485,1,0,0:0:0:0:
64,192,71641,1,0,0:0:0:0:
320,192,71641,1,0,0:0:0:0:
192,192,71720,1,0,0:0:0:0:
448,192,71720,1,0,0:0:0:0:
320,192,71837,1,0,0:0:0:0:
64,192,71954,1,0,0:0:0:0:
448,192,71954,1,0,0:0:0:0:
192,192,72071,1,0,0:0:0:0:
448,192,72188,1,0,0:0:0:0:
320,192,72188,1,0,0:0:0:0:
64,192,72305,1,0,0:0:0:0:
448,192,72423,1,0,0:0:0:0:
192,192,72423,1,0,0:0:0:0:
320,192,72540,1,0,0:0:0:0:
64,192,72657,1,0,0:0:0:0:
192,192,72657,1,0,0:0:0:0:
320,192,72774,1,0,0:0:0:0:
448,192,72891,1,0,0:0:0:0:
192,192,72891,1,0,0:0:0:0:
64,192,73009,1,0,0:0:0:0:
320,192,73126,1,0,0:0:0:0:
192,192,73126,1,0,0:0:0:0:
448,192,73243,1,0,0:0:0:0:
64,192,73360,1,0,0:0:0:0:
320,192,73360,1,0,0:0:0:0:
192,192,73477,1,0,0:0:0:0:
320,192,73595,1,0,0:0:0:0:
448,192,73595,1,0,0:0:0:0:
64,192,73712,1,0,0:0:0:0:
192,192,73829,1,0,0:0:0:0:
448,192,73829,1,0,0:0:0:0:
320,192,73946,1,0,0:0:0:0:
64,192,74063,1,0,0:0:0:0:
192,192,74063,1,0,0:0:0:0:
320,192,74180,1,0,0:0:0:0:
448,192,74298,1,0,0:0:0:0:
192,192,74298,1,0,0:0:0:0:
320,192,74415,1,0,0:0:0:0:
192,192,74532,1,0,0:0:0:0:
64,192,74532,1,0,0:0:0:0:
320,192,74649,1,0,0:0:0:0:
192,192,74766,1,0,0:0:0:0:
448,192,74766,1,0,0:0:0:0:
64,192,74884,1,0,0:0:0:0:
192,192,75001,1,0,0:0:0:0:
320,192,75001,1,0,0:0:0:0:
448,192,75118,1,0,0:0:0:0:
320,192,75235,1,0,0:0:0:0:
192,192,75235,1,0,0:0:0:0:
64,192,75352,1,0,0:0:0:0:
192,192,75470,1,0,0:0:0:0:
320,192,75470,1,0,0:0:0:0:
64,192,75587,1,0,0:0:0:0:
192,192,75704,1,0,0:0:0:0:
320,192,75704,1,0,0:0:0:0:
448,192,75704,1,0,0:0:0:0:
64,192,75821,1,0,0:0:0:0:
448,192,75938,1,0,0:0:0:0:
192,192,75938,1,0,0:0:0:0:
320,192,75938,1,0,0:0:0:0:
64,192,76055,1,0,0:0:0:0:
192,192,76173,1,0,0:0:0:0:
448,192,76173,1,0,0:0:0:0:
320,192,76173,1,0,0:0:0:0:
64,192,76290,1,0,0:0:0:0:
192,192,76407,1,0,0:0:0:0:
320,192,76407,1,0,0:0:0:0:
448,192,76407,1,0,0:0:0:0:
64,192,76524,1,0,0:0:0:0:
192,192,76641,1,0,0:0:0:0:
320,192,76641,1,0,0:0:0:0:
448,192,76641,1,0,0:0:0:0:
64,192,76759,1,0,0:0:0:0:
192,192,76876,1,0,0:0:0:0:
320,192,76876,1,0,0:0:0:0:
448,192,76876,1,0,0:0:0:0:
64,192,76993,1,0,0:0:0:0:
192,192,77110,1,0,0:0:0:0:
320,192,77110,1,0,0:0:0:0:
448,192,77110,1,0,0:0:0:0:
64,192,77227,1,0,0:0:0:0:
192,192,77345,1,0,0:0:0:0:
448,192,77345,1,0,0:0:0:0:
64,192,77813,128,0,77930:0:0:0:0:
64,192,78048,128,0,78165:0:0:0:0:
64,192,78282,128,0,78399:0:0:0:0:
64,192,78516,128,0,78634:0:0:0:0:
64,192,78751,128,0,78868:0:0:0:0:
64,192,78985,128,0,79102:0:0:0:0:
64,192,79220,128,0,79337:0:0:0:0:
192,192,79337,1,0,0:0:0:0:
448,192,79337,1,0,0:0:0:0:
320,192,79454,1,0,0:0:0:0:
64,192,79454,1,0,0:0:0:0:
192,192,79571,1,0,0:0:0:0:
320,192,79688,1,0,0:0:0:0:
448,192,79688,1,0,0:0:0:0:
64,192,79923,1,0,0:0:0:0:
192,192,79923,1,0,0:0:0:0:
192,192,80157,1,0,0:0:0:0:
448,192,80157,1,0,0:0:0:0:
320,192,80274,1,0,0:0:0:0:
64,192,80274,1,0,0:0:0:0:
64,192,80509,1,0,0:0:0:0:
320,192,80509,1,0,0:0:0:0:
192,192,80567,1,0,0:0:0:0:
320,192,80743,1,0,0:0:0:0:
448,192,80743,1,0,0:0:0:0:
192,192,80860,1,0,0:0:0:0:
64,192,80860,1,0,0:0:0:0:
64,192,81095,1,0,0:0:0:0:
320,192,81095,1,0,0:0:0:0:
448,192,81095,1,0,0:0:0:0:
192,192,81095,128,0,81563:0:0:0:0:
320,192,81563,128,0,82032:0:0:0:0:
64,192,81563,1,0,0:0:0:0:
448,192,81563,1,0,0:0:0:0:
448,192,82032,128,0,82501:0:0:0:0:
192,192,82032,1,0,0:0:0:0:
64,192,82032,1,0,0:0:0:0:
64,192,82501,128,0,82970:0:0:0:0:
192,192,82501,1,0,0:0:0:0:
320,192,82501,1,0,0:0:0:0:
320,192,82970,1,0,0:0:0:0:
448,192,82970,1,0,0:0:0:0:
192,192,82970,1,0,0:0:0:0:
64,192,83204,128,0,83321:0:0:0:0:
192,192,83204,1,0,0:0:0:0:
320,192,83438,128,0,83673:0:0:0:0:
448,192,83673,128,0,83848:0:0:0:0:
64,192,83673,128,0,83790:0:0:0:0:
192,192,83673,1,0,0:0:0:0:
448,192,83907,128,0,84141:0:0:0:0:
320,192,84024,1,0,0:0:0:0:
192,192,84024,1,0,0:0:0:0:
64,192,84024,128,0,84141:0:0:0:0:
192,192,84141,1,0,0:0:0:0:
192,192,84298,1,0,0:0:0:0:
320,192,84298,1,0,0:0:0:0:
64,192,84376,1,0,0:0:0:0:
448,192,84376,1,0,0:0:0:0:
64,192,84532,1,0,0:0:0:0:
192,192,84610,1,0,0:0:0:0:
320,192,84610,1,0,0:0:0:0:
448,192,84610,1,0,0:0:0:0:
64,192,84845,1,0,0:0:0:0:
320,192,84845,1,0,0:0:0:0:
448,192,84845,1,0,0:0:0:0:
192,192,84845,128,0,85313:0:0:0:0:
320,192,85313,128,0,85548:0:0:0:0:
64,192,85313,1,0,0:0:0:0:
448,192,85313,1,0,0:0:0:0:
448,192,85548,128,0,85665:0:0:0:0:
192,192,85548,1,0,0:0:0:0:
64,192,85548,1,0,0:0:0:0:
320,192,85841,128,0,86134:0:0:0:0:
192,192,85841,1,0,0:0:0:0:
64,192,85841,1,0,0:0:0:0:
448,192,85841,1,0,0:0:0:0:
192,192,86251,128,0,86485:0:0:0:0:
64,192,86251,1,0,0:0:0:0:
320,192,86251,1,0,0:0:0:0:
448,192,86251,1,0,0:0:0:0:
64,192,86720,128,0,87188:0:0:0:0:
192,192,86720,128,0,86837:0:0:0:0:
320,192,86720,128,0,86954:0:0:0:0:
192,192,86954,128,0,87188:0:0:0:0:
448,192,87188,128,0,87657:0:0:0:0:
320,192,87188,128,0,87305:0:0:0:0:
320,192,87423,128,0,87657:0:0:0:0:
192,192,87423,128,0,87540:0:0:0:0:
64,192,87657,128,0,88126:0:0:0:0:
192,192,87657,128,0,87774:0:0:0:0:
192,192,87891,128,0,88126:0:0:0:0:
320,192,87891,128,0,88009:0:0:0:0:
448,192,88126,128,0,88595:0:0:0:0:
320,192,88126,128,0,88243:0:0:0:0:
192,192,88243,128,0,88360:0:0:0:0:
320,192,88360,128,0,88595:0:0:0:0:
64,192,88360,128,0,88477:0:0:0:0:
192,192,88595,1,0,0:0:0:0:
64,192,88595,1,0,0:0:0:0:
64,192,89063,128,0,89532:0:0:0:0:
192,192,89063,1,0,0:0:0:0:
320,192,89063,1,0,0:0:0:0:
448,192,89063,1,0,0:0:0:0:
448,192,89532,128,0,90001:0:0:0:0:
320,192,89532,1,0,0:0:0:0:
192,192,89532,1,0,0:0:0:0:
320,192,90001,128,0,90470:0:0:0:0:
192,192,90001,1,0,0:0:0:0:
64,192,90001,1,0,0:0:0:0:
448,192,90470,1,0,0:0:0:0:
192,192,90470,1,0,0:0:0:0:
64,192,90470,1,0,0:0:0:0:
448,192,90704,128,0,90821:0:0:0:0:
320,192,90704,1,0,0:0:0:0:
320,192,90938,128,0,91173:0:0:0:0:
448,192,91173,128,0,91290:0:0:0:0:
64,192,91173,128,0,91348:0:0:0:0:
192,192,91173,1,0,0:0:0:0:
64,192,91407,128,0,91641:0:0:0:0:
448,192,91524,128,0,91641:0:0:0:0:
320,192,91524,1,0,0:0:0:0:
192,192,91524,1,0,0:0:0:0:
320,192,91641,1,0,0:0:0:0:
192,192,91798,1,0,0:0:0:0:
320,192,91798,1,0,0:0:0:0:
64,192,91876,1,0,0:0:0:0:
448,192,91876,1,0,0:0:0:0:
448,192,92032,1,0,0:0:0:0:
192,192,92110,1,0,0:0:0:0:
320,192,92110,1,0,0:0:0:0:
64,192,92110,1,0,0:0:0:0:
320,192,92345,128,0,92813:0:0:0:0:
64,192,92345,1,0,0:0:0:0:
448,192,92345,1,0,0:0:0:0:
192,192,92345,1,0,0:0:0:0:
192,192,92813,128,0,93048:0:0:0:0:
64,192,92813,1,0,0:0:0:0:
448,192,92813,1,0,0:0:0:0:
64,192,93048,128,0,93165:0:0:0:0:
320,192,93048,1,0,0:0:0:0:
448,192,93048,1,0,0:0:0:0:
192,192,93341,128,0,93634:0:0:0:0:
64,192,93341,1,0,0:0:0:0:
448,192,93341,1,0,0:0:0:0:
320,192,93341,1,0,0:0:0:0:
64,192,93751,1,0,0:0:0:0:
448,192,93751,1,0,0:0:0:0:
192,192,93751,1,0,0:0:0:0:
320,192,93751,128,0,93985:0:0:0:0:
448,192,94220,128,0,94688:0:0:0:0:
320,192,94220,128,0,94337:0:0:0:0:
192,192,94220,128,0,94454:0:0:0:0:
320,192,94454,128,0,94688:0:0:0:0:
192,192,94688,128,0,94805:0:0:0:0:
64,192,94688,128,0,95157:0:0:0:0:
320,192,94923,128,0,95040:0:0:0:0:
192,192,94923,128,0,95157:0:0:0:0:
448,192,95157,128,0,95626:0:0:0:0:
320,192,95157,128,0,95274:0:0:0:0:
192,192,95391,128,0,95509:0:0:0:0:
320,192,95391,128,0,95626:0:0:0:0:
192,192,95626,128,0,95743:0:0:0:0:
64,192,95626,128,0,96095:0:0:0:0:
320,192,95743,128,0,95860:0:0:0:0:
448,192,95860,128,0,95977:0:0:0:0:
192,192,95860,128,0,96095:0:0:0:0:
320,192,96095,1,0,0:0:0:0:
448,192,96095,1,0,0:0:0:0:
