osu file format v14

[General]
AudioFilename: audio.mp3
AudioLeadIn: 0
PreviewTime: 29284
Countdown: 0
SampleSet: None
StackLeniency: 0.2
Mode: 0
LetterboxInBreaks: 0
WidescreenStoryboard: 1

[Editor]
Bookmarks: 2284,15859,30259,49459,71059,90259,110659,129859,149059,170659,197059,197134,197209,197284,197359,197434,197509,197584,197659,197734,197809,197884,197959,198034,198109,198184,198259,198334,198409,198484,198559,198634,198709,198784,198859,198934,199009,199084,199159,199234,199309,199384,199459,199534,199609,199684,199759,199834,199909,199984,200059,200134,200209,200284,200359,200434,200509,200584,200659,221059,239059
DistanceSpacing: 0.5
BeatDivisor: 4
GridSize: 32
TimelineZoom: 4.399998

[Metadata]
Title:Mazare Party
TitleUnicode:Mazare Party
Artist:Camellia feat. kradness, Nanahira and yukacco
ArtistUnicode:Camellia feat. kradness, Nanahira and yukacco
Creator:ProfessionalBox
Version:NeilPerry's Insane
Source:
Tags:asahina momoko sukinathan toybot probox oriental trap jcore utaite collab collaboration
BeatmapID:1196254
BeatmapSetID:521653

[Difficulty]
HPDrainRate:5
CircleSize:3.5
OverallDifficulty:7
ApproachRate:9
SliderMultiplier:1.6
SliderTickRate:1

[Events]
//Background and Video events
0,0,"Maz.jpg",0,0
//Break Periods
2,180502,184202
2,197302,200102
//Storyboard Layer 0 (Background)
//Storyboard Layer 1 (Fail)
//Storyboard Layer 2 (Pass)
//Storyboard Layer 3 (Foreground)
//Storyboard Sound Samples

[TimingPoints]
302,300,4,2,1,30,1,0
5102,-100,4,2,1,50,0,0
5702,-100,4,3,1,50,0,0
6302,-100,4,2,1,50,0,0
8702,-125,4,2,1,50,0,0
9902,-100,4,3,1,50,0,0
11102,-100,4,2,1,50,0,0
14702,-200,4,2,1,50,0,0
15902,-100,4,1,1,60,0,0
24902,-83.3333333333333,4,1,1,60,0,0
25502,-125,4,2,1,40,0,0
26702,-111.111111111111,4,2,1,40,0,0
27902,-100,4,2,1,40,0,0
28502,-100,4,2,1,50,0,0
29252,-100,4,2,1,40,0,0
30302,-100,4,1,1,70,0,0
38852,-100,4,3,1,60,0,0
38927,-133.333333333333,4,3,1,60,0,0
39302,-133.333333333333,4,3,1,50,0,0
39902,-100,4,1,1,60,0,0
41102,-83.3333333333333,4,1,1,60,0,0
42302,-100,4,1,1,60,0,0
43502,-83.3333333333333,4,1,1,60,0,0
44702,-100,4,1,1,60,0,0
45902,-83.3333333333333,4,1,1,60,0,0
48302,-100,4,1,1,60,0,0
50702,-83.3333333333333,4,1,1,60,0,0
51902,-100,4,1,1,60,0,0
53102,-83.3333333333333,4,1,1,60,0,0
54302,-111.111111111111,4,3,1,60,0,0
56702,-125,4,2,1,40,0,0
59102,-133.333333333333,4,2,1,50,0,0
60002,-100,4,2,1,50,0,0
60302,-133.333333333333,4,2,1,50,0,0
62402,-100,4,2,1,50,0,0
62702,-133.333333333333,4,2,1,50,0,0
64802,-100,4,2,1,50,0,0
65102,-133.333333333333,4,2,1,50,0,0
67652,-100,4,2,1,50,0,0
69902,-100,4,2,1,50,0,0
70502,-100,4,2,1,60,0,0
71102,-100,4,1,1,60,0,0
71702,-100,4,1,1,50,0,0
73502,-125,4,1,1,50,0,0
74102,-111.111111111111,4,1,1,50,0,0
74702,-100,4,3,1,60,0,0
75902,-100,4,1,1,70,0,0
79727,-100,4,1,1,5,0,0
79802,-100,4,1,1,70,0,0
80027,-100,4,1,1,5,0,0
80102,-100,4,1,1,70,0,0
80327,-100,4,1,1,5,0,0
80402,-100,4,1,1,70,0,0
80627,-100,4,1,1,5,0,0
80702,-100,4,1,1,70,0,0
87902,-100,4,2,1,50,0,0
88127,-100,4,2,1,20,0,0
88202,-100,4,2,1,50,0,0
88427,-100,4,2,1,20,0,0
88502,-100,4,2,1,50,0,0
88727,-100,4,2,1,20,0,0
88802,-100,4,2,1,50,0,0
89027,-100,4,2,1,20,0,0
89102,-133.333333333333,4,2,1,50,0,0
89327,-133.333333333333,4,2,1,20,0,0
89402,-133.333333333333,4,2,1,50,0,0
89702,-151.515151515152,4,2,1,50,0,0
89927,-151.515151515152,4,2,1,20,0,0
90002,-151.515151515152,4,2,1,50,0,0
90227,-151.515151515152,4,2,1,20,0,0
90302,-100,4,1,1,60,0,0
101102,-111.111111111111,4,2,1,30,0,0
104702,-111.111111111111,4,2,1,40,0,0
105602,-111.111111111111,4,2,1,50,0,0
105902,-90.9090909090909,4,1,1,50,0,0
108302,-90.9090909090909,4,1,1,60,0,0
109202,-90.9090909090909,4,2,1,50,0,0
110402,-80,4,2,1,50,0,0
110702,-100,4,1,1,70,0,0
118202,-80,4,1,1,70,0,0
119102,-100,4,3,1,60,0,0
120302,-100,4,1,1,70,0,0
127802,-80,4,1,1,70,0,0
128702,-80,4,3,1,50,0,0
129902,-100,4,1,1,50,0,0
139502,-83.3333333333333,4,1,1,60,0,0
144302,-111.111111111111,4,3,1,50,0,0
146552,-80,4,3,1,50,0,0
146702,-111.111111111111,4,2,1,40,0,0
146927,-80,4,2,1,20,0,0
147002,-80,4,2,1,40,0,0
147377,-100,4,2,1,20,0,0
147452,-100,4,2,1,40,0,0
147902,-100,4,2,1,40,0,0
148802,-111.111111111111,4,2,1,40,0,0
149102,-111.111111111111,4,2,1,50,0,0
159302,-111.111111111111,4,2,1,30,0,0
159602,-111.111111111111,4,2,1,40,0,0
159902,-151.515151515152,4,2,1,50,0,0
161102,-100,4,1,1,60,0,0
163502,-125,4,1,1,60,0,0
164102,-111.111111111111,4,1,1,60,0,0
164702,-111.111111111111,4,3,1,60,0,0
165902,-100,4,1,1,70,0,0
177902,-133.333333333333,4,2,1,50,0,0
178127,-133.333333333333,4,2,1,20,0,0
178202,-133.333333333333,4,2,1,50,0,0
178427,-133.333333333333,4,2,1,20,0,0
178502,-133.333333333333,4,2,1,50,0,0
178727,-133.333333333333,4,2,1,20,0,0
178802,-133.333333333333,4,2,1,50,0,0
179027,-133.333333333333,4,2,1,20,0,0
179102,-133.333333333333,4,2,1,50,0,0
179702,-166.666666666667,4,2,1,50,0,0
182702,-166.666666666667,4,2,1,40,0,0
183302,-166.666666666667,4,2,1,5,0,0
184802,-200,4,2,1,30,0,0
194702,-200,4,2,1,20,0,0
196052,-200,4,2,1,10,0,0
197102,-200,4,2,1,5,0,0
200702,-100,4,2,1,50,0,0
201902,-100,4,1,1,60,0,0
202427,-100,4,1,1,20,0,0
202502,-100,4,1,1,60,0,0
203627,-100,4,1,1,20,0,0
203702,-100,4,1,1,60,0,0
204827,-100,4,1,1,20,0,0
204902,-100,4,1,1,60,0,0
205427,-100,4,1,1,20,0,0
205502,-100,4,3,1,60,0,0
206702,-100,4,1,1,70,0,0
214127,-100,4,1,1,30,0,0
214202,-100,4,1,1,70,0,0
215027,-100,4,1,1,30,0,0
215102,-100,4,1,1,70,0,0
218702,-100,4,2,1,40,0,0
219902,-133.333333333333,4,2,1,40,0,0
221102,-83.3333333333333,4,1,1,60,0,0
225902,-100,4,1,1,60,0,0
228302,-90.9090909090909,4,1,1,60,0,0
233102,-90.9090909090909,4,1,1,40,0,0
234302,-90.9090909090909,4,1,1,30,0,0
235502,-90.9090909090909,4,1,1,20,0,0
236102,-90.9090909090909,4,1,1,10,0,0
236702,-90.9090909090909,4,2,1,5,0,0

[Colours]
Combo1 : 221,130,255
Combo2 : 250,48,83
Combo3 : 255,119,176
Combo4 : 102,231,253
Combo5 : 254,210,129
Combo6 : 156,255,132

[HitObjects]
176,283,5102,5,0,3:0:0:0:
174,309,5402,1,0,3:0:0:0:
166,336,5702,2,0,P|150:363|136:376,3,40,0|0|0|0,0:0|0:0|0:0|0:0,0:0:0:0:
258,266,6002,2,0,P|274:293|288:306,3,40,0|0|0|0,0:0|0:0|0:0|0:0,0:0:0:0:
188,196,6302,6,0,L|192:24,1,160,4|0,0:0|0:0,0:0:0:0:
191,36,6902,1,0,0:0:0:0:
168,22,7202,1,0,0:0:0:0:
380,35,7502,6,0,B|497:44|497:44|447:65,1,160,4|0,0:0|0:0,0:0:0:0:
219,118,8102,1,0,0:0:0:0:
195,133,8402,1,0,0:0:0:0:
171,148,8702,5,0,0:0:0:0:
118,322,9002,2,0,P|133:276|133:245,1,64,4|0,0:0|0:0,0:0:0:0:
148,163,9302,5,0,0:0:0:0:
110,344,9602,2,0,P|125:298|125:267,1,64,0|0,0:0|0:0,0:0:0:0:
124,178,9902,5,8,0:0:0:0:
49,119,10052,1,0,0:0:0:0:
49,119,10127,1,0,0:0:0:0:
49,119,10202,2,0,L|47:17,1,80,8|0,0:0|0:0,0:0:0:0:
226,25,10502,5,8,0:0:0:0:
136,83,10652,1,0,0:0:0:0:
241,124,10802,1,8,0:0:0:0:
151,182,10952,1,0,0:0:0:0:
326,69,11102,5,4,0:0:0:0:
254,214,11402,1,2,0:0:0:0:
253,229,11702,1,2,0:0:0:0:
252,244,12002,1,0,0:0:0:0:
206,352,12302,5,0,0:0:0:0:
341,239,12602,1,2,0:0:0:0:
340,224,12902,1,2,0:0:0:0:
339,209,13202,1,0,0:0:0:0:
440,124,13502,5,8,0:0:0:0:
344,115,13652,1,0,0:0:0:0:
260,219,13802,5,8,0:0:0:0:
356,210,13952,1,0,0:0:0:0:
343,97,14102,5,8,0:0:0:0:
344,77,14177,1,0,0:0:0:0:
338,58,14252,1,0,0:0:0:0:
326,42,14327,1,0,0:0:0:0:
308,32,14402,1,8,0:0:0:0:
289,30,14477,1,0,0:0:0:0:
269,35,14552,1,0,0:0:0:0:
253,47,14627,1,0,0:0:0:0:
243,63,14702,5,2,0:0:0:0:
238,264,15902,6,0,B|139:256|139:256|165:240,1,120,6|0,0:0|0:0,0:0:0:0:
227,181,16202,2,0,B|326:189|326:189|300:205,1,120,2|0,0:0|0:0,0:0:0:0:
257,266,16502,1,2,0:0:0:0:
394,121,17102,6,0,B|402:22|402:22|418:48,1,120,6|0,0:0|0:0,0:0:0:0:
477,110,17402,2,0,B|469:209|469:209|453:183,1,120,2|0,0:0|0:0,0:0:0:0:
392,140,17702,1,2,0:0:0:0:
78,94,18302,6,0,B|131:78|131:78|199:97,1,120,6|0,0:0|0:0,0:0:0:0:
193,95,18602,2,0,L|185:228,1,120,2|0,0:0|0:0,0:0:0:0:
180,293,18902,5,2,0:0:0:0:
286,249,19052,1,8,0:0:0:0:
164,288,19202,5,0,0:0:0:0:
299,255,19352,1,8,0:0:0:0:
303,366,19502,6,0,P|282:316|309:243,1,120,6|0,0:0|0:0,0:0:0:0:
341,174,19802,2,0,P|284:161|248:112,1,120,2|0,0:0|0:0,0:0:0:0:
224,27,20102,1,2,0:0:0:0:
439,288,20702,6,0,L|378:283,1,40,6|0,0:0|0:0,0:0:0:0:
318,271,20852,1,0,0:0:0:0:
485,205,21002,6,0,L|424:200,1,40,2|0,0:0|0:0,0:0:0:0:
364,188,21152,1,0,0:0:0:0:
422,112,21302,6,0,P|423:79|416:54,3,40,2|0|0|0,0:0|0:0|0:0|0:0,0:0:0:0:
377,10,21602,1,0,0:0:0:0:
221,235,21902,6,0,L|216:296,1,40,6|0,0:0|0:0,0:0:0:0:
204,356,22052,1,0,0:0:0:0:
138,189,22202,6,0,L|133:250,1,40,2|0,0:0|0:0,0:0:0:0:
121,310,22352,1,0,0:0:0:0:
39,254,22502,5,2,0:0:0:0:
271,159,22952,1,8,0:0:0:0:
271,159,23027,1,0,0:0:0:0:
271,159,23102,6,0,P|273:98|234:28,1,120,6|0,0:0|0:0,0:0:0:0:
218,36,23402,2,0,P|286:49|345:36,1,120,2|0,0:0|0:0,0:0:0:0:
433,10,23702,5,2,0:0:0:0:
419,104,23852,1,8,0:0:0:0:
434,195,24002,5,2,0:0:0:0:
419,104,24152,1,8,0:0:0:0:
333,176,24302,6,0,P|310:177|288:172,3,40,6|0|0|0,0:0|0:0|0:0|0:0,0:0:0:0:
433,222,24602,2,0,P|456:223|478:218,3,40,2|0|0|0,0:0|0:0|0:0|0:0,0:0:0:0:
345,270,24902,2,0,P|345:304|356:337,7,47.9999985351563,2|0|0|0|0|0|0|0,0:0|0:0|0:0|0:0|0:0|0:0|0:0|0:0,0:0:0:0:
260,245,25502,6,0,P|223:248|181:242,1,64,4|0,0:0|0:0,0:0:0:0:
58,167,25802,2,0,P|95:164|137:170,1,64,8|0,0:0|0:0,0:0:0:0:
256,151,26102,2,0,B|264:113|264:113|250:71,1,64,0|0,0:0|0:0,0:0:0:0:
351,16,26402,2,0,B|343:54|343:54|357:96,1,64,8|0,0:0|0:0,0:0:0:0:
474,166,26702,6,0,B|424:148|424:148|380:166|380:166|320:159,1,143.999995605469,8|8,0:0|0:0,0:0:0:0:
256,151,27152,1,0,0:0:0:0:
300,236,27302,2,0,P|315:289|288:364,1,107.999996704102,8|0,0:0|0:0,0:0:0:0:
303,339,27602,2,0,L|172:337,1,107.999996704102,8|0,0:0|0:0,0:0:0:0:
114,331,27902,6,0,P|112:274|137:234,1,80,0|0,0:0|0:0,0:0:0:0:
207,193,28202,2,0,P|209:136|184:96,1,80,0|0,0:0|0:0,0:0:0:0:
227,31,28502,2,0,P|276:22|317:-8,1,80,0|0,0:0|0:0,0:0:0:0:
110,48,28802,1,0,0:0:0:0:
90,46,28877,1,0,0:0:0:0:
70,42,28952,1,0,0:0:0:0:
52,34,29027,1,0,0:0:0:0:
35,23,29102,5,0,0:0:0:0:
171,132,29252,2,0,B|185:174|185:174|166:232,2,80,0|0|0,0:0|0:0|0:0,0:0:0:0:
23,173,29702,2,0,P|66:186|102:175,1,80,0|0,0:0|0:0,0:0:0:0:
252,106,30002,2,0,P|295:93|331:104,1,80,0|0,0:0|0:0,0:0:0:0:
452,186,30302,5,0,0:0:0:0:
380,238,30452,1,0,0:0:0:0:
378,254,30527,1,0,0:0:0:0:
377,269,30602,1,8,0:0:0:0:
337,162,30752,1,0,0:0:0:0:
335,146,30827,1,0,0:0:0:0:
334,131,30902,2,0,B|329:40|329:40|351:69,1,120,0|0,0:0|0:0,0:0:0:0:
414,103,31202,2,0,L|469:95,1,40,8|0,0:0|0:0,0:0:0:0:
252,75,31352,2,0,L|197:67,1,40,0|0,0:0|0:0,0:0:0:0:
92,42,31502,6,0,P|53:59|113:144,1,160,0|8,0:0|0:0,0:0:0:0:
109,150,31877,1,0,0:0:0:0:
119,171,31952,1,0,0:0:0:0:
121,195,32027,1,0,0:0:0:0:
114,218,32102,1,0,0:0:0:0:
63,356,32252,1,0,0:0:0:0:
63,356,32327,1,0,0:0:0:0:
63,356,32402,2,0,P|53:304|70:274,1,80,8|0,0:0|0:0,0:0:0:0:
208,198,32702,5,0,0:0:0:0:
232,109,32852,1,0,0:0:0:0:
234,93,32927,1,0,0:0:0:0:
235,78,33002,1,8,0:0:0:0:
280,179,33152,1,0,0:0:0:0:
278,195,33227,1,0,0:0:0:0:
276,210,33302,2,0,B|185:215|185:215|214:193,1,120,0|0,0:0|0:0,0:0:0:0:
327,107,33602,2,0,P|331:53|309:10,1,80,8|0,0:0|0:0,0:0:0:0:
161,22,33902,5,0,0:0:0:0:
238,77,34052,1,0,0:0:0:0:
158,118,34202,1,8,0:0:0:0:
138,123,34277,1,0,0:0:0:0:
119,125,34352,1,0,0:0:0:0:
99,122,34427,1,0,0:0:0:0:
80,115,34502,2,0,P|49:95|30:33,1,80,0|0,0:0|0:0,0:0:0:0:
111,213,34802,2,0,P|118:249|88:306,1,80,8|0,0:0|0:0,0:0:0:0:
32,358,35102,5,0,0:0:0:0:
186,324,35252,1,0,0:0:0:0:
202,322,35327,1,0,0:0:0:0:
217,321,35402,1,8,0:0:0:0:
210,222,35552,1,0,0:0:0:0:
194,224,35627,1,0,0:0:0:0:
179,225,35702,2,0,B|88:230|88:230|117:208,1,120,0|0,0:0|0:0,0:0:0:0:
171,139,36002,2,0,L|239:135,1,40,8|0,0:0|0:0,0:0:0:0:
446,231,36152,2,0,L|378:235,1,40,0|0,0:0|0:0,0:0:0:0:
330,166,36302,6,0,B|297:224|297:224|333:309,1,160,0|8,0:0|0:0,0:0:0:0:
360,332,36677,1,0,0:0:0:0:
368,309,36752,1,0,0:0:0:0:
369,285,36827,1,0,0:0:0:0:
363,262,36902,1,0,0:0:0:0:
330,166,37052,1,0,0:0:0:0:
330,166,37127,1,0,0:0:0:0:
330,166,37202,2,0,P|331:115|365:77,1,80,8|0,0:0|0:0,0:0:0:0:
410,25,37502,5,0,0:0:0:0:
438,148,37652,1,0,0:0:0:0:
439,163,37727,1,0,0:0:0:0:
441,179,37802,1,8,0:0:0:0:
370,300,37952,1,0,0:0:0:0:
369,285,38027,1,0,0:0:0:0:
367,269,38102,2,0,P|290:263|255:238,1,120,0|0,0:0|0:0,0:0:0:0:
200,170,38402,2,0,P|253:182|248:248,1,120,8|0,0:0|0:0,0:0:0:0:
186,298,38702,5,8,0:0:0:0:
112,178,38852,2,0,P|116:144|126:123,5,40,2|0|2|0|2|0,0:0|0:0|0:0|0:0|0:0|0:0,0:0:0:0:
107,264,39302,1,2,0:0:0:0:
92,274,39452,1,0,0:0:0:0:
77,285,39602,1,2,0:0:0:0:
63,295,39752,1,0,0:0:0:0:
157,349,39902,6,0,L|248:346,1,80,4|0,0:0|0:0,0:0:0:0:
385,261,40202,2,0,L|295:262,1,80,8|0,0:0|0:0,0:0:0:0:
200,207,40502,1,0,0:0:0:0:
283,264,40652,1,0,0:0:0:0:
341,175,40802,2,0,P|346:130|322:86,1,80,8|0,0:0|0:0,0:0:0:0:
158,60,41102,6,0,B|189:79|266:53|266:53|250:74|248:107,1,143.999995605469,0|0,0:0|0:0,0:0:0:0:
241,177,41402,2,0,L|120:175,1,95.9999970703126,8|0,0:0|0:0,0:0:0:0:
59,49,41702,2,0,P|41:105|68:142,1,95.9999970703126,0|0,0:0|0:0,0:0:0:0:
114,262,42002,2,0,P|132:318|105:355,1,95.9999970703126,8|0,0:0|0:0,0:0:0:0:
34,254,42302,6,0,L|132:263,1,80,0|0,0:0|0:0,0:0:0:0:
358,251,42602,2,0,L|259:260,1,80,8|0,0:0|0:0,0:0:0:0:
172,194,42902,1,0,0:0:0:0:
249,261,43052,1,0,0:0:0:0:
309,176,43202,2,0,P|313:122|285:76,1,80,8|0,0:0|0:0,0:0:0:0:
234,31,43502,6,0,B|287:2|287:2|370:28,1,143.999995605469,0|0,0:0|0:0,0:0:0:0:
396,102,43802,2,0,P|336:109|288:89,1,95.9999970703126,8|0,0:0|0:0,0:0:0:0:
151,13,44102,2,0,B|143:43|161:81,7,47.9999985351563,0|0|0|0|10|0|2|0,0:0|0:0|0:0|0:0|0:0|0:0|0:0|0:0,0:0:0:0:
151,13,44702,6,0,P|156:71|172:97,1,80,0|0,0:0|0:0,0:0:0:0:
236,172,45002,2,0,P|231:230|215:256,1,80,8|0,0:0|0:0,0:0:0:0:
145,307,45302,1,0,0:0:0:0:
131,203,45452,1,0,0:0:0:0:
236,172,45602,2,0,P|279:168|342:189,1,80,8|0,0:0|0:0,0:0:0:0:
495,153,45902,6,0,B|466:171|388:143|388:143|401:170|402:214,1,143.999995605469,0|0,0:0|0:0,0:0:0:0:
399,258,46202,2,0,P|417:311|402:363,1,95.9999970703126,8|0,0:0|0:0,0:0:0:0:
311,99,46502,2,0,P|329:46|314:-6,1,95.9999970703126,0|0,0:0|0:0,0:0:0:0:
215,101,46802,2,0,L|323:98,1,95.9999970703126,8|0,0:0|0:0,0:0:0:0:
458,93,47102,5,0,0:0:0:0:
458,93,47252,1,2,0:0:0:0:
375,172,47402,2,0,P|367:199|392:276,1,95.9999970703126,10|0,0:0|0:0,0:0:0:0:
471,334,47702,5,0,0:0:0:0:
471,334,47852,1,2,0:0:0:0:
381,263,48002,2,0,P|366:218|375:172,1,95.9999970703126,10|0,0:0|0:0,0:0:0:0:
374,87,48302,6,0,P|351:88|326:101,3,40,0|0|0|0,0:0|0:0|0:0|0:0,0:0:0:0:
290,168,48602,2,0,P|302:187|326:202,3,40,8|0|0|0,0:0|0:0|0:0|0:0,0:0:0:0:
422,204,48902,2,0,P|432:183|433:155,3,40,0|0|0|0,0:0|0:0|0:0|0:0,0:0:0:0:
374,87,49202,2,0,P|351:88|326:101,3,40,8|0|0|0,0:0|0:0|0:0|0:0,0:0:0:0:
290,168,49502,6,0,L|185:163,1,80,4|0,0:0|0:0,0:0:0:0:
96,128,49802,2,0,B|81:165|81:165|97:212,1,80,8|0,0:0|0:0,0:0:0:0:
190,271,50102,1,0,0:0:0:0:
102,226,50252,1,0,0:0:0:0:
215,273,50402,2,0,L|323:276,1,80,8|0,0:0|0:0,0:0:0:0:
412,355,50702,6,0,B|359:337|359:337|319:359|319:359|257:358,1,143.999995605469,0|0,0:0|0:0,0:0:0:0:
294,275,51002,2,0,P|294:191|283:164,1,95.9999970703126,8|0,0:0|0:0,0:0:0:0:
189,16,51302,2,0,P|189:100|200:127,1,95.9999970703126,0|0,0:0|0:0,0:0:0:0:
278,171,51602,2,0,P|310:171|336:166,3,47.9999985351563,8|0|0|0,0:0|0:0|0:0|0:0,0:0:0:0:
203,123,51902,6,0,P|150:124|114:142,1,80,0|0,0:0|0:0,0:0:0:0:
175,283,52202,2,0,B|187:246|187:246|175:197,1,80,8|0,0:0|0:0,0:0:0:0:
47,96,52502,2,0,B|35:133|35:133|47:182,1,80,0|0,0:0|0:0,0:0:0:0:
175,283,52802,1,8,0:0:0:0:
95,237,52952,1,0,0:0:0:0:
165,113,53102,6,0,B|203:95|203:95|187:223,1,143.999995605469,0|0,0:0|0:0,0:0:0:0:
175,283,53402,2,0,L|290:274,1,95.9999970703126,8|0,0:0|0:0,0:0:0:0:
396,167,53702,2,0,L|281:176,1,95.9999970703126,0|0,0:0|0:0,0:0:0:0:
302,279,54002,2,0,P|302:313|312:341,3,47.9999985351563,8|0|0|0,0:0|0:0|0:0|0:0,0:0:0:0:
391,290,54302,5,8,0:0:0:0:
480,303,54452,2,0,P|480:269|472:243,2,35.9999989013672,0|0|0,0:0|0:0|0:0,0:0:0:0:
424,375,54752,1,0,0:0:0:0:
419,198,54902,5,8,0:0:0:0:
329,207,55052,2,0,P|329:173|337:147,2,35.9999989013672,0|0|0,0:0|0:0|0:0,0:0:0:0:
391,290,55352,1,0,0:0:0:0:
386,105,55502,5,8,0:0:0:0:
477,113,55652,2,0,P|477:79|469:53,2,35.9999989013672,0|0|0,0:0|0:0|0:0,0:0:0:0:
419,198,55952,1,0,0:0:0:0:
421,16,56102,5,8,0:0:0:0:
298,109,56252,2,0,P|264:109|238:101,2,35.9999989013672,0|0|0,0:0|0:0|0:0,0:0:0:0:
386,105,56552,1,0,0:0:0:0:
331,190,56702,6,0,B|311:248|311:248|342:337,1,128,0|0,0:0|0:0,0:0:0:0:
486,234,57152,2,0,P|435:238|416:246,1,64,0|0,0:0|0:0,0:0:0:0:
405,252,57377,1,0,0:0:0:0:
405,252,57452,1,0,0:0:0:0:
251,346,57602,2,0,P|200:342|181:334,1,64,0|0,0:0|0:0,0:0:0:0:
118,254,57902,6,0,L|117:177,1,64,0|0,0:0|0:0,0:0:0:0:
117,173,58127,1,0,0:0:0:0:
117,173,58202,1,0,0:0:0:0:
69,89,58352,2,0,P|33:71|13:47,1,64,0|0,0:0|0:0,0:0:0:0:
7,42,58577,1,0,0:0:0:0:
7,42,58652,1,0,0:0:0:0:
175,86,58802,1,0,0:0:0:0:
247,28,58952,1,0,0:0:0:0:
117,173,59102,6,0,L|113:300,1,120.000004577637,4|0,0:0|0:0,0:0:0:0:
271,272,59552,1,0,0:0:0:0:
268,184,59702,2,0,P|232:182|191:197,1,60.0000022888184,0|0,0:0|0:0,0:0:0:0:
275,360,60002,2,0,P|337:358|373:339,1,80,2|0,0:0|0:0,0:0:0:0:
411,256,60302,6,0,L|274:273,1,120.000004577637,0|0,0:0|0:0,0:0:0:0:
170,285,60752,1,0,0:0:0:0:
170,285,60902,1,0,0:0:0:0:
405,170,61202,1,2,0:1:0:0:
406,80,61352,1,0,0:0:0:0:
316,106,61502,6,0,P|259:112|194:90,1,120.000004577637,0|0,0:0|0:0,0:0:0:0:
109,26,61952,1,0,0:0:0:0:
186,83,62102,2,0,P|193:120|181:161,1,60.0000022888184,0|0,0:0|0:0,0:0:0:0:
19,150,62402,2,0,P|12:113|26:65,1,80,0|0,0:0|0:0,0:0:0:0:
104,177,62702,6,0,L|99:286,1,90.0000034332277,0|0,0:0|0:0,0:0:0:0:
46,348,63002,2,0,P|26:342|8:333,2,40.000001525879,2|0|2,0:1|0:0|0:1,0:0:0:0:
155,347,63302,2,0,P|174:341|192:332,2,40.000001525879,0|2|0,0:0|0:1|0:0,0:0:0:0:
99,266,63602,2,0,L|104:177,1,90.0000034332277,2|0,0:1|0:0,0:0:0:0:
110,157,63902,6,0,P|161:149|224:188,1,120.000004577637,0|0,0:0|0:0,0:0:0:0:
280,248,64352,1,0,0:0:0:0:
312,167,64502,2,0,P|316:127|310:92,1,60.0000022888184,0|0,0:0|0:0,0:0:0:0:
268,263,64802,2,0,P|264:303|274:346,1,80,2|0,0:0|0:0,0:0:0:0:
464,302,65102,2,0,B|400:281|400:281|334:304,1,120.000004577637,0|0,0:0|0:0,0:0:0:0:
182,351,65552,1,0,0:0:0:0:
108,290,65702,2,0,P|104:256|119:215,1,60.0000022888184,0|0,0:0|0:0,0:0:0:0:
177,156,66002,5,2,0:0:0:0:
176,66,66152,1,0,0:0:0:0:
105,13,66302,1,0,0:0:0:0:
171,253,66602,5,0,0:0:0:0:
252,218,66752,1,0,0:0:0:0:
331,263,66902,1,0,0:0:0:0:
414,36,67202,5,0,0:0:0:0:
403,123,67352,1,0,0:0:0:0:
325,169,67502,1,0,0:0:0:0:
239,166,67652,2,0,L|101:152,1,120,0|0,0:0|0:0,0:0:0:0:
119,153,67952,5,0,0:0:0:0:
178,263,68102,1,2,0:1:0:0:
177,282,68402,1,0,0:0:0:0:
176,302,68702,1,0,0:0:0:0:
330,259,69902,5,8,0:0:0:0:
328,285,70202,1,8,0:0:0:0:
320,312,70502,2,0,P|304:339|290:352,3,40,8|0|0|0,0:0|0:0|0:0|0:0,0:0:0:0:
445,266,70802,2,0,P|461:293|475:306,3,40,8|0|0|0,0:0|0:0|0:0|0:0,0:0:0:0:
380,182,71102,6,0,L|377:19,1,160,4|2,0:0|0:0,0:0:0:0:
377,22,71702,1,0,0:0:0:0:
394,34,72002,1,0,0:0:0:0:
206,92,72302,6,0,B|79:105|79:105|141:135,1,160,4|2,0:0|0:0,0:0:0:0:
343,136,72902,1,0,0:0:0:0:
367,151,73202,1,0,0:0:0:0:
391,166,73502,5,0,0:0:0:0:
444,340,73802,2,0,P|429:294|429:263,1,64,4|0,0:0|0:0,0:0:0:0:
414,181,74102,5,0,0:0:0:0:
452,362,74402,2,0,P|437:316|437:285,1,64,4|0,0:0|0:0,0:0:0:0:
438,196,74702,5,12,0:0:0:0:
342,279,74852,1,0,0:0:0:0:
342,279,74927,1,0,0:0:0:0:
342,279,75002,2,0,L|255:276,1,80,8|0,0:0|0:0,0:0:0:0:
171,266,75302,5,8,0:0:0:0:
196,166,75452,1,0,0:0:0:0:
162,278,75602,5,8,0:0:0:0:
206,156,75752,1,0,0:0:0:0:
81,187,75902,6,0,P|75:143|93:98,1,80,4|0,0:0|0:0,0:0:0:0:
101,67,76127,1,0,0:0:0:0:
118,73,76202,2,0,P|161:79|211:61,1,80,8|0,0:0|0:0,0:0:0:0:
363,37,76502,2,0,P|320:31|270:49,1,80,0|0,0:0|0:0,0:0:0:0:
316,224,76802,2,0,B|347:175|347:175|323:103,1,120,8|0,0:0|0:0,0:0:0:0:
277,129,77102,6,0,P|266:177|282:215,1,80,0|0,0:0|0:0,0:0:0:0:
342,334,77402,2,0,L|235:338,1,80,8|0,0:0|0:0,0:0:0:0:
81,290,77702,2,0,L|188:286,1,80,0|0,0:0|0:0,0:0:0:0:
233,170,78002,2,0,B|240:132|240:132|219:82,1,80,8|0,0:0|0:0,0:0:0:0:
319,11,78302,6,0,B|312:49|312:49|333:99,1,80,0|2,0:0|0:0,0:0:0:0:
384,143,78527,1,0,0:0:0:0:
400,141,78602,2,0,P|366:170|309:177,1,80,10|0,0:0|0:0,0:0:0:0:
233,170,78902,5,0,0:0:0:0:
127,163,79052,1,0,0:0:0:0:
19,173,79202,5,8,0:0:0:0:
125,180,79352,1,0,0:0:0:0:
107,356,79502,6,0,B|157:371|208:359|208:359|179:337,1,120,0|0,0:0|0:0,0:0:0:0:
124,272,79802,2,0,B|74:257|23:269|23:269|52:291,1,120,10|0,0:0|0:0,0:0:0:0:
123,357,80102,6,0,B|173:372|224:360|224:360|195:338,1,120,2|0,0:0|0:0,0:0:0:0:
140,273,80402,2,0,B|90:258|39:270|39:270|68:292,1,120,10|0,0:0|0:0,0:0:0:0:
54,304,80702,6,0,B|51:214,1,80,4|0,0:0|0:0,0:0:0:0:
274,384,81002,2,0,P|330:388|373:368,1,80,8|0,0:0|0:0,0:0:0:0:
390,351,81227,1,0,0:0:0:0:
375,343,81302,2,0,P|305:344|284:354,1,80,0|0,0:0|0:0,0:0:0:0:
233,210,81602,6,0,P|289:214|332:194,1,80,8|0,0:0|0:0,0:0:0:0:
349,177,81827,1,0,0:0:0:0:
334,169,81902,2,0,P|264:170|243:180,1,80,0|0,0:0|0:0,0:0:0:0:
435,226,82202,6,0,B|451:192|451:192|443:147,1,80,8|0,0:0|0:0,0:0:0:0:
308,312,82502,2,0,B|327:289|368:287|368:287|412:327|481:310,1,160,0|8,0:0|0:0,0:0:0:0:
453,314,82952,1,0,0:0:0:0:
435,226,83102,6,0,P|429:178|456:105,1,120,0|0,0:0|0:0,0:0:0:0:
462,89,83402,2,0,P|390:76|348:33,1,120,8|0,0:0|0:0,0:0:0:0:
338,29,83702,2,0,P|291:65|232:71,1,120,0|0,0:0|0:0,0:0:0:0:
207,74,84002,2,0,P|228:129|223:188,1,120,8|0,0:0|0:0,0:0:0:0:
166,259,84302,6,0,P|140:226|138:164,1,80,0|0,0:0|0:0,0:0:0:0:
125,80,84602,2,0,L|41:76,1,80,8|0,0:0|0:0,0:0:0:0:
5,101,84827,1,0,0:0:0:0:
21,103,84902,2,0,L|124:108,1,80,0|0,0:0|0:0,0:0:0:0:
175,263,85202,6,0,L|91:259,1,80,8|0,0:0|0:0,0:0:0:0:
55,284,85427,1,0,0:0:0:0:
71,286,85502,2,0,L|174:291,1,80,4|0,0:0|0:0,0:0:0:0:
262,296,85802,6,0,P|267:245|242:194,1,80,10|0,0:0|0:0,0:0:0:0:
184,137,86102,2,0,P|174:98|180:59,1,80,0|0,0:0|0:0,0:0:0:0:
228,48,86327,1,0,0:0:0:0:
212,50,86402,2,0,L|106:66,1,80,10|0,0:0|0:0,0:0:0:0:
62,237,86702,6,0,L|168:221,1,80,0|0,0:0|0:0,0:0:0:0:
174,223,86927,1,0,0:0:0:0:
191,227,87002,2,0,P|200:265|194:304,1,80,10|0,0:0|0:0,0:0:0:0:
103,351,87302,2,0,P|76:335|59:307,3,40,0|0|0|0,0:0|0:0|0:0|0:0,0:0:0:0:
62,237,87602,2,0,P|89:221|122:220,3,40,8|0|0|0,0:0|0:0|0:0|0:0,0:0:0:0:
123,129,87902,5,0,0:0:0:0:
124,105,88202,1,0,0:0:0:0:
125,81,88502,1,0,0:0:0:0:
126,57,88802,1,0,0:0:0:0:
282,211,89102,6,0,B|180:171|192:253|93:233,1,180.000006866455,0|0,0:0|0:0,0:0:0:0:
207,304,89702,2,0,B|233:279|233:279|227:352,1,105.599999677734,0|0,0:0|0:0,0:0:0:0:
292,137,90302,6,0,B|264:103|264:103|266:64|266:64|298:36,1,120,6|0,0:0|0:0,0:0:0:0:
378,40,90602,2,0,B|406:65|406:65|408:104|408:104|380:138,1,120,2|0,0:0|0:0,0:0:0:0:
334,219,90902,1,2,0:0:0:0:
76,251,91502,6,0,B|48:285|48:285|50:324|50:324|82:352,1,120,6|0,0:0|0:0,0:0:0:0:
162,347,91802,2,0,B|189:322|189:322|191:283|191:283|163:249,1,120,2|0,0:0|0:0,0:0:0:0:
118,169,92102,1,2,0:0:0:0:
432,94,92702,6,0,B|385:76|385:76|315:96,1,120,6|0,0:0|0:0,0:0:0:0:
318,95,93002,2,0,L|314:221,1,120,2|0,0:0|0:0,0:0:0:0:
315,302,93302,5,2,0:0:0:0:
191,276,93452,1,8,0:0:0:0:
332,296,93602,5,2,0:0:0:0:
177,267,93752,1,8,0:0:0:0:
224,365,93902,6,0,P|185:333|179:259,1,120,6|0,0:0|0:0,0:0:0:0:
220,180,94202,2,0,P|215:121|172:81,1,120,2|0,0:0|0:0,0:0:0:0:
83,58,94502,1,2,0:0:0:0:
203,301,95102,6,0,L|208:240,1,40,6|0,0:0|0:0,0:0:0:0:
220,180,95252,1,0,0:0:0:0:
286,347,95402,6,0,L|291:286,1,40,2|0,0:0|0:0,0:0:0:0:
303,226,95552,1,0,0:0:0:0:
379,284,95702,6,0,P|412:285|437:278,3,40,2|0|0|0,0:0|0:0|0:0|0:0,0:0:0:0:
481,239,96002,1,0,0:0:0:0:
196,214,96302,6,0,L|135:209,1,40,6|0,0:0|0:0,0:0:0:0:
75,197,96452,1,0,0:0:0:0:
242,131,96602,6,0,L|181:126,1,40,2|0,0:0|0:0,0:0:0:0:
121,114,96752,1,0,0:0:0:0:
177,32,96902,5,2,0:0:0:0:
425,114,97352,1,0,0:0:0:0:
425,114,97427,1,0,0:0:0:0:
425,114,97502,6,0,B|453:159|453:159|436:236,1,120,6|0,0:0|0:0,0:0:0:0:
408,308,97802,2,0,L|284:301,1,120,2|0,0:0|0:0,0:0:0:0:
203,296,98102,5,2,0:0:0:0:
119,250,98252,1,8,0:0:0:0:
202,314,98402,5,2,0:0:0:0:
255,209,98552,1,8,0:0:0:0:
175,139,98702,6,0,P|177:108|187:89,3,40,6|0|0|0,0:0|0:0|0:0|0:0,0:0:0:0:
284,75,99002,2,0,P|309:92|321:110,3,40,0|0|0|0,0:0|0:0|0:0|0:0,0:0:0:0:
291,194,99302,2,0,P|263:207|241:208,7,40,0|0|0|0|0|0|0|0,0:0|0:0|0:0|0:0|0:0|0:0|0:0|0:0,0:0:0:0:
167,188,99902,5,0,3:0:0:0:
160,65,100802,6,0,P|132:47|121:32,3,40,0|0|0|0,0:0|0:0|0:0|0:0,0:0:0:0:
186,75,101102,6,0,P|243:79|301:45,1,107.999996704102,4|0,0:0|0:0,0:0:0:0:
307,54,101402,2,0,P|291:83|316:172,1,107.999996704102,8|0,0:0|0:0,0:0:0:0:
365,210,101702,2,0,P|381:181|356:92,1,107.999996704102,8|0,0:0|0:0,0:0:0:0:
387,105,102002,2,0,L|496:95,1,107.999996704102,8|0,0:0|0:0,0:0:0:0:
494,95,102302,6,0,L|501:17,1,71.9999978027344,8|0,0:0|0:0,0:0:0:0:
365,210,102602,2,0,L|358:288,1,71.9999978027344,8|0,0:0|0:0,0:0:0:0:
473,86,102902,6,0,L|479:7,1,71.9999978027344,8|0,0:0|0:0,0:0:0:0:
343,200,103202,2,0,L|336:263,3,35.9999989013672,8|0|0|0,0:0|0:0|0:0|0:0,0:0:0:0:
388,120,103502,6,0,B|345:101|345:101|271:129,1,107.999996704102,8|0,0:0|0:0,0:0:0:0:
197,179,103802,2,0,P|167:176|146:167,3,35.9999989013672,8|0|0|0,0:0|0:0|0:0|0:0,0:0:0:0:
112,76,104102,2,0,P|129:51|147:37,3,35.9999989013672,8|0|0|0,0:0|0:0|0:0|0:0,0:0:0:0:
257,59,104402,2,0,P|269:86|272:109,3,35.9999989013672,8|0|0|0,0:0|0:0|0:0|0:0,0:0:0:0:
197,179,104702,6,0,L|194:314,1,107.999996704102,8|0,0:0|0:0,0:0:0:0:
121,331,105002,2,0,P|142:355|170:367,3,35.9999989013672,8|0|0|0,0:0|0:0|0:0|0:0,0:0:0:0:
243,359,105302,2,0,P|257:347|268:333,3,35.9999989013672,8|0|0|0,0:0|0:0|0:0|0:0,0:0:0:0:
194,286,105602,2,0,L|195:232,3,35.9999989013672,10|0|2|0,0:1|0:0|0:1|0:0,0:0:0:0:
252,172,105902,6,0,B|290:160|290:160|358:178,1,88.000002685547,12|0,0:0|0:0,0:0:0:0:
418,74,106202,2,0,B|380:86|380:86|312:68,1,88.000002685547,8|0,0:0|0:0,0:0:0:0:
159,68,106502,2,0,B|147:106|147:106|165:174,1,88.000002685547,8|0,0:0|0:0,0:0:0:0:
73,274,106802,2,0,B|85:236|85:236|67:168,1,88.000002685547,8|0,0:0|0:0,0:0:0:0:
164,176,107102,6,0,L|285:170,1,88.000002685547,8|0,0:0|0:0,0:0:0:0:
266,201,107327,1,0,0:0:0:0:
256,214,107402,2,0,P|211:224|150:214,1,88.000002685547,8|0,0:0|0:0,0:0:0:0:
287,50,107702,6,0,L|408:44,1,88.000002685547,8|0,0:0|0:0,0:0:0:0:
389,75,107927,1,0,0:0:0:0:
379,88,108002,2,0,P|334:98|273:88,1,88.000002685547,8|0,0:0|0:0,0:0:0:0:
156,84,108302,5,8,0:0:0:0:
157,105,108377,1,0,0:0:0:0:
159,127,108452,1,0,0:0:0:0:
161,149,108527,1,0,0:0:0:0:
163,171,108602,2,0,L|157:237,1,44.0000013427735,8|0,0:0|0:0,0:0:0:0:
69,232,108752,5,0,0:0:0:0:
67,253,108827,1,0,0:0:0:0:
65,275,108902,1,8,0:0:0:0:
63,297,108977,1,0,0:0:0:0:
62,319,109052,2,0,L|68:385,1,44.0000013427735,0|0,0:0|0:0,0:0:0:0:
150,337,109202,6,0,L|146:297,6,22.0000006713867,8|0|0|0|0|0|0,0:0|0:0|0:0|0:0|0:0|0:0|0:0,0:0:0:0:
185,233,109502,5,0,0:0:0:0:
267,277,109652,1,0,0:0:0:0:
365,284,109802,1,0,0:0:0:0:
447,240,109952,1,0,0:0:0:0:
362,182,110102,2,0,B|337:135|376:81|376:81|367:106|375:124,1,132.00000402832,0|0,0:0|0:0,0:0:0:0:
371,104,110402,2,0,B|285:87|300:148|217:136,1,150,2|0,0:0|0:0,0:0:0:0:
119,112,110702,6,0,B|158:92|158:92|135:140|154:186,1,120,4|0,0:0|0:0,0:0:0:0:
129,254,111002,2,0,P|86:229|68:188,1,80,8|0,0:0|0:0,0:0:0:0:
67,177,111227,1,0,0:0:0:0:
59,188,111302,2,0,P|37:220|1:238,1,80,0|0,0:0|0:0,0:0:0:0:
111,27,111602,2,0,P|133:59|169:77,1,80,8|0,0:0|0:0,0:0:0:0:
299,160,111902,6,0,B|248:145|248:145|202:169|202:169|140:165,1,160,0|8,0:0|0:0,0:0:0:0:
271,65,112352,1,0,0:0:0:0:
263,240,112502,2,0,B|251:278|251:278|265:323,1,80,0|0,0:0|0:0,0:0:0:0:
361,321,112802,1,8,0:0:0:0:
361,230,112952,1,0,0:0:0:0:
299,160,113102,6,0,B|260:148|260:148|222:160,1,80,0|0,0:0|0:0,0:0:0:0:
149,245,113402,2,0,L|53:242,1,80,8|0,0:0|0:0,0:0:0:0:
37,240,113627,1,0,0:0:0:0:
53,241,113702,2,0,L|132:238,1,80,0|0,0:0|0:0,0:0:0:0:
299,160,114002,2,0,P|303:112|290:63,1,80,8|0,0:0|0:0,0:0:0:0:
166,47,114302,6,0,P|201:55|229:57,1,40,0|0,0:0|0:0,0:0:0:0:
290,64,114452,1,0,0:0:0:0:
216,141,114602,6,0,P|181:149|153:151,1,40,10|0,0:0|0:0,0:0:0:0:
92,158,114752,1,2,0:0:0:0:
143,253,114902,6,0,B|165:305|153:346|153:346|120:312,1,120,0|0,0:0|0:0,0:0:0:0:
44,314,115202,2,0,B|22:262|34:221|34:221|67:255,1,120,8|0,0:0|0:0,0:0:0:0:
143,253,115502,6,0,L|278:267,1,120,4|0,0:0|0:0,0:0:0:0:
348,269,115802,2,0,P|353:213|324:162,1,80,8|0,0:0|0:0,0:0:0:0:
313,179,116027,1,0,0:0:0:0:
330,182,116102,2,0,P|378:172|419:133,1,80,0|0,0:0|0:0,0:0:0:0:
283,58,116402,2,0,P|243:64|210:85,1,80,8|0,0:0|0:0,0:0:0:0:
67,175,116702,6,0,B|98:140|141:140|141:140|176:175|241:172,1,160,0|8,0:0|0:0,0:0:0:0:
330,182,117152,1,0,0:0:0:0:
228,176,117302,2,0,P|218:219|242:274,1,80,0|0,0:0|0:0,0:0:0:0:
328,357,117602,1,8,0:0:0:0:
369,274,117752,1,0,0:0:0:0:
330,182,117902,6,0,P|321:143|331:105,1,80,0|0,0:0|0:0,0:0:0:0:
498,55,118202,2,0,B|450:61|386:45|386:45|404:62|415:93,1,150,8|0,0:0|0:0,0:0:0:0:
386,198,118502,2,0,B|364:189|340:200|340:200|327:179|327:179|286:208|208:197,1,150,0|0,0:0|0:0,0:0:0:0:
269,32,118802,2,0,P|230:43|290:102,1,150,8|0,0:0|0:0,0:0:0:0:
267,114,119102,5,8,0:0:0:0:
222,201,119252,1,0,0:0:0:0:
217,220,119327,1,0,0:0:0:0:
219,239,119402,1,8,0:0:0:0:
296,318,119552,1,0,0:0:0:0:
378,264,119702,5,8,0:0:0:0:
379,255,119852,1,0,0:0:0:0:
298,327,120002,5,8,0:0:0:0:
299,336,120152,1,0,0:0:0:0:
379,247,120302,6,0,B|382:146|382:146|358:174,1,120,4|0,0:0|0:0,0:0:0:0:
289,204,120602,2,0,L|193:207,1,80,8|0,0:0|0:0,0:0:0:0:
192,230,120827,1,0,0:0:0:0:
176,232,120902,2,0,L|272:229,1,80,0|0,0:0|0:0,0:0:0:0:
289,112,121202,2,0,P|288:62|267:21,1,80,8|0,0:0|0:0,0:0:0:0:
91,57,121502,6,0,L|187:60,1,80,0|0,0:0|0:0,0:0:0:0:
188,82,121727,1,0,0:0:0:0:
204,85,121802,2,0,L|108:82,1,80,8|0,0:0|0:0,0:0:0:0:
85,176,122102,2,0,P|76:227|89:266,1,80,0|0,0:0|0:0,0:0:0:0:
154,336,122402,1,8,0:0:0:0:
92,267,122552,1,0,0:0:0:0:
179,215,122702,6,0,L|268:217,1,80,0|0,0:0|0:0,0:0:0:0:
437,266,123002,2,0,L|357:267,1,80,8|0,0:0|0:0,0:0:0:0:
360,248,123227,1,0,0:0:0:0:
354,233,123302,2,0,P|352:183|373:138,1,80,0|0,0:0|0:0,0:0:0:0:
423,10,123602,2,0,P|425:60|404:105,1,80,8|0,0:0|0:0,0:0:0:0:
305,78,123902,6,0,P|281:76|246:58,1,40,0|0,0:0|0:0,0:0:0:0:
192,22,124052,1,0,0:0:0:0:
54,52,124202,6,0,P|78:54|113:72,1,40,10|0,0:0|0:0,0:0:0:0:
167,108,124352,1,2,0:0:0:0:
142,192,124502,6,0,B|129:247|148:285|148:285|174:246,1,120,0|0,0:0|0:0,0:0:0:0:
240,215,124802,2,0,B|253:194|253:194|272:232|260:287,1,120,10|0,0:0|0:0,0:0:0:0:
164,368,125102,6,0,B|180:365|199:350|199:350|232:369|232:369|297:375,1,120,4|0,0:0|0:0,0:0:0:0:
361,329,125402,2,0,P|365:278|389:246,1,80,8|0,0:0|0:0,0:0:0:0:
417,235,125627,1,0,0:0:0:0:
435,243,125702,2,0,P|397:235|356:200,1,80,0|0,0:0|0:0,0:0:0:0:
377,35,126002,2,0,P|415:43|456:78,1,80,8|0,0:0|0:0,0:0:0:0:
333,122,126302,6,0,B|243:91|253:169|165:148,1,160,0|8,0:0|0:0,0:0:0:0:
51,127,126752,1,0,0:0:0:0:
161,148,126902,2,0,P|171:187|161:239,1,80,0|0,0:0|0:0,0:0:0:0:
73,347,127202,1,8,0:0:0:0:
62,238,127352,1,0,0:0:0:0:
51,127,127502,6,0,P|51:86|74:39,1,80,0|0,0:0|0:0,0:0:0:0:
174,70,127802,2,0,B|144:41|144:41|165:175,1,150,10|0,0:0|0:0,0:0:0:0:
185,237,128102,2,0,B|225:215|225:215|296:234,1,100,0|0,0:0|0:0,0:0:0:0:
464,232,128402,2,0,B|408:241|358:211|358:211|365:241|344:280,1,150,10|0,0:0|0:0,0:0:0:0:
351,274,128702,5,8,0:0:0:0:
328,127,128852,2,0,P|321:97|307:71,5,50,0|0|0|0|0|0,0:0|0:0|0:0|0:0|0:0|0:0,0:0:0:0:
247,22,129302,5,0,0:0:0:0:
224,32,129452,1,0,0:0:0:0:
201,42,129602,1,0,0:0:0:0:
178,52,129752,1,0,0:0:0:0:
55,145,129902,6,0,B|98:108|98:108|81:219,1,160,4|0,0:0|0:0,0:0:0:0:
64,340,130352,1,0,0:0:0:0:
137,276,130502,2,0,B|168:262|168:262|220:280,1,80,8|0,0:0|0:0,0:0:0:0:
390,323,130802,2,0,B|359:337|359:337|307:319,1,80,0|0,0:0|0:0,0:0:0:0:
295,220,131102,6,0,B|298:150|298:150|293:133|293:133|300:115|300:115|304:46,2,160,0|0|8,0:0|0:0|0:0,0:0:0:0:
420,218,131852,1,0,0:0:0:0:
454,133,132002,2,0,B|412:120|412:120|376:136,1,80,0|0,0:0|0:0,0:0:0:0:
357,290,132302,6,0,B|398:326|398:326|457:322|457:322|494:279,1,160,0|0,0:0|0:0,0:0:0:0:
331,130,132752,1,0,0:0:0:0:
331,130,132827,1,0,0:0:0:0:
331,130,132902,2,0,P|322:189|339:222,1,80,8|0,0:0|0:0,0:0:0:0:
257,350,133202,2,0,P|265:311|254:273,1,80,0|0,0:0|0:0,0:0:0:0:
125,174,133502,6,0,B|165:161|219:184|219:184|185:198,1,120,0|0,0:0|0:0,0:0:0:0:
132,272,133802,2,0,B|92:285|38:262|38:262|59:253,1,120,0|0,0:0|0:0,0:0:0:0:
69,236,134102,1,8,0:0:0:0:
46,136,134252,2,0,P|46:104|49:88,5,40,0|0|2|0|2|0,0:0|0:0|0:1|0:0|0:1|0:0,0:0:0:0:
124,64,134702,6,0,B|154:79|154:79|213:62,1,80,0|0,0:0|0:0,0:0:0:0:
375,137,135002,2,0,B|330:124|330:124|300:139,1,80
174,190,135302,2,0,P|122:240|173:292,1,160,8|0,0:0|0:0,0:0:0:0:
302,305,135752,1,0,0:0:0:0:
195,298,135902,6,0,B|93:258|117:340|18:320,2,160,0|0|8,0:0|0:0|0:0,0:0:0:0:
300,319,136652,2,0,P|361:330|398:316,1,80,0|0,0:0|0:0,0:0:0:0:
447,162,136952,5,0,0:0:0:0:
370,232,137102,2,0,B|346:245|346:245|300:178|377:111,1,160,0|2,0:0|0:1,0:0:0:0:
255,112,137552,5,0,0:0:0:0:
168,44,137702,2,0,B|144:31|144:31|93:103|175:165,1,160,8|2,0:0|0:1,0:0:0:0:
252,197,138152,5,0,0:0:0:0:
191,323,138302,2,0,P|184:354|185:385,3,40,0|0|0|0,0:0|0:0|0:0|0:0,0:0:0:0:
113,279,138602,2,0,P|106:248|107:217,3,40,0|0|0|0,0:0|0:0|0:0|0:0,0:0:0:0:
69,161,138902,2,0,B|168:127|147:208|244:189,1,160,8|0,0:0|0:0,0:0:0:0:
347,181,139352,1,0,0:0:0:0:
288,30,139502,6,0,P|277:118|284:142,1,95.9999970703126,4|0,0:0|0:0,0:0:0:0:
337,274,139802,2,0,P|348:186|341:162,1,95.9999970703126,8|0,0:0|0:0,0:0:0:0:
203,173,140102,2,0,B|161:159|161:159|92:187,1,95.9999970703126,0|0,0:0|0:0,0:0:0:0:
56,352,140402,2,0,B|98:366|98:366|167:338,1,95.9999970703126,8|0,0:0|0:0,0:0:0:0:
233,263,140702,6,0,B|139:260|139:260|114:265|114:265|15:264,2,191.999994140625,0|8|0,0:0|0:0|0:0,0:0:0:0:
264,361,141452,1,0,0:0:0:0:
325,298,141602,2,0,B|337:257|337:257|312:184,1,95.9999970703126,8|0,0:0|0:0,0:0:0:0:
256,100,141902,6,0,P|287:109|360:97,1,95.9999970703126,0|0,0:0|0:0,0:0:0:0:
507,39,142202,2,0,P|476:30|401:46,1,95.9999970703126,8|0,0:0|0:0,0:0:0:0:
256,100,142502,6,0,P|287:91|361:108,1,95.9999970703126,0|0,0:0|0:0,0:0:0:0:
507,39,142802,2,0,P|476:48|402:31,1,95.9999970703126,8|0,0:0|0:0,0:0:0:0:
410,152,143102,6,0,B|367:113|367:113|382:268,2,191.999994140625,0|8|0,0:0|0:0|0:0,0:0:0:0:
482,207,143852,1,8,0:0:0:0:
481,216,144002,1,8,0:0:0:0:
236,284,144302,5,4,0:0:0:0:
147,297,144452,2,0,P|147:263|155:237,2,35.9999989013672,0|0|0,0:0|0:0|0:0,0:0:0:0:
203,369,144752,1,0,0:0:0:0:
208,192,144902,5,4,0:0:0:0:
298,201,145052,2,0,P|298:167|290:141,2,35.9999989013672,0|0|0,0:0|0:0|0:0,0:0:0:0:
236,284,145352,1,0,0:0:0:0:
241,99,145502,5,4,0:0:0:0:
150,107,145652,2,0,P|150:73|158:47,2,35.9999989013672,0|0|0,0:0|0:0|0:0,0:0:0:0:
208,192,145952,1,0,0:0:0:0:
206,10,146102,5,4,0:0:0:0:
329,103,146252,2,0,P|363:103|389:95,2,35.9999989013672,0|0|0,0:0|0:0|0:0,0:0:0:0:
241,99,146552,1,0,0:0:0:0:
208,192,146702,6,0,B|194:228|194:228|205:277,1,71.9999978027344,0|0,0:0|0:0,0:0:0:0:
211,281,146927,1,0,0:0:0:0:
216,291,147002,1,0,0:0:0:0:
328,354,147152,2,0,B|326:305|326:305|333:283|333:283|330:228,1,100,0|0,0:0|0:0,0:0:0:0:
330,234,147377,1,0,0:0:0:0:
328,222,147452,1,0,0:0:0:0:
208,192,147602,2,0,B|171:185|171:185|113:200,1,80,0|0,0:0|0:0,0:0:0:0:
49,103,147902,6,0,B|86:110|86:110|144:95,1,80,0|0,0:0|0:0,0:0:0:0:
147,93,148127,1,0,0:0:0:0:
159,91,148202,1,0,0:0:0:0:
283,19,148352,2,0,B|285:68|285:68|278:90|278:90|281:145,1,100,0|0,0:0|0:0,0:0:0:0:
284,139,148577,1,0,0:0:0:0:
286,151,148652,1,0,0:0:0:0:
377,215,148802,5,0,0:0:0:0:
446,131,148952,1,0,0:0:0:0:
372,235,149102,6,0,P|370:304|380:332,1,71.9999978027344,4|0,0:0|0:0,0:0:0:0:
487,288,149402,1,0,0:0:0:0:
381,335,149552,1,0,0:0:0:0:
270,283,149702,2,0,B|189:258|205:324|105:295,1,143.999995605469,0|2,0:0|0:0,0:0:0:0:
50,240,150152,1,0,0:0:0:0:
152,216,150302,2,0,P|154:141|149:124,1,71.9999978027344,0|0,0:0|0:0,0:0:0:0:
65,48,150602,5,0,0:0:0:0:
20,137,150752,1,0,0:0:0:0:
50,240,150902,2,0,L|47:332,1,71.9999978027344,0|2,0:0|0:1,0:0:0:0:
143,370,151202,5,2,0:1:0:0:
188,281,151352,1,0,0:0:0:0:
158,178,151502,2,0,L|161:86,1,71.9999978027344,0|0,0:0|0:0,0:0:0:0:
242,31,151802,5,0,0:0:0:0:
159,95,151952,1,0,0:0:0:0:
253,44,152102,6,0,P|298:54|336:42,1,71.9999978027344,0|0,0:0|0:0,0:0:0:0:
475,25,152402,2,0,P|430:15|392:27,1,71.9999978027344,2|0,0:0|0:0,0:0:0:0:
386,122,152702,6,0,L|379:261,1,107.999996704102,0|0,0:0|0:0,0:0:0:0:
324,296,153002,2,0,B|294:300|294:300|306:288,2,47.9999985351563,2|0|2,0:1|0:0|0:1,0:0:0:0:
446,289,153302,2,0,B|476:285|476:285|464:297,2,47.9999985351563,0|2|0,0:0|0:0|0:1,0:0:0:0:
380,229,153602,2,0,L|386:122,1,107.999996704102,2|0,0:1|0:0,0:0:0:0:
361,30,153902,6,0,P|305:49|262:43,1,71.9999978027344,4|0,0:0|0:0,0:0:0:0:
165,21,154202,1,0,0:0:0:0:
266,48,154352,1,0,0:0:0:0:
198,119,154502,2,0,P|196:227|202:256,1,107.999996704102,0|0,0:0|0:0,0:0:0:0:
195,226,154802,5,2,0:0:0:0:
128,305,154952,1,0,0:0:0:0:
102,217,155102,6,0,P|51:216|18:233,1,71.9999978027344,0|0,0:0|0:0,0:0:0:0:
217,322,155402,2,0,P|268:323|301:306,1,71.9999978027344,0|0,0:0|0:0,0:0:0:0:
195,226,155702,2,0,P|201:144|206:131,1,71.9999978027344,0|0,0:0|0:0,0:0:0:0:
252,26,156002,5,2,0:0:0:0:
166,71,156152,1,0,0:0:0:0:
75,30,156302,1,0,0:0:0:0:
187,314,156602,5,0,0:0:0:0:
278,276,156752,1,0,0:0:0:0:
365,321,156902,1,0,0:0:0:0:
493,87,157202,5,0,0:0:0:0:
406,132,157352,1,0,0:0:0:0:
312,93,157502,1,0,0:0:0:0:
237,144,157652,2,0,P|135:147|99:141,1,107.999996704102,0|0,0:0|0:0,0:0:0:0:
129,146,157952,5,0,0:0:0:0:
192,249,158102,1,2,0:1:0:0:
193,268,158402,1,0,0:0:0:0:
194,288,158702,1,0,0:0:0:0:
148,98,159902,5,8,0:0:0:0:
122,96,160202,1,8,0:0:0:0:
95,88,160502,2,0,P|68:72|56:61,3,26.3999999194336,8|0|0|0,0:0|0:0|0:0|0:0,0:0:0:0:
165,180,160802,2,0,P|138:196|127:210,3,26.3999999194336,8|0|0|0,0:0|0:0|0:0|0:0,0:0:0:0:
235,110,161102,6,0,L|395:115,1,160,12|2,0:0|0:0,0:0:0:0:
394,114,161702,1,0,0:0:0:0:
384,132,162002,1,0,0:0:0:0:
236,308,162302,6,0,B|174:336|119:305|119:305|150:306|183:290,1,160,4|2,0:0|0:0,0:0:0:0:
471,271,162902,1,0,0:0:0:0:
447,256,163202,1,0,0:0:0:0:
423,241,163502,5,0,0:0:0:0:
370,67,163802,2,0,P|385:113|385:144,1,64,4|0,0:0|0:0,0:0:0:0:
400,226,164102,5,0,0:0:0:0:
362,45,164402,2,0,P|377:91|377:122,1,64,4|0,0:0|0:0,0:0:0:0:
376,211,164702,5,8,0:0:0:0:
281,161,164852,1,0,0:0:0:0:
281,161,164927,1,0,0:0:0:0:
281,161,165002,2,0,P|259:161|191:176,1,71.9999978027344,8|0,0:0|0:0,0:0:0:0:
121,252,165302,5,8,0:0:0:0:
31,187,165452,1,0,0:0:0:0:
114,262,165602,5,8,0:0:0:0:
24,197,165752,1,0,0:0:0:0:
120,141,165902,6,0,P|125:51|131:39,1,80,4|0,0:0|0:0,0:0:0:0:
151,44,166127,1,0,0:0:0:0:
136,52,166202,2,0,L|24:60,1,80,8|0,0:0|0:0,0:0:0:0:
207,143,166502,2,0,L|319:135,1,80,0|0,0:0|0:0,0:0:0:0:
422,106,166802,2,0,B|454:140|454:140|449:219,1,120,8|0,0:0|0:0,0:0:0:0:
449,213,167102,6,0,P|384:219|368:225,1,80,0|0,0:0|0:0,0:0:0:0:
234,346,167402,2,0,P|299:340|315:334,1,80,8|0,0:0|0:0,0:0:0:0:
288,233,167702,2,0,B|276:203|276:203|290:138,1,80,0|0,0:0|0:0,0:0:0:0:
191,41,168002,2,0,B|203:71|203:71|189:136,1,80,8|0,0:0|0:0,0:0:0:0:
121,209,168302,6,0,L|26:205,1,80,0|0,0:0|0:0,0:0:0:0:
25,187,168527,1,0,0:0:0:0:
45,185,168602,2,0,L|140:189,1,80,8|0,0:0|0:0,0:0:0:0:
249,209,168902,5,0,0:0:0:0:
352,184,169052,1,0,0:0:0:0:
462,210,169202,5,8,0:0:0:0:
352,167,169352,1,0,0:0:0:0:
322,350,169502,6,0,B|372:365|423:353|423:353|396:334,1,120,0|0,0:0|0:0,0:0:0:0:
339,266,169802,2,0,B|289:251|238:263|238:263|264:282,1,120,8|0,0:0|0:0,0:0:0:0:
338,351,170102,6,0,B|388:366|439:354|439:354|412:333,1,120,0|0,0:0|0:0,0:0:0:0:
355,267,170402,2,0,B|305:252|254:264|254:264|281:284,1,120,8|0,0:0|0:0,0:0:0:0:
263,298,170702,6,0,P|263:217|257:199,1,80,4|0,0:0|0:0,0:0:0:0:
190,139,171002,2,0,L|92:141,1,80,8|0,0:0|0:0,0:0:0:0:
90,120,171227,1,0,0:0:0:0:
108,119,171302,2,0,L|206:117,1,80,0|0,0:0|0:0,0:0:0:0:
377,78,171602,6,0,L|279:80,1,80,8|0,0:0|0:0,0:0:0:0:
277,59,171827,1,0,0:0:0:0:
295,58,171902,2,0,L|393:56,1,80,0|0,0:0|0:0,0:0:0:0:
347,172,172202,6,0,B|332:202|332:202|352:256,1,80,8|0,0:0|0:0,0:0:0:0:
469,319,172502,2,0,B|418:308|418:308|373:336|373:336|294:329,1,160,0|8,0:0|0:0,0:0:0:0:
318,331,172952,1,0,0:0:0:0:
256,236,173102,6,0,P|151:233|127:243,1,120,0|0,0:0|0:0,0:0:0:0:
138,237,173402,2,0,P|243:240|267:230,1,120,8|0,0:0|0:0,0:0:0:0:
310,173,173702,2,0,P|313:68|303:44,1,120,0|0,0:0|0:0,0:0:0:0:
309,55,174002,2,0,P|306:160|316:184,1,120,8|0,0:0|0:0,0:0:0:0:
399,190,174302,6,0,L|494:183,1,80,0|0,0:0|0:0,0:0:0:0:
384,294,174602,2,0,L|289:301,1,80,8|0,0:0|0:0,0:0:0:0:
188,254,174902,2,0,B|169:284|169:284|184:342,1,80,0|0,0:0|0:0,0:0:0:0:
215,346,175127,1,0,0:0:0:0:
197,347,175202,2,0,L|92:346,1,80,8|0,0:0|0:0,0:0:0:0:
68,254,175502,6,0,B|49:224|49:224|64:166,1,80,4|0,0:0|0:0,0:0:0:0:
95,174,175727,1,0,0:0:0:0:
79,181,175802,2,0,P|27:179|-8:158,1,80,8|0,0:0|0:0,0:0:0:0:
141,89,176102,6,0,P|180:87|217:103,1,80,0|0,0:0|0:0,0:0:0:0:
246,120,176327,1,0,0:0:0:0:
230,124,176402,2,0,B|211:154|211:154|226:212,1,80,8|0,0:0|0:0,0:0:0:0:
333,225,176701,6,0,P|372:226|409:210,1,80,0|0,0:0|0:0,0:0:0:0:
364,30,177002,2,0,P|324:28|287:44,1,80,8|0,0:0|0:0,0:0:0:0:
186,92,177302,6,0,P|158:92|139:88,3,40,0|0|0|0,0:0|0:0|0:0|0:0,0:0:0:0:
244,183,177602,2,0,P|271:183|290:179,3,40,8|0|0|0,0:0|0:0|0:0|0:0,0:0:0:0:
142,207,177902,5,0,0:0:0:0:
143,231,178202,1,0,0:0:0:0:
144,255,178502,1,0,0:0:0:0:
145,279,178802,1,0,0:0:0:0:
248,280,179102,6,0,B|309:309|368:266|368:266|355:294|365:333,1,180.000006866455,0|0,0:0|0:0,0:0:0:0:
474,338,179702,2,0,P|445:314|475:268,1,95.9999970703126,0|0,0:0|0:0,0:0:0:0:
394,171,180152,1,8,3:0:0:0:
393,180,180227,1,0,0:0:0:0:
392,189,180302,1,4,0:0:0:0:
369,60,184802,5,0,0:0:0:0:
369,60,184952,1,0,0:0:0:0:
369,60,185102,2,0,P|368:135|376:150,1,80,0|0,0:0|0:0,0:0:0:0:
438,207,185552,1,0,0:0:0:0:
362,266,185702,2,0,P|296:270|277:265,1,80,0|2,0:0|0:1,0:0:0:0:
169,101,186302,6,0,P|167:135|174:157,1,40,0|0,0:0|0:0,0:0:0:0:
84,166,186602,2,0,P|93:198|107:216,1,40,0|0,0:0|0:0,0:0:0:0:
22,250,186902,2,0,P|42:277|89:299,1,80,0|2,0:0|0:1,0:0:0:0:
179,305,187352,1,0,0:0:0:0:
257,242,187502,6,0,P|289:234|339:247,1,80,0|0,0:0|0:0,0:0:0:0:
360,336,187952,1,0,0:0:0:0:
425,270,188102,2,0,B|434:231|434:231|414:178,1,80,0|2,0:0|0:1,0:0:0:0:
419,193,188702,5,0,0:0:0:0:
267,120,189002,2,0,P|258:141|255:155,2,26.6666666666667,2|0|0,0:1|0:0|0:0,0:0:0:0:
301,241,189302,2,0,P|323:238|337:233,2,26.6666666666667,2|0|0,0:1|0:0|0:0,0:0:0:0:
383,152,189602,2,0,P|369:133|358:124,2,26.6666666666667,0|0|0,0:0|0:0|0:0,0:0:0:0:
315,42,189902,5,0,0:0:0:0:
184,149,190202,1,0,0:0:0:0:
184,149,190352,1,0,0:0:0:0:
184,149,190502,2,0,P|112:155|91:151,1,80,0|2,0:0|0:1,0:0:0:0:
283,149,191102,6,0,P|312:154|330:165,1,40,0|0,0:0|0:0,0:0:0:0:
272,237,191402,2,0,P|297:251|310:268,1,40,0|0,0:0|0:0,0:0:0:0:
241,322,191702,1,0,0:1:0:0:
241,322,192002,5,2,0:1:0:0:
147,307,192152,1,0,0:0:0:0:
60,285,192302,2,0,P|56:243|76:201,1,80,0|0,0:0|0:0,0:0:0:0:
96,53,192752,5,0,0:0:0:0:
119,135,192902,2,0,P|151:164|190:172,1,80,0|0,0:0|0:0,0:0:0:0:
408,213,193352,5,0,0:0:0:0:
320,188,193502,2,0,P|264:215|357:301,1,240,0|0,0:0|0:0,0:0:0:0:
449,256,194502,2,0,P|435:257|424:264,1,26.6666666666667,0|0,0:0|0:0,0:0:0:0:
429,346,194702,5,0,0:0:0:0:
256,192,194777,12,0,197102,0:0:0:0:
386,245,200702,5,8,0:0:0:0:
412,247,201002,1,8,0:0:0:0:
439,255,201302,2,0,P|466:271|479:285,3,40,8|0|0|0,0:0|0:0|0:0|0:0,0:0:0:0:
369,163,201602,2,0,P|396:147|409:133,3,40,8|0|0|0,0:0|0:0|0:0|0:0,0:0:0:0:
303,246,201902,6,0,B|249:267|249:267|133:239,1,160,12|2,0:0|0:0,0:0:0:0:
149,243,202502,1,0,0:0:0:0:
135,222,202802,1,0,0:0:0:0:
358,59,203102,6,0,B|316:30|316:30|337:149,1,160,4|2,0:0|0:0,0:0:0:0:
202,104,203702,1,0,0:0:0:0:
176,116,204002,1,0,0:0:0:0:
151,129,204302,5,0,0:0:0:0:
83,298,204602,2,0,P|101:253|104:222,1,64,4|0,0:0|0:0,0:0:0:0:
127,142,204902,5,0,0:0:0:0:
73,319,205202,2,0,P|91:274|94:243,1,64,4|0,0:0|0:0,0:0:0:0:
102,155,205502,5,12,0:0:0:0:
178,256,205652,1,0,0:0:0:0:
178,256,205727,1,0,0:0:0:0:
178,256,205802,2,0,L|274:260,1,80,8|0,0:0|0:0,0:0:0:0:
379,204,206102,5,8,0:0:0:0:
328,311,206252,1,0,0:0:0:0:
389,214,206402,5,8,0:0:0:0:
338,321,206552,1,0,0:0:0:0:
291,212,206702,6,0,P|285:129|288:117,1,80,4|0,0:0|0:0,0:0:0:0:
298,101,206927,1,0,0:0:0:0:
280,107,207002,2,0,L|175:99,1,80,8|0,0:0|0:0,0:0:0:0:
72,217,207302,2,0,L|177:209,1,80,0|0,0:0|0:0,0:0:0:0:
291,212,207602,2,0,B|314:258|314:258|293:348,1,120,8|0,0:0|0:0,0:0:0:0:
298,324,207902,6,0,L|193:332,1,80,0|0,0:0|0:0,0:0:0:0:
59,316,208202,2,0,B|46:280|46:280|67:229,1,80,8|0,0:0|0:0,0:0:0:0:
158,150,208502,2,0,B|173:111|173:111|160:75,1,80,0|0,0:0|0:0,0:0:0:0:
2,77,208802,2,0,P|55:104|86:106,1,80,8|0,0:0|0:0,0:0:0:0:
252,80,209102,6,0,P|290:68|329:70,1,80,0|0,0:0|0:0,0:0:0:0:
359,71,209327,1,0,0:0:0:0:
360,87,209402,2,0,L|363:183,1,80,10|0,0:1|0:0,0:0:0:0:
375,294,209702,5,0,0:0:0:0:
481,260,209852,1,0,0:0:0:0:
376,312,210002,5,8,0:0:0:0:
270,278,210152,1,0,0:0:0:0:
185,329,210302,6,0,B|143:343|143:343|58:323,1,120,0|0,0:0|0:0,0:0:0:0:
71,242,210602,2,0,B|144:224|144:224|186:238,1,120,10|0,0:0|0:0,0:0:0:0:
270,278,210902,6,0,B|312:292|312:292|397:272,1,120,2|0,0:0|0:0,0:0:0:0:
384,191,211202,2,0,B|310:173|310:173|268:187,1,120,10|0,0:0|0:0,0:0:0:0:
181,180,211502,6,0,P|182:103|192:82,1,80,4|0,0:0|0:0,0:0:0:0:
316,10,211802,2,0,L|313:121,1,80,8|0,0:0|0:0,0:0:0:0:
315,119,212027,1,0,0:0:0:0:
333,118,212102,2,0,L|444:112,1,80,0|0,0:0|0:0,0:0:0:0:
461,208,212402,6,0,L|464:319,1,80,8|0,0:0|0:0,0:0:0:0:
462,317,212627,1,0,0:0:0:0:
444,316,212702,2,0,L|333:310,1,80,0|0,0:0|0:0,0:0:0:0:
205,253,213002,6,0,P|236:218|276:206,1,80,8|0,0:0|0:0,0:0:0:0:
461,208,213302,2,0,B|421:224|348:187|348:187|354:218|339:256,1,160,0|8,0:0|0:0,0:0:0:0:
328,320,213752,1,0,0:0:0:0:
232,343,213902,6,0,B|178:338|178:338|164:344|164:344|100:341,1,120,0|0,0:0|0:0,0:0:0:0:
93,263,214202,2,0,B|147:266|147:266|161:260|161:260|226:264,1,120,8|0,0:0|0:0,0:0:0:0:
284,232,214502,6,0,B|242:202|242:202|209:267,1,120,0|0,0:0|0:0,0:0:0:0:
232,343,214802,2,0,B|274:373|274:373|307:308,1,120,8|0,0:0|0:0,0:0:0:0:
370,248,215102,6,0,P|426:252|469:232,1,80,0|0,0:0|0:0,0:0:0:0:
486,215,215327,1,0,0:0:0:0:
471,207,215402,2,0,P|401:208|380:218,1,80,8|0,0:0|0:0,0:0:0:0:
304,312,215702,6,0,P|248:316|205:296,1,80,0|0,0:0|0:0,0:0:0:0:
188,279,215927,1,0,0:0:0:0:
203,271,216002,2,0,P|273:272|294:282,1,80,8|0,0:0|0:0,0:0:0:0:
385,353,216302,6,0,B|396:322|396:322|383:249,1,80,4|0,0:0|0:0,0:0:0:0:
332,181,216602,2,0,L|337:78,1,80,8|0,0:0|0:0,0:0:0:0:
312,87,216827,1,0,0:0:0:0:
312,102,216902,2,0,L|307:205,1,80,0|0,0:0|0:0,0:0:0:0:
220,301,217202,6,0,L|225:198,1,80,8|0,0:0|0:0,0:0:0:0:
200,207,217427,1,0,0:0:0:0:
200,222,217502,2,0,L|195:325,1,80,0|0,0:0|0:0,0:0:0:0:
75,375,217802,6,0,L|80:272,1,80,8|0,0:0|0:0,0:0:0:0:
43,202,218102,2,0,P|22:189|3:167,3,40,0|0|0|0,0:0|0:0|0:0|0:0,0:0:0:0:
143,192,218402,2,0,P|164:179|183:157,3,40,8|0|0|0,0:0|0:0|0:0|0:0,0:0:0:0:
88,106,218702,5,0,0:0:0:0:
89,82,219002,1,0,0:0:0:0:
90,58,219302,1,0,0:0:0:0:
91,34,219602,1,0,0:0:0:0:
197,133,219902,6,0,B|293:83|285:189|389:150,1,180.000006866455,0|0,0:0|0:0,0:0:0:0:
365,267,220502,2,0,P|317:242|254:278,1,120.000004577637,0|0,0:0|0:0,0:0:0:0:
69,165,221102,6,0,B|105:151|135:157|135:157|145:164|145:164|179:172|223:152,1,143.999995605469,6|0,0:0|0:0,0:0:0:0:
310,77,221402,2,0,B|274:91|244:85|244:85|234:78|234:78|200:70|156:90,1,143.999995605469,6|0,0:0|0:0,0:0:0:0:
81,32,221702,1,6,0:0:0:0:
336,358,222302,6,0,B|350:322|344:292|344:292|337:282|337:282|329:248|349:204,1,143.999995605469,6|0,0:0|0:0,0:0:0:0:
424,117,222602,2,0,B|410:153|416:183|416:183|423:193|423:193|431:227|411:271,1,143.999995605469,6|0,0:0|0:0,0:0:0:0:
469,346,222902,1,6,0:0:0:0:
82,234,223502,6,0,B|137:257|137:257|239:229,1,143.999995605469,6|0,0:0|0:0,0:0:0:0:
218,234,223802,2,0,B|221:120|221:120|244:156,1,143.999995605469,6|0,0:0|0:0,0:0:0:0:
310,188,224102,5,2,0:0:0:0:
419,149,224252,1,8,0:0:0:0:
313,202,224402,5,2,0:0:0:0:
422,163,224552,1,8,0:0:0:0:
335,92,224702,6,0,P|269:57|196:70,1,143.999995605469,6|0,0:0|0:0,0:0:0:0:
146,141,225002,2,0,P|148:215|196:272,1,143.999995605469,6|0,0:0|0:0,0:0:0:0:
273,303,225302,1,6,0:0:0:0:
469,149,225902,6,0,L|464:88,1,40,6|0,0:0|0:0,0:0:0:0:
452,28,226052,1,0,0:0:0:0:
386,195,226202,6,0,L|381:134,1,40,6|0,0:0|0:0,0:0:0:0:
369,74,226352,1,0,0:0:0:0:
293,132,226502,6,0,P|260:133|235:126,3,40,6|0|0|0,0:0|0:0|0:0|0:0,0:0:0:0:
188,84,226802,1,0,0:0:0:0:
19,314,227102,6,0,L|24:253,1,40,6|0,0:0|0:0,0:0:0:0:
36,193,227252,1,0,0:0:0:0:
102,360,227402,6,0,L|107:299,1,40,6|0,0:0|0:0,0:0:0:0:
119,239,227552,1,0,0:0:0:0:
195,297,227702,6,0,P|228:298|253:291,3,40,6|0|0|0,0:0|0:0|0:0|0:0,0:0:0:0:
302,249,228002,1,0,0:0:0:0:
207,170,228152,1,0,0:0:0:0:
207,170,228227,1,0,0:0:0:0:
207,170,228302,6,0,B|189:110|189:110|232:40,1,132.00000402832,6|0,0:0|0:0,0:0:0:0:
317,29,228602,2,0,L|464:33,1,132.00000402832,6|0,0:0|0:0,0:0:0:0:
472,35,228902,5,2,0:0:0:0:
470,138,229052,1,8,0:0:0:0:
382,190,229202,5,2,0:0:0:0:
384,293,229352,1,8,0:0:0:0:
502,239,229502,6,0,P|479:245|452:243,3,44.0000013427735,6|0|0|0,0:0|0:0|0:0|0:0,0:0:0:0:
296,233,229802,2,0,P|273:227|246:229,3,44.0000013427735,6|0|0|0,0:0|0:0|0:0|0:0,0:0:0:0:
117,277,230102,6,0,P|94:283|67:281,8,44.0000013427735,6|0|0|0|0|0|0|0|2,0:0|0:0|0:0|0:0|0:0|0:0|0:0|0:0|0:0,0:0:0:0:
94,164,230852,5,8,3:1:0:0:
93,173,230927,1,0,0:0:0:0:
92,182,231002,1,12,3:1:0:0:
256,192,231152,12,0,235502,0:0:0:0:
