osu file format v14

[General]
AudioFilename: audio.mp3
AudioLeadIn: 0
PreviewTime: 70459
Countdown: 0
SampleSet: Soft
StackLeniency: 0.2
Mode: 0
LetterboxInBreaks: 0
EpilepsyWarning: 1
WidescreenStoryboard: 1

[Editor]
Bookmarks: 2284,15859,30259,49459,71059,90259,110659,129859,149059,170659,197059,197134,197209,197284,197359,197434,197509,197584,197659,197734,197809,197884,197959,198034,198109,198184,198259,198334,198409,198484,198559,198634,198709,198784,198859,198934,199009,199084,199159,199234,199309,199384,199459,199534,199609,199684,199759,199834,199909,199984,200059,200134,200209,200284,200359,200434,200509,200584,200659,221059,239059
DistanceSpacing: 1.4
BeatDivisor: 4
GridSize: 32
TimelineZoom: 2.200001

[Metadata]
Title:Mazare Party
TitleUnicode:Mazare Party
Artist:Camellia feat. kradness, Nanahira and yukacco
ArtistUnicode:Camellia feat. kradness, Nanahira and yukacco
Creator:ProfessionalBox
Version:the three gyas and a wew party
Source:
Tags:asahina momoko sukinathan toybot probox oriental trap jcore utaite collab collaboration
BeatmapID:1107970
BeatmapSetID:521653

[Difficulty]
HPDrainRate:6
CircleSize:4
OverallDifficulty:9
ApproachRate:9.6
SliderMultiplier:1.84
SliderTickRate:1

[Events]
//Background and Video events
0,0,"Maz.jpg",0,0
//Break Periods
2,197302,200193
//Storyboard Layer 0 (Background)
//Storyboard Layer 1 (Fail)
//Storyboard Layer 2 (Pass)
//Storyboard Layer 3 (Foreground)
Sprite,Foreground,CentreLeft,"sb\z1.png",475,368 S,0,0,,0,0.5 C,0,0,,0,0,0,192,44,27 F,0,1202,1602,0,0.75 MX,30,1202,1602,475,374 MY,30,1202,1602,368,432 MY,29,15502,15902,432,496 F,0,15702,15902,0.75,0 T,HitSound,1202,15702 F,0,0,,0.75,1 F,0,0,150,1,0.75
Sprite,Foreground,CentreLeft,"sb\z2.png",475,368 S,0,0,,0,0.5 C,0,0,,0,0,0,192,44,27 F,0,1302,1702,0,0.75 MX,30,1302,1702,475,387 MY,30,1302,1702,368,432 MY,29,15502,15902,432,496 F,0,15702,15902,0.75,0 T,HitSound,1302,15702 F,0,0,,0.75,1 F,0,0,150,1,0.75
Sprite,Foreground,CentreLeft,"sb\z3.png",475,368 S,0,0,,0,0.5 C,0,0,,0,0,0,192,44,27 F,0,1402,1802,0,0.75 MX,30,1402,1802,475,398 MY,30,1402,1802,368,432 MY,29,15502,15902,432,496 F,0,15702,15902,0.75,0 T,HitSound,1402,15702 F,0,0,,0.75,1 F,0,0,150,1,0.75
Sprite,Foreground,CentreLeft,"sb\z4.png",475,368 S,0,0,,0,0.5 C,0,0,,0,0,0,192,44,27 F,0,1502,1902,0,0.75 MX,30,1502,1902,475,407 MY,30,1502,1902,368,432 MY,29,15502,15902,432,496 F,0,15702,15902,0.75,0 T,HitSound,1502,15702 F,0,0,,0.75,1 F,0,0,150,1,0.75
Sprite,Foreground,CentreLeft,"sb\z5.png",475,368 S,0,0,,0,0.5 C,0,0,,0,0,0,192,44,27 F,0,1602,2002,0,0.75 MX,30,1602,2002,475,421 MY,30,1602,2002,368,432 MY,29,15502,15902,432,496 F,0,15702,15902,0.75,0 T,HitSound,1602,15702 F,0,0,,0.75,1 F,0,0,150,1,0.75
Sprite,Foreground,CentreLeft,"sb\z6.png",475,368 S,0,0,,0,0.5 C,0,0,,0,0,0,192,44,27 F,0,1702,2102,0,0.75 MX,30,1702,2102,475,434 MY,30,1702,2102,368,432 MY,29,15502,15902,432,496 F,0,15702,15902,0.75,0 T,HitSound,1702,15702 F,0,0,,0.75,1 F,0,0,150,1,0.75
Sprite,Foreground,CentreLeft,"sb\z6.png",475,368 S,0,0,,0,0.5 C,0,0,,0,0,0,192,44,27 F,0,1802,2202,0,0.75 MX,30,1802,2202,475,454 MY,30,1802,2202,368,432 MY,29,15502,15902,432,496 F,0,15702,15902,0.75,0 T,HitSound,1802,15702 F,0,0,,0.75,1 F,0,0,150,1,0.75
Sprite,Foreground,CentreLeft,"sb\z7.png",475,368 S,0,0,,0,0.5 C,0,0,,0,0,0,192,44,27 F,0,1902,2302,0,0.75 MX,30,1902,2302,475,473 MY,30,1902,2302,368,432 MY,29,15502,15902,432,496 F,0,15702,15902,0.75,0 T,HitSound,1902,15702 F,0,0,,0.75,1 F,0,0,150,1,0.75
Sprite,Foreground,CentreLeft,"sb\z3.png",475,368 S,0,0,,0,0.5 C,0,0,,0,0,0,192,44,27 F,0,2002,2402,0,0.75 MX,30,2002,2402,475,481 MY,30,2002,2402,368,432 MY,29,15502,15902,432,496 F,0,15702,15902,0.75,0 T,HitSound,2002,15702 F,0,0,,0.75,1 F,0,0,150,1,0.75
Sprite,Foreground,CentreLeft,"sb\z8.png",475,368 S,0,0,,0,0.5 C,0,0,,0,0,0,192,44,27 F,0,2102,2502,0,0.75 MX,30,2102,2502,475,490 MY,30,2102,2502,368,432 MY,29,15502,15902,432,496 F,0,15702,15902,0.75,0 T,HitSound,2102,15702 F,0,0,,0.75,1 F,0,0,150,1,0.75
Sprite,Foreground,CentreLeft,"sb\z9.png",475,368 S,0,0,,0,0.5 C,0,0,,0,0,0,192,44,27 F,0,2202,2602,0,0.75 MX,30,2202,2602,475,507 MY,30,2202,2602,368,432 MY,29,15502,15902,432,496 F,0,15702,15902,0.75,0 T,HitSound,2202,15702 F,0,0,,0.75,1 F,0,0,150,1,0.75
Sprite,Foreground,CentreLeft,"sb\z10.png",475,368 S,0,0,,0,0.5 C,0,0,,0,0,0,192,44,27 F,0,2302,2702,0,0.75 MX,30,2302,2702,475,526 MY,30,2302,2702,368,432 MY,29,15502,15902,432,496 F,0,15702,15902,0.75,0 T,HitSound,2302,15702 F,0,0,,0.75,1 F,0,0,150,1,0.75
Sprite,Foreground,CentreLeft,"sb\z11.png",475,368 S,0,0,,0,0.5 C,0,0,,0,0,0,192,44,27 F,0,2402,2802,0,0.75 MX,30,2402,2802,475,533 MY,30,2402,2802,368,432 MY,29,15502,15902,432,496 F,0,15702,15902,0.75,0 T,HitSound,2402,15702 F,0,0,,0.75,1 F,0,0,150,1,0.75
Sprite,Foreground,CentreLeft,"sb\z3.png",475,368 S,0,0,,0,0.5 C,0,0,,0,0,0,192,44,27 F,0,2502,2902,0,0.75 MX,30,2502,2902,475,548 MY,30,2502,2902,368,432 MY,29,15502,15902,432,496 F,0,15702,15902,0.75,0 T,HitSound,2502,15702 F,0,0,,0.75,1 F,0,0,150,1,0.75
Sprite,Foreground,CentreLeft,"sb\z12.png",475,368 S,0,0,,0,0.5 C,0,0,,0,0,0,192,44,27 F,0,2602,3002,0,0.75 MX,30,2602,3002,475,557 MY,30,2602,3002,368,432 MY,29,15502,15902,432,496 F,0,15702,15902,0.75,0 T,HitSound,2602,15702 F,0,0,,0.75,1 F,0,0,150,1,0.75
Sprite,Foreground,CentreLeft,"sb\z13.png",477,368 S,0,0,,0,0.5 C,0,0,,0,0,0,84,115,37 F,0,15902,16302,0,0.75 MX,30,15902,16302,477,378 MY,30,15902,16302,368,432 MY,29,29902,30302,432,496 F,0,30102,30302,0.75,0 T,HitSound,15902,30102 F,0,0,,0.75,1 F,0,0,150,1,0.75
Sprite,Foreground,CentreLeft,"sb\z6.png",477,368 S,0,0,,0,0.5 C,0,0,,0,0,0,84,115,37 F,0,16002,16402,0,0.75 MX,30,16002,16402,477,392 MY,30,16002,16402,368,432 MY,29,29902,30302,432,496 F,0,30102,30302,0.75,0 T,HitSound,16002,30102 F,0,0,,0.75,1 F,0,0,150,1,0.75
Sprite,Foreground,CentreLeft,"sb\z9.png",477,368 S,0,0,,0,0.5 C,0,0,,0,0,0,84,115,37 F,0,16102,16502,0,0.75 MX,30,16102,16502,477,411 MY,30,16102,16502,368,432 MY,29,29902,30302,432,496 F,0,30102,30302,0.75,0 T,HitSound,16102,30102 F,0,0,,0.75,1 F,0,0,150,1,0.75
Sprite,Foreground,CentreLeft,"sb\z14.png",477,368 S,0,0,,0,0.5 C,0,0,,0,0,0,84,115,37 F,0,16202,16602,0,0.75 MX,30,16202,16602,477,430 MY,30,16202,16602,368,432 MY,29,29902,30302,432,496 F,0,30102,30302,0.75,0 T,HitSound,16202,30102 F,0,0,,0.75,1 F,0,0,150,1,0.75
Sprite,Foreground,CentreLeft,"sb\z7.png",477,368 S,0,0,,0,0.5 C,0,0,,0,0,0,84,115,37 F,0,16302,16702,0,0.75 MX,30,16302,16702,477,441 MY,30,16302,16702,368,432 MY,29,29902,30302,432,496 F,0,30102,30302,0.75,0 T,HitSound,16302,30102 F,0,0,,0.75,1 F,0,0,150,1,0.75
Sprite,Foreground,CentreLeft,"sb\z8.png",477,368 S,0,0,,0,0.5 C,0,0,,0,0,0,84,115,37 F,0,16402,16802,0,0.75 MX,30,16402,16802,477,449 MY,30,16402,16802,368,432 MY,29,29902,30302,432,496 F,0,30102,30302,0.75,0 T,HitSound,16402,30102 F,0,0,,0.75,1 F,0,0,150,1,0.75
Sprite,Foreground,CentreLeft,"sb\z9.png",477,368 S,0,0,,0,0.5 C,0,0,,0,0,0,84,115,37 F,0,16502,16902,0,0.75 MX,30,16502,16902,477,466 MY,30,16502,16902,368,432 MY,29,29902,30302,432,496 F,0,30102,30302,0.75,0 T,HitSound,16502,30102 F,0,0,,0.75,1 F,0,0,150,1,0.75
Sprite,Foreground,CentreLeft,"sb\z15.png",477,368 S,0,0,,0,0.5 C,0,0,,0,0,0,84,115,37 F,0,16602,17002,0,0.75 MX,30,16602,17002,477,485 MY,30,16602,17002,368,432 MY,29,29902,30302,432,496 F,0,30102,30302,0.75,0 T,HitSound,16602,30102 F,0,0,,0.75,1 F,0,0,150,1,0.75
Sprite,Foreground,CentreLeft,"sb\z3.png",477,368 S,0,0,,0,0.5 C,0,0,,0,0,0,84,115,37 F,0,16702,17102,0,0.75 MX,30,16702,17102,477,514 MY,30,16702,17102,368,432 MY,29,29902,30302,432,496 F,0,30102,30302,0.75,0 T,HitSound,16702,30102 F,0,0,,0.75,1 F,0,0,150,1,0.75
Sprite,Foreground,CentreLeft,"sb\z16.png",477,368 S,0,0,,0,0.5 C,0,0,,0,0,0,84,115,37 F,0,16802,17202,0,0.75 MX,30,16802,17202,477,523 MY,30,16802,17202,368,432 MY,29,29902,30302,432,496 F,0,30102,30302,0.75,0 T,HitSound,16802,30102 F,0,0,,0.75,1 F,0,0,150,1,0.75
Sprite,Foreground,CentreLeft,"sb\z3.png",477,368 S,0,0,,0,0.5 C,0,0,,0,0,0,84,115,37 F,0,16902,17302,0,0.75 MX,30,16902,17302,477,540 MY,30,16902,17302,368,432 MY,29,29902,30302,432,496 F,0,30102,30302,0.75,0 T,HitSound,16902,30102 F,0,0,,0.75,1 F,0,0,150,1,0.75
Sprite,Foreground,CentreLeft,"sb\z17.png",477,368 S,0,0,,0,0.5 C,0,0,,0,0,0,84,115,37 F,0,17002,17402,0,0.75 MX,30,17002,17402,477,549 MY,30,17002,17402,368,432 MY,29,29902,30302,432,496 F,0,30102,30302,0.75,0 T,HitSound,17002,30102 F,0,0,,0.75,1 F,0,0,150,1,0.75
Sprite,Foreground,CentreLeft,"sb\z3.png",477,368 S,0,0,,0,0.5 C,0,0,,0,0,0,84,115,37 F,0,17102,17502,0,0.75 MX,30,17102,17502,477,567 MY,30,17102,17502,368,432 MY,29,29902,30302,432,496 F,0,30102,30302,0.75,0 T,HitSound,17102,30102 F,0,0,,0.75,1 F,0,0,150,1,0.75
Sprite,Foreground,CentreLeft,"sb\z6.png",500,368 S,0,0,,0,0.5 C,0,0,,0,0,0,26,37,168 F,0,30302,30702,0,0.75 MX,30,30302,30702,500,424 MY,30,30302,30702,368,432 MY,29,49102,49502,432,496 F,0,49302,49502,0.75,0 T,HitSound,30302,49302 F,0,0,,0.75,1 F,0,0,150,1,0.75
Sprite,Foreground,CentreLeft,"sb\z18.png",500,368 S,0,0,,0,0.5 C,0,0,,0,0,0,26,37,168 F,0,30402,30802,0,0.75 MX,30,30402,30802,500,443 MY,30,30402,30802,368,432 MY,29,49102,49502,432,496 F,0,49302,49502,0.75,0 T,HitSound,30402,49302 F,0,0,,0.75,1 F,0,0,150,1,0.75
Sprite,Foreground,CentreLeft,"sb\z17.png",500,368 S,0,0,,0,0.5 C,0,0,,0,0,0,26,37,168 F,0,30502,30902,0,0.75 MX,30,30502,30902,500,453 MY,30,30502,30902,368,432 MY,29,49102,49502,432,496 F,0,49302,49502,0.75,0 T,HitSound,30502,49302 F,0,0,,0.75,1 F,0,0,150,1,0.75
Sprite,Foreground,CentreLeft,"sb\z7.png",500,368 S,0,0,,0,0.5 C,0,0,,0,0,0,26,37,168 F,0,30602,31002,0,0.75 MX,30,30602,31002,500,472 MY,30,30602,31002,368,432 MY,29,49102,49502,432,496 F,0,49302,49502,0.75,0 T,HitSound,30602,49302 F,0,0,,0.75,1 F,0,0,150,1,0.75
Sprite,Foreground,CentreLeft,"sb\z19.png",500,368 S,0,0,,0,0.5 C,0,0,,0,0,0,26,37,168 F,0,30702,31102,0,0.75 MX,30,30702,31102,500,480 MY,30,30702,31102,368,432 MY,29,49102,49502,432,496 F,0,49302,49502,0.75,0 T,HitSound,30702,49302 F,0,0,,0.75,1 F,0,0,150,1,0.75
Sprite,Foreground,CentreLeft,"sb\z9.png",500,368 S,0,0,,0,0.5 C,0,0,,0,0,0,26,37,168 F,0,30802,31202,0,0.75 MX,30,30802,31202,500,497 MY,30,30802,31202,368,432 MY,29,49102,49502,432,496 F,0,49302,49502,0.75,0 T,HitSound,30802,49302 F,0,0,,0.75,1 F,0,0,150,1,0.75
Sprite,Foreground,CentreLeft,"sb\z20.png",500,368 S,0,0,,0,0.5 C,0,0,,0,0,0,26,37,168 F,0,30902,31302,0,0.75 MX,30,30902,31302,500,515 MY,30,30902,31302,368,432 MY,29,49102,49502,432,496 F,0,49302,49502,0.75,0 T,HitSound,30902,49302 F,0,0,,0.75,1 F,0,0,150,1,0.75
Sprite,Foreground,CentreLeft,"sb\z14.png",500,368 S,0,0,,0,0.5 C,0,0,,0,0,0,26,37,168 F,0,31002,31402,0,0.75 MX,30,31002,31402,500,529 MY,30,31002,31402,368,432 MY,29,49102,49502,432,496 F,0,49302,49502,0.75,0 T,HitSound,31002,49302 F,0,0,,0.75,1 F,0,0,150,1,0.75
Sprite,Foreground,CentreLeft,"sb\z9.png",500,368 S,0,0,,0,0.5 C,0,0,,0,0,0,26,37,168 F,0,31102,31502,0,0.75 MX,30,31102,31502,500,540 MY,30,31102,31502,368,432 MY,29,49102,49502,432,496 F,0,49302,49502,0.75,0 T,HitSound,31102,49302 F,0,0,,0.75,1 F,0,0,150,1,0.75
Sprite,Foreground,CentreLeft,"sb\z8.png",500,368 S,0,0,,0,0.5 C,0,0,,0,0,0,26,37,168 F,0,31202,31602,0,0.75 MX,30,31202,31602,500,559 MY,30,31202,31602,368,432 MY,29,49102,49502,432,496 F,0,49302,49502,0.75,0 T,HitSound,31202,49302 F,0,0,,0.75,1 F,0,0,150,1,0.75
Sprite,Foreground,CentreLeft,"sb\z1.png",475,368 S,0,0,,0,0.5 C,0,0,,0,0,0,192,44,27 F,0,49502,49902,0,0.75 MX,30,49502,49902,475,374 MY,30,49502,49902,368,432 MY,29,70702,71102,432,496 F,0,70902,71102,0.75,0 T,HitSound,49502,70902 F,0,0,,0.75,1 F,0,0,150,1,0.75
Sprite,Foreground,CentreLeft,"sb\z2.png",475,368 S,0,0,,0,0.5 C,0,0,,0,0,0,192,44,27 F,0,49602,50002,0,0.75 MX,30,49602,50002,475,387 MY,30,49602,50002,368,432 MY,29,70702,71102,432,496 F,0,70902,71102,0.75,0 T,HitSound,49602,70902 F,0,0,,0.75,1 F,0,0,150,1,0.75
Sprite,Foreground,CentreLeft,"sb\z3.png",475,368 S,0,0,,0,0.5 C,0,0,,0,0,0,192,44,27 F,0,49702,50102,0,0.75 MX,30,49702,50102,475,398 MY,30,49702,50102,368,432 MY,29,70702,71102,432,496 F,0,70902,71102,0.75,0 T,HitSound,49702,70902 F,0,0,,0.75,1 F,0,0,150,1,0.75
Sprite,Foreground,CentreLeft,"sb\z4.png",475,368 S,0,0,,0,0.5 C,0,0,,0,0,0,192,44,27 F,0,49802,50202,0,0.75 MX,30,49802,50202,475,407 MY,30,49802,50202,368,432 MY,29,70702,71102,432,496 F,0,70902,71102,0.75,0 T,HitSound,49802,70902 F,0,0,,0.75,1 F,0,0,150,1,0.75
Sprite,Foreground,CentreLeft,"sb\z5.png",475,368 S,0,0,,0,0.5 C,0,0,,0,0,0,192,44,27 F,0,49902,50302,0,0.75 MX,30,49902,50302,475,421 MY,30,49902,50302,368,432 MY,29,70702,71102,432,496 F,0,70902,71102,0.75,0 T,HitSound,49902,70902 F,0,0,,0.75,1 F,0,0,150,1,0.75
Sprite,Foreground,CentreLeft,"sb\z6.png",475,368 S,0,0,,0,0.5 C,0,0,,0,0,0,192,44,27 F,0,50002,50402,0,0.75 MX,30,50002,50402,475,434 MY,30,50002,50402,368,432 MY,29,70702,71102,432,496 F,0,70902,71102,0.75,0 T,HitSound,50002,70902 F,0,0,,0.75,1 F,0,0,150,1,0.75
Sprite,Foreground,CentreLeft,"sb\z6.png",475,368 S,0,0,,0,0.5 C,0,0,,0,0,0,192,44,27 F,0,50102,50502,0,0.75 MX,30,50102,50502,475,454 MY,30,50102,50502,368,432 MY,29,70702,71102,432,496 F,0,70902,71102,0.75,0 T,HitSound,50102,70902 F,0,0,,0.75,1 F,0,0,150,1,0.75
Sprite,Foreground,CentreLeft,"sb\z7.png",475,368 S,0,0,,0,0.5 C,0,0,,0,0,0,192,44,27 F,0,50202,50602,0,0.75 MX,30,50202,50602,475,473 MY,30,50202,50602,368,432 MY,29,70702,71102,432,496 F,0,70902,71102,0.75,0 T,HitSound,50202,70902 F,0,0,,0.75,1 F,0,0,150,1,0.75
Sprite,Foreground,CentreLeft,"sb\z3.png",475,368 S,0,0,,0,0.5 C,0,0,,0,0,0,192,44,27 F,0,50302,50702,0,0.75 MX,30,50302,50702,475,481 MY,30,50302,50702,368,432 MY,29,70702,71102,432,496 F,0,70902,71102,0.75,0 T,HitSound,50302,70902 F,0,0,,0.75,1 F,0,0,150,1,0.75
Sprite,Foreground,CentreLeft,"sb\z8.png",475,368 S,0,0,,0,0.5 C,0,0,,0,0,0,192,44,27 F,0,50402,50802,0,0.75 MX,30,50402,50802,475,490 MY,30,50402,50802,368,432 MY,29,70702,71102,432,496 F,0,70902,71102,0.75,0 T,HitSound,50402,70902 F,0,0,,0.75,1 F,0,0,150,1,0.75
Sprite,Foreground,CentreLeft,"sb\z9.png",475,368 S,0,0,,0,0.5 C,0,0,,0,0,0,192,44,27 F,0,50502,50902,0,0.75 MX,30,50502,50902,475,507 MY,30,50502,50902,368,432 MY,29,70702,71102,432,496 F,0,70902,71102,0.75,0 T,HitSound,50502,70902 F,0,0,,0.75,1 F,0,0,150,1,0.75
Sprite,Foreground,CentreLeft,"sb\z10.png",475,368 S,0,0,,0,0.5 C,0,0,,0,0,0,192,44,27 F,0,50602,51002,0,0.75 MX,30,50602,51002,475,526 MY,30,50602,51002,368,432 MY,29,70702,71102,432,496 F,0,70902,71102,0.75,0 T,HitSound,50602,70902 F,0,0,,0.75,1 F,0,0,150,1,0.75
Sprite,Foreground,CentreLeft,"sb\z11.png",475,368 S,0,0,,0,0.5 C,0,0,,0,0,0,192,44,27 F,0,50702,51102,0,0.75 MX,30,50702,51102,475,533 MY,30,50702,51102,368,432 MY,29,70702,71102,432,496 F,0,70902,71102,0.75,0 T,HitSound,50702,70902 F,0,0,,0.75,1 F,0,0,150,1,0.75
Sprite,Foreground,CentreLeft,"sb\z3.png",475,368 S,0,0,,0,0.5 C,0,0,,0,0,0,192,44,27 F,0,50802,51202,0,0.75 MX,30,50802,51202,475,548 MY,30,50802,51202,368,432 MY,29,70702,71102,432,496 F,0,70902,71102,0.75,0 T,HitSound,50802,70902 F,0,0,,0.75,1 F,0,0,150,1,0.75
Sprite,Foreground,CentreLeft,"sb\z12.png",475,368 S,0,0,,0,0.5 C,0,0,,0,0,0,192,44,27 F,0,50902,51302,0,0.75 MX,30,50902,51302,475,557 MY,30,50902,51302,368,432 MY,29,70702,71102,432,496 F,0,70902,71102,0.75,0 T,HitSound,50902,70902 F,0,0,,0.75,1 F,0,0,150,1,0.75
Sprite,Foreground,CentreLeft,"sb\z13.png",477,368 S,0,0,,0,0.5 C,0,0,,0,0,0,84,115,37 F,0,71102,71502,0,0.75 MX,30,71102,71502,477,378 MY,30,71102,71502,368,432 MY,29,89902,90302,432,496 F,0,90102,90302,0.75,0 T,HitSound,71102,90102 F,0,0,,0.75,1 F,0,0,150,1,0.75
Sprite,Foreground,CentreLeft,"sb\z6.png",477,368 S,0,0,,0,0.5 C,0,0,,0,0,0,84,115,37 F,0,71202,71602,0,0.75 MX,30,71202,71602,477,392 MY,30,71202,71602,368,432 MY,29,89902,90302,432,496 F,0,90102,90302,0.75,0 T,HitSound,71202,90102 F,0,0,,0.75,1 F,0,0,150,1,0.75
Sprite,Foreground,CentreLeft,"sb\z9.png",477,368 S,0,0,,0,0.5 C,0,0,,0,0,0,84,115,37 F,0,71302,71702,0,0.75 MX,30,71302,71702,477,411 MY,30,71302,71702,368,432 MY,29,89902,90302,432,496 F,0,90102,90302,0.75,0 T,HitSound,71302,90102 F,0,0,,0.75,1 F,0,0,150,1,0.75
Sprite,Foreground,CentreLeft,"sb\z14.png",477,368 S,0,0,,0,0.5 C,0,0,,0,0,0,84,115,37 F,0,71402,71802,0,0.75 MX,30,71402,71802,477,430 MY,30,71402,71802,368,432 MY,29,89902,90302,432,496 F,0,90102,90302,0.75,0 T,HitSound,71402,90102 F,0,0,,0.75,1 F,0,0,150,1,0.75
Sprite,Foreground,CentreLeft,"sb\z7.png",477,368 S,0,0,,0,0.5 C,0,0,,0,0,0,84,115,37 F,0,71502,71902,0,0.75 MX,30,71502,71902,477,441 MY,30,71502,71902,368,432 MY,29,89902,90302,432,496 F,0,90102,90302,0.75,0 T,HitSound,71502,90102 F,0,0,,0.75,1 F,0,0,150,1,0.75
Sprite,Foreground,CentreLeft,"sb\z8.png",477,368 S,0,0,,0,0.5 C,0,0,,0,0,0,84,115,37 F,0,71602,72002,0,0.75 MX,30,71602,72002,477,449 MY,30,71602,72002,368,432 MY,29,89902,90302,432,496 F,0,90102,90302,0.75,0 T,HitSound,71602,90102 F,0,0,,0.75,1 F,0,0,150,1,0.75
Sprite,Foreground,CentreLeft,"sb\z9.png",477,368 S,0,0,,0,0.5 C,0,0,,0,0,0,84,115,37 F,0,71702,72102,0,0.75 MX,30,71702,72102,477,466 MY,30,71702,72102,368,432 MY,29,89902,90302,432,496 F,0,90102,90302,0.75,0 T,HitSound,71702,90102 F,0,0,,0.75,1 F,0,0,150,1,0.75
Sprite,Foreground,CentreLeft,"sb\z15.png",477,368 S,0,0,,0,0.5 C,0,0,,0,0,0,84,115,37 F,0,71802,72202,0,0.75 MX,30,71802,72202,477,485 MY,30,71802,72202,368,432 MY,29,89902,90302,432,496 F,0,90102,90302,0.75,0 T,HitSound,71802,90102 F,0,0,,0.75,1 F,0,0,150,1,0.75
Sprite,Foreground,CentreLeft,"sb\z3.png",477,368 S,0,0,,0,0.5 C,0,0,,0,0,0,84,115,37 F,0,71902,72302,0,0.75 MX,30,71902,72302,477,514 MY,30,71902,72302,368,432 MY,29,89902,90302,432,496 F,0,90102,90302,0.75,0 T,HitSound,71902,90102 F,0,0,,0.75,1 F,0,0,150,1,0.75
Sprite,Foreground,CentreLeft,"sb\z16.png",477,368 S,0,0,,0,0.5 C,0,0,,0,0,0,84,115,37 F,0,72002,72402,0,0.75 MX,30,72002,72402,477,523 MY,30,72002,72402,368,432 MY,29,89902,90302,432,496 F,0,90102,90302,0.75,0 T,HitSound,72002,90102 F,0,0,,0.75,1 F,0,0,150,1,0.75
Sprite,Foreground,CentreLeft,"sb\z3.png",477,368 S,0,0,,0,0.5 C,0,0,,0,0,0,84,115,37 F,0,72102,72502,0,0.75 MX,30,72102,72502,477,540 MY,30,72102,72502,368,432 MY,29,89902,90302,432,496 F,0,90102,90302,0.75,0 T,HitSound,72102,90102 F,0,0,,0.75,1 F,0,0,150,1,0.75
Sprite,Foreground,CentreLeft,"sb\z17.png",477,368 S,0,0,,0,0.5 C,0,0,,0,0,0,84,115,37 F,0,72202,72602,0,0.75 MX,30,72202,72602,477,549 MY,30,72202,72602,368,432 MY,29,89902,90302,432,496 F,0,90102,90302,0.75,0 T,HitSound,72202,90102 F,0,0,,0.75,1 F,0,0,150,1,0.75
Sprite,Foreground,CentreLeft,"sb\z3.png",477,368 S,0,0,,0,0.5 C,0,0,,0,0,0,84,115,37 F,0,72302,72702,0,0.75 MX,30,72302,72702,477,567 MY,30,72302,72702,368,432 MY,29,89902,90302,432,496 F,0,90102,90302,0.75,0 T,HitSound,72302,90102 F,0,0,,0.75,1 F,0,0,150,1,0.75
Sprite,Foreground,CentreLeft,"sb\z6.png",500,368 S,0,0,,0,0.5 C,0,0,,0,0,0,26,37,168 F,0,90302,90702,0,0.75 MX,30,90302,90702,500,424 MY,30,90302,90702,368,432 MY,29,110302,110702,432,496 F,0,110502,110702,0.75,0 T,HitSound,90302,110502 F,0,0,,0.75,1 F,0,0,150,1,0.75
Sprite,Foreground,CentreLeft,"sb\z18.png",500,368 S,0,0,,0,0.5 C,0,0,,0,0,0,26,37,168 F,0,90402,90802,0,0.75 MX,30,90402,90802,500,443 MY,30,90402,90802,368,432 MY,29,110302,110702,432,496 F,0,110502,110702,0.75,0 T,HitSound,90402,110502 F,0,0,,0.75,1 F,0,0,150,1,0.75
Sprite,Foreground,CentreLeft,"sb\z17.png",500,368 S,0,0,,0,0.5 C,0,0,,0,0,0,26,37,168 F,0,90502,90902,0,0.75 MX,30,90502,90902,500,453 MY,30,90502,90902,368,432 MY,29,110302,110702,432,496 F,0,110502,110702,0.75,0 T,HitSound,90502,110502 F,0,0,,0.75,1 F,0,0,150,1,0.75
Sprite,Foreground,CentreLeft,"sb\z7.png",500,368 S,0,0,,0,0.5 C,0,0,,0,0,0,26,37,168 F,0,90602,91002,0,0.75 MX,30,90602,91002,500,472 MY,30,90602,91002,368,432 MY,29,110302,110702,432,496 F,0,110502,110702,0.75,0 T,HitSound,90602,110502 F,0,0,,0.75,1 F,0,0,150,1,0.75
Sprite,Foreground,CentreLeft,"sb\z19.png",500,368 S,0,0,,0,0.5 C,0,0,,0,0,0,26,37,168 F,0,90702,91102,0,0.75 MX,30,90702,91102,500,480 MY,30,90702,91102,368,432 MY,29,110302,110702,432,496 F,0,110502,110702,0.75,0 T,HitSound,90702,110502 F,0,0,,0.75,1 F,0,0,150,1,0.75
Sprite,Foreground,CentreLeft,"sb\z9.png",500,368 S,0,0,,0,0.5 C,0,0,,0,0,0,26,37,168 F,0,90802,91202,0,0.75 MX,30,90802,91202,500,497 MY,30,90802,91202,368,432 MY,29,110302,110702,432,496 F,0,110502,110702,0.75,0 T,HitSound,90802,110502 F,0,0,,0.75,1 F,0,0,150,1,0.75
Sprite,Foreground,CentreLeft,"sb\z20.png",500,368 S,0,0,,0,0.5 C,0,0,,0,0,0,26,37,168 F,0,90902,91302,0,0.75 MX,30,90902,91302,500,515 MY,30,90902,91302,368,432 MY,29,110302,110702,432,496 F,0,110502,110702,0.75,0 T,HitSound,90902,110502 F,0,0,,0.75,1 F,0,0,150,1,0.75
Sprite,Foreground,CentreLeft,"sb\z14.png",500,368 S,0,0,,0,0.5 C,0,0,,0,0,0,26,37,168 F,0,91002,91402,0,0.75 MX,30,91002,91402,500,529 MY,30,91002,91402,368,432 MY,29,110302,110702,432,496 F,0,110502,110702,0.75,0 T,HitSound,91002,110502 F,0,0,,0.75,1 F,0,0,150,1,0.75
Sprite,Foreground,CentreLeft,"sb\z9.png",500,368 S,0,0,,0,0.5 C,0,0,,0,0,0,26,37,168 F,0,91102,91502,0,0.75 MX,30,91102,91502,500,540 MY,30,91102,91502,368,432 MY,29,110302,110702,432,496 F,0,110502,110702,0.75,0 T,HitSound,91102,110502 F,0,0,,0.75,1 F,0,0,150,1,0.75
Sprite,Foreground,CentreLeft,"sb\z8.png",500,368 S,0,0,,0,0.5 C,0,0,,0,0,0,26,37,168 F,0,91202,91602,0,0.75 MX,30,91202,91602,500,559 MY,30,91202,91602,368,432 MY,29,110302,110702,432,496 F,0,110502,110702,0.75,0 T,HitSound,91202,110502 F,0,0,,0.75,1 F,0,0,150,1,0.75
Sprite,Foreground,CentreLeft,"sb\z1.png",475,368 S,0,0,,0,0.5 C,0,0,,0,0,0,192,44,27 F,0,110702,111102,0,0.75 MX,30,110702,111102,475,374 MY,30,110702,111102,368,432 MY,29,129502,129902,432,496 F,0,129702,129902,0.75,0 T,HitSound,110702,129702 F,0,0,,0.75,1 F,0,0,150,1,0.75
Sprite,Foreground,CentreLeft,"sb\z2.png",475,368 S,0,0,,0,0.5 C,0,0,,0,0,0,192,44,27 F,0,110802,111202,0,0.75 MX,30,110802,111202,475,387 MY,30,110802,111202,368,432 MY,29,129502,129902,432,496 F,0,129702,129902,0.75,0 T,HitSound,110802,129702 F,0,0,,0.75,1 F,0,0,150,1,0.75
Sprite,Foreground,CentreLeft,"sb\z3.png",475,368 S,0,0,,0,0.5 C,0,0,,0,0,0,192,44,27 F,0,110902,111302,0,0.75 MX,30,110902,111302,475,398 MY,30,110902,111302,368,432 MY,29,129502,129902,432,496 F,0,129702,129902,0.75,0 T,HitSound,110902,129702 F,0,0,,0.75,1 F,0,0,150,1,0.75
Sprite,Foreground,CentreLeft,"sb\z4.png",475,368 S,0,0,,0,0.5 C,0,0,,0,0,0,192,44,27 F,0,111002,111402,0,0.75 MX,30,111002,111402,475,407 MY,30,111002,111402,368,432 MY,29,129502,129902,432,496 F,0,129702,129902,0.75,0 T,HitSound,111002,129702 F,0,0,,0.75,1 F,0,0,150,1,0.75
Sprite,Foreground,CentreLeft,"sb\z5.png",475,368 S,0,0,,0,0.5 C,0,0,,0,0,0,192,44,27 F,0,111102,111502,0,0.75 MX,30,111102,111502,475,421 MY,30,111102,111502,368,432 MY,29,129502,129902,432,496 F,0,129702,129902,0.75,0 T,HitSound,111102,129702 F,0,0,,0.75,1 F,0,0,150,1,0.75
Sprite,Foreground,CentreLeft,"sb\z6.png",475,368 S,0,0,,0,0.5 C,0,0,,0,0,0,192,44,27 F,0,111202,111602,0,0.75 MX,30,111202,111602,475,434 MY,30,111202,111602,368,432 MY,29,129502,129902,432,496 F,0,129702,129902,0.75,0 T,HitSound,111202,129702 F,0,0,,0.75,1 F,0,0,150,1,0.75
Sprite,Foreground,CentreLeft,"sb\z6.png",475,368 S,0,0,,0,0.5 C,0,0,,0,0,0,192,44,27 F,0,111302,111702,0,0.75 MX,30,111302,111702,475,454 MY,30,111302,111702,368,432 MY,29,129502,129902,432,496 F,0,129702,129902,0.75,0 T,HitSound,111302,129702 F,0,0,,0.75,1 F,0,0,150,1,0.75
Sprite,Foreground,CentreLeft,"sb\z7.png",475,368 S,0,0,,0,0.5 C,0,0,,0,0,0,192,44,27 F,0,111402,111802,0,0.75 MX,30,111402,111802,475,473 MY,30,111402,111802,368,432 MY,29,129502,129902,432,496 F,0,129702,129902,0.75,0 T,HitSound,111402,129702 F,0,0,,0.75,1 F,0,0,150,1,0.75
Sprite,Foreground,CentreLeft,"sb\z3.png",475,368 S,0,0,,0,0.5 C,0,0,,0,0,0,192,44,27 F,0,111502,111902,0,0.75 MX,30,111502,111902,475,481 MY,30,111502,111902,368,432 MY,29,129502,129902,432,496 F,0,129702,129902,0.75,0 T,HitSound,111502,129702 F,0,0,,0.75,1 F,0,0,150,1,0.75
Sprite,Foreground,CentreLeft,"sb\z8.png",475,368 S,0,0,,0,0.5 C,0,0,,0,0,0,192,44,27 F,0,111602,112002,0,0.75 MX,30,111602,112002,475,490 MY,30,111602,112002,368,432 MY,29,129502,129902,432,496 F,0,129702,129902,0.75,0 T,HitSound,111602,129702 F,0,0,,0.75,1 F,0,0,150,1,0.75
Sprite,Foreground,CentreLeft,"sb\z9.png",475,368 S,0,0,,0,0.5 C,0,0,,0,0,0,192,44,27 F,0,111702,112102,0,0.75 MX,30,111702,112102,475,507 MY,30,111702,112102,368,432 MY,29,129502,129902,432,496 F,0,129702,129902,0.75,0 T,HitSound,111702,129702 F,0,0,,0.75,1 F,0,0,150,1,0.75
Sprite,Foreground,CentreLeft,"sb\z10.png",475,368 S,0,0,,0,0.5 C,0,0,,0,0,0,192,44,27 F,0,111802,112202,0,0.75 MX,30,111802,112202,475,526 MY,30,111802,112202,368,432 MY,29,129502,129902,432,496 F,0,129702,129902,0.75,0 T,HitSound,111802,129702 F,0,0,,0.75,1 F,0,0,150,1,0.75
Sprite,Foreground,CentreLeft,"sb\z11.png",475,368 S,0,0,,0,0.5 C,0,0,,0,0,0,192,44,27 F,0,111902,112302,0,0.75 MX,30,111902,112302,475,533 MY,30,111902,112302,368,432 MY,29,129502,129902,432,496 F,0,129702,129902,0.75,0 T,HitSound,111902,129702 F,0,0,,0.75,1 F,0,0,150,1,0.75
Sprite,Foreground,CentreLeft,"sb\z3.png",475,368 S,0,0,,0,0.5 C,0,0,,0,0,0,192,44,27 F,0,112002,112402,0,0.75 MX,30,112002,112402,475,548 MY,30,112002,112402,368,432 MY,29,129502,129902,432,496 F,0,129702,129902,0.75,0 T,HitSound,112002,129702 F,0,0,,0.75,1 F,0,0,150,1,0.75
Sprite,Foreground,CentreLeft,"sb\z12.png",475,368 S,0,0,,0,0.5 C,0,0,,0,0,0,192,44,27 F,0,112102,112502,0,0.75 MX,30,112102,112502,475,557 MY,30,112102,112502,368,432 MY,29,129502,129902,432,496 F,0,129702,129902,0.75,0 T,HitSound,112102,129702 F,0,0,,0.75,1 F,0,0,150,1,0.75
Sprite,Foreground,CentreLeft,"sb\z13.png",477,368 S,0,0,,0,0.5 C,0,0,,0,0,0,84,115,37 F,0,129902,130302,0,0.75 MX,30,129902,130302,477,378 MY,30,129902,130302,368,432 MY,29,148702,149102,432,496 F,0,148902,149102,0.75,0 T,HitSound,129902,148902 F,0,0,,0.75,1 F,0,0,150,1,0.75
Sprite,Foreground,CentreLeft,"sb\z6.png",477,368 S,0,0,,0,0.5 C,0,0,,0,0,0,84,115,37 F,0,130002,130402,0,0.75 MX,30,130002,130402,477,392 MY,30,130002,130402,368,432 MY,29,148702,149102,432,496 F,0,148902,149102,0.75,0 T,HitSound,130002,148902 F,0,0,,0.75,1 F,0,0,150,1,0.75
Sprite,Foreground,CentreLeft,"sb\z9.png",477,368 S,0,0,,0,0.5 C,0,0,,0,0,0,84,115,37 F,0,130102,130502,0,0.75 MX,30,130102,130502,477,411 MY,30,130102,130502,368,432 MY,29,148702,149102,432,496 F,0,148902,149102,0.75,0 T,HitSound,130102,148902 F,0,0,,0.75,1 F,0,0,150,1,0.75
Sprite,Foreground,CentreLeft,"sb\z14.png",477,368 S,0,0,,0,0.5 C,0,0,,0,0,0,84,115,37 F,0,130202,130602,0,0.75 MX,30,130202,130602,477,430 MY,30,130202,130602,368,432 MY,29,148702,149102,432,496 F,0,148902,149102,0.75,0 T,HitSound,130202,148902 F,0,0,,0.75,1 F,0,0,150,1,0.75
Sprite,Foreground,CentreLeft,"sb\z7.png",477,368 S,0,0,,0,0.5 C,0,0,,0,0,0,84,115,37 F,0,130302,130702,0,0.75 MX,30,130302,130702,477,441 MY,30,130302,130702,368,432 MY,29,148702,149102,432,496 F,0,148902,149102,0.75,0 T,HitSound,130302,148902 F,0,0,,0.75,1 F,0,0,150,1,0.75
Sprite,Foreground,CentreLeft,"sb\z8.png",477,368 S,0,0,,0,0.5 C,0,0,,0,0,0,84,115,37 F,0,130402,130802,0,0.75 MX,30,130402,130802,477,449 MY,30,130402,130802,368,432 MY,29,148702,149102,432,496 F,0,148902,149102,0.75,0 T,HitSound,130402,148902 F,0,0,,0.75,1 F,0,0,150,1,0.75
Sprite,Foreground,CentreLeft,"sb\z9.png",477,368 S,0,0,,0,0.5 C,0,0,,0,0,0,84,115,37 F,0,130502,130902,0,0.75 MX,30,130502,130902,477,466 MY,30,130502,130902,368,432 MY,29,148702,149102,432,496 F,0,148902,149102,0.75,0 T,HitSound,130502,148902 F,0,0,,0.75,1 F,0,0,150,1,0.75
Sprite,Foreground,CentreLeft,"sb\z15.png",477,368 S,0,0,,0,0.5 C,0,0,,0,0,0,84,115,37 F,0,130602,131002,0,0.75 MX,30,130602,131002,477,485 MY,30,130602,131002,368,432 MY,29,148702,149102,432,496 F,0,148902,149102,0.75,0 T,HitSound,130602,148902 F,0,0,,0.75,1 F,0,0,150,1,0.75
Sprite,Foreground,CentreLeft,"sb\z3.png",477,368 S,0,0,,0,0.5 C,0,0,,0,0,0,84,115,37 F,0,130702,131102,0,0.75 MX,30,130702,131102,477,514 MY,30,130702,131102,368,432 MY,29,148702,149102,432,496 F,0,148902,149102,0.75,0 T,HitSound,130702,148902 F,0,0,,0.75,1 F,0,0,150,1,0.75
Sprite,Foreground,CentreLeft,"sb\z16.png",477,368 S,0,0,,0,0.5 C,0,0,,0,0,0,84,115,37 F,0,130802,131202,0,0.75 MX,30,130802,131202,477,523 MY,30,130802,131202,368,432 MY,29,148702,149102,432,496 F,0,148902,149102,0.75,0 T,HitSound,130802,148902 F,0,0,,0.75,1 F,0,0,150,1,0.75
Sprite,Foreground,CentreLeft,"sb\z3.png",477,368 S,0,0,,0,0.5 C,0,0,,0,0,0,84,115,37 F,0,130902,131302,0,0.75 MX,30,130902,131302,477,540 MY,30,130902,131302,368,432 MY,29,148702,149102,432,496 F,0,148902,149102,0.75,0 T,HitSound,130902,148902 F,0,0,,0.75,1 F,0,0,150,1,0.75
Sprite,Foreground,CentreLeft,"sb\z17.png",477,368 S,0,0,,0,0.5 C,0,0,,0,0,0,84,115,37 F,0,131002,131402,0,0.75 MX,30,131002,131402,477,549 MY,30,131002,131402,368,432 MY,29,148702,149102,432,496 F,0,148902,149102,0.75,0 T,HitSound,131002,148902 F,0,0,,0.75,1 F,0,0,150,1,0.75
Sprite,Foreground,CentreLeft,"sb\z3.png",477,368 S,0,0,,0,0.5 C,0,0,,0,0,0,84,115,37 F,0,131102,131502,0,0.75 MX,30,131102,131502,477,567 MY,30,131102,131502,368,432 MY,29,148702,149102,432,496 F,0,148902,149102,0.75,0 T,HitSound,131102,148902 F,0,0,,0.75,1 F,0,0,150,1,0.75
Sprite,Foreground,CentreLeft,"sb\z6.png",500,368 S,0,0,,0,0.5 C,0,0,,0,0,0,26,37,168 F,0,149102,149502,0,0.75 MX,30,149102,149502,500,424 MY,30,149102,149502,368,432 MY,29,170302,170702,432,496 F,0,170502,170702,0.75,0 T,HitSound,149102,170502 F,0,0,,0.75,1 F,0,0,150,1,0.75
Sprite,Foreground,CentreLeft,"sb\z18.png",500,368 S,0,0,,0,0.5 C,0,0,,0,0,0,26,37,168 F,0,149202,149602,0,0.75 MX,30,149202,149602,500,443 MY,30,149202,149602,368,432 MY,29,170302,170702,432,496 F,0,170502,170702,0.75,0 T,HitSound,149202,170502 F,0,0,,0.75,1 F,0,0,150,1,0.75
Sprite,Foreground,CentreLeft,"sb\z17.png",500,368 S,0,0,,0,0.5 C,0,0,,0,0,0,26,37,168 F,0,149302,149702,0,0.75 MX,30,149302,149702,500,453 MY,30,149302,149702,368,432 MY,29,170302,170702,432,496 F,0,170502,170702,0.75,0 T,HitSound,149302,170502 F,0,0,,0.75,1 F,0,0,150,1,0.75
Sprite,Foreground,CentreLeft,"sb\z7.png",500,368 S,0,0,,0,0.5 C,0,0,,0,0,0,26,37,168 F,0,149402,149802,0,0.75 MX,30,149402,149802,500,472 MY,30,149402,149802,368,432 MY,29,170302,170702,432,496 F,0,170502,170702,0.75,0 T,HitSound,149402,170502 F,0,0,,0.75,1 F,0,0,150,1,0.75
Sprite,Foreground,CentreLeft,"sb\z19.png",500,368 S,0,0,,0,0.5 C,0,0,,0,0,0,26,37,168 F,0,149502,149902,0,0.75 MX,30,149502,149902,500,480 MY,30,149502,149902,368,432 MY,29,170302,170702,432,496 F,0,170502,170702,0.75,0 T,HitSound,149502,170502 F,0,0,,0.75,1 F,0,0,150,1,0.75
Sprite,Foreground,CentreLeft,"sb\z9.png",500,368 S,0,0,,0,0.5 C,0,0,,0,0,0,26,37,168 F,0,149602,150002,0,0.75 MX,30,149602,150002,500,497 MY,30,149602,150002,368,432 MY,29,170302,170702,432,496 F,0,170502,170702,0.75,0 T,HitSound,149602,170502 F,0,0,,0.75,1 F,0,0,150,1,0.75
Sprite,Foreground,CentreLeft,"sb\z20.png",500,368 S,0,0,,0,0.5 C,0,0,,0,0,0,26,37,168 F,0,149702,150102,0,0.75 MX,30,149702,150102,500,515 MY,30,149702,150102,368,432 MY,29,170302,170702,432,496 F,0,170502,170702,0.75,0 T,HitSound,149702,170502 F,0,0,,0.75,1 F,0,0,150,1,0.75
Sprite,Foreground,CentreLeft,"sb\z14.png",500,368 S,0,0,,0,0.5 C,0,0,,0,0,0,26,37,168 F,0,149802,150202,0,0.75 MX,30,149802,150202,500,529 MY,30,149802,150202,368,432 MY,29,170302,170702,432,496 F,0,170502,170702,0.75,0 T,HitSound,149802,170502 F,0,0,,0.75,1 F,0,0,150,1,0.75
Sprite,Foreground,CentreLeft,"sb\z9.png",500,368 S,0,0,,0,0.5 C,0,0,,0,0,0,26,37,168 F,0,149902,150302,0,0.75 MX,30,149902,150302,500,540 MY,30,149902,150302,368,432 MY,29,170302,170702,432,496 F,0,170502,170702,0.75,0 T,HitSound,149902,170502 F,0,0,,0.75,1 F,0,0,150,1,0.75
Sprite,Foreground,CentreLeft,"sb\z8.png",500,368 S,0,0,,0,0.5 C,0,0,,0,0,0,26,37,168 F,0,150002,150402,0,0.75 MX,30,150002,150402,500,559 MY,30,150002,150402,368,432 MY,29,170302,170702,432,496 F,0,170502,170702,0.75,0 T,HitSound,150002,170502 F,0,0,,0.75,1 F,0,0,150,1,0.75
Sprite,Foreground,CentreLeft,"sb\z1.png",475,368 S,0,0,,0,0.5 C,0,0,,0,0,0,192,44,27 F,0,170702,171102,0,0.75 MX,30,170702,171102,475,374 MY,30,170702,171102,368,432 MY,29,196702,197102,432,496 F,0,196902,197102,0.75,0 T,HitSound,170702,196902 F,0,0,,0.75,1 F,0,0,150,1,0.75
Sprite,Foreground,CentreLeft,"sb\z2.png",475,368 S,0,0,,0,0.5 C,0,0,,0,0,0,192,44,27 F,0,170802,171202,0,0.75 MX,30,170802,171202,475,387 MY,30,170802,171202,368,432 MY,29,196702,197102,432,496 F,0,196902,197102,0.75,0 T,HitSound,170802,196902 F,0,0,,0.75,1 F,0,0,150,1,0.75
Sprite,Foreground,CentreLeft,"sb\z3.png",475,368 S,0,0,,0,0.5 C,0,0,,0,0,0,192,44,27 F,0,170902,171302,0,0.75 MX,30,170902,171302,475,398 MY,30,170902,171302,368,432 MY,29,196702,197102,432,496 F,0,196902,197102,0.75,0 T,HitSound,170902,196902 F,0,0,,0.75,1 F,0,0,150,1,0.75
Sprite,Foreground,CentreLeft,"sb\z4.png",475,368 S,0,0,,0,0.5 C,0,0,,0,0,0,192,44,27 F,0,171002,171402,0,0.75 MX,30,171002,171402,475,407 MY,30,171002,171402,368,432 MY,29,196702,197102,432,496 F,0,196902,197102,0.75,0 T,HitSound,171002,196902 F,0,0,,0.75,1 F,0,0,150,1,0.75
Sprite,Foreground,CentreLeft,"sb\z5.png",475,368 S,0,0,,0,0.5 C,0,0,,0,0,0,192,44,27 F,0,171102,171502,0,0.75 MX,30,171102,171502,475,421 MY,30,171102,171502,368,432 MY,29,196702,197102,432,496 F,0,196902,197102,0.75,0 T,HitSound,171102,196902 F,0,0,,0.75,1 F,0,0,150,1,0.75
Sprite,Foreground,CentreLeft,"sb\z6.png",475,368 S,0,0,,0,0.5 C,0,0,,0,0,0,192,44,27 F,0,171202,171602,0,0.75 MX,30,171202,171602,475,434 MY,30,171202,171602,368,432 MY,29,196702,197102,432,496 F,0,196902,197102,0.75,0 T,HitSound,171202,196902 F,0,0,,0.75,1 F,0,0,150,1,0.75
Sprite,Foreground,CentreLeft,"sb\z6.png",475,368 S,0,0,,0,0.5 C,0,0,,0,0,0,192,44,27 F,0,171302,171702,0,0.75 MX,30,171302,171702,475,454 MY,30,171302,171702,368,432 MY,29,196702,197102,432,496 F,0,196902,197102,0.75,0 T,HitSound,171302,196902 F,0,0,,0.75,1 F,0,0,150,1,0.75
Sprite,Foreground,CentreLeft,"sb\z7.png",475,368 S,0,0,,0,0.5 C,0,0,,0,0,0,192,44,27 F,0,171402,171802,0,0.75 MX,30,171402,171802,475,473 MY,30,171402,171802,368,432 MY,29,196702,197102,432,496 F,0,196902,197102,0.75,0 T,HitSound,171402,196902 F,0,0,,0.75,1 F,0,0,150,1,0.75
Sprite,Foreground,CentreLeft,"sb\z3.png",475,368 S,0,0,,0,0.5 C,0,0,,0,0,0,192,44,27 F,0,171502,171902,0,0.75 MX,30,171502,171902,475,481 MY,30,171502,171902,368,432 MY,29,196702,197102,432,496 F,0,196902,197102,0.75,0 T,HitSound,171502,196902 F,0,0,,0.75,1 F,0,0,150,1,0.75
Sprite,Foreground,CentreLeft,"sb\z8.png",475,368 S,0,0,,0,0.5 C,0,0,,0,0,0,192,44,27 F,0,171602,172002,0,0.75 MX,30,171602,172002,475,490 MY,30,171602,172002,368,432 MY,29,196702,197102,432,496 F,0,196902,197102,0.75,0 T,HitSound,171602,196902 F,0,0,,0.75,1 F,0,0,150,1,0.75
Sprite,Foreground,CentreLeft,"sb\z9.png",475,368 S,0,0,,0,0.5 C,0,0,,0,0,0,192,44,27 F,0,171702,172102,0,0.75 MX,30,171702,172102,475,507 MY,30,171702,172102,368,432 MY,29,196702,197102,432,496 F,0,196902,197102,0.75,0 T,HitSound,171702,196902 F,0,0,,0.75,1 F,0,0,150,1,0.75
Sprite,Foreground,CentreLeft,"sb\z10.png",475,368 S,0,0,,0,0.5 C,0,0,,0,0,0,192,44,27 F,0,171802,172202,0,0.75 MX,30,171802,172202,475,526 MY,30,171802,172202,368,432 MY,29,196702,197102,432,496 F,0,196902,197102,0.75,0 T,HitSound,171802,196902 F,0,0,,0.75,1 F,0,0,150,1,0.75
Sprite,Foreground,CentreLeft,"sb\z11.png",475,368 S,0,0,,0,0.5 C,0,0,,0,0,0,192,44,27 F,0,171902,172302,0,0.75 MX,30,171902,172302,475,533 MY,30,171902,172302,368,432 MY,29,196702,197102,432,496 F,0,196902,197102,0.75,0 T,HitSound,171902,196902 F,0,0,,0.75,1 F,0,0,150,1,0.75
Sprite,Foreground,CentreLeft,"sb\z3.png",475,368 S,0,0,,0,0.5 C,0,0,,0,0,0,192,44,27 F,0,172002,172402,0,0.75 MX,30,172002,172402,475,548 MY,30,172002,172402,368,432 MY,29,196702,197102,432,496 F,0,196902,197102,0.75,0 T,HitSound,172002,196902 F,0,0,,0.75,1 F,0,0,150,1,0.75
Sprite,Foreground,CentreLeft,"sb\z12.png",475,368 S,0,0,,0,0.5 C,0,0,,0,0,0,192,44,27 F,0,172102,172502,0,0.75 MX,30,172102,172502,475,557 MY,30,172102,172502,368,432 MY,29,196702,197102,432,496 F,0,196902,197102,0.75,0 T,HitSound,172102,196902 F,0,0,,0.75,1 F,0,0,150,1,0.75
Sprite,Foreground,CentreLeft,"sb\z13.png",477,368 S,0,0,,0,0.5 C,0,0,,0,0,0,84,115,37 F,0,200659,201059,0,0.75 MX,30,200659,201059,477,378 MY,30,200659,201059,368,432 MY,29,220702,221102,432,496 F,0,220902,221102,0.75,0 T,HitSound,200659,220902 F,0,0,,0.75,1 F,0,0,150,1,0.75
Sprite,Foreground,CentreLeft,"sb\z6.png",477,368 S,0,0,,0,0.5 C,0,0,,0,0,0,84,115,37 F,0,200759,201159,0,0.75 MX,30,200759,201159,477,392 MY,30,200759,201159,368,432 MY,29,220702,221102,432,496 F,0,220902,221102,0.75,0 T,HitSound,200759,220902 F,0,0,,0.75,1 F,0,0,150,1,0.75
Sprite,Foreground,CentreLeft,"sb\z9.png",477,368 S,0,0,,0,0.5 C,0,0,,0,0,0,84,115,37 F,0,200859,201259,0,0.75 MX,30,200859,201259,477,411 MY,30,200859,201259,368,432 MY,29,220702,221102,432,496 F,0,220902,221102,0.75,0 T,HitSound,200859,220902 F,0,0,,0.75,1 F,0,0,150,1,0.75
Sprite,Foreground,CentreLeft,"sb\z14.png",477,368 S,0,0,,0,0.5 C,0,0,,0,0,0,84,115,37 F,0,200959,201359,0,0.75 MX,30,200959,201359,477,430 MY,30,200959,201359,368,432 MY,29,220702,221102,432,496 F,0,220902,221102,0.75,0 T,HitSound,200959,220902 F,0,0,,0.75,1 F,0,0,150,1,0.75
Sprite,Foreground,CentreLeft,"sb\z7.png",477,368 S,0,0,,0,0.5 C,0,0,,0,0,0,84,115,37 F,0,201059,201459,0,0.75 MX,30,201059,201459,477,441 MY,30,201059,201459,368,432 MY,29,220702,221102,432,496 F,0,220902,221102,0.75,0 T,HitSound,201059,220902 F,0,0,,0.75,1 F,0,0,150,1,0.75
Sprite,Foreground,CentreLeft,"sb\z8.png",477,368 S,0,0,,0,0.5 C,0,0,,0,0,0,84,115,37 F,0,201159,201559,0,0.75 MX,30,201159,201559,477,449 MY,30,201159,201559,368,432 MY,29,220702,221102,432,496 F,0,220902,221102,0.75,0 T,HitSound,201159,220902 F,0,0,,0.75,1 F,0,0,150,1,0.75
Sprite,Foreground,CentreLeft,"sb\z9.png",477,368 S,0,0,,0,0.5 C,0,0,,0,0,0,84,115,37 F,0,201259,201659,0,0.75 MX,30,201259,201659,477,466 MY,30,201259,201659,368,432 MY,29,220702,221102,432,496 F,0,220902,221102,0.75,0 T,HitSound,201259,220902 F,0,0,,0.75,1 F,0,0,150,1,0.75
Sprite,Foreground,CentreLeft,"sb\z15.png",477,368 S,0,0,,0,0.5 C,0,0,,0,0,0,84,115,37 F,0,201359,201759,0,0.75 MX,30,201359,201759,477,485 MY,30,201359,201759,368,432 MY,29,220702,221102,432,496 F,0,220902,221102,0.75,0 T,HitSound,201359,220902 F,0,0,,0.75,1 F,0,0,150,1,0.75
Sprite,Foreground,CentreLeft,"sb\z3.png",477,368 S,0,0,,0,0.5 C,0,0,,0,0,0,84,115,37 F,0,201459,201859,0,0.75 MX,30,201459,201859,477,514 MY,30,201459,201859,368,432 MY,29,220702,221102,432,496 F,0,220902,221102,0.75,0 T,HitSound,201459,220902 F,0,0,,0.75,1 F,0,0,150,1,0.75
Sprite,Foreground,CentreLeft,"sb\z16.png",477,368 S,0,0,,0,0.5 C,0,0,,0,0,0,84,115,37 F,0,201559,201959,0,0.75 MX,30,201559,201959,477,523 MY,30,201559,201959,368,432 MY,29,220702,221102,432,496 F,0,220902,221102,0.75,0 T,HitSound,201559,220902 F,0,0,,0.75,1 F,0,0,150,1,0.75
Sprite,Foreground,CentreLeft,"sb\z3.png",477,368 S,0,0,,0,0.5 C,0,0,,0,0,0,84,115,37 F,0,201659,202059,0,0.75 MX,30,201659,202059,477,540 MY,30,201659,202059,368,432 MY,29,220702,221102,432,496 F,0,220902,221102,0.75,0 T,HitSound,201659,220902 F,0,0,,0.75,1 F,0,0,150,1,0.75
Sprite,Foreground,CentreLeft,"sb\z17.png",477,368 S,0,0,,0,0.5 C,0,0,,0,0,0,84,115,37 F,0,201759,202159,0,0.75 MX,30,201759,202159,477,549 MY,30,201759,202159,368,432 MY,29,220702,221102,432,496 F,0,220902,221102,0.75,0 T,HitSound,201759,220902 F,0,0,,0.75,1 F,0,0,150,1,0.75
Sprite,Foreground,CentreLeft,"sb\z3.png",477,368 S,0,0,,0,0.5 C,0,0,,0,0,0,84,115,37 F,0,201859,202259,0,0.75 MX,30,201859,202259,477,567 MY,30,201859,202259,368,432 MY,29,220702,221102,432,496 F,0,220902,221102,0.75,0 T,HitSound,201859,220902 F,0,0,,0.75,1 F,0,0,150,1,0.75
Sprite,Foreground,CentreLeft,"sb\z6.png",500,368 S,0,0,,0,0.5 C,0,0,,0,0,0,26,37,168 F,0,221102,221502,0,0.75 MX,30,221102,221502,500,424 MY,30,221102,221502,368,432 MY,29,236302,236702,432,496 F,0,236502,236702,0.75,0 T,HitSound,221102,236502 F,0,0,,0.75,1 F,0,0,150,1,0.75
Sprite,Foreground,CentreLeft,"sb\z18.png",500,368 S,0,0,,0,0.5 C,0,0,,0,0,0,26,37,168 F,0,221202,221602,0,0.75 MX,30,221202,221602,500,443 MY,30,221202,221602,368,432 MY,29,236302,236702,432,496 F,0,236502,236702,0.75,0 T,HitSound,221202,236502 F,0,0,,0.75,1 F,0,0,150,1,0.75
Sprite,Foreground,CentreLeft,"sb\z17.png",500,368 S,0,0,,0,0.5 C,0,0,,0,0,0,26,37,168 F,0,221302,221702,0,0.75 MX,30,221302,221702,500,453 MY,30,221302,221702,368,432 MY,29,236302,236702,432,496 F,0,236502,236702,0.75,0 T,HitSound,221302,236502 F,0,0,,0.75,1 F,0,0,150,1,0.75
Sprite,Foreground,CentreLeft,"sb\z7.png",500,368 S,0,0,,0,0.5 C,0,0,,0,0,0,26,37,168 F,0,221402,221802,0,0.75 MX,30,221402,221802,500,472 MY,30,221402,221802,368,432 MY,29,236302,236702,432,496 F,0,236502,236702,0.75,0 T,HitSound,221402,236502 F,0,0,,0.75,1 F,0,0,150,1,0.75
Sprite,Foreground,CentreLeft,"sb\z19.png",500,368 S,0,0,,0,0.5 C,0,0,,0,0,0,26,37,168 F,0,221502,221902,0,0.75 MX,30,221502,221902,500,480 MY,30,221502,221902,368,432 MY,29,236302,236702,432,496 F,0,236502,236702,0.75,0 T,HitSound,221502,236502 F,0,0,,0.75,1 F,0,0,150,1,0.75
Sprite,Foreground,CentreLeft,"sb\z9.png",500,368 S,0,0,,0,0.5 C,0,0,,0,0,0,26,37,168 F,0,221602,222002,0,0.75 MX,30,221602,222002,500,497 MY,30,221602,222002,368,432 MY,29,236302,236702,432,496 F,0,236502,236702,0.75,0 T,HitSound,221602,236502 F,0,0,,0.75,1 F,0,0,150,1,0.75
Sprite,Foreground,CentreLeft,"sb\z20.png",500,368 S,0,0,,0,0.5 C,0,0,,0,0,0,26,37,168 F,0,221702,222102,0,0.75 MX,30,221702,222102,500,515 MY,30,221702,222102,368,432 MY,29,236302,236702,432,496 F,0,236502,236702,0.75,0 T,HitSound,221702,236502 F,0,0,,0.75,1 F,0,0,150,1,0.75
Sprite,Foreground,CentreLeft,"sb\z14.png",500,368 S,0,0,,0,0.5 C,0,0,,0,0,0,26,37,168 F,0,221802,222202,0,0.75 MX,30,221802,222202,500,529 MY,30,221802,222202,368,432 MY,29,236302,236702,432,496 F,0,236502,236702,0.75,0 T,HitSound,221802,236502 F,0,0,,0.75,1 F,0,0,150,1,0.75
Sprite,Foreground,CentreLeft,"sb\z9.png",500,368 S,0,0,,0,0.5 C,0,0,,0,0,0,26,37,168 F,0,221902,222302,0,0.75 MX,30,221902,222302,500,540 MY,30,221902,222302,368,432 MY,29,236302,236702,432,496 F,0,236502,236702,0.75,0 T,HitSound,221902,236502 F,0,0,,0.75,1 F,0,0,150,1,0.75
Sprite,Foreground,CentreLeft,"sb\z8.png",500,368 S,0,0,,0,0.5 C,0,0,,0,0,0,26,37,168 F,0,222002,222402,0,0.75 MX,30,222002,222402,500,559 MY,30,222002,222402,368,432 MY,29,236302,236702,432,496 F,0,236502,236702,0.75,0 T,HitSound,222002,236502 F,0,0,,0.75,1 F,0,0,150,1,0.75
//Storyboard Sound Samples

[TimingPoints]
302,300,4,2,1,30,1,0
1202,-153.846153846153,4,2,1,30,0,0
1502,-200,4,2,1,30,0,0
3752,-200,4,2,1,10,0,0
3902,-166.666666666667,4,2,1,30,0,0
5102,-100,4,2,1,50,0,0
5702,-100,4,3,1,50,0,0
6302,-83.3333333333333,4,2,1,50,0,1
6902,-100,4,2,1,50,0,1
7502,-83.3333333333333,4,2,1,50,0,1
8102,-100,4,2,1,50,0,1
9002,-83.3333333333333,4,2,1,50,0,1
9302,-100,4,2,1,50,0,1
9902,-100,4,3,1,50,0,1
11102,-83.3333333333333,4,2,1,50,0,0
12302,-100,4,2,1,50,0,0
15302,-166.666666666667,4,2,1,50,0,0
15902,-76.9230769230769,4,1,1,60,0,1
24302,-166.666666666667,4,1,1,60,0,1
24602,-100,4,1,1,60,0,1
24902,-71.4285714285714,4,1,1,60,0,1
25202,-100,4,1,1,60,0,1
25502,-100,4,2,1,40,0,0
27302,-83.3333333333333,4,2,1,40,0,0
27602,-71.4285714285714,4,2,1,40,0,0
28502,-71.4285714285714,4,2,1,50,0,0
29102,-100,4,2,1,50,0,0
29252,-100,4,2,1,40,0,0
30302,-100,4,1,1,70,0,0
38852,-100,4,3,1,60,0,0
39302,-200,4,3,1,50,0,0
39902,-100,4,1,1,60,0,0
47102,-71.4285714285714,4,1,1,60,0,0
48302,-133.333333333333,4,1,1,60,0,0
48602,-95.2380952380952,4,1,1,60,0,0
48902,-71.4285714285714,4,1,1,60,0,0
49802,-90.9090909090909,4,1,1,60,0,0
51302,-76.9230769230769,4,1,1,60,0,0
52202,-90.9090909090909,4,1,1,60,0,0
53102,-83.3333333333333,4,1,1,60,0,0
53402,-90.9090909090909,4,1,1,60,0,0
54302,-90.9090909090909,4,3,1,60,0,0
56702,-125,4,2,1,40,0,0
58652,-100,4,2,1,40,0,0
59102,-100,4,2,1,50,0,0
59702,-83.3333333333333,4,2,1,50,0,0
60002,-71.4285714285714,4,2,1,50,0,0
60302,-100,4,2,1,50,0,0
60752,-76.9230769230769,4,2,1,50,0,0
60902,-83.3333333333333,4,2,1,50,0,0
61502,-100,4,2,1,50,0,0
62102,-83.3333333333333,4,2,1,50,0,0
62402,-71.4285714285714,4,2,1,50,0,0
63602,-83.3333333333333,4,2,1,50,0,0
64802,-71.4285714285714,4,2,1,50,0,0
65102,-100,4,2,1,50,0,0
65702,-83.3333333333333,4,2,1,50,0,0
66302,-100,4,2,1,50,0,0
68702,-133.333333333333,4,2,1,50,0,0
69302,-133.333333333333,4,2,1,30,0,0
69602,-133.333333333333,4,2,1,40,0,0
69902,-83.3333333333333,4,2,1,50,0,0
70502,-83.3333333333333,4,2,1,60,0,0
71102,-83.3333333333333,4,1,1,60,0,0
71702,-100,4,1,1,50,0,0
72302,-83.3333333333333,4,1,1,50,0,0
72902,-100,4,1,1,50,0,0
73502,-83.3333333333333,4,1,1,50,0,0
74702,-83.3333333333333,4,3,1,60,0,0
75902,-83.3333333333333,4,1,1,70,0,1
87902,-133.333333333333,4,2,1,50,0,0
88127,-133.333333333333,4,2,1,20,0,0
88202,-133.333333333333,4,2,1,50,0,0
88427,-133.333333333333,4,2,1,20,0,0
88502,-133.333333333333,4,2,1,50,0,0
88727,-133.333333333333,4,2,1,20,0,0
88802,-133.333333333333,4,2,1,50,0,0
89027,-133.333333333333,4,2,1,20,0,0
89102,-133.333333333333,4,2,1,50,0,0
89327,-133.333333333333,4,2,1,20,0,0
89402,-133.333333333333,4,2,1,50,0,0
89927,-133.333333333333,4,2,1,20,0,0
90002,-133.333333333333,4,2,1,50,0,0
90227,-133.333333333333,4,2,1,20,0,0
90302,-76.9230769230769,4,1,1,60,0,1
98702,-166.666666666667,4,1,1,60,0,1
99002,-100,4,1,1,60,0,1
99302,-71.4285714285714,4,1,1,60,0,1
99902,-166.666666666667,4,1,1,60,0,0
101102,-166.666666666667,4,2,1,30,0,0
102902,-125,4,2,1,30,0,0
103502,-100,4,2,1,30,0,0
104702,-100,4,2,1,40,0,0
105602,-83.3333333333333,4,2,1,50,0,0
105902,-83.3333333333333,4,1,1,50,0,0
108302,-83.3333333333333,4,1,1,60,0,0
109202,-50,4,2,1,50,0,0
110102,-66.6666666666667,4,2,1,50,0,0
110402,-55.5555555555556,4,2,1,50,0,0
110702,-83.3333333333333,4,1,1,70,0,0
118202,-55.5555555555556,4,1,1,70,0,0
118502,-76.9230769230769,4,1,1,70,0,0
118802,-55.5555555555556,4,1,1,70,0,0
119102,-83.3333333333333,4,3,1,60,0,0
120302,-76.9230769230769,4,1,1,70,0,0
128702,-76.9230769230769,4,3,1,50,0,0
129902,-100,4,1,1,50,0,0
130502,-71.4285714285714,4,1,1,50,0,0
130652,-100,4,1,1,50,0,0
131702,-71.4285714285714,4,1,1,50,0,0
132302,-100,4,1,1,50,0,0
132902,-71.4285714285714,4,1,1,50,0,0
133052,-100,4,1,1,50,0,0
134102,-71.4285714285714,4,1,1,50,0,0
134702,-100,4,1,1,50,0,0
135302,-71.4285714285714,4,1,1,50,0,0
135452,-100,4,1,1,50,0,0
136502,-71.4285714285714,4,1,1,50,0,0
136652,-100,4,1,1,50,0,0
137102,-71.4285714285714,4,1,1,50,0,0
138302,-100,4,1,1,50,0,0
138902,-125,4,1,1,50,0,0
139502,-83.3333333333333,4,1,1,60,0,0
141452,-66.6666666666667,4,1,1,60,0,0
141902,-83.3333333333333,4,1,1,60,0,0
143702,-66.6666666666667,4,1,1,60,0,0
144302,-83.3333333333333,4,3,1,50,0,0
146702,-125,4,2,1,40,0,0
146927,-125,4,2,1,20,0,0
147002,-125,4,2,1,40,0,0
147377,-125,4,2,1,20,0,0
147452,-125,4,2,1,40,0,0
147827,-125,4,2,1,20,0,0
147902,-125,4,2,1,40,0,0
149102,-100,4,2,1,50,0,0
149702,-83.3333333333333,4,2,1,50,0,0
150002,-71.4285714285714,4,2,1,50,0,0
150302,-100,4,2,1,50,0,0
150902,-83.3333333333333,4,2,1,50,0,0
151502,-100,4,2,1,50,0,0
152102,-83.3333333333333,4,2,1,50,0,0
152402,-71.4285714285714,4,2,1,50,0,0
153602,-100,4,2,1,50,0,0
154502,-83.3333333333333,4,2,1,50,0,0
154802,-71.4285714285714,4,2,1,50,0,0
156302,-100,4,2,1,50,0,0
158702,-133.333333333333,4,2,1,50,0,0
159302,-133.333333333333,4,2,1,30,0,0
159602,-133.333333333333,4,2,1,40,0,0
159902,-83.3333333333333,4,2,1,50,0,0
161102,-83.3333333333333,4,1,1,60,0,1
161702,-100,4,1,1,60,0,1
162302,-83.3333333333333,4,1,1,60,0,1
162902,-100,4,1,1,60,0,1
163802,-83.3333333333333,4,1,1,60,0,1
164702,-83.3333333333333,4,3,1,60,0,0
165902,-83.3333333333333,4,1,1,70,0,1
177902,-125,4,2,1,50,0,0
178127,-125,4,2,1,20,0,0
178202,-125,4,2,1,50,0,0
178427,-125,4,2,1,20,0,0
178502,-125,4,2,1,50,0,0
178727,-125,4,2,1,20,0,0
178802,-125,4,2,1,50,0,0
179027,-125,4,2,1,20,0,0
179102,-125,4,2,1,50,0,0
182702,-125,4,2,1,40,0,0
183602,-125,4,2,1,20,0,0
184502,-125,4,2,1,5,0,0
184802,-166.666666666667,4,2,1,30,0,0
186002,-111.111111111111,4,2,1,30,0,0
186902,-142.857142857143,4,2,1,30,0,0
188402,-111.111111111111,4,2,1,30,0,0
189902,-166.666666666667,4,2,1,30,0,0
190802,-111.111111111111,4,2,1,30,0,0
191702,-142.857142857143,4,2,1,30,0,0
194702,-142.857142857143,4,2,1,20,0,0
196052,-142.857142857143,4,2,1,10,0,0
197102,-142.857142857143,4,2,1,5,0,0
200702,-100,4,2,1,50,0,0
201902,-83.3333333333333,4,1,1,60,0,1
202427,-83.3333333333333,4,1,1,20,0,1
202502,-100,4,1,1,60,0,1
203102,-83.3333333333333,4,1,1,60,0,1
203627,-83.3333333333333,4,1,1,20,0,1
203702,-100,4,1,1,60,0,1
204602,-71.4285714285714,4,1,1,60,0,1
204827,-71.4285714285714,4,1,1,20,0,1
204902,-100,4,1,1,60,0,1
205202,-71.4285714285714,4,1,1,60,0,1
205427,-71.4285714285714,4,1,1,20,0,1
205502,-71.4285714285714,4,3,1,60,0,0
206702,-83.3333333333333,4,1,1,70,0,1
214127,-83.3333333333333,4,1,1,30,0,1
214202,-83.3333333333333,4,1,1,70,0,1
215027,-83.3333333333333,4,1,1,30,0,1
215102,-83.3333333333333,4,1,1,70,0,1
218702,-83.3333333333333,4,2,1,40,0,0
219902,-133.333333333333,4,2,1,40,0,0
221102,-71.4285714285714,4,1,1,60,0,1
225602,-100,4,1,1,60,0,1
225902,-71.4285714285714,4,1,1,60,0,1
229502,-142.857142857143,4,1,1,60,0,1
229802,-90.9090909090909,4,1,1,60,0,1
230102,-66.6666666666667,4,1,1,60,0,1
231002,-66.6666666666667,4,1,1,60,0,0
233102,-66.6666666666667,4,1,1,40,0,0
234302,-66.6666666666667,4,1,1,30,0,0
235502,-66.6666666666667,4,1,1,20,0,0
236102,-66.6666666666667,4,1,1,10,0,0
236702,-66.6666666666667,4,2,1,5,0,0

[Colours]
Combo1 : 40,255,213
Combo2 : 250,33,71
Combo3 : 255,111,172
Combo4 : 102,231,253
Combo5 : 254,210,129
Combo6 : 156,255,132
Combo7 : 210,94,255
Combo8 : 255,151,106

[HitObjects]
404,193,1202,6,0,L|456:187,1,29.8999986312867,2|0,0:0|0:0,0:0:0:0:
512,175,1352,1,8,0:0:0:0:
297,102,1502,6,0,B|251:63|327:-18|391:131|299:202|299:202|253:149|186:175|186:175|244:238|202:323|202:323|187:300|159:292|159:292|114:331|53:303,1,690,8|0,0:0|0:0,0:0:0:0:
105,39,3902,6,0,B|102:108|98:212|98:212|74:180|46:172|46:172|122:136|105:211|202:169,1,386.399988208008
336,91,5102,5,0,3:0:0:0:
332,63,5402,1,0,3:0:0:0:
41,358,5702,5,0,0:0:0:0:
43,325,5777,1,0,0:0:0:0:
45,292,5852,1,0,0:0:0:0:
47,259,5927,1,0,0:0:0:0:
49,226,6002,1,0,0:0:0:0:
52,193,6077,1,0,0:0:0:0:
55,160,6152,1,0,0:0:0:0:
284,372,6302,6,0,B|242:343|235:283|235:283|197:340|133:348,1,220.799993261719,4|0,0:0|0:0,0:0:0:0:
41,358,6752,1,0,0:0:0:0:
343,280,6902,6,0,P|390:286|475:288,1,92
128,223,7202,2,0,P|81:229|-4:231,1,92
247,27,7502,6,0,B|303:46|321:106|321:106|354:44|451:42,1,220.799993261719,4|0,0:0|0:0,0:0:0:0:
310,201,7952,1,0,0:0:0:0:
79,117,8102,6,0,L|83:25,1,92
422,257,8402,2,0,L|417:165,1,92
80,325,8702,1,0,0:0:0:0:
90,311,9002,6,0,P|153:284|243:335,1,165.599994946289,4|0,0:0|0:0,0:0:0:0:
253,351,9302,6,0,P|249:300|247:232,1,92
246,16,9602,2,0,P|249:66|252:135,1,92
158,378,9902,5,8,0:0:0:0:
394,220,10052,1,0,0:0:0:0:
425,226,10127,1,0,0:0:0:0:
456,231,10202,1,8,0:0:0:0:
255,95,10352,5,0,0:0:0:0:
347,293,10502,1,8,0:0:0:0:
385,29,10652,1,0,0:0:0:0:
284,363,10802,1,8,0:0:0:0:
33,140,10952,1,0,0:0:0:0:
512,125,11102,6,0,P|427:118|322:109,1,165.599994946289,4|0,0:0|0:0,0:0:0:0:
255,95,11402,5,2,0:0:0:0:
258,120,11702,1,2,0:0:0:0:
91,365,12002,5,0,0:0:0:0:
91,365,12152,1,0,0:0:0:0:
22,273,12302,2,0,P|74:272|155:265,1,92
352,350,12602,2,0,P|280:355|226:314,1,138,2|0,0:0|0:0,0:0:0:0:
195,241,12902,6,0,L|200:142,1,92,2|0,0:0|0:0,0:0:0:0:
465,289,13202,2,0,L|470:388,1,92
457,185,13502,5,8,0:0:0:0:
352,350,13652,1,0,0:0:0:0:
267,149,13802,1,8,0:0:0:0:
353,376,13952,1,0,0:0:0:0:
512,95,14102,5,8,0:0:0:0:
475,76,14177,1,0,0:0:0:0:
433,77,14252,1,0,0:0:0:0:
395,95,14327,1,0,0:0:0:0:
365,135,14402,5,8,0:0:0:0:
318,154,14477,1,0,0:0:0:0:
267,149,14552,1,0,0:0:0:0:
222,124,14627,1,0,0:0:0:0:
200,77,14702,5,2,0:0:0:0:
200,77,15002,1,0,0:0:0:0:
48,232,15152,5,0,0:0:0:0:
62,237,15227,1,0,0:0:0:0:
72,239,15302,2,0,B|138:250|200:217|200:217|159:247|153:278,1,193.199994104004,2|0,0:0|0:0,0:0:0:0:
248,291,15902,6,0,P|297:323|390:245,1,179.39999178772,6|0,0:0|0:0,0:0:0:0:
311,244,16202,2,0,P|314:303|433:330,1,179.39999178772,2|0,0:0|0:0,0:0:0:0:
387,265,16502,1,2,0:0:0:0:
205,198,17102,6,0,P|155:230|62:152,1,179.39999178772,6|0,0:0|0:0,0:0:0:0:
142,151,17402,2,0,P|138:210|19:237,1,179.39999178772,2|0,0:0|0:0,0:0:0:0:
65,172,17702,1,2,0:0:0:0:
279,106,18302,6,0,P|328:138|421:60,1,179.39999178772,6|0,0:0|0:0,0:0:0:0:
342,59,18602,2,0,P|345:118|464:145,1,179.39999178772,2|0,0:0|0:0,0:0:0:0:
418,80,18902,5,2,0:0:0:0:
360,291,19052,1,8,0:0:0:0:
207,136,19202,1,0,0:0:0:0:
430,75,19352,1,8,0:0:0:0:
371,301,19502,6,0,P|294:304|265:187,1,179.39999178772,6|0,0:0|0:0,0:0:0:0:
157,289,19802,2,0,B|104:345|25:319|25:319|30:322|61:349,1,179.39999178772,2|0,0:0|0:0,0:0:0:0:
77,232,20102,1,2,0:0:0:0:
77,232,20702,6,0,B|44:259|44:259|203:239,1,179.39999178772,6|0,0:0|0:0,0:0:0:0:
283,233,21002,2,0,B|147:215|147:215|180:242,1,179.39999178772,2|0,0:0|0:0,0:0:0:0:
253,310,21302,1,2,0:0:0:0:
420,70,21902,6,0,B|453:97|453:97|294:77,1,179.39999178772,6|0,0:0|0:0,0:0:0:0:
215,69,22202,2,0,B|351:52|351:52|318:79,1,179.39999178772,2|0,0:0|0:0,0:0:0:0:
244,148,22502,1,2,0:0:0:0:
239,207,22952,2,0,L|244:142,1,59.7999972625734,8|0,0:0|0:0,0:0:0:0:
215,69,23102,6,0,B|351:52|351:52|318:79,1,179.39999178772,6|0,0:0|0:0,0:0:0:0:
240,220,23402,2,0,B|104:203|104:203|137:230,1,179.39999178772,2|0,0:0|0:0,0:0:0:0:
242,341,23702,5,2,0:0:0:0:
439,287,23852,1,8,0:0:0:0:
264,294,24002,1,2,0:0:0:0:
429,339,24152,1,8,0:0:0:0:
395,169,24302,6,0,L|383:150,6,13.7999995788574,6|0|0|0|0|0|0,0:0|0:0|0:0|0:0|0:0|0:0|0:0,0:0:0:0:
329,94,24602,6,0,L|315:119,6,23,2|0|0|0|0|0|0,0:0|0:0|0:0|0:0|0:0|0:0|0:0,0:0:0:0:
284,196,24902,6,0,L|317:193,6,32.199999017334,2|0|0|0|0|0|0,0:0|0:0|0:0|0:0|0:0|0:0|0:0,0:0:0:0:
337,194,25202,6,0,L|219:182,1,92
144,173,25502,1,4,0:0:0:0:
97,288,25802,6,0,L|215:276,1,92,8|0,0:0|0:0,0:0:0:0:
290,267,26102,1,0,0:0:0:0:
348,378,26402,6,0,L|230:366,1,92,8|0,0:0|0:0,0:0:0:0:
155,357,26702,1,8,0:0:0:0:
91,91,27002,1,8,0:0:0:0:
357,27,27302,1,8,0:0:0:0:
421,293,27602,1,8,0:0:0:0:
260,240,27902,5,0,0:0:0:0:
259,236,27977,1,0,0:0:0:0:
258,231,28052,1,0,0:0:0:0:
258,227,28127,1,0,0:0:0:0:
257,222,28202,1,0,0:0:0:0:
256,218,28277,1,0,0:0:0:0:
256,213,28352,1,0,0:0:0:0:
255,209,28427,1,0,0:0:0:0:
224,181,28502,5,0,0:0:0:0:
270,173,28577,1,0,0:0:0:0:
302,138,28652,1,0,0:0:0:0:
307,91,28727,1,0,0:0:0:0:
282,50,28802,1,0,0:0:0:0:
238,33,28877,1,0,0:0:0:0:
192,46,28952,1,0,0:0:0:0:
164,83,29027,1,0,0:0:0:0:
163,131,29102,5,0,0:0:0:0:
260,240,29252,2,0,L|377:229,2,92
424,302,29702,6,0,B|456:241|456:241|430:161,1,138
406,88,30002,2,0,L|341:97,1,46
232,109,30152,1,0,0:0:0:0:
419,0,30302,5,0,0:0:0:0:
328,193,30452,1,0,0:0:0:0:
306,196,30527,1,0,0:0:0:0:
284,199,30602,1,8,0:0:0:0:
149,44,30752,1,0,0:0:0:0:
171,41,30827,1,0,0:0:0:0:
193,38,30902,2,0,B|220:72|220:72|228:118|228:118|194:164,1,138
153,257,31202,2,0,P|125:235|118:225,1,46,8|0,0:0|0:0,0:0:0:0:
327,121,31352,2,0,P|325:143|317:165,1,46
104,58,31502,6,0,P|151:41|193:37,1,92
483,276,31802,1,8,0:0:0:0:
452,298,31877,1,0,0:0:0:0:
415,302,31952,1,0,0:0:0:0:
380,290,32027,1,0,0:0:0:0:
354,264,32102,2,0,B|301:253|242:265|242:265|274:229,1,138
425,169,32402,2,0,P|425:191|423:216,1,46,8|0,0:0|0:0,0:0:0:0:
323,347,32552,2,0,P|300:346|276:349,1,46
179,177,32702,5,0,0:0:0:0:
415,302,32852,1,0,0:0:0:0:
413,324,32927,1,0,0:0:0:0:
410,346,33002,1,8,0:0:0:0:
312,163,33152,1,0,0:0:0:0:
314,141,33227,1,0,0:0:0:0:
317,119,33302,2,0,B|326:21|326:21|379:75,1,138
440,192,33602,2,0,P|407:205|389:209,1,46,8|0,0:0|0:0,0:0:0:0:
178,176,33752,2,0,P|199:185|222:192,1,46
304,282,33902,5,0,0:0:0:0:
451,65,34052,1,0,0:0:0:0:
192,48,34202,1,8,0:0:0:0:
188,80,34277,1,0,0:0:0:0:
185,112,34352,1,0,0:0:0:0:
181,144,34427,1,0,0:0:0:0:
178,176,34502,1,0,0:0:0:0:
279,100,34652,1,0,0:0:0:0:
68,203,34802,1,8,0:0:0:0:
272,218,34952,1,0,0:0:0:0:
90,84,35102,5,0,0:0:0:0:
307,15,35252,1,0,0:0:0:0:
286,7,35327,1,0,0:0:0:0:
264,9,35402,1,8,0:0:0:0:
272,218,35552,1,0,0:0:0:0:
293,226,35627,1,0,0:0:0:0:
315,224,35702,2,0,P|344:150|267:138,1,138
193,121,36002,2,0,P|193:143|199:166,1,46,8|0,0:0|0:0,0:0:0:0:
436,239,36152,2,0,P|442:216|442:193,1,46
442,21,36302,6,0,P|397:20|350:29,1,92
71,277,36602,1,8,0:0:0:0:
102,295,36677,1,0,0:0:0:0:
138,296,36752,1,0,0:0:0:0:
171,281,36827,1,0,0:0:0:0:
197,257,36902,6,0,B|235:256|259:232|259:232|280:260|320:262,1,138
251,381,37202,2,0,L|253:316,1,46,8|0,0:0|0:0,0:0:0:0:
324,131,37352,2,0,L|326:177,1,46
409,289,37502,5,0,0:0:0:0:
195,168,37652,1,0,0:0:0:0:
171,169,37727,1,0,0:0:0:0:
150,179,37802,1,8,0:0:0:0:
324,358,37952,1,0,0:0:0:0:
348,359,38027,1,0,0:0:0:0:
369,369,38102,2,0,B|416:384|475:375|475:375|460:340,1,138
316,271,38402,2,0,P|312:248|312:226,1,46,8|0,0:0|0:0,0:0:0:0:
472,161,38552,2,0,P|476:138|477:116,1,46
319,45,38702,5,8,0:0:0:0:
387,126,38852,1,2,0:0:0:0:
388,148,38927,1,0,0:0:0:0:
390,171,39002,1,2,0:0:0:0:
392,194,39077,1,0,0:0:0:0:
394,217,39152,1,2,0:0:0:0:
396,240,39227,1,0,0:0:0:0:
398,263,39302,2,0,L|405:327,3,46,2|0|2|0,0:0|0:0|0:0|0:0,0:0:0:0:
269,304,39902,6,0,P|220:310|162:315,1,92,4|0,0:0|0:0,0:0:0:0:
387,126,40202,2,0,P|432:122|478:117,1,92,8|0,0:0|0:0,0:0:0:0:
152,78,40502,1,0,0:0:0:0:
352,6,40652,1,0,0:0:0:0:
318,213,40802,1,8,0:0:0:0:
364,17,40952,1,0,0:0:0:0:
187,157,41102,6,0,B|163:112|185:60|185:60|152:78,1,138
14,215,41402,2,0,P|60:220|105:225,1,92,8|0,0:0|0:0,0:0:0:0:
395,79,41702,2,0,B|318:62|337:119|242:108,1,138
264,109,42002,1,8,0:0:0:0:
255,360,42302,6,0,B|226:322|226:322|255:236,1,138
362,275,42602,2,0,L|370:389,1,92,8|0,0:0|0:0,0:0:0:0:
246,148,42902,1,0,0:0:0:0:
465,222,43052,1,0,0:0:0:0:
255,360,43202,1,8,0:0:0:0:
482,221,43352,1,0,0:0:0:0:
243,259,43502,6,0,P|173:255|74:250,1,138
21,288,43802,2,0,B|8:246|8:246|28:202,1,92,8|0,0:0|0:0,0:0:0:0:
304,167,44102,1,0,0:0:0:0:
282,150,44177,1,0,0:0:0:0:
255,143,44252,1,0,0:0:0:0:
227,146,44327,1,0,0:0:0:0:
204,162,44402,5,10,0:0:0:0:
173,183,44477,1,0,0:0:0:0:
136,184,44552,1,2,0:0:0:0:
101,171,44627,1,0,0:0:0:0:
75,144,44702,5,0,0:0:0:0:
251,235,44852,1,0,0:0:0:0:
163,7,45002,2,0,P|153:71|153:114,1,92,8|0,0:0|0:0,0:0:0:0:
391,335,45302,2,0,P|388:289|380:243,1,92
323,160,45527,1,0,0:0:0:0:
323,160,45602,2,0,L|421:151,1,92,8|0,0:0|0:0,0:0:0:0:
160,288,45902,6,0,B|62:278|62:278|105:327,1,138
256,336,46202,2,0,B|272:295|272:295|256:240,1,92,8|0,0:0|0:0,0:0:0:0:
67,27,46502,2,0,L|73:193,1,138
71,164,46802,1,8,0:0:0:0:
301,156,46952,5,0,0:0:0:0:
190,82,47102,1,0,0:0:0:0:
308,0,47252,6,0,P|301:60|302:90,1,64.399998034668,2|0,0:0|0:0,0:0:0:0:
204,276,47402,2,0,P|202:243|196:212,1,64.399998034668,10|0,0:0|0:0,0:0:0:0:
67,27,47552,5,0,0:0:0:0:
190,82,47702,1,0,0:0:0:0:
13,176,47852,6,0,P|73:169|103:170,1,64.399998034668,2|0,0:0|0:0,0:0:0:0:
370,243,48002,2,0,P|310:236|280:237,1,64.399998034668,10|0,0:0|0:0,0:0:0:0:
124,359,48152,1,0,0:0:0:0:
202,241,48302,6,0,L|206:296,3,34.5000013160706
155,54,48602,2,0,L|157:0,3,48.299998526001,8|0|0|0,0:0|0:0|0:0|0:0,0:0:0:0:
231,99,48902,5,0,0:0:0:0:
220,122,48977,1,0,0:0:0:0:
200,138,49052,1,0,0:0:0:0:
176,148,49127,1,0,0:0:0:0:
150,150,49202,1,8,0:0:0:0:
125,142,49277,1,0,0:0:0:0:
100,134,49352,2,0,P|59:146|35:164,1,64.399998034668
16,290,49502,6,0,B|73:275|100:228|100:228|96:286|140:342,1,193.199994104004,4|0,0:0|0:0,0:0:0:0:
217,338,49802,2,0,L|329:326,1,101.200003088379,8|0,0:0|0:0,0:0:0:0:
351,323,50027,1,0,0:0:0:0:
351,323,50102,1,0,0:0:0:0:
361,97,50252,1,0,0:0:0:0:
227,232,50402,2,0,B|207:189|207:189|232:119,1,101.200003088379,8|0,0:0|0:0,0:0:0:0:
474,268,50702,6,0,B|494:311|494:311|469:381,1,101.200003088379
361,129,51002,1,8,0:0:0:0:
276,320,51152,2,0,P|245:325|201:304,1,50.6000015441895
19,174,51302,6,0,P|91:167|165:243,1,179.39999178772
163,237,51602,2,0,L|166:143,1,59.7999972625734,8|0,0:0|0:0,0:0:0:0:
68,23,51752,2,0,L|64:116,1,59.7999972625734
49,370,51902,6,0,B|68:334|68:269|68:269|84:324|137:348,1,179.39999178772
209,335,52202,2,0,P|160:334|82:327,1,101.200003088379,8|0,0:0|0:0,0:0:0:0:
107,330,52427,1,0,0:0:0:0:
107,330,52502,1,0,0:0:0:0:
255,136,52652,1,0,0:0:0:0:
392,373,52802,2,0,L|397:306,1,50.6000015441895,8|0,0:0|0:0,0:0:0:0:
404,221,52952,1,0,0:0:0:0:
209,335,53102,6,0,B|165:264|230:222|230:222|219:280,1,165.599994946289
106,213,53402,2,0,P|47:218|-3:225,1,101.200003088379,8|0,0:0|0:0,0:0:0:0:
365,130,53702,2,0,P|421:135|486:143,1,101.200003088379
206,14,54002,5,8,0:0:0:0:
209,58,54077,1,0,0:0:0:0:
212,102,54152,1,0,0:0:0:0:
217,145,54227,1,0,0:0:0:0:
222,188,54302,5,8,0:0:0:0:
361,28,54452,1,0,0:0:0:0:
361,28,54527,1,0,0:0:0:0:
361,28,54602,1,0,0:0:0:0:
232,275,54752,1,0,0:0:0:0:
43,64,54902,5,8,0:0:0:0:
241,359,55052,1,0,0:0:0:0:
241,359,55127,1,0,0:0:0:0:
241,359,55202,1,0,0:0:0:0:
367,83,55352,1,0,0:0:0:0:
46,156,55502,5,8,0:0:0:0:
407,274,55652,1,0,0:0:0:0:
407,274,55727,1,0,0:0:0:0:
407,274,55802,1,0,0:0:0:0:
206,14,55952,1,0,0:0:0:0:
83,303,56102,5,8,0:0:0:0:
206,14,56252,1,0,0:0:0:0:
206,14,56327,1,0,0:0:0:0:
206,14,56402,1,0,0:0:0:0:
420,186,56552,1,0,0:0:0:0:
227,136,56702,6,0,L|237:227,1,73.6
237,224,56927,1,0,0:0:0:0:
239,237,57002,1,0,0:0:0:0:
28,273,57152,2,0,P|75:262|137:291,1,110.4
70,383,57452,2,0,L|74:319,1,36.8
84,179,57602,1,0,0:0:0:0:
84,179,57677,1,0,0:0:0:0:
84,179,57752,1,0,0:0:0:0:
210,359,57902,6,0,P|242:365|294:342,1,73.6
295,343,58127,1,0,0:0:0:0:
307,332,58202,1,0,0:0:0:0:
468,223,58352,2,0,L|326:215,1,110.4
239,270,58652,6,0,L|234:216,1,46
252,75,58802,2,0,L|257:129,1,46
295,343,58952,1,0,0:0:0:0:
172,160,59102,6,0,B|79:134|90:218|-2:190,1,184,4|0,0:0|0:0,0:0:0:0:
32,99,59552,1,0,0:0:0:0:
145,254,59702,6,0,B|205:301|189:401|109:371|154:321,1,165.599994946289
294,269,60002,6,0,B|339:237|349:191|349:191|372:237|457:262,1,193.199994104004,2|0,0:0|0:0,0:0:0:0:
369,331,60302,1,0,0:0:0:0:
243,169,60452,1,0,0:0:0:0:
492,345,60602,1,0,0:0:0:0:
492,345,60677,1,0,0:0:0:0:
492,345,60752,2,0,L|495:262,1,59.7999972625734
449,31,60902,6,0,B|412:69|412:69|436:175,1,110.399996630859,0|2,0:0|0:1,0:0:0:0:
433,156,61127,1,0,0:0:0:0:
433,156,61202,1,2,0:1:0:0:
512,93,61352,1,0,0:0:0:0:
286,194,61502,6,0,B|224:182|224:182|172:209|172:209|82:195,1,184
246,300,61952,1,0,0:0:0:0:
154,110,62102,6,0,B|129:67|137:18|137:18|121:66|96:82,1,165.599994946289
13,230,62402,6,0,B|-20:178|-20:178|124:201,1,193.199994104004
199,212,62702,1,0,0:0:0:0:
46,7,62852,1,0,0:0:0:0:
136,317,63002,5,2,0:1:0:0:
200,359,63102,1,0,0:0:0:0:
272,332,63202,1,2,0:1:0:0:
332,277,63302,5,0,0:0:0:0:
396,234,63402,1,2,0:1:0:0:
468,261,63502,1,0,0:0:0:0:
512,321,63602,6,0,P|514:351|508:379,1,55.1999983154297,2|0,0:1|0:0,0:0:0:0:
357,382,63752,2,0,P|349:350|349:323,1,55.1999983154297
389,127,63902,6,0,B|439:70|439:70|428:243,1,220.799993261719
430,346,64352,1,0,0:0:0:0:
430,346,64427,1,0,0:0:0:0:
430,346,64502,1,0,0:0:0:0:
512,160,64652,1,0,0:0:0:0:
240,257,64802,6,0,B|178:269|110:235|110:235|142:262|151:301,1,193.199994104004,2|0,0:0|0:0,0:0:0:0:
196,368,65102,5,0,0:0:0:0:
197,127,65252,1,0,0:0:0:0:
5,315,65402,1,0,0:0:0:0:
5,315,65477,1,0,0:0:0:0:
5,315,65552,2,0,L|80:308,1,46
105,145,65702,6,0,B|46:99|-12:142|-12:142|26:191,1,165.599994946289
140,296,66002,1,2,0:0:0:0:
204,41,66152,1,0,0:0:0:0:
316,238,66302,6,0,P|319:286|325:353,1,92
412,122,66602,1,0,0:0:0:0:
140,296,66752,1,0,0:0:0:0:
211,132,66902,6,0,P|207:83|202:17,1,92
417,230,67202,1,0,0:0:0:0:
121,196,67352,1,0,0:0:0:0:
465,54,67502,6,0,B|400:24|400:24|315:82,1,138
211,132,67802,6,0,L|219:53,2,61.3333333333333,2|0|0,0:1|0:0|0:0,0:0:0:0:
431,313,68102,2,0,L|439:392,2,61.3333333333333,2|0|0,0:1|0:0|0:0,0:0:0:0:
490,223,68402,5,0,0:0:0:0:
454,201,68477,1,0,0:0:0:0:
412,201,68552,1,0,0:0:0:0:
374,218,68627,1,0,0:0:0:0:
349,250,68702,6,0,B|326:315|258:323|258:323|231:249|134:271,1,241.500009212494
19,246,69302,5,0,0:0:0:0:
19,239,69377,1,0,0:0:0:0:
18,232,69452,1,0,0:0:0:0:
17,225,69527,1,0,0:0:0:0:
6,178,69602,5,0,0:0:0:0:
50,197,69677,1,0,0:0:0:0:
98,197,69752,1,0,0:0:0:0:
139,172,69827,1,0,0:0:0:0:
80,73,69902,5,8,0:0:0:0:
74,63,69977,1,0,0:0:0:0:
69,55,70052,2,0,L|73:115,1,55.1999983154297
206,267,70202,5,8,0:0:0:0:
212,277,70277,1,0,0:0:0:0:
217,285,70352,2,0,L|213:225,1,55.1999983154297
235,87,70502,5,8,0:0:0:0:
279,54,70577,1,0,0:0:0:0:
333,47,70652,1,0,0:0:0:0:
384,67,70727,1,0,0:0:0:0:
419,116,70802,5,8,0:0:0:0:
422,176,70877,1,0,0:0:0:0:
387,226,70952,1,0,0:0:0:0:
330,248,71027,1,0,0:0:0:0:
270,236,71102,5,4,0:0:0:0:
270,236,71402,2,0,B|289:197|289:197|308:346,1,165.599994946289,2|0,0:0|0:0,0:0:0:0:
232,360,71702,6,0,L|121:345,1,92
387,226,72002,2,0,L|478:213,1,92
226,154,72302,5,4,0:0:0:0:
226,154,72602,2,0,B|207:193|207:193|188:44,1,165.599994946289,2|0,0:0|0:0,0:0:0:0:
321,122,72902,6,0,P|365:113|401:85,1,92
220,277,73202,2,0,P|175:268|139:240,1,92
62,75,73502,5,0,0:0:0:0:
62,75,73802,2,0,L|50:247,1,165.599994946289,4|0,0:0|0:0,0:0:0:0:
41,230,74102,2,0,P|103:204|174:226,1,110.399996630859
244,349,74402,2,0,P|298:352|347:328,1,110.399996630859,4|0,0:0|0:0,0:0:0:0:
465,264,74702,5,12,0:0:0:0:
332,82,74852,1,0,0:0:0:0:
343,80,74927,1,0,0:0:0:0:
354,78,75002,1,8,0:0:0:0:
275,256,75152,1,0,0:0:0:0:
449,132,75302,5,8,0:0:0:0:
178,78,75452,1,0,0:0:0:0:
270,337,75602,1,8,0:0:0:0:
354,78,75752,1,0,0:0:0:0:
203,220,75902,6,0,P|120:203|58:203,1,110.399996630859,4|0,0:0|0:0,0:0:0:0:
17,227,76127,1,0,0:0:0:0:
17,227,76202,1,8,0:0:0:0:
270,280,76352,1,0,0:0:0:0:
296,238,76427,1,0,0:0:0:0:
291,189,76502,1,0,0:0:0:0:
135,351,76652,1,0,0:0:0:0:
97,94,76802,6,0,L|102:176,1,55.1999983154297,8|0,0:0|0:0,0:0:0:0:
186,264,76952,2,0,L|191:182,1,55.1999983154297
246,96,77102,2,0,B|300:85|300:85|365:111,1,110.399996630859
420,217,77327,1,0,0:0:0:0:
431,225,77402,2,0,P|444:201|451:171,1,55.1999983154297,8|0,0:0|0:0,0:0:0:0:
487,52,77552,1,0,0:0:0:0:
296,238,77702,5,0,0:0:0:0:
296,238,77777,1,0,0:0:0:0:
296,238,77852,2,0,L|289:178,1,55.1999983154297
183,55,78002,2,0,P|113:59|87:150,1,165.599994946289,8|0,0:0|0:0,0:0:0:0:
57,303,78302,6,0,P|128:289|208:291,1,110.399996630859,0|2,0:0|0:0,0:0:0:0:
251,302,78527,1,0,0:0:0:0:
275,311,78602,1,10,0:0:0:0:
377,96,78752,1,0,0:0:0:0:
467,330,78902,5,0,0:0:0:0:
227,188,79052,1,0,0:0:0:0:
489,130,79202,1,8,0:0:0:0:
275,311,79352,1,0,0:0:0:0:
416,231,79502,6,0,P|336:193|290:208,1,110.399996630859
186,268,79727,1,0,0:0:0:0:
170,260,79802,6,0,P|140:214|141:159,1,110.399996630859,10|0,0:0|0:0,0:0:0:0:
241,38,80027,1,0,0:0:0:0:
233,54,80102,6,0,P|187:83|132:82,1,110.399996630859,2|0,0:0|0:0,0:0:0:0:
50,46,80327,1,0,0:0:0:0:
50,46,80402,1,10,0:0:0:0:
258,178,80552,1,0,0:0:0:0:
12,275,80702,1,4,0:0:0:0:
141,159,80852,1,0,0:0:0:0:
96,325,81002,6,0,L|240:309,1,110.399996630859,8|0,0:0|0:0,0:0:0:0:
290,348,81227,1,0,0:0:0:0:
290,348,81302,2,0,L|297:278,1,55.1999983154297
346,124,81452,1,0,0:0:0:0:
146,92,81602,6,0,L|290:108,1,110.399996630859,8|0,0:0|0:0,0:0:0:0:
340,69,81827,1,0,0:0:0:0:
340,69,81902,2,0,L|347:139,1,55.1999983154297
396,293,82052,1,0,0:0:0:0:
196,324,82202,6,0,L|340:308,1,110.399996630859,8|0,0:0|0:0,0:0:0:0:
390,347,82427,1,0,0:0:0:0:
390,347,82502,2,0,L|397:277,1,55.1999983154297
446,123,82652,1,0,0:0:0:0:
257,204,82802,1,8,0:0:0:0:
464,114,82952,1,0,0:0:0:0:
184,269,83102,6,0,B|154:209|154:209|190:102,1,165.599994946289
285,30,83402,2,0,L|137:43,1,110.399996630859,8|0,0:0|0:0,0:0:0:0:
90,49,83627,1,0,0:0:0:0:
66,52,83702,1,0,0:0:0:0:
257,204,83852,1,0,0:0:0:0:
52,294,84002,2,0,P|149:272|181:335,1,165.599994946289,8|0,0:0|0:0,0:0:0:0:
287,352,84302,6,0,P|342:347|413:334,1,110.399996630859
399,80,84602,2,0,P|344:85|273:98,1,110.399996630859,8|0,0:0|0:0,0:0:0:0:
210,115,84827,1,0,0:0:0:0:
186,122,84902,1,0,0:0:0:0:
422,223,85052,1,0,0:0:0:0:
179,316,85202,1,8,0:0:0:0:
446,219,85352,1,0,0:0:0:0:
324,347,85502,6,0,P|282:290|304:210,1,110.399996630859,4|0,0:0|0:0,0:0:0:0:
307,165,85727,1,0,0:0:0:0:
307,165,85802,2,0,L|235:156,1,55.1999983154297,10|0,0:0|0:0,0:0:0:0:
93,133,85952,1,0,0:0:0:0:
314,75,86102,6,0,P|285:139|205:160,1,110.399996630859
162,179,86327,1,0,0:0:0:0:
162,179,86402,2,0,L|190:245,1,55.1999983154297,10|0,0:0|0:0,0:0:0:0:
242,381,86552,1,0,0:0:0:0:
80,219,86702,6,0,P|150:211|208:270,1,110.399996630859
245,296,86927,1,0,0:0:0:0:
245,296,87002,2,0,L|288:238,1,55.1999983154297,10|0,0:0|0:0,0:0:0:0:
380,126,87152,1,0,0:0:0:0:
467,267,87302,5,0,0:0:0:0:
252,157,87452,1,0,0:0:0:0:
486,60,87602,1,8,0:0:0:0:
225,156,87752,1,0,0:0:0:0:
356,320,87902,6,0,L|368:206,1,103.500003948212
398,153,88202,2,0,L|387:255,1,103.500003948212
428,346,88502,2,0,L|440:232,1,103.500003948212
470,179,88802,2,0,L|459:281,1,103.500003948212
356,320,89102,6,0,P|307:299|231:299,1,103.500003948212
165,318,89402,1,0,0:0:0:0:
162,324,89477,1,0,0:0:0:0:
159,330,89552,1,0,0:0:0:0:
156,336,89627,1,0,0:0:0:0:
153,342,89702,2,0,P|145:288|147:216,1,103.500003948212
104,172,90002,2,0,P|96:226|98:298,1,103.500003948212
201,107,90302,6,0,B|146:31|112:8|112:8|117:103,1,179.39999178772,6|0,0:0|0:0,0:0:0:0:
206,223,90602,2,0,B|299:213|336:195|336:195|251:152,1,179.39999178772,2|0,0:0|0:0,0:0:0:0:
104,172,90902,1,2,0:0:0:0:
389,242,91502,6,0,B|444:318|478:341|478:341|473:246,1,179.39999178772,6|0,0:0|0:0,0:0:0:0:
384,126,91802,2,0,B|290:135|253:153|253:153|338:196,1,179.39999178772,2|0,0:0|0:0,0:0:0:0:
486,177,92102,1,2,0:0:0:0:
116,254,92702,6,0,B|171:178|205:155|205:155|200:250,1,179.39999178772,6|0,0:0|0:0,0:0:0:0:
111,370,93002,2,0,B|17:360|-19:342|-19:342|65:299,1,179.39999178772,2|0,0:0|0:0,0:0:0:0:
213,319,93302,5,2,0:0:0:0:
18,208,93452,1,8,0:0:0:0:
221,94,93602,1,2,0:0:0:0:
222,340,93752,1,8,0:0:0:0:
125,45,93902,6,0,B|110:107|110:107|130:161|130:161|115:231,1,179.39999178772,6|0,0:0|0:0,0:0:0:0:
228,359,94202,2,0,B|243:297|243:297|223:243|223:243|235:186,1,179.39999178772,2|0,0:0|0:0,0:0:0:0:
341,234,94502,1,2,0:0:0:0:
341,234,95102,6,0,B|361:280|361:280|441:290|441:290|469:250,1,179.39999178772,6|0,0:0|0:0,0:0:0:0:
327,365,95402,2,0,B|355:325|355:325|435:335|435:335|455:381,1,179.39999178772,2|0,0:0|0:0,0:0:0:0:
411,196,95702,1,2,0:0:0:0:
53,267,96302,6,0,B|73:221|73:221|153:211|153:211|181:251,1,179.39999178772,6|0,0:0|0:0,0:0:0:0:
39,136,96602,2,0,B|67:176|67:176|147:166|147:166|167:120,1,179.39999178772,2|0,0:0|0:0,0:0:0:0:
123,305,96902,1,2,0:0:0:0:
370,310,97352,2,0,L|378:231,1,59.7999972625734
331,71,97502,6,0,B|351:117|351:117|431:127|431:127|459:87,1,179.39999178772,6|0,0:0|0:0,0:0:0:0:
317,202,97802,2,0,B|345:162|345:162|425:172|425:172|445:218,1,179.39999178772,2|0,0:0|0:0,0:0:0:0:
401,33,98102,5,2,0:0:0:0:
376,250,98252,1,8,0:0:0:0:
268,130,98402,1,2,0:0:0:0:
511,159,98552,1,8,0:0:0:0:
246,127,98702,6,0,L|221:124,6,13.7999995788574,6|0|0|0|0|0|0,0:0|0:0|0:0|0:0|0:0|0:0|0:0,0:0:0:0:
226,211,99002,6,0,L|222:243,6,23
250,40,99302,6,0,L|255:3,14,32.199999017334
246,127,99902,5,0,3:0:0:0:
246,127,100802,6,0,L|239:225,1,82.7999974731446
238,231,101102,6,0,L|234:278,3,27.5999991577149,4|0|0|0,0:0|0:0|0:0|0:0,0:0:0:0:
123,148,101402,2,0,L|120:120,3,27.5999991577149,8|0|0|0,0:0|0:0|0:0|0:0,0:0:0:0:
37,247,101702,1,8,0:0:0:0:
40,263,101777,1,0,0:0:0:0:
43,279,101852,1,0,0:0:0:0:
46,295,101927,1,0,0:0:0:0:
49,311,102002,1,8,0:0:0:0:
53,327,102077,1,0,0:0:0:0:
57,343,102152,1,0,0:0:0:0:
60,359,102227,1,0,0:0:0:0:
63,375,102302,5,8,0:0:0:0:
84,342,102377,1,0,0:0:0:0:
120,328,102452,1,0,0:0:0:0:
158,329,102527,1,0,0:0:0:0:
192,347,102602,1,8,0:0:0:0:
224,368,102677,1,0,0:0:0:0:
262,362,102752,1,0,0:0:0:0:
293,339,102827,1,0,0:0:0:0:
307,303,102902,6,0,L|312:253,1,36.8,8|0,0:0|0:0,0:0:0:0:
328,128,103052,2,0,L|323:178,1,36.8
430,231,103202,2,0,L|380:226,1,36.8,8|0,0:0|0:0,0:0:0:0:
187,197,103352,1,0,0:0:0:0:
187,197,103427,1,0,0:0:0:0:
187,197,103502,6,0,L|236:202,3,46,8|0|0|0,0:0|0:0|0:0|0:0,0:0:0:0:
117,255,103802,1,8,0:0:0:0:
97,223,103877,1,0,0:0:0:0:
95,186,103952,1,0,0:0:0:0:
106,151,104027,1,0,0:0:0:0:
132,125,104102,5,8,0:0:0:0:
152,83,104177,1,0,0:0:0:0:
139,38,104252,1,0,0:0:0:0:
95,21,104327,1,0,0:0:0:0:
55,43,104402,1,8,0:0:0:0:
42,87,104477,1,0,0:0:0:0:
68,124,104552,1,0,0:0:0:0:
111,139,104627,1,0,0:0:0:0:
151,117,104702,5,8,0:0:0:0:
176,78,104777,1,0,0:0:0:0:
219,62,104852,1,0,0:0:0:0:
263,72,104927,1,0,0:0:0:0:
292,107,105002,1,8,0:0:0:0:
291,152,105077,1,0,0:0:0:0:
267,191,105152,1,0,0:0:0:0:
264,236,105227,1,0,0:0:0:0:
286,276,105302,5,8,0:0:0:0:
333,303,105377,1,0,0:0:0:0:
387,292,105452,1,0,0:0:0:0:
422,249,105527,1,0,0:0:0:0:
415,194,105602,6,0,L|412:107,1,55.1999983154297,10|0,0:1|0:0,0:0:0:0:
261,16,105752,2,0,L|264:103,1,55.1999983154297,2|0,0:1|0:0,0:0:0:0:
143,229,105902,5,12,0:0:0:0:
144,245,105977,1,0,0:0:0:0:
145,261,106052,1,0,0:0:0:0:
146,277,106127,1,0,0:0:0:0:
147,293,106202,6,0,L|218:288,1,55.1999983154297,8|0,0:0|0:0,0:0:0:0:
413,138,106352,2,0,L|342:143,1,55.1999983154297
153,79,106502,5,8,0:0:0:0:
179,70,106577,1,0,0:0:0:0:
206,72,106652,1,0,0:0:0:0:
231,82,106727,1,0,0:0:0:0:
251,100,106802,1,8,0:0:0:0:
264,123,106877,1,0,0:0:0:0:
269,149,106952,1,0,0:0:0:0:
266,176,107027,1,0,0:0:0:0:
252,200,107102,5,8,0:0:0:0:
240,236,107177,1,0,0:0:0:0:
252,272,107252,1,0,0:0:0:0:
278,300,107327,1,0,0:0:0:0:
315,310,107402,1,8,0:0:0:0:
352,298,107477,1,0,0:0:0:0:
375,267,107552,1,0,0:0:0:0:
379,228,107627,1,0,0:0:0:0:
357,183,107702,5,8,0:0:0:0:
332,141,107777,1,0,0:0:0:0:
332,92,107852,1,0,0:0:0:0:
357,50,107927,1,0,0:0:0:0:
401,27,108002,1,8,0:0:0:0:
450,29,108077,1,0,0:0:0:0:
490,57,108152,1,0,0:0:0:0:
511,101,108227,1,0,0:0:0:0:
506,150,108302,5,8,0:0:0:0:
476,203,108377,1,0,0:0:0:0:
419,223,108452,1,0,0:0:0:0:
365,194,108527,1,0,0:0:0:0:
332,141,108602,1,8,0:0:0:0:
279,110,108677,1,0,0:0:0:0:
220,127,108752,1,0,0:0:0:0:
190,180,108827,1,0,0:0:0:0:
194,240,108902,1,8,0:0:0:0:
238,281,108977,1,0,0:0:0:0:
298,288,109052,1,0,0:0:0:0:
348,254,109127,1,0,0:0:0:0:
365,194,109202,6,0,L|372:116,6,46,8|0|0|0|0|0|0,0:0|0:0|0:0|0:0|0:0|0:0|0:0,0:0:0:0:
272,201,109502,5,0,0:0:0:0:
465,178,109652,1,0,0:0:0:0:
257,208,109802,5,0,0:0:0:0:
484,171,109952,1,0,0:0:0:0:
276,329,110102,6,0,B|245:270|256:208|256:208|246:250|204:280,1,207.000007896424
51,263,110402,6,0,B|141:236|119:315|239:264,1,165.599994946289,2|0,0:0|0:0,0:0:0:0:
405,239,110702,5,4,0:0:0:0:
312,34,110852,1,0,0:0:0:0:
170,183,111002,2,0,P|165:140|161:88,1,55.1999983154297,8|0,0:0|0:0,0:0:0:0:
157,42,111152,1,0,0:0:0:0:
51,263,111302,6,0,B|104:245|104:245|167:280,1,110.399996630859
218,318,111527,1,0,0:0:0:0:
218,318,111602,1,8,0:0:0:0:
312,34,111752,1,0,0:0:0:0:
478,273,111902,6,0,L|484:182,1,55.1999983154297
488,129,112052,1,0,0:0:0:0:
410,338,112202,6,0,P|361:349|332:336,1,55.1999983154297,8|0,0:0|0:0,0:0:0:0:
259,235,112352,2,0,P|233:224|206:224,1,55.1999983154297
93,339,112502,1,0,0:0:0:0:
2,118,112652,1,0,0:0:0:0:
2,118,112727,1,0,0:0:0:0:
2,118,112802,2,0,P|53:115|118:109,1,110.399996630859,8|0,0:0|0:0,0:0:0:0:
221,315,113102,5,0,0:0:0:0:
308,102,113252,2,0,L|301:189,1,55.1999983154297
152,368,113402,2,0,B|129:318|129:318|155:245,1,110.399996630859,8|0,0:0|0:0,0:0:0:0:
175,185,113627,1,0,0:0:0:0:
175,185,113702,2,0,L|88:193,1,55.1999983154297
28,196,113852,1,0,0:0:0:0:
324,369,114002,6,0,L|329:275,1,55.1999983154297,8|0,0:0|0:0,0:0:0:0:
308,102,114152,2,0,L|301:189,1,55.1999983154297
254,242,114302,5,0,0:0:0:0:
243,23,114452,1,0,0:0:0:0:
282,2,114527,1,0,0:0:0:0:
326,1,114602,1,10,0:0:0:0:
366,18,114677,1,0,0:0:0:0:
394,51,114752,1,2,0:0:0:0:
434,68,114827,1,0,0:0:0:0:
477,62,114902,6,0,L|482:7,2,55.1999983154297
447,346,115202,1,8,0:0:0:0:
269,195,115352,1,2,0:0:0:0:
512,220,115502,6,0,L|434:214,1,55.1999983154297,4|0,0:0|0:0,0:0:0:0:
364,205,115652,1,0,0:0:0:0:
375,18,115802,2,0,B|401:59|401:59|387:127,1,110.399996630859,8|0,0:0|0:0,0:0:0:0:
356,384,116102,2,0,B|330:343|330:343|344:275,1,110.399996630859
364,205,116327,1,0,0:0:0:0:
364,205,116402,6,0,L|419:209,1,55.1999983154297,8|0,0:0|0:0,0:0:0:0:
481,334,116552,2,0,L|425:329,1,55.1999983154297
255,314,116702,5,0,0:0:0:0:
58,107,116852,1,0,0:0:0:0:
58,107,116927,1,0,0:0:0:0:
58,107,117002,2,0,P|107:99|172:151,1,110.399996630859,8|0,0:0|0:0,0:0:0:0:
255,314,117302,6,0,L|247:213,1,55.1999983154297
247,65,117452,2,0,L|255:166,1,55.1999983154297
159,210,117602,6,0,B|147:240|147:240|158:287,1,55.1999983154297,8|0,0:0|0:0,0:0:0:0:
362,287,117752,2,0,B|374:317|374:317|363:364,1,55.1999983154297
192,380,117902,6,0,P|135:377|67:372,1,110.399996630859
8,287,118127,1,0,0:0:0:0:
0,268,118202,6,0,B|-39:196|23:153|23:153|12:176|11:192,1,165.599994946289,8|0,0:0|0:0,0:0:0:0:
122,285,118427,1,0,0:0:0:0:
139,291,118502,6,0,P|175:292|222:265,1,59.7999972625734
245,123,118652,2,0,P|276:123|328:152,1,59.7999972625734
451,200,118802,6,0,B|520:91|429:-18|378:69|432:111,1,248.399992419434,8|0,0:0|0:0,0:0:0:0:
389,269,119102,6,0,P|442:296|508:278,1,110.399996630859,8|0,0:0|0:0,0:0:0:0:
491,289,119327,1,0,0:0:0:0:
491,289,119402,1,8,0:0:0:0:
254,191,119552,1,0,0:0:0:0:
247,364,119702,6,0,L|251:276,1,55.1999983154297,8|0,0:0|0:0,0:0:0:0:
265,20,119852,2,0,L|261:108,1,55.1999983154297
254,191,120002,5,8,0:0:0:0:
254,191,120302,6,0,B|126:173|126:173|164:216,1,179.39999178772,4|0,0:0|0:0,0:0:0:0:
247,364,120602,2,0,L|251:274,1,59.7999972625734,8|0,0:0|0:0,0:0:0:0:
254,191,120752,1,0,0:0:0:0:
468,264,120902,2,0,B|420:283|420:283|344:245,1,119.599994525147
357,225,121127,1,0,0:0:0:0:
357,225,121202,6,0,L|362:151,1,59.7999972625734,8|0,0:0|0:0,0:0:0:0:
470,287,121352,2,0,L|475:360,1,59.7999972625734
369,79,121502,5,0,0:0:0:0:
343,351,121652,1,0,0:0:0:0:
509,134,121802,6,0,L|406:127,1,59.7999972625734,8|0,0:0|0:0,0:0:0:0:
279,118,121952,1,0,0:0:0:0:
364,19,122102,6,0,L|370:116,1,59.7999972625734
382,225,122252,1,0,0:0:0:0:
382,225,122327,1,0,0:0:0:0:
382,225,122402,2,0,L|312:217,1,59.7999972625734,8|0,0:0|0:0,0:0:0:0:
184,199,122552,1,0,0:0:0:0:
253,370,122702,6,0,P|250:313|245:205,1,119.599994525147
235,33,123002,1,8,0:0:0:0:
40,306,123152,1,0,0:0:0:0:
1,58,123302,6,0,P|105:57|155:120,1,179.39999178772
40,306,123602,2,0,L|43:230,1,59.7999972625734,8|0,0:0|0:0,0:0:0:0:
50,157,123752,1,0,0:0:0:0:
137,359,123902,5,0,0:0:0:0:
180,378,123977,1,0,0:0:0:0:
227,375,124052,1,0,0:0:0:0:
269,353,124127,1,0,0:0:0:0:
313,290,124202,5,10,0:0:0:0:
359,252,124277,1,0,0:0:0:0:
418,244,124352,1,2,0:0:0:0:
475,262,124427,1,0,0:0:0:0:
509,311,124502,6,0,L|505:375,1,59.7999972625734
395,384,124652,2,0,L|398:324,1,59.7999972625734
272,293,124802,6,0,L|268:357,1,59.7999972625734,10|0,0:0|0:0,0:0:0:0:
158,366,124952,2,0,L|161:306,1,59.7999972625734,2|0,0:0|0:0,0:0:0:0:
58,217,125102,5,4,0:0:0:0:
49,351,125252,1,0,0:0:0:0:
9,128,125402,2,0,B|59:105|59:105|127:136,1,119.599994525147,8|0,0:0|0:0,0:0:0:0:
202,177,125627,1,0,0:0:0:0:
202,177,125702,2,0,L|196:69,1,59.7999972625734
192,28,125852,1,0,0:0:0:0:
113,275,126002,5,8,0:0:0:0:
304,68,126152,1,0,0:0:0:0:
319,375,126302,5,0,0:0:0:0:
233,252,126452,2,0,L|307:247,1,59.7999972625734
418,235,126602,2,0,L|413:354,1,119.599994525147,8|0,0:0|0:0,0:0:0:0:
413,354,126827,1,0,0:0:0:0:
413,354,126902,5,0,0:0:0:0:
507,165,127052,6,0,L|502:246,1,59.7999972625734
319,375,127202,2,0,L|324:294,1,59.7999972625734,8|0,0:0|0:0,0:0:0:0:
332,157,127352,1,0,0:0:0:0:
497,327,127502,5,0,0:0:0:0:
354,35,127652,1,0,0:0:0:0:
233,252,127802,2,0,L|319:247,1,59.7999972625734,10|0,0:0|0:0,0:0:0:0:
487,236,127952,1,0,0:0:0:0:
84,35,128102,5,0,0:0:0:0:
182,352,128252,1,0,0:0:0:0:
284,157,128402,2,0,L|198:162,1,59.7999972625734,10|0,0:0|0:0,0:0:0:0:
58,172,128552,1,0,0:0:0:0:
255,290,128702,5,8,0:0:0:0:
393,54,128852,1,0,0:0:0:0:
394,76,128927,1,0,0:0:0:0:
395,99,129002,1,0,0:0:0:0:
397,122,129077,1,0,0:0:0:0:
398,145,129152,1,0,0:0:0:0:
400,168,129227,1,0,0:0:0:0:
400,191,129302,5,0,0:0:0:0:
255,37,129452,1,0,0:0:0:0:
177,292,129602,1,0,0:0:0:0:
255,37,129752,1,0,0:0:0:0:
330,326,129902,5,4,0:0:0:0:
124,225,130052,2,0,B|168:203|168:203|209:214,1,92
357,129,130352,1,0,0:0:0:0:
202,373,130502,6,0,B|168:377|168:377|128:361,1,64.399998034668,8|0,0:0|0:0,0:0:0:0:
35,276,130652,2,0,L|49:108,1,138
46,138,130952,1,0,0:0:0:0:
207,248,131102,6,0,B|261:217|326:231|326:231|301:247,1,138
282,325,131402,2,0,B|269:333|269:333|334:347|388:316,1,138
459,350,131702,6,0,L|467:268,1,64.399998034668,8|0,0:0|0:0,0:0:0:0:
437,158,131852,2,0,P|396:214|460:175,1,193.199994104004
438,65,132152,2,0,P|399:71|372:83,1,64.399998034668
318,201,132302,6,0,L|302:78,1,92
158,138,132602,2,0,L|174:15,1,92
179,33,132827,1,0,0:0:0:0:
179,33,132902,6,0,L|187:125,1,64.399998034668,8|0,0:0|0:0,0:0:0:0:
225,240,133052,2,0,P|172:265|93:244,1,138
35,201,133352,1,0,0:0:0:0:
195,336,133502,6,0,L|322:316,1,92
398,361,133727,1,0,0:0:0:0:
398,361,133802,2,0,B|367:298|367:298|395:226,1,138
437,162,134102,6,0,L|334:152,1,64.399998034668,8|0,0:0|0:0,0:0:0:0:
268,102,134252,1,0,0:0:0:0:
232,116,134327,1,0,0:0:0:0:
209,147,134402,1,2,0:1:0:0:
210,185,134477,1,0,0:0:0:0:
224,220,134552,2,0,L|121:230,1,64.399998034668,2|0,0:1|0:0,0:0:0:0:
59,257,134702,6,0,L|224:272,1,138
296,349,135002,2,0,P|315:284|311:222,1,92
298,178,135227,1,0,0:0:0:0:
298,178,135302,6,0,P|338:192|376:192,1,64.399998034668,8|0,0:0|0:0,0:0:0:0:
495,81,135452,2,0,P|414:78|375:122,1,138
453,151,135752,1,0,0:0:0:0:
332,36,135902,6,0,L|187:51,1,138
204,38,136202,2,0,P|237:100|209:190,1,138
184,236,136502,6,0,L|94:226,1,64.399998034668,8|0,0:0|0:0,0:0:0:0:
6,131,136652,2,0,L|156:112,1,138
142,113,136952,1,0,0:0:0:0:
275,305,137102,5,0,0:0:0:0:
352,145,137252,2,0,L|362:238,1,64.399998034668,2|0,0:1|0:0,0:0:0:0:
401,343,137402,2,0,L|411:250,1,64.399998034668,2|0,0:1|0:0,0:0:0:0:
462,193,137552,1,0,0:0:0:0:
290,315,137702,5,8,0:0:0:0:
367,155,137852,2,0,L|377:248,1,64.399998034668,2|0,0:1|0:0,0:0:0:0:
416,353,138002,2,0,L|426:260,1,64.399998034668,2|0,0:1|0:0,0:0:0:0:
477,203,138152,1,0,0:0:0:0:
242,111,138302,5,0,0:0:0:0:
242,111,138377,1,0,0:0:0:0:
242,111,138452,1,0,0:0:0:0:
242,111,138527,1,0,0:0:0:0:
242,111,138602,2,0,L|291:103,3,46
367,155,138902,5,8,0:0:0:0:
100,91,139052,1,0,0:0:0:0:
213,355,139202,2,0,P|242:311|228:238,1,110.4
166,171,139502,6,0,L|303:185,1,110.399996630859,4|0,0:0|0:0,0:0:0:0:
357,190,139727,1,0,0:0:0:0:
357,190,139802,1,8,0:0:0:0:
158,290,139952,1,0,0:0:0:0:
42,73,140102,5,0,0:0:0:0:
275,182,140252,1,0,0:0:0:0:
76,341,140402,2,0,B|55:289|55:289|79:230,1,110.399996630859,8|0,0:0|0:0,0:0:0:0:
128,21,140702,6,0,B|148:71|148:71|127:123,1,110.399996630859
113,158,140927,1,0,0:0:0:0:
113,158,141002,2,0,L|190:147,1,55.1999983154297,8|0,0:0|0:0,0:0:0:0:
375,124,141152,1,0,0:0:0:0:
259,288,141302,5,0,0:0:0:0:
493,218,141452,2,0,P|486:184|471:153,1,69.0000026321412
301,60,141602,2,0,P|286:90|280:124,1,69.0000026321412,8|0,0:0|0:0,0:0:0:0:
369,302,141752,1,0,0:0:0:0:
369,302,141827,1,0,0:0:0:0:
369,302,141902,6,0,L|211:283,1,110.399996630859
162,344,142127,1,0,0:0:0:0:
152,353,142202,2,0,P|144:333|140:295,1,55.1999983154297,8|0,0:0|0:0,0:0:0:0:
95,101,142352,1,0,0:0:0:0:
267,206,142502,5,0,0:0:0:0:
23,267,142652,1,0,0:0:0:0:
234,69,142802,1,8,0:0:0:0:
301,343,142952,1,0,0:0:0:0:
156,213,143102,6,0,L|293:204,1,110.399996630859
389,240,143327,1,0,0:0:0:0:
389,240,143402,2,0,L|378:166,1,55.1999983154297,8|0,0:0|0:0,0:0:0:0:
419,41,143552,1,0,0:0:0:0:
266,205,143702,5,0,0:0:0:0:
493,303,143852,2,0,B|462:313|462:313|425:313,1,69.0000026321412,8|0,0:0|0:0,0:0:0:0:
309,129,144002,2,0,B|278:119|278:119|241:119,1,69.0000026321412,8|0,0:0|0:0,0:0:0:0:
95,210,144152,1,0,0:0:0:0:
85,220,144227,1,0,0:0:0:0:
76,230,144302,5,4,0:0:0:0:
124,220,144377,1,0,0:0:0:0:
172,231,144452,1,0,0:0:0:0:
198,273,144527,1,0,0:0:0:0:
205,322,144602,2,0,L|226:244,1,55.1999983154297
309,129,144752,1,0,0:0:0:0:
447,200,144902,5,4,0:0:0:0:
399,190,144977,1,0,0:0:0:0:
351,201,145052,1,0,0:0:0:0:
325,243,145127,1,0,0:0:0:0:
318,292,145202,2,0,L|297:214,1,55.1999983154297
214,99,145352,1,0,0:0:0:0:
113,309,145502,5,4,0:0:0:0:
111,315,145577,1,0,0:0:0:0:
109,322,145652,1,0,0:0:0:0:
107,328,145727,1,0,0:0:0:0:
106,336,145802,2,0,L|125:248,1,55.1999983154297
214,99,145952,1,0,0:0:0:0:
405,278,146102,5,4,0:0:0:0:
406,284,146177,1,0,0:0:0:0:
408,291,146252,1,0,0:0:0:0:
410,297,146327,1,0,0:0:0:0:
412,305,146402,2,0,L|393:217,1,55.1999983154297
309,129,146552,1,0,0:0:0:0:
228,305,146702,6,0,L|238:184,1,110.4
237,194,147002,1,0,0:0:0:0:
384,75,147152,2,0,P|336:41|261:48,1,110.4
285,38,147452,1,0,0:0:0:0:
158,150,147602,2,0,P|110:184|35:177,1,110.4
82,97,147902,5,0,0:0:0:0:
392,283,148202,1,0,0:0:0:0:
269,347,148352,2,0,B|257:332|257:332|267:253,1,73.6
266,267,148577,1,0,0:0:0:0:
268,256,148652,1,0,0:0:0:0:
391,177,148802,2,0,B|403:192|403:192|391:287,1,110.4
489,145,149102,6,0,B|453:152|426:140|426:140|380:163|380:163|346:150|312:156,1,184,4|0,0:0|0:0,0:0:0:0:
139,250,149552,1,0,0:0:0:0:
166,12,149702,6,0,P|242:54|174:116,1,165.599994946289
10,151,150002,6,0,B|79:147|121:97|121:97|115:129|135:159,1,193.199994104004,2|0,0:0|0:0,0:0:0:0:
139,250,150302,5,0,0:0:0:0:
38,25,150452,1,0,0:0:0:0:
216,109,150602,1,0,0:0:0:0:
10,151,150752,1,0,0:0:0:0:
310,44,150902,6,0,L|313:171,1,110.399996630859,0|2,0:0|0:1,0:0:0:0:
315,184,151127,1,0,0:0:0:0:
315,184,151202,1,2,0:1:0:0:
418,39,151352,1,0,0:0:0:0:
238,245,151502,6,0,B|277:278|277:278|359:272|359:272|401:223,1,184
429,139,151952,1,0,0:0:0:0:
202,149,152102,6,0,B|82:154|82:154|138:199,1,165.599994946289
315,184,152402,6,0,B|313:148|313:148|328:118|328:118|301:79|301:79|317:47|317:47|313:3,1,193.199994104004,2|0,0:0|0:0,0:0:0:0:
410,13,152702,1,0,0:0:0:0:
202,149,152852,1,0,0:0:0:0:
441,257,153002,5,2,0:1:0:0:
385,322,153102,1,0,0:0:0:0:
300,309,153202,1,2,0:1:0:0:
272,227,153302,5,0,0:0:0:0:
327,161,153402,1,2,0:0:0:0:
411,174,153502,1,0,0:1:0:0:
441,257,153602,6,0,L|502:253,1,46,2|0,0:1|0:0,0:0:0:0:
485,87,153752,2,0,L|424:83,1,46
234,161,153902,6,0,B|323:124|317:213|426:168,1,184,4|0,0:0|0:0,0:0:0:0:
162,229,154352,1,0,0:0:0:0:
269,364,154502,6,0,B|290:301|271:242|271:242|245:274,1,165.599994946289
56,289,154802,6,0,B|31:345|31:345|97:331|161:329,1,193.199994104004,2|0,0:0|0:0,0:0:0:0:
244,274,155102,5,0,0:0:0:0:
17,157,155252,1,0,0:0:0:0:
228,41,155402,1,0,0:0:0:0:
228,41,155477,1,0,0:0:0:0:
228,41,155552,2,0,P|231:73|233:105,1,64.399998034668
149,228,155702,6,0,B|132:193|147:158|147:158|120:116|120:116|131:82|117:44,1,193.199994104004
45,80,156002,1,2,0:0:0:0:
225,194,156152,1,0,0:0:0:0:
76,345,156302,6,0,P|59:255|55:226,1,92
332,153,156602,1,0,0:0:0:0:
45,80,156752,1,0,0:0:0:0:
315,244,156902,2,0,P|322:198|332:153,1,92
45,80,157202,1,0,0:0:0:0:
290,11,157352,1,0,0:0:0:0:
195,272,157502,6,0,L|179:97,1,138
106,84,157802,6,0,L|40:79,2,61.3333333333333,2|0|0,0:1|0:0|0:0,0:0:0:0:
278,190,158102,2,0,L|344:195,2,61.3333333333333,2|0|0,0:1|0:0|0:0,0:0:0:0:
19,313,158402,6,0,L|146:320,1,92
397,270,158702,6,0,B|425:196|391:125|391:125|354:149|354:149|338:195,1,241.500009212494
307,284,159302,5,0,0:0:0:0:
300,283,159377,1,0,0:0:0:0:
293,282,159452,1,0,0:0:0:0:
286,281,159527,1,0,0:0:0:0:
248,251,159602,5,0,0:0:0:0:
229,206,159677,1,0,0:0:0:0:
236,158,159752,1,0,0:0:0:0:
267,121,159827,1,0,0:0:0:0:
364,180,159902,5,8,0:0:0:0:
373,185,159977,1,0,0:0:0:0:
381,192,160052,2,0,L|310:200,1,55.1999983154297
131,299,160202,5,8,0:0:0:0:
122,304,160277,1,0,0:0:0:0:
114,311,160352,2,0,L|185:319,1,55.1999983154297
166,67,160502,5,8,0:0:0:0:
115,33,160577,1,0,0:0:0:0:
54,42,160652,1,0,0:0:0:0:
18,90,160727,1,0,0:0:0:0:
20,150,160802,5,8,0:0:0:0:
62,193,160877,1,0,0:0:0:0:
122,199,160952,1,0,0:0:0:0:
170,162,161027,1,0,0:0:0:0:
179,101,161102,5,12,0:0:0:0:
179,101,161402,2,0,P|130:77|195:22,1,165.599994946289,2|0,0:0|0:0,0:0:0:0:
262,132,161702,2,0,P|260:177|271:222,1,92
33,108,162002,2,0,P|43:63|42:17,1,92
49,353,162302,5,4,0:0:0:0:
49,353,162602,2,0,P|110:317|57:269,1,165.599994946289,2|0,0:0|0:0,0:0:0:0:
10,198,162902,6,0,B|53:185|53:185|109:194,1,92
320,328,163202,2,0,B|277:341|277:341|221:332,1,92
214,74,163502,5,0,0:0:0:0:
214,74,163802,2,0,B|201:128|201:128|220:182|220:182|203:260,1,165.599994946289,4|0,0:0|0:0,0:0:0:0:
205,255,164102,2,0,L|63:239,1,110.399996630859
218,55,164402,2,0,L|359:70,1,110.399996630859,4|0,0:0|0:0,0:0:0:0:
63,318,164702,5,8,0:0:0:0:
203,149,164852,1,0,0:0:0:0:
214,147,164927,1,0,0:0:0:0:
226,146,165002,1,8,0:0:0:0:
0,108,165152,1,0,0:0:0:0:
296,234,165302,1,8,0:0:0:0:
102,55,165452,1,0,0:0:0:0:
59,335,165602,1,8,0:0:0:0:
310,240,165752,1,0,0:0:0:0:
94,38,165902,6,0,L|90:160,1,110.399996630859,4|0,0:0|0:0,0:0:0:0:
88,241,166127,1,0,0:0:0:0:
88,241,166202,1,8,0:0:0:0:
286,143,166352,1,0,0:0:0:0:
241,120,166427,1,0,0:0:0:0:
193,135,166502,1,0,0:0:0:0:
357,60,166652,1,0,0:0:0:0:
248,271,166802,6,0,P|241:230|237:179,1,55.1999983154297,8|0,0:0|0:0,0:0:0:0:
215,34,166952,2,0,P|242:33|270:34,1,55.1999983154297
432,135,167102,2,0,B|378:151|378:151|324:141,1,110.399996630859
241,120,167327,1,0,0:0:0:0:
229,120,167402,2,0,P|201:123|174:128,1,55.1999983154297,8|0,0:0|0:0,0:0:0:0:
75,237,167552,1,0,0:0:0:0:
364,320,167702,6,0,B|282:297|293:371|188:345,1,165.599994946289
109,381,168002,1,8,0:0:0:0:
109,381,168077,1,0,0:0:0:0:
109,381,168152,2,0,B|103:354|103:354|114:311,1,55.1999983154297
219,154,168302,6,0,P|231:215|223:279,1,110.399996630859
145,250,168527,1,0,0:0:0:0:
117,246,168602,1,8,0:0:0:0:
321,320,168752,1,0,0:0:0:0:
124,153,168902,5,0,0:0:0:0:
344,72,169052,1,0,0:0:0:0:
90,149,169202,1,8,0:0:0:0:
399,208,169352,1,0,0:0:0:0:
229,21,169502,6,0,L|222:165,1,110.399996630859
301,307,169727,1,0,0:0:0:0:
303,290,169802,6,0,L|310:146,1,110.399996630859,8|0,0:0|0:0,0:0:0:0:
130,85,170027,1,0,0:0:0:0:
128,102,170102,6,0,L|121:246,1,110.399996630859
117,302,170327,1,0,0:0:0:0:
117,302,170402,1,8,0:0:0:0:
308,179,170552,1,0,0:0:0:0:
21,164,170702,5,4,0:0:0:0:
314,41,170852,2,0,L|310:100,1,55.1999983154297
308,179,171002,2,0,L|434:173,1,110.399996630859,8|0,0:0|0:0,0:0:0:0:
447,171,171227,1,0,0:0:0:0:
447,171,171302,1,0,0:0:0:0:
175,309,171452,6,0,L|171:249,1,55.1999983154297
169,171,171602,2,0,L|295:177,1,110.399996630859,8|0,0:0|0:0,0:0:0:0:
308,179,171827,1,0,0:0:0:0:
308,179,171902,1,0,0:0:0:0:
36,40,172052,6,0,L|32:99,1,55.1999983154297
30,179,172202,2,0,L|156:173,1,110.399996630859,8|0,0:0|0:0,0:0:0:0:
169,171,172427,1,0,0:0:0:0:
169,171,172502,1,0,0:0:0:0:
288,339,172652,5,0,0:0:0:0:
278,51,172802,1,8,0:0:0:0:
320,19,172877,1,0,0:0:0:0:
371,12,172952,1,0,0:0:0:0:
417,31,173027,1,0,0:0:0:0:
453,64,173102,6,0,B|486:124|486:124|450:243,1,165.599994946289
425,294,173402,1,8,0:0:0:0:
278,51,173552,1,0,0:0:0:0:
163,260,173702,2,0,L|177:375,1,110.399996630859
258,174,174002,1,8,0:0:0:0:
70,355,174152,1,0,0:0:0:0:
0,125,174302,6,0,P|62:113|139:176,1,165.599994946289
163,260,174602,1,8,0:0:0:0:
136,21,174752,1,0,0:0:0:0:
39,223,174902,1,0,0:0:0:0:
39,223,174977,1,0,0:0:0:0:
39,223,175052,1,0,0:0:0:0:
388,215,175202,1,8,0:0:0:0:
233,340,175352,1,0,0:0:0:0:
237,90,175502,6,0,P|235:170|233:255,1,165.599994946289,4|0,0:0|0:0,0:0:0:0:
233,340,175802,2,0,L|319:334,1,55.1999983154297,8|0,0:0|0:0,0:0:0:0:
391,326,175952,1,0,0:0:0:0:
145,347,176102,6,0,B|93:345|64:301|64:301|52:343|22:373,1,165.599994946289
32,361,176402,1,8,0:0:0:0:
125,96,176552,2,0,L|130:151,1,55.1999983154297
143,251,176702,5,0,0:0:0:0:
114,5,176852,1,0,0:0:0:0:
0,125,177002,1,8,0:0:0:0:
324,103,177152,1,0,0:0:0:0:
324,103,177227,1,0,0:0:0:0:
324,103,177302,2,0,P|378:100|456:92,1,110.399996630859
467,89,177527,5,0,0:0:0:0:
466,144,177602,1,8,0:0:0:0:
465,199,177677,1,0,0:0:0:0:
464,254,177752,1,0,0:0:0:0:
464,309,177827,1,0,0:0:0:0:
463,359,177902,6,0,P|406:353|330:350,1,110.4
242,333,178202,2,0,B|213:289|243:247|243:247|263:283,1,110.4
362,262,178502,6,0,P|305:264|227:260,1,110.4
125,259,178802,2,0,B|154:303|124:345|124:345|104:309,1,110.4
115,329,179102,5,0,0:0:0:0:
25,116,179552,1,0,0:0:0:0:
25,116,179702,2,0,L|186:122,1,147.2
282,4,180152,6,0,L|275:71,1,36.8,8|0,3:0|0:0,0:0:0:0:
266,128,180302,1,4,0:0:0:0:
256,192,180377,12,0,184502,0:0:0:0:
319,82,184802,5,0,0:0:0:0:
319,82,184952,1,0,0:0:0:0:
319,82,185102,6,0,P|381:90|441:67,1,110.399996630859
492,10,185552,1,0,0:0:0:0:
473,157,185702,2,0,L|466:246,1,82.7999974731446
456,363,186002,6,0,L|468:211,1,124.199996209717,2|0,0:1|0:0,0:0:0:0:
465,239,186302,5,0,0:0:0:0:
231,255,186452,1,0,0:0:0:0:
317,340,186602,1,0,0:0:0:0:
299,140,186752,1,0,0:0:0:0:
131,245,186902,6,0,L|66:239,1,64.399998034668,0|2,0:0|0:1,0:0:0:0:
26,232,187127,1,0,0:0:0:0:
26,232,187202,1,2,0:1:0:0:
92,348,187352,1,0,0:0:0:0:
219,166,187502,6,0,P|246:215|235:306,1,128.799996069336
214,376,187952,1,0,0:0:0:0:
66,239,188102,6,0,L|131:245,1,64.399998034668
134,86,188402,6,0,B|107:59|107:59|121:174,1,124.199996209717,2|0,0:1|0:0,0:0:0:0:
131,245,188702,1,0,0:0:0:0:
338,195,189002,6,0,L|422:184,2,55.1999983154297,2|0|0,0:1|0:0|0:0,0:0:0:0:
188,93,189302,2,0,L|104:82,2,55.1999983154297,2|0|0,0:1|0:0|0:0,0:0:0:0:
255,21,189602,5,0,0:0:0:0:
255,21,189752,1,0,0:0:0:0:
250,167,189902,6,0,L|245:290,1,110.399996630859
151,226,190352,1,0,0:0:0:0:
223,367,190502,2,0,P|247:370|292:356,1,55.1999983154297
448,297,190802,6,0,B|406:267|406:267|314:303,1,124.199996209717,2|0,0:1|0:0,0:0:0:0:
338,293,191102,5,0,0:0:0:0:
340,163,191252,1,0,0:0:0:0:
398,373,191402,1,0,0:0:0:0:
398,373,191552,1,0,0:0:0:0:
487,129,191702,6,0,L|493:213,1,64.399998034668,0|2,0:1|0:1,0:1:0:0:
494,225,191927,1,0,0:0:0:0:
494,225,192002,1,2,0:1:0:0:
406,57,192152,1,0,0:0:0:0:
299,206,192302,6,0,P|250:219|190:182,1,96.599997052002
256,130,192602,1,0,0:0:0:0:
256,130,192752,1,0,0:0:0:0:
81,106,192902,6,0,L|187:115,1,96.599997052002
256,130,193202,1,0,0:0:0:0:
256,130,193352,1,0,0:0:0:0:
435,112,193502,6,0,L|309:124,1,96.599997052002
256,130,193802,6,0,L|252:57,2,42.933332023112,2|0|0,0:1|0:0|0:0,0:0:0:0:
256,254,194102,2,0,L|260:327,2,42.933332023112,2|0|0,0:1|0:0|0:0,0:0:0:0:
191,191,194402,5,0,0:0:0:0:
126,152,194502,5,0,0:0:0:0:
55,166,194602,5,0,0:0:0:0:
8,225,194702,5,0,0:0:0:0:
256,192,194777,12,0,197102,0:0:0:0:
437,329,200702,6,0,L|309:319,1,92,8|0,0:0|0:0,0:0:0:0:
188,153,201002,2,0,L|316:143,1,92,8|0,0:0|0:0,0:0:0:0:
437,329,201302,5,8,0:0:0:0:
421,327,201377,1,0,0:0:0:0:
406,326,201452,1,0,0:0:0:0:
391,325,201527,1,0,0:0:0:0:
375,324,201602,1,8,0:0:0:0:
360,323,201677,1,0,0:0:0:0:
345,321,201752,1,0,0:0:0:0:
188,153,201902,5,12,0:0:0:0:
176,318,202202,2,0,L|188:153,1,165.599994946289,2|0,0:0|0:0,0:0:0:0:
126,84,202502,6,0,P|180:62|225:70,1,92
410,54,202802,2,0,P|356:32|311:40,1,92
362,292,203102,5,4,0:0:0:0:
350,126,203402,2,0,L|362:292,1,165.599994946289,2|0,0:0|0:0,0:0:0:0:
263,243,203702,6,0,P|224:270|197:336,1,92
202,307,204002,2,0,P|159:287|89:298,1,92
27,332,204302,1,0,0:0:0:0:
191,45,204602,6,0,B|204:183|204:183|149:130,1,193.199994104004,4|0,0:0|0:0,0:0:0:0:
164,145,204902,6,0,P|206:118|261:122,1,92
322,165,205202,6,0,B|309:303|309:303|364:250,1,193.199994104004,4|0,0:0|0:0,0:0:0:0:
404,212,205502,5,12,0:0:0:0:
134,281,205652,1,0,0:0:0:0:
134,281,205727,1,0,0:0:0:0:
134,281,205802,1,8,0:0:0:0:
375,353,205952,1,0,0:0:0:0:
261,71,206102,5,8,0:0:0:0:
220,365,206252,1,0,0:0:0:0:
269,78,206402,1,8,0:0:0:0:
228,372,206552,1,0,0:0:0:0:
24,220,206702,6,0,L|168:206,1,110.399996630859,4|0,0:0|0:0,0:0:0:0:
240,199,206927,1,0,0:0:0:0:
240,199,207002,1,8,0:0:0:0:
391,338,207152,2,0,P|402:317|410:273,1,55.1999983154297
494,163,207302,6,0,L|350:149,1,110.399996630859
297,89,207527,1,0,0:0:0:0:
297,89,207602,2,0,L|301:188,1,55.1999983154297,8|0,0:0|0:0,0:0:0:0:
308,287,207752,1,0,0:0:0:0:
384,152,207902,5,0,0:0:0:0:
178,278,208052,2,0,L|180:222,1,55.1999983154297
183,139,208202,1,8,0:0:0:0:
175,364,208352,1,0,0:0:0:0:
308,287,208502,5,0,0:0:0:0:
36,303,208652,1,0,0:0:0:0:
36,303,208727,1,0,0:0:0:0:
36,303,208802,2,0,P|65:314|100:318,1,55.1999983154297,8|0,0:0|0:0,0:0:0:0:
231,207,208952,1,0,0:0:0:0:
231,360,209102,6,0,B|199:284|199:284|238:193,1,165.599994946289
269,121,209402,1,10,0:1:0:0:
37,184,209552,1,0,0:0:0:0:
130,47,209702,5,0,0:0:0:0:
278,215,209852,2,0,P|304:209|328:195,1,55.1999983154297
406,51,210002,2,0,P|396:76|397:103,1,55.1999983154297,8|0,0:0|0:0,0:0:0:0:
476,250,210152,2,0,P|457:228|433:214,1,55.1999983154297
269,121,210302,6,0,L|157:135,1,110.399996630859
77,78,210527,1,0,0:0:0:0:
77,78,210602,6,0,B|54:129|54:129|75:200,1,110.399996630859,10|0,0:0|0:0,0:0:0:0:
92,282,210827,1,0,0:0:0:0:
96,296,210902,5,2,0:0:0:0:
134,256,210977,1,0,0:0:0:0:
188,249,211052,1,0,0:0:0:0:
240,266,211127,1,0,0:0:0:0:
277,306,211202,1,10,0:0:0:0:
324,333,211277,1,0,0:0:0:0:
379,329,211352,1,0,0:0:0:0:
424,298,211427,1,0,0:0:0:0:
439,245,211502,2,0,L|427:103,1,110.399996630859,4|0,0:0|0:0,0:0:0:0:
178,359,211802,6,0,L|190:217,1,110.399996630859,8|0,0:0|0:0,0:0:0:0:
232,154,212027,1,0,0:0:0:0:
232,154,212102,2,0,L|163:159,1,55.1999983154297
58,168,212252,1,0,0:0:0:0:
307,57,212402,6,0,L|319:199,1,110.399996630859,8|0,0:0|0:0,0:0:0:0:
361,262,212627,1,0,0:0:0:0:
361,262,212702,2,0,L|292:257,1,55.1999983154297
187,248,212852,1,0,0:0:0:0:
436,358,213002,6,0,L|448:216,1,110.399996630859,8|0,0:0|0:0,0:0:0:0:
490,153,213227,1,0,0:0:0:0:
490,153,213302,2,0,L|421:158,1,55.1999983154297
316,167,213452,1,0,0:0:0:0:
436,358,213602,1,8,0:0:0:0:
460,67,213752,1,0,0:0:0:0:
331,255,213902,6,0,P|263:240|237:129,1,165.599994946289
227,158,214202,2,0,P|222:185|211:210,1,55.1999983154297,8|0,0:0|0:0,0:0:0:0:
164,312,214352,1,0,0:0:0:0:
48,154,214502,5,0,0:0:0:0:
78,366,214652,2,0,P|67:340|62:313,1,55.1999983154297
117,228,214802,2,0,P|198:220|255:282,1,165.599994946289,8|0,0:0|0:0,0:0:0:0:
276,355,215102,5,0,0:0:0:0:
359,127,215252,1,0,0:0:0:0:
468,256,215402,2,0,P|411:279|343:259,1,110.399996630859,8|0,0:0|0:0,0:0:0:0:
216,91,215702,5,0,0:0:0:0:
276,355,215852,1,0,0:0:0:0:
365,272,216002,1,8,0:0:0:0:
41,323,216152,1,0,0:0:0:0:
109,176,216302,5,4,0:0:0:0:
182,358,216452,1,0,0:0:0:0:
182,358,216527,1,0,0:0:0:0:
182,358,216602,2,0,L|185:286,1,55.1999983154297,8|0,0:0|0:0,0:0:0:0:
246,197,216752,1,0,0:0:0:0:
311,307,216902,5,0,0:0:0:0:
384,125,217052,1,0,0:0:0:0:
384,125,217127,1,0,0:0:0:0:
384,125,217202,2,0,L|387:197,1,55.1999983154297,8|0,0:0|0:0,0:0:0:0:
448,286,217352,1,0,0:0:0:0:
246,197,217502,5,0,0:0:0:0:
254,363,217652,1,0,0:0:0:0:
254,363,217727,1,0,0:0:0:0:
254,363,217802,2,0,L|251:291,1,55.1999983154297,8|0,0:0|0:0,0:0:0:0:
240,91,217952,1,0,0:0:0:0:
457,229,218102,5,0,0:0:0:0:
246,197,218252,2,0,L|326:183,1,55.1999983154297
381,173,218402,1,8,0:0:0:0:
23,230,218552,2,0,L|103:244,1,55.1999983154297
158,254,218702,5,0,0:0:0:0:
190,55,219002,1,0,0:0:0:0:
299,112,219302,1,0,0:0:0:0:
282,235,219602,1,0,0:0:0:0:
101,144,219902,6,0,L|214:152,1,103.500003948212
299,112,220202,2,0,L|337:103,3,34.5000013160706
237,50,220502,5,0,0:0:0:0:
262,209,220802,1,0,0:0:0:0:
262,209,221102,6,0,B|224:244|205:286|205:286|232:327|281:362,1,193.199994104004,6|0,0:0|0:0,0:0:0:0:
419,348,221402,2,0,B|457:313|476:271|476:271|449:230|400:195,1,193.199994104004,6|0,0:0|0:0,0:0:0:0:
349,384,221702,1,6,0:0:0:0:
4,265,222302,6,0,B|-34:230|-53:188|-53:188|-26:147|23:112,1,193.199994104004,6|0,0:0|0:0,0:0:0:0:
161,126,222602,2,0,B|199:161|218:203|218:203|191:244|142:279,1,193.199994104004,6|0,0:0|0:0,0:0:0:0:
91,90,222902,1,6,0:0:0:0:
423,59,223502,6,0,B|461:94|480:136|480:136|453:177|404:212,1,193.199994104004,6|0,0:0|0:0,0:0:0:0:
266,198,223802,2,0,B|228:163|209:121|209:121|236:80|285:45,1,193.199994104004,6|0,0:0|0:0,0:0:0:0:
336,234,224102,5,2,0:0:0:0:
349,33,224252,1,8,0:0:0:0:
210,121,224402,1,2,0:0:0:0:
480,138,224552,1,8,0:0:0:0:
263,275,224702,6,0,B|120:267|120:267|212:225,1,193.199994104004,6|0,0:0|0:0,0:0:0:0:
336,234,225002,2,0,B|479:242|479:242|387:284,1,193.199994104004,6|0,0:0|0:0,0:0:0:0:
268,194,225302,1,6,0:0:0:0:
268,194,225602,2,0,L|274:66,1,92
121,15,225902,6,0,B|161:46|203:41|203:41|246:0|298:14,1,193.199994104004,6|0,0:0|0:0,0:0:0:0:
450,101,226202,2,0,B|410:70|368:75|368:75|325:116|272:101,1,193.199994104004,6|0,0:0|0:0,0:0:0:0:
173,132,226502,1,6,0:0:0:0:
368,261,227102,6,0,B|328:292|286:287|286:287|243:246|190:260,1,193.199994104004,6|0,0:0|0:0,0:0:0:0:
39,347,227402,2,0,B|79:316|121:321|121:321|164:362|216:347,1,193.199994104004,6|0,0:0|0:0,0:0:0:0:
316,378,227702,1,6,0:0:0:0:
67,79,228152,6,0,P|61:105|58:147,1,64.399998034668
259,135,228302,2,0,P|249:96|154:147,1,193.199994104004,6|0,0:0|0:0,0:0:0:0:
33,282,228602,2,0,P|43:243|138:294,1,193.199994104004,6|0,0:0|0:0,0:0:0:0:
41,368,228902,5,2,0:0:0:0:
57,142,229052,1,8,0:0:0:0:
239,266,229202,1,2,0:0:0:0:
19,378,229352,1,8,0:0:0:0:
174,168,229502,6,0,L|177:145,6,16.099999508667,6|0|0|0|0|0|0,0:0|0:0|0:0|0:0|0:0|0:0|0:0,0:0:0:0:
75,269,229802,6,0,L|82:235,6,25.3000007720948,6|0|0|0|0|0|0,0:0|0:0|0:0|0:0|0:0|0:0|0:0,0:0:0:0:
232,299,230102,6,0,L|240:259,14,34.5000013160706,6|0|0|0|0|0|0|0|0|0|0|0|0|0|0,0:0|0:0|0:0|0:0|0:0|0:0|0:0|0:0|0:0|0:0|0:0|0:0|0:0|0:0|0:0,0:0:0:0:
142,354,230702,5,2,0:0:0:0:
329,186,230852,1,8,3:1:0:0:
30,146,231002,1,12,3:1:0:0:
256,192,231039,12,0,236702,0:0:0:0:
