osu file format v14

[General]
AudioFilename: audio.mp3
AudioLeadIn: 0
PreviewTime: -1
Countdown: 0
SampleSet: None
StackLeniency: 0.7
Mode: 3
LetterboxInBreaks: 0
SpecialStyle: 0
WidescreenStoryboard: 0

[Editor]
DistanceSpacing: 0.8
BeatDivisor: 4
GridSize: 32
TimelineZoom: 1.6

[Metadata]
Title:Be Wild
TitleUnicode:Be Wild
Artist:Camellia feat. Yukacco
ArtistUnicode:Camellia feat. Yukacco
Creator:K4rotex
Version:I Wanna Be Wlid
Source:
Tags:Trap Yukacco Camellia Be Wild LN
BeatmapID:2083967
BeatmapSetID:996320

[Difficulty]
HPDrainRate:9
CircleSize:4
OverallDifficulty:7
ApproachRate:5
SliderMultiplier:1.4
SliderTickRate:1

[Events]
//Background and Video events
0,0,"Konachan.com - 256912 sample.jpg",0,0
//Break Periods
//Storyboard Layer 0 (Background)
//Storyboard Layer 1 (Fail)
//Storyboard Layer 2 (Pass)
//Storyboard Layer 3 (Foreground)
//Storyboard Sound Samples

[TimingPoints]
260,375,4,2,0,5,1,0
447,-100,4,2,0,6,0,0
635,-100,4,2,0,7,0,0
822,-100,4,2,0,8,0,0
1010,-100,4,2,0,9,0,0
1197,-100,4,2,0,10,0,0
1385,-100,4,2,0,11,0,0
1572,-100,4,2,0,12,0,0
1760,-100,4,2,0,13,0,0
1947,-100,4,2,0,14,0,0
2135,-100,4,2,0,15,0,0
2322,-100,4,2,0,16,0,0
2510,-100,4,2,0,17,0,0
2697,-100,4,2,0,18,0,0
2885,-100,4,2,0,19,0,0
3072,-100,4,2,0,20,0,0
3260,-100,4,2,0,21,0,0
3447,-100,4,2,0,22,0,0
3635,-100,4,2,0,23,0,0
3822,-100,4,2,0,24,0,0
4010,-100,4,2,0,25,0,0
4197,-100,4,2,0,26,0,0
4385,-100,4,2,0,27,0,0
4572,-100,4,2,0,28,0,0
4760,-100,4,2,0,29,0,0
4947,-100,4,2,0,30,0,0
5135,-100,4,2,0,31,0,0
5322,-100,4,2,0,32,0,0
5510,-100,4,2,0,33,0,0
5697,-100,4,2,0,34,0,0
5885,-100,4,2,0,35,0,0
6072,-100,4,2,0,36,0,0
6260,-100,4,2,0,37,0,0
6447,-100,4,2,0,38,0,0
6635,-100,4,2,0,39,0,0
6822,-100,4,2,0,40,0,0
7010,-100,4,2,0,41,0,0
7197,-100,4,2,0,42,0,0
7385,-100,4,2,0,43,0,0
7572,-100,4,2,0,44,0,0
7760,-100,4,2,0,45,0,0
7947,-100,4,2,0,46,0,0
8135,-100,4,2,0,47,0,0
8322,-100,4,2,0,48,0,0
8510,-100,4,2,0,49,0,0
8697,-100,4,2,0,50,0,0
8885,-100,4,2,0,51,0,0
9072,-100,4,2,0,52,0,0
9260,-100,4,2,0,14,0,0
9447,-100,4,2,0,53,0,0
9635,-100,4,2,0,54,0,0
9822,-100,4,2,0,55,0,0
10010,-100,4,2,0,56,0,0
10197,-100,4,2,0,57,0,0
10385,-100,4,2,0,58,0,0
10572,-100,4,2,0,59,0,0
10760,-100,4,2,0,75,0,0
12260,-100,4,2,0,40,0,0
17697,-100,4,3,0,80,0,0
18260,-100,4,2,0,40,0,0
20791,-100,4,3,0,80,0,0
21260,-100,4,2,0,40,0,0
22572,-100,4,3,0,80,0,0
22947,-100,4,3,0,40,0,0
24260,-100,4,2,0,40,0,0
26885,-100,4,3,0,80,0,0
27260,-100,4,2,0,40,0,0
29885,-100,4,3,0,80,0,0
30260,-100,4,2,0,40,0,0
32885,-66.6666666666667,4,2,0,40,0,0
33260,-100,4,3,0,40,0,0
34666,-100,4,3,0,80,0,0
34947,-100,4,2,0,40,0,0
36442,-111.111111111111,4,2,0,5,0,0
58760,-100,4,2,0,5,0,0
59885,-100,4,3,0,80,0,0
60260,-100,4,2,0,40,0,0
62885,-100,4,3,0,80,0,0
63260,-100,4,2,0,40,0,0
65978,-100,4,3,0,80,0,0
66260,-100,4,2,0,40,0,0
68885,-100,4,3,0,80,0,0
69260,-100,4,2,0,20,0,0
72260,-100,4,3,0,30,0,0
83947,-142.857142857143,4,2,0,40,0,0
84010,-111.111111111111,4,2,0,40,0,0
84072,-90.9090909090909,4,2,0,40,0,0
84135,-76.9230769230769,4,2,0,40,0,0
84197,-66.6666666666667,4,2,0,40,0,0
84260,-58.8235294117647,4,2,0,40,0,0
84322,-100,4,2,0,40,0,0
84635,-100,4,2,0,40,0,1
93260,-100,4,3,0,40,0,0
96260,-100,4,2,0,40,0,1
105260,-100,4,3,0,40,0,0
108260,-100,4,2,0,25,0,0
120260,-100,4,2,0,25,0,1
129260,-100,4,3,0,40,0,0
132260,-100,4,2,0,25,0,1
141260,-100,4,3,0,40,0,0
144260,-400,4,1,0,100,0,0
151610,-200,4,3,0,40,0,0
151697,-133.333333333333,4,1,0,100,0,0
151760,-100,4,2,0,10,0,0
168260,-100,4,2,0,40,0,0
170947,-100,4,3,0,80,0,0
171260,-100,4,2,0,40,0,0
173822,-100,4,3,0,80,0,0
174260,-100,4,2,0,40,0,0
176885,-100,4,3,0,80,0,0
177260,-100,4,2,0,40,0,0
178572,-100,4,3,0,80,0,0
178947,-100,4,2,0,40,0,0
182885,-100,4,3,0,80,0,0
183260,-100,4,2,0,40,0,0
185885,-100,4,3,0,80,0,0
186260,-100,4,2,0,40,0,0
188885,-66.6666666666667,4,3,0,80,0,0
189260,-100,4,2,0,40,0,0
190572,-100,4,3,0,80,0,0
190947,-100,4,2,0,40,0,0
192260,-111.111111111111,4,2,0,10,0,0
213072,-100,4,2,0,10,0,0
215510,-100,4,3,0,80,0,0
216260,-100,4,2,0,40,0,0
218885,-100,4,3,0,80,0,0
219260,-100,4,2,0,40,0,0
221947,-100,4,3,0,80,0,0
222260,-100,4,2,0,40,0,0
224885,-100,4,3,0,80,0,0
225260,-100,4,2,0,40,0,0
240260,-100,4,2,0,40,0,1
249260,-100,4,2,0,40,0,0
252260,-100,4,2,0,40,0,1
261260,-100,4,2,0,40,0,0
264260,-100,4,1,0,5,0,0
288260,-100,4,3,0,100,0,0

[HitObjects]
320,192,260,5,0,0:0:0:0:
192,192,447,1,0,0:0:0:0:
448,192,635,1,0,0:0:0:0:
64,192,822,1,0,0:0:0:0:
320,192,1010,1,0,0:0:0:0:
192,192,1197,1,0,0:0:0:0:
64,192,1385,1,0,0:0:0:0:
448,192,1572,1,0,0:0:0:0:
192,192,1760,1,0,0:0:0:0:
320,192,1947,1,0,0:0:0:0:
448,192,2135,1,0,0:0:0:0:
64,192,2322,1,0,0:0:0:0:
320,192,2510,1,0,0:0:0:0:
192,192,2697,1,0,0:0:0:0:
64,192,2885,1,0,0:0:0:0:
192,192,3072,1,0,0:0:0:0:
448,192,3260,1,0,0:0:0:0:
320,192,3447,1,0,0:0:0:0:
64,192,3635,1,0,0:0:0:0:
448,192,3822,1,0,0:0:0:0:
192,192,4010,1,0,0:0:0:0:
320,192,4197,1,0,0:0:0:0:
64,192,4385,1,0,0:0:0:0:
320,192,4572,1,0,0:0:0:0:
192,192,4760,1,0,0:0:0:0:
448,192,4947,1,0,0:0:0:0:
64,192,5135,1,0,0:0:0:0:
320,192,5322,1,0,0:0:0:0:
192,192,5510,1,0,0:0:0:0:
64,192,5697,1,0,0:0:0:0:
448,192,5885,1,0,0:0:0:0:
192,192,6072,1,0,0:0:0:0:
320,192,6260,1,0,0:0:0:0:
448,192,6447,1,0,0:0:0:0:
192,192,6635,1,0,0:0:0:0:
320,192,6822,1,0,0:0:0:0:
64,192,7010,1,0,0:0:0:0:
448,192,7197,1,0,0:0:0:0:
320,192,7385,1,0,0:0:0:0:
192,192,7572,1,0,0:0:0:0:
448,192,7760,1,0,0:0:0:0:
64,192,7947,1,0,0:0:0:0:
320,192,8135,1,0,0:0:0:0:
192,192,8322,1,0,0:0:0:0:
448,192,8510,1,0,0:0:0:0:
320,192,8697,1,0,0:0:0:0:
64,192,8885,1,0,0:0:0:0:
192,192,9072,1,0,0:0:0:0:
320,192,9260,1,0,0:0:0:0:
448,192,9447,1,0,0:0:0:0:
192,192,9635,1,0,0:0:0:0:
64,192,9822,1,0,0:0:0:0:
320,192,10010,1,0,0:0:0:0:
448,192,10197,1,0,0:0:0:0:
64,192,10385,1,0,0:0:0:0:
192,192,10572,1,0,0:0:0:0:
448,192,10760,1,0,0:0:0:0:
320,192,10760,1,0,0:0:0:0:
448,192,10947,1,0,0:0:0:0:
64,192,11135,1,0,0:0:0:0:
192,192,11135,1,0,0:0:0:0:
64,192,11322,1,0,0:0:0:0:
448,192,11510,1,0,0:0:0:0:
320,192,11510,1,0,0:0:0:0:
448,192,11697,1,0,0:0:0:0:
320,192,11760,1,0,0:0:0:0:
192,192,11822,1,0,0:0:0:0:
64,192,11885,1,0,0:0:0:0:
448,192,11885,1,0,0:0:0:0:
64,192,12072,1,0,0:0:0:0:
448,192,12072,1,0,0:0:0:0:
448,192,12260,128,0,12822:0:0:0:0:
320,192,12260,128,0,12635:0:0:0:0:
192,192,12260,128,0,12447:0:0:0:0:
64,192,12822,128,0,13010:0:0:0:0:
192,192,12822,128,0,12916:0:0:0:0:
320,192,12822,1,0,0:0:0:0:
448,192,13010,128,0,13260:0:0:0:0:
192,192,13291,128,0,13572:0:0:0:0:
448,192,13885,128,0,14197:0:0:0:0:
192,192,14135,128,0,14510:0:0:0:0:
320,192,14322,128,0,14697:0:0:0:0:
64,192,14510,128,0,14760:0:0:0:0:
448,192,14697,128,0,14814:0:0:0:0:
192,192,14791,1,0,0:0:0:0:
64,192,14885,1,0,0:0:0:0:
448,192,14955,1,0,0:0:0:0:
320,192,15002,1,0,0:0:0:0:
192,192,15072,1,0,0:0:0:0:
64,192,15142,1,0,0:0:0:0:
320,192,15260,128,0,15377:0:0:0:0:
192,192,15260,128,0,15517:0:0:0:0:
448,192,15260,128,0,15635:0:0:0:0:
64,192,15822,128,0,16010:0:0:0:0:
320,192,15822,128,0,15916:0:0:0:0:
192,192,15822,1,0,0:0:0:0:
448,192,16010,128,0,16572:0:0:0:0:
192,192,16267,128,0,16572:0:0:0:0:
448,192,16947,128,0,17228:0:0:0:0:
64,192,17135,128,0,17322:0:0:0:0:
320,192,17322,128,0,17510:0:0:0:0:
64,192,17572,1,0,0:0:0:0:
192,192,17603,1,0,0:0:0:0:
448,192,17627,128,0,17814:0:0:0:0:
320,192,17635,1,0,0:0:0:0:
64,192,17697,1,0,0:0:0:0:
192,192,17767,1,0,0:0:0:0:
320,192,17814,1,0,0:0:0:0:
64,192,17885,1,0,0:0:0:0:
192,192,17955,1,0,0:0:0:0:
320,192,18002,1,0,0:0:0:0:
448,192,18072,1,0,0:0:0:0:
192,192,18260,128,0,18635:0:0:0:0:
64,192,18260,128,0,18377:0:0:0:0:
320,192,18260,128,0,18517:0:0:0:0:
320,192,18822,128,0,19010:0:0:0:0:
192,192,18822,128,0,18916:0:0:0:0:
448,192,18822,1,0,0:0:0:0:
64,192,19010,128,0,19478:0:0:0:0:
448,192,19197,128,0,19502:0:0:0:0:
320,192,19947,128,0,20135:0:0:0:0:
192,192,20135,128,0,20322:0:0:0:0:
448,192,20228,128,0,20416:0:0:0:0:
64,192,20322,128,0,20580:0:0:0:0:
448,192,20510,128,0,20885:0:0:0:0:
320,192,20697,128,0,20885:0:0:0:0:
64,192,20767,1,0,0:0:0:0:
192,192,20814,1,0,0:0:0:0:
64,192,20955,1,0,0:0:0:0:
192,192,21002,1,0,0:0:0:0:
320,192,21072,1,0,0:0:0:0:
448,192,21135,1,0,0:0:0:0:
64,192,21260,128,0,22572:0:0:0:0:
192,192,21260,1,0,0:0:0:0:
448,192,21447,128,0,21635:0:0:0:0:
320,192,21635,128,0,21822:0:0:0:0:
192,192,21822,128,0,22010:0:0:0:0:
448,192,21822,1,0,0:0:0:0:
320,192,22010,128,0,22572:0:0:0:0:
448,192,22010,1,0,0:0:0:0:
192,192,22197,1,0,0:0:0:0:
448,192,22385,1,0,0:0:0:0:
192,192,22385,1,0,0:0:0:0:
448,192,22572,1,0,0:0:0:0:
320,192,22666,1,0,0:0:0:0:
192,192,22760,1,0,0:0:0:0:
64,192,22853,1,0,0:0:0:0:
448,192,22947,128,0,24072:0:0:0:0:
320,192,22947,128,0,23135:0:0:0:0:
192,192,22947,1,0,0:0:0:0:
192,192,23135,128,0,23322:0:0:0:0:
64,192,23228,128,0,23416:0:0:0:0:
320,192,23322,128,0,24072:0:0:0:0:
64,192,23510,128,0,24072:0:0:0:0:
192,192,23510,1,0,0:0:0:0:
192,192,23697,1,0,0:0:0:0:
192,192,23885,1,0,0:0:0:0:
192,192,24072,1,0,0:0:0:0:
64,192,24260,128,0,24635:0:0:0:0:
320,192,24260,128,0,24517:0:0:0:0:
448,192,24260,128,0,24377:0:0:0:0:
192,192,24822,128,0,25010:0:0:0:0:
448,192,24822,128,0,24916:0:0:0:0:
64,192,24822,1,0,0:0:0:0:
320,192,25010,128,0,25267:0:0:0:0:
64,192,25267,128,0,25572:0:0:0:0:
448,192,25947,128,0,26205:0:0:0:0:
320,192,26135,128,0,26392:0:0:0:0:
192,192,26135,1,0,0:0:0:0:
192,192,26322,128,0,26580:0:0:0:0:
64,192,26322,1,0,0:0:0:0:
64,192,26510,128,0,26697:0:0:0:0:
320,192,26510,1,0,0:0:0:0:
448,192,26697,128,0,27072:0:0:0:0:
192,192,26697,1,0,0:0:0:0:
320,192,26885,1,0,0:0:0:0:
192,192,26955,1,0,0:0:0:0:
64,192,27002,1,0,0:0:0:0:
320,192,27072,1,0,0:0:0:0:
192,192,27142,1,0,0:0:0:0:
64,192,27189,1,0,0:0:0:0:
192,192,27260,128,0,27377:0:0:0:0:
320,192,27260,128,0,27517:0:0:0:0:
448,192,27260,128,0,27635:0:0:0:0:
64,192,27822,128,0,28010:0:0:0:0:
192,192,27822,128,0,27916:0:0:0:0:
320,192,27822,1,0,0:0:0:0:
448,192,28010,128,0,28260:0:0:0:0:
320,192,28260,128,0,28447:0:0:0:0:
64,192,28947,128,0,29135:0:0:0:0:
320,192,29135,1,0,0:0:0:0:
192,192,29135,128,0,29322:0:0:0:0:
448,192,29197,1,0,0:0:0:0:
320,192,29275,1,0,0:0:0:0:
64,192,29322,128,0,29510:0:0:0:0:
448,192,29322,1,0,0:0:0:0:
448,192,29447,1,0,0:0:0:0:
192,192,29510,128,0,29697:0:0:0:0:
320,192,29510,1,0,0:0:0:0:
448,192,29627,1,0,0:0:0:0:
320,192,29697,1,0,0:0:0:0:
64,192,29767,128,0,30260:0:0:0:0:
192,192,29885,1,0,0:0:0:0:
320,192,29947,1,0,0:0:0:0:
448,192,30010,1,0,0:0:0:0:
192,192,30072,1,0,0:0:0:0:
320,192,30135,1,0,0:0:0:0:
448,192,30260,128,0,30635:0:0:0:0:
192,192,30260,128,0,30447:0:0:0:0:
320,192,30822,128,0,31010:0:0:0:0:
64,192,30822,128,0,31010:0:0:0:0:
448,192,31010,128,0,31502:0:0:0:0:
192,192,31197,128,0,31502:0:0:0:0:
64,192,31947,128,0,32135:0:0:0:0:
448,192,31947,128,0,33260:0:0:0:0:
192,192,32135,128,0,32322:0:0:0:0:
320,192,32322,128,0,32510:0:0:0:0:
64,192,32510,128,0,32697:0:0:0:0:
192,192,32697,128,0,33260:0:0:0:0:
320,192,33260,128,0,34478:0:0:0:0:
64,192,33260,1,0,0:0:0:0:
448,192,33447,128,0,33635:0:0:0:0:
64,192,33635,128,0,33822:0:0:0:0:
192,192,33822,128,0,34010:0:0:0:0:
448,192,33822,1,0,0:0:0:0:
448,192,34010,128,0,34572:0:0:0:0:
64,192,34197,128,0,34572:0:0:0:0:
192,192,34197,1,0,0:0:0:0:
192,192,34385,1,0,0:0:0:0:
192,192,34572,1,0,0:0:0:0:
320,192,34666,1,0,0:0:0:0:
448,192,34760,1,0,0:0:0:0:
64,192,34760,1,0,0:0:0:0:
192,192,34947,128,0,36260:0:0:0:0:
448,192,34947,128,0,35064:0:0:0:0:
64,192,35064,128,0,35205:0:0:0:0:
320,192,35205,128,0,35322:0:0:0:0:
448,192,35322,128,0,36260:0:0:0:0:
64,192,35510,128,0,36260:0:0:0:0:
320,192,35510,1,0,0:0:0:0:
320,192,35697,1,0,0:0:0:0:
320,192,35885,1,0,0:0:0:0:
320,192,36072,1,0,0:0:0:0:
320,192,36260,1,0,0:0:0:0:
448,192,36447,128,0,37760:0:0:0:0:
64,192,36635,128,0,37760:0:0:0:0:
192,192,36916,128,0,37760:0:0:0:0:
320,192,37947,128,0,38135:0:0:0:0:
64,192,38135,128,0,38322:0:0:0:0:
192,192,38322,128,0,38697:0:0:0:0:
448,192,38697,128,0,39260:0:0:0:0:
64,192,39072,128,0,39260:0:0:0:0:
320,192,39447,128,0,40760:0:0:0:0:
64,192,39635,128,0,40760:0:0:0:0:
192,192,39822,128,0,40760:0:0:0:0:
448,192,40947,128,0,41135:0:0:0:0:
192,192,41135,128,0,41322:0:0:0:0:
320,192,41322,128,0,41885:0:0:0:0:
64,192,41697,128,0,42260:0:0:0:0:
448,192,42072,128,0,42260:0:0:0:0:
192,192,42260,128,0,43010:0:0:0:0:
320,192,42447,128,0,43010:0:0:0:0:
448,192,42635,128,0,43010:0:0:0:0:
64,192,42822,128,0,44885:0:0:0:0:
448,192,43385,128,0,43760:0:0:0:0:
192,192,43760,128,0,44135:0:0:0:0:
320,192,44135,128,0,44885:0:0:0:0:
448,192,44885,128,0,45072:0:0:0:0:
192,192,45072,128,0,45635:0:0:0:0:
64,192,45260,128,0,45635:0:0:0:0:
320,192,45635,128,0,45822:0:0:0:0:
64,192,45822,128,0,48260:0:0:0:0:
448,192,46385,128,0,46760:0:0:0:0:
320,192,46760,128,0,47135:0:0:0:0:
192,192,47135,128,0,47322:0:0:0:0:
448,192,47322,128,0,48260:0:0:0:0:
320,192,48447,128,0,49760:0:0:0:0:
192,192,48635,128,0,49760:0:0:0:0:
448,192,48822,128,0,49760:0:0:0:0:
64,192,49947,128,0,50135:0:0:0:0:
192,192,50135,128,0,50322:0:0:0:0:
320,192,50322,128,0,50697:0:0:0:0:
448,192,50697,128,0,51072:0:0:0:0:
64,192,51072,128,0,51260:0:0:0:0:
320,192,51447,128,0,51822:0:0:0:0:
192,192,51635,128,0,51822:0:0:0:0:
448,192,51822,128,0,52572:0:0:0:0:
64,192,52947,128,0,53322:0:0:0:0:
192,192,53135,128,0,53322:0:0:0:0:
320,192,53322,128,0,53697:0:0:0:0:
64,192,53697,128,0,54072:0:0:0:0:
448,192,54072,128,0,54822:0:0:0:0:
192,192,54260,128,0,54822:0:0:0:0:
320,192,54447,128,0,54822:0:0:0:0:
64,192,54822,128,0,56885:0:0:0:0:
448,192,55385,128,0,55760:0:0:0:0:
192,192,55760,128,0,56322:0:0:0:0:
320,192,56322,128,0,56885:0:0:0:0:
192,192,56885,128,0,57072:0:0:0:0:
448,192,57072,128,0,57260:0:0:0:0:
64,192,57260,128,0,58760:0:0:0:0:
320,192,57447,128,0,58760:0:0:0:0:
192,192,58760,1,0,0:0:0:0:
448,192,58760,1,0,0:0:0:0:
320,192,59135,1,0,0:0:0:0:
64,192,59135,1,0,0:0:0:0:
192,192,59135,1,0,0:0:0:0:
192,192,59510,1,0,0:0:0:0:
448,192,59510,1,0,0:0:0:0:
320,192,59510,1,0,0:0:0:0:
320,192,59885,1,0,0:0:0:0:
192,192,59885,1,0,0:0:0:0:
64,192,59885,1,0,0:0:0:0:
448,192,59885,1,0,0:0:0:0:
64,192,60260,128,0,60635:0:0:0:0:
192,192,60260,128,0,60517:0:0:0:0:
320,192,60260,128,0,60377:0:0:0:0:
448,192,60822,128,0,61010:0:0:0:0:
320,192,60822,128,0,60916:0:0:0:0:
192,192,60822,1,0,0:0:0:0:
64,192,61010,128,0,61197:0:0:0:0:
192,192,61197,128,0,61760:0:0:0:0:
320,192,61385,1,0,0:0:0:0:
448,192,61385,1,0,0:0:0:0:
320,192,61572,1,0,0:0:0:0:
448,192,61572,1,0,0:0:0:0:
320,192,61760,1,0,0:0:0:0:
448,192,61760,1,0,0:0:0:0:
320,192,61947,128,0,62205:0:0:0:0:
64,192,62135,128,0,62392:0:0:0:0:
448,192,62322,128,0,62580:0:0:0:0:
192,192,62510,128,0,62885:0:0:0:0:
320,192,62697,128,0,62885:0:0:0:0:
64,192,62767,1,0,0:0:0:0:
448,192,62814,1,0,0:0:0:0:
64,192,62955,1,0,0:0:0:0:
192,192,63002,1,0,0:0:0:0:
320,192,63072,1,0,0:0:0:0:
448,192,63142,1,0,0:0:0:0:
192,192,63260,128,0,63635:0:0:0:0:
320,192,63260,128,0,63517:0:0:0:0:
64,192,63260,128,0,63377:0:0:0:0:
320,192,63822,128,0,64010:0:0:0:0:
192,192,63822,128,0,63916:0:0:0:0:
448,192,63822,1,0,0:0:0:0:
64,192,64010,128,0,64197:0:0:0:0:
448,192,64197,128,0,64760:0:0:0:0:
320,192,64385,1,0,0:0:0:0:
192,192,64385,1,0,0:0:0:0:
192,192,64572,1,0,0:0:0:0:
320,192,64572,1,0,0:0:0:0:
192,192,64760,1,0,0:0:0:0:
320,192,64760,1,0,0:0:0:0:
320,192,64947,128,0,65205:0:0:0:0:
192,192,65135,128,0,65392:0:0:0:0:
448,192,65322,128,0,65510:0:0:0:0:
64,192,65510,128,0,66072:0:0:0:0:
320,192,65510,1,0,0:0:0:0:
448,192,65627,1,0,0:0:0:0:
192,192,65697,128,0,66072:0:0:0:0:
320,192,65767,1,0,0:0:0:0:
448,192,65955,1,0,0:0:0:0:
320,192,66002,1,0,0:0:0:0:
448,192,66142,1,0,0:0:0:0:
320,192,66189,1,0,0:0:0:0:
64,192,66260,128,0,66635:0:0:0:0:
192,192,66260,128,0,66517:0:0:0:0:
448,192,66260,128,0,66377:0:0:0:0:
448,192,66822,128,0,67010:0:0:0:0:
320,192,66822,128,0,66916:0:0:0:0:
64,192,66822,1,0,0:0:0:0:
192,192,67010,128,0,67197:0:0:0:0:
64,192,67197,128,0,67760:0:0:0:0:
192,192,67385,1,0,0:0:0:0:
320,192,67385,1,0,0:0:0:0:
320,192,67572,1,0,0:0:0:0:
192,192,67572,1,0,0:0:0:0:
192,192,67760,1,0,0:0:0:0:
320,192,67760,1,0,0:0:0:0:
448,192,67947,128,0,68135:0:0:0:0:
320,192,68135,128,0,68260:0:0:0:0:
192,192,68228,128,0,68322:0:0:0:0:
64,192,68322,128,0,68885:0:0:0:0:
448,192,68510,128,0,68885:0:0:0:0:
192,192,68697,1,0,0:0:0:0:
320,192,68791,1,0,0:0:0:0:
192,192,68885,1,0,0:0:0:0:
320,192,68978,1,0,0:0:0:0:
448,192,69072,1,0,0:0:0:0:
192,192,69166,1,0,0:0:0:0:
448,192,69260,128,0,70572:0:0:0:0:
320,192,69447,128,0,69822:0:0:0:0:
64,192,69635,128,0,70010:0:0:0:0:
192,192,69822,128,0,70572:0:0:0:0:
320,192,70010,128,0,70572:0:0:0:0:
64,192,70197,128,0,70572:0:0:0:0:
64,192,70947,128,0,72260:0:0:0:0:
192,192,70947,128,0,71205:0:0:0:0:
448,192,71064,128,0,71322:0:0:0:0:
320,192,71205,128,0,71510:0:0:0:0:
192,192,71322,128,0,72142:0:0:0:0:
448,192,71510,128,0,72142:0:0:0:0:
320,192,71697,128,0,72142:0:0:0:0:
192,192,72260,1,0,0:0:0:0:
320,192,72260,1,0,0:0:0:0:
448,192,72260,1,0,0:0:0:0:
64,192,72635,1,0,0:0:0:0:
320,192,72635,1,0,0:0:0:0:
448,192,72635,1,0,0:0:0:0:
64,192,73010,1,0,0:0:0:0:
192,192,73010,1,0,0:0:0:0:
448,192,73010,1,0,0:0:0:0:
64,192,73385,1,0,0:0:0:0:
192,192,73385,1,0,0:0:0:0:
320,192,73385,1,0,0:0:0:0:
192,192,73760,1,0,0:0:0:0:
64,192,73760,1,0,0:0:0:0:
448,192,73760,1,0,0:0:0:0:
320,192,74135,1,0,0:0:0:0:
448,192,74135,1,0,0:0:0:0:
64,192,74135,1,0,0:0:0:0:
192,192,74510,1,0,0:0:0:0:
320,192,74510,1,0,0:0:0:0:
448,192,74510,1,0,0:0:0:0:
64,192,74885,1,0,0:0:0:0:
192,192,74885,1,0,0:0:0:0:
448,192,74885,1,0,0:0:0:0:
320,192,75260,1,0,0:0:0:0:
448,192,75260,1,0,0:0:0:0:
64,192,75260,1,0,0:0:0:0:
320,192,75635,1,0,0:0:0:0:
192,192,75635,1,0,0:0:0:0:
64,192,75635,1,0,0:0:0:0:
192,192,76010,1,0,0:0:0:0:
320,192,76010,1,0,0:0:0:0:
448,192,76010,1,0,0:0:0:0:
64,192,76385,1,0,0:0:0:0:
320,192,76385,1,0,0:0:0:0:
448,192,76385,1,0,0:0:0:0:
320,192,76760,1,0,0:0:0:0:
192,192,76760,1,0,0:0:0:0:
64,192,76760,1,0,0:0:0:0:
192,192,77135,1,0,0:0:0:0:
64,192,77135,1,0,0:0:0:0:
448,192,77135,1,0,0:0:0:0:
320,192,77510,1,0,0:0:0:0:
448,192,77510,1,0,0:0:0:0:
64,192,77510,1,0,0:0:0:0:
192,192,77885,1,0,0:0:0:0:
320,192,77885,1,0,0:0:0:0:
448,192,77885,1,0,0:0:0:0:
64,192,78260,1,0,0:0:0:0:
320,192,78260,1,0,0:0:0:0:
448,192,78260,1,0,0:0:0:0:
64,192,78447,1,0,0:0:0:0:
192,192,78447,1,0,0:0:0:0:
320,192,78447,1,0,0:0:0:0:
64,192,78635,1,0,0:0:0:0:
192,192,78635,1,0,0:0:0:0:
448,192,78635,1,0,0:0:0:0:
320,192,78822,1,0,0:0:0:0:
448,192,78822,1,0,0:0:0:0:
64,192,78822,1,0,0:0:0:0:
192,192,79010,1,0,0:0:0:0:
320,192,79010,1,0,0:0:0:0:
448,192,79010,1,0,0:0:0:0:
320,192,79197,1,0,0:0:0:0:
64,192,79197,1,0,0:0:0:0:
448,192,79197,1,0,0:0:0:0:
64,192,79385,1,0,0:0:0:0:
192,192,79385,1,0,0:0:0:0:
448,192,79385,1,0,0:0:0:0:
64,192,79572,1,0,0:0:0:0:
192,192,79572,1,0,0:0:0:0:
320,192,79572,1,0,0:0:0:0:
320,192,79760,1,0,0:0:0:0:
448,192,79760,1,0,0:0:0:0:
64,192,79760,1,0,0:0:0:0:
192,192,79947,1,0,0:0:0:0:
320,192,79947,1,0,0:0:0:0:
448,192,79947,1,0,0:0:0:0:
64,192,80135,1,0,0:0:0:0:
192,192,80135,1,0,0:0:0:0:
448,192,80135,1,0,0:0:0:0:
64,192,80322,1,0,0:0:0:0:
192,192,80322,1,0,0:0:0:0:
320,192,80322,1,0,0:0:0:0:
64,192,80510,1,0,0:0:0:0:
192,192,80510,1,0,0:0:0:0:
448,192,80510,1,0,0:0:0:0:
192,192,80697,1,0,0:0:0:0:
320,192,80697,1,0,0:0:0:0:
448,192,80697,1,0,0:0:0:0:
64,192,80885,1,0,0:0:0:0:
320,192,80885,1,0,0:0:0:0:
448,192,80885,1,0,0:0:0:0:
64,192,81072,1,0,0:0:0:0:
192,192,81072,1,0,0:0:0:0:
448,192,81072,1,0,0:0:0:0:
448,192,81260,1,0,0:0:0:0:
64,192,81260,1,0,0:0:0:0:
320,192,81353,1,0,0:0:0:0:
192,192,81447,1,0,0:0:0:0:
64,192,81541,1,0,0:0:0:0:
320,192,81635,1,0,0:0:0:0:
448,192,81635,1,0,0:0:0:0:
192,192,81728,1,0,0:0:0:0:
320,192,81822,1,0,0:0:0:0:
448,192,81916,1,0,0:0:0:0:
64,192,82010,1,0,0:0:0:0:
320,192,82010,1,0,0:0:0:0:
192,192,82103,1,0,0:0:0:0:
320,192,82197,1,0,0:0:0:0:
448,192,82291,1,0,0:0:0:0:
192,192,82385,1,0,0:0:0:0:
64,192,82385,1,0,0:0:0:0:
448,192,82478,1,0,0:0:0:0:
320,192,82572,1,0,0:0:0:0:
64,192,82666,1,0,0:0:0:0:
192,192,82760,1,0,0:0:0:0:
64,192,82947,128,0,83510:0:0:0:0:
192,192,83135,128,0,83510:0:0:0:0:
320,192,83322,128,0,83510:0:0:0:0:
448,192,83510,128,0,84260:0:0:0:0:
320,192,83885,128,0,84260:0:0:0:0:
64,192,84260,1,0,0:0:0:0:
192,192,84260,1,0,0:0:0:0:
320,192,84635,1,0,0:0:0:0:
448,192,84635,1,0,0:0:0:0:
192,192,84635,1,0,0:0:0:0:
64,192,85010,1,0,0:0:0:0:
192,192,85080,1,0,0:0:0:0:
320,192,85127,1,0,0:0:0:0:
448,192,85197,1,0,0:0:0:0:
64,192,85267,1,0,0:0:0:0:
192,192,85314,1,0,0:0:0:0:
320,192,85385,1,0,0:0:0:0:
448,192,85385,1,0,0:0:0:0:
64,192,85455,1,0,0:0:0:0:
448,192,85502,1,0,0:0:0:0:
320,192,85572,1,0,0:0:0:0:
192,192,85642,1,0,0:0:0:0:
64,192,85689,1,0,0:0:0:0:
448,192,85760,1,0,0:0:0:0:
320,192,85830,1,0,0:0:0:0:
192,192,85877,1,0,0:0:0:0:
64,192,85947,128,0,86135:0:0:0:0:
320,192,86135,1,0,0:0:0:0:
448,192,86135,128,0,86322:0:0:0:0:
192,192,86322,1,0,0:0:0:0:
64,192,86322,128,0,86510:0:0:0:0:
320,192,86510,1,0,0:0:0:0:
448,192,86510,128,0,86697:0:0:0:0:
192,192,86697,128,0,86885:0:0:0:0:
64,192,86814,128,0,87002:0:0:0:0:
448,192,86955,128,0,87142:0:0:0:0:
320,192,87072,128,0,87260:0:0:0:0:
192,192,87260,1,0,0:0:0:0:
64,192,87260,1,0,0:0:0:0:
64,192,87635,1,0,0:0:0:0:
192,192,87635,1,0,0:0:0:0:
320,192,87635,1,0,0:0:0:0:
448,192,88010,1,0,0:0:0:0:
320,192,88080,1,0,0:0:0:0:
192,192,88127,1,0,0:0:0:0:
64,192,88197,1,0,0:0:0:0:
448,192,88267,1,0,0:0:0:0:
320,192,88314,1,0,0:0:0:0:
192,192,88385,1,0,0:0:0:0:
64,192,88385,1,0,0:0:0:0:
448,192,88455,1,0,0:0:0:0:
64,192,88502,1,0,0:0:0:0:
192,192,88572,1,0,0:0:0:0:
320,192,88642,1,0,0:0:0:0:
448,192,88689,1,0,0:0:0:0:
64,192,88760,1,0,0:0:0:0:
192,192,88830,1,0,0:0:0:0:
320,192,88877,1,0,0:0:0:0:
64,192,88947,128,0,89135:0:0:0:0:
448,192,88947,128,0,89135:0:0:0:0:
192,192,89135,128,0,89322:0:0:0:0:
320,192,89135,128,0,89322:0:0:0:0:
64,192,89322,128,0,89510:0:0:0:0:
448,192,89322,128,0,89510:0:0:0:0:
320,192,89510,1,0,0:0:0:0:
192,192,89510,128,0,89767:0:0:0:0:
448,192,89697,128,0,89955:0:0:0:0:
64,192,89885,128,0,90142:0:0:0:0:
320,192,90072,128,0,90260:0:0:0:0:
192,192,90260,1,0,0:0:0:0:
448,192,90260,1,0,0:0:0:0:
192,192,90635,1,0,0:0:0:0:
320,192,90635,1,0,0:0:0:0:
64,192,90635,1,0,0:0:0:0:
320,192,91010,1,0,0:0:0:0:
192,192,91080,1,0,0:0:0:0:
64,192,91127,1,0,0:0:0:0:
320,192,91197,1,0,0:0:0:0:
192,192,91267,1,0,0:0:0:0:
64,192,91314,1,0,0:0:0:0:
448,192,91385,1,0,0:0:0:0:
320,192,91385,1,0,0:0:0:0:
64,192,91455,1,0,0:0:0:0:
192,192,91502,1,0,0:0:0:0:
320,192,91572,1,0,0:0:0:0:
448,192,91642,1,0,0:0:0:0:
192,192,91689,1,0,0:0:0:0:
320,192,91760,1,0,0:0:0:0:
448,192,91830,1,0,0:0:0:0:
320,192,91947,1,0,0:0:0:0:
448,192,92017,128,0,92205:0:0:0:0:
64,192,92135,1,0,0:0:0:0:
192,192,92135,1,0,0:0:0:0:
320,192,92135,128,0,92322:0:0:0:0:
192,192,92252,128,0,92510:0:0:0:0:
64,192,92510,1,0,0:0:0:0:
320,192,92510,1,0,0:0:0:0:
64,192,92791,1,0,0:0:0:0:
192,192,92838,1,0,0:0:0:0:
320,192,92885,1,0,0:0:0:0:
448,192,92931,1,0,0:0:0:0:
64,192,92978,1,0,0:0:0:0:
192,192,93025,1,0,0:0:0:0:
320,192,93072,1,0,0:0:0:0:
448,192,93119,1,0,0:0:0:0:
64,192,93166,1,0,0:0:0:0:
192,192,93213,1,0,0:0:0:0:
320,192,93260,1,0,0:0:0:0:
448,192,93260,128,0,94572:0:0:0:0:
320,192,93447,128,0,93635:0:0:0:0:
192,192,93635,128,0,93822:0:0:0:0:
320,192,93822,128,0,94010:0:0:0:0:
192,192,94010,128,0,94572:0:0:0:0:
64,192,94010,1,0,0:0:0:0:
320,192,94197,128,0,94572:0:0:0:0:
64,192,94385,1,0,0:0:0:0:
64,192,94947,128,0,96260:0:0:0:0:
192,192,94947,128,0,95064:0:0:0:0:
320,192,95064,128,0,95205:0:0:0:0:
192,192,95205,128,0,95322:0:0:0:0:
320,192,95322,128,0,95510:0:0:0:0:
448,192,95510,1,0,0:0:0:0:
192,192,95510,128,0,96260:0:0:0:0:
320,192,95697,128,0,96260:0:0:0:0:
448,192,96260,1,0,0:0:0:0:
320,192,96635,1,0,0:0:0:0:
192,192,96635,1,0,0:0:0:0:
64,192,96635,1,0,0:0:0:0:
448,192,97010,1,0,0:0:0:0:
320,192,97080,1,0,0:0:0:0:
192,192,97127,1,0,0:0:0:0:
448,192,97197,1,0,0:0:0:0:
320,192,97267,1,0,0:0:0:0:
192,192,97314,1,0,0:0:0:0:
320,192,97385,1,0,0:0:0:0:
448,192,97385,1,0,0:0:0:0:
64,192,97455,1,0,0:0:0:0:
192,192,97502,1,0,0:0:0:0:
320,192,97572,1,0,0:0:0:0:
448,192,97642,1,0,0:0:0:0:
64,192,97689,1,0,0:0:0:0:
192,192,97760,1,0,0:0:0:0:
320,192,97830,1,0,0:0:0:0:
448,192,97877,1,0,0:0:0:0:
64,192,97947,1,0,0:0:0:0:
192,192,98017,128,0,98135:0:0:0:0:
448,192,98135,128,0,98252:0:0:0:0:
320,192,98135,1,0,0:0:0:0:
64,192,98252,128,0,98392:0:0:0:0:
320,192,98392,128,0,98510:0:0:0:0:
64,192,98510,128,0,98627:0:0:0:0:
192,192,98510,1,0,0:0:0:0:
448,192,98697,128,0,99260:0:0:0:0:
192,192,98885,128,0,99260:0:0:0:0:
320,192,99260,1,0,0:0:0:0:
64,192,99260,1,0,0:0:0:0:
192,192,99635,1,0,0:0:0:0:
320,192,99635,1,0,0:0:0:0:
448,192,99635,1,0,0:0:0:0:
64,192,100010,1,0,0:0:0:0:
192,192,100080,1,0,0:0:0:0:
448,192,100127,1,0,0:0:0:0:
320,192,100197,1,0,0:0:0:0:
64,192,100267,1,0,0:0:0:0:
192,192,100314,1,0,0:0:0:0:
448,192,100385,1,0,0:0:0:0:
320,192,100385,1,0,0:0:0:0:
192,192,100455,1,0,0:0:0:0:
64,192,100502,1,0,0:0:0:0:
320,192,100572,1,0,0:0:0:0:
448,192,100642,1,0,0:0:0:0:
192,192,100689,1,0,0:0:0:0:
64,192,100760,1,0,0:0:0:0:
320,192,100830,1,0,0:0:0:0:
448,192,100877,1,0,0:0:0:0:
192,192,100947,1,0,0:0:0:0:
64,192,100947,128,0,101135:0:0:0:0:
448,192,101135,128,0,101322:0:0:0:0:
320,192,101135,1,0,0:0:0:0:
192,192,101322,128,0,101510:0:0:0:0:
448,192,101510,1,0,0:0:0:0:
64,192,101510,1,0,0:0:0:0:
320,192,101510,128,0,101885:0:0:0:0:
64,192,101885,128,0,102260:0:0:0:0:
448,192,102260,128,0,102447:0:0:0:0:
192,192,102260,1,0,0:0:0:0:
320,192,102260,1,0,0:0:0:0:
64,192,102635,1,0,0:0:0:0:
192,192,102635,1,0,0:0:0:0:
320,192,102635,1,0,0:0:0:0:
448,192,103010,1,0,0:0:0:0:
64,192,103010,1,0,0:0:0:0:
320,192,103080,1,0,0:0:0:0:
192,192,103127,1,0,0:0:0:0:
64,192,103197,1,0,0:0:0:0:
448,192,103267,1,0,0:0:0:0:
320,192,103314,1,0,0:0:0:0:
192,192,103385,1,0,0:0:0:0:
64,192,103385,1,0,0:0:0:0:
448,192,103455,1,0,0:0:0:0:
320,192,103502,1,0,0:0:0:0:
192,192,103572,1,0,0:0:0:0:
64,192,103642,128,0,103760:0:0:0:0:
448,192,103760,1,0,0:0:0:0:
320,192,103830,1,0,0:0:0:0:
192,192,103877,1,0,0:0:0:0:
448,192,103947,1,0,0:0:0:0:
320,192,104017,1,0,0:0:0:0:
192,192,104064,1,0,0:0:0:0:
448,192,104135,1,0,0:0:0:0:
64,192,104135,1,0,0:0:0:0:
192,192,104205,1,0,0:0:0:0:
320,192,104252,1,0,0:0:0:0:
448,192,104322,128,0,104439:0:0:0:0:
64,192,104439,128,0,104580:0:0:0:0:
192,192,104510,1,0,0:0:0:0:
448,192,104580,1,0,0:0:0:0:
320,192,104627,1,0,0:0:0:0:
192,192,104697,1,0,0:0:0:0:
64,192,104767,1,0,0:0:0:0:
192,192,104814,1,0,0:0:0:0:
320,192,104885,1,0,0:0:0:0:
448,192,104955,1,0,0:0:0:0:
320,192,105002,1,0,0:0:0:0:
192,192,105072,1,0,0:0:0:0:
64,192,105142,1,0,0:0:0:0:
192,192,105189,1,0,0:0:0:0:
320,192,105260,1,0,0:0:0:0:
448,192,105260,128,0,106572:0:0:0:0:
64,192,105447,128,0,105635:0:0:0:0:
192,192,105635,128,0,105822:0:0:0:0:
320,192,105822,128,0,106010:0:0:0:0:
64,192,106010,128,0,106572:0:0:0:0:
192,192,106010,1,0,0:0:0:0:
192,192,106197,128,0,106572:0:0:0:0:
320,192,106385,1,0,0:0:0:0:
64,192,106947,128,0,108260:0:0:0:0:
448,192,106947,128,0,107064:0:0:0:0:
320,192,107064,128,0,107205:0:0:0:0:
192,192,107205,128,0,107322:0:0:0:0:
448,192,107322,128,0,107439:0:0:0:0:
320,192,107439,128,0,108260:0:0:0:0:
192,192,107697,128,0,108260:0:0:0:0:
448,192,108260,1,0,0:0:0:0:
320,192,108377,1,0,0:0:0:0:
192,192,108517,1,0,0:0:0:0:
64,192,108635,1,0,0:0:0:0:
448,192,108635,1,0,0:0:0:0:
192,192,108752,1,0,0:0:0:0:
320,192,108892,1,0,0:0:0:0:
448,192,109010,1,0,0:0:0:0:
192,192,109010,1,0,0:0:0:0:
320,192,109127,1,0,0:0:0:0:
64,192,109267,1,0,0:0:0:0:
192,192,109385,1,0,0:0:0:0:
320,192,109385,1,0,0:0:0:0:
64,192,109502,1,0,0:0:0:0:
448,192,109642,1,0,0:0:0:0:
192,192,109760,1,0,0:0:0:0:
320,192,109760,1,0,0:0:0:0:
64,192,109877,1,0,0:0:0:0:
448,192,110017,1,0,0:0:0:0:
320,192,110135,1,0,0:0:0:0:
192,192,110135,1,0,0:0:0:0:
64,192,110252,1,0,0:0:0:0:
192,192,110392,1,0,0:0:0:0:
320,192,110510,1,0,0:0:0:0:
448,192,110510,1,0,0:0:0:0:
320,192,110627,1,0,0:0:0:0:
192,192,110767,1,0,0:0:0:0:
64,192,110885,1,0,0:0:0:0:
320,192,110885,1,0,0:0:0:0:
192,192,111002,1,0,0:0:0:0:
448,192,111142,1,0,0:0:0:0:
192,192,111260,1,0,0:0:0:0:
64,192,111260,1,0,0:0:0:0:
64,192,111377,1,0,0:0:0:0:
192,192,111517,1,0,0:0:0:0:
320,192,111635,1,0,0:0:0:0:
448,192,111635,1,0,0:0:0:0:
448,192,111752,1,0,0:0:0:0:
320,192,111892,1,0,0:0:0:0:
64,192,112010,1,0,0:0:0:0:
448,192,112010,1,0,0:0:0:0:
192,192,112127,1,0,0:0:0:0:
448,192,112267,1,0,0:0:0:0:
64,192,112385,1,0,0:0:0:0:
320,192,112385,1,0,0:0:0:0:
192,192,112502,1,0,0:0:0:0:
320,192,112642,1,0,0:0:0:0:
192,192,112760,1,0,0:0:0:0:
448,192,112760,1,0,0:0:0:0:
64,192,112877,1,0,0:0:0:0:
320,192,113017,1,0,0:0:0:0:
448,192,113135,1,0,0:0:0:0:
192,192,113135,1,0,0:0:0:0:
64,192,113252,1,0,0:0:0:0:
192,192,113392,1,0,0:0:0:0:
320,192,113510,1,0,0:0:0:0:
448,192,113510,1,0,0:0:0:0:
192,192,113627,1,0,0:0:0:0:
448,192,113767,1,0,0:0:0:0:
192,192,113885,1,0,0:0:0:0:
64,192,113885,1,0,0:0:0:0:
64,192,114002,1,0,0:0:0:0:
448,192,114142,1,0,0:0:0:0:
320,192,114260,1,0,0:0:0:0:
192,192,114260,1,0,0:0:0:0:
64,192,114330,1,0,0:0:0:0:
448,192,114377,1,0,0:0:0:0:
320,192,114447,1,0,0:0:0:0:
192,192,114517,1,0,0:0:0:0:
64,192,114564,1,0,0:0:0:0:
192,192,114635,1,0,0:0:0:0:
320,192,114705,1,0,0:0:0:0:
448,192,114752,1,0,0:0:0:0:
64,192,114822,1,0,0:0:0:0:
192,192,114892,1,0,0:0:0:0:
320,192,114939,1,0,0:0:0:0:
448,192,115010,1,0,0:0:0:0:
320,192,115080,1,0,0:0:0:0:
192,192,115127,1,0,0:0:0:0:
64,192,115197,1,0,0:0:0:0:
448,192,115267,1,0,0:0:0:0:
320,192,115314,1,0,0:0:0:0:
448,192,115385,1,0,0:0:0:0:
64,192,115455,1,0,0:0:0:0:
192,192,115502,1,0,0:0:0:0:
320,192,115572,1,0,0:0:0:0:
448,192,115642,1,0,0:0:0:0:
64,192,115689,1,0,0:0:0:0:
192,192,115760,1,0,0:0:0:0:
320,192,115830,1,0,0:0:0:0:
448,192,115877,1,0,0:0:0:0:
64,192,115947,1,0,0:0:0:0:
192,192,116017,1,0,0:0:0:0:
320,192,116064,1,0,0:0:0:0:
192,192,116135,1,0,0:0:0:0:
64,192,116205,1,0,0:0:0:0:
448,192,116252,1,0,0:0:0:0:
320,192,116322,1,0,0:0:0:0:
192,192,116392,1,0,0:0:0:0:
64,192,116439,1,0,0:0:0:0:
448,192,116510,1,0,0:0:0:0:
320,192,116580,1,0,0:0:0:0:
192,192,116627,1,0,0:0:0:0:
64,192,116697,1,0,0:0:0:0:
448,192,116767,1,0,0:0:0:0:
320,192,116814,1,0,0:0:0:0:
448,192,116885,1,0,0:0:0:0:
64,192,116955,1,0,0:0:0:0:
192,192,117002,1,0,0:0:0:0:
320,192,117072,1,0,0:0:0:0:
448,192,117142,1,0,0:0:0:0:
64,192,117189,1,0,0:0:0:0:
448,192,117260,1,0,0:0:0:0:
192,192,117260,1,0,0:0:0:0:
320,192,117447,1,0,0:0:0:0:
64,192,117447,1,0,0:0:0:0:
192,192,117635,1,0,0:0:0:0:
448,192,117635,1,0,0:0:0:0:
320,192,117822,1,0,0:0:0:0:
64,192,117822,1,0,0:0:0:0:
448,192,118010,1,0,0:0:0:0:
192,192,118010,1,0,0:0:0:0:
320,192,118197,1,0,0:0:0:0:
64,192,118197,1,0,0:0:0:0:
192,192,118385,1,0,0:0:0:0:
448,192,118385,1,0,0:0:0:0:
64,192,118572,1,0,0:0:0:0:
320,192,118572,1,0,0:0:0:0:
192,192,118760,1,0,0:0:0:0:
448,192,118947,128,0,120072:0:0:0:0:
320,192,119135,128,0,120072:0:0:0:0:
192,192,119322,128,0,120072:0:0:0:0:
64,192,119510,128,0,120072:0:0:0:0:
192,192,120260,128,0,120635:0:0:0:0:
448,192,120260,128,0,121010:0:0:0:0:
320,192,120635,128,0,120822:0:0:0:0:
64,192,120635,128,0,121197:0:0:0:0:
192,192,120822,1,0,0:0:0:0:
320,192,121010,1,0,0:0:0:0:
192,192,121010,128,0,121385:0:0:0:0:
448,192,121197,128,0,121572:0:0:0:0:
320,192,121197,1,0,0:0:0:0:
320,192,121385,128,0,121572:0:0:0:0:
64,192,121385,128,0,121572:0:0:0:0:
320,192,121760,128,0,121947:0:0:0:0:
192,192,121760,1,0,0:0:0:0:
64,192,121947,128,0,122135:0:0:0:0:
192,192,122135,128,0,122322:0:0:0:0:
448,192,122135,128,0,122322:0:0:0:0:
320,192,122322,1,0,0:0:0:0:
64,192,122322,128,0,122697:0:0:0:0:
448,192,122510,128,0,123260:0:0:0:0:
192,192,122510,1,0,0:0:0:0:
320,192,122697,128,0,123260:0:0:0:0:
192,192,122885,128,0,123002:0:0:0:0:
64,192,123002,128,0,123142:0:0:0:0:
64,192,123260,1,0,0:0:0:0:
192,192,123260,128,0,123635:0:0:0:0:
64,192,123447,128,0,123635:0:0:0:0:
448,192,123635,128,0,124010:0:0:0:0:
320,192,123635,128,0,123822:0:0:0:0:
64,192,123822,128,0,124385:0:0:0:0:
192,192,124010,1,0,0:0:0:0:
320,192,124010,128,0,124197:0:0:0:0:
192,192,124197,128,0,124385:0:0:0:0:
320,192,124385,1,0,0:0:0:0:
448,192,124385,128,0,124760:0:0:0:0:
64,192,124642,1,0,0:0:0:0:
192,192,124689,1,0,0:0:0:0:
320,192,124760,1,0,0:0:0:0:
320,192,124947,1,0,0:0:0:0:
448,192,124947,1,0,0:0:0:0:
192,192,125135,1,0,0:0:0:0:
64,192,125135,1,0,0:0:0:0:
448,192,125322,1,0,0:0:0:0:
320,192,125510,1,0,0:0:0:0:
64,192,125510,1,0,0:0:0:0:
320,192,125697,1,0,0:0:0:0:
448,192,125697,1,0,0:0:0:0:
192,192,125767,1,0,0:0:0:0:
64,192,125885,128,0,126260:0:0:0:0:
320,192,125885,128,0,126072:0:0:0:0:
192,192,126260,1,0,0:0:0:0:
448,192,126260,128,0,126822:0:0:0:0:
320,192,126635,128,0,127010:0:0:0:0:
64,192,126822,128,0,127385:0:0:0:0:
192,192,127010,1,0,0:0:0:0:
448,192,127010,128,0,127197:0:0:0:0:
192,192,127197,128,0,127572:0:0:0:0:
320,192,127197,128,0,127385:0:0:0:0:
448,192,127385,128,0,127572:0:0:0:0:
320,192,127760,128,0,128322:0:0:0:0:
64,192,127760,128,0,127947:0:0:0:0:
448,192,127947,128,0,128135:0:0:0:0:
192,192,128135,1,0,0:0:0:0:
64,192,128135,128,0,128697:0:0:0:0:
192,192,128322,1,0,0:0:0:0:
448,192,128510,1,0,0:0:0:0:
192,192,128510,1,0,0:0:0:0:
320,192,128510,128,0,129072:0:0:0:0:
448,192,128697,128,0,128885:0:0:0:0:
64,192,128885,128,0,129260:0:0:0:0:
192,192,129072,128,0,129260:0:0:0:0:
320,192,129260,1,0,0:0:0:0:
448,192,129260,128,0,130572:0:0:0:0:
64,192,129447,128,0,129635:0:0:0:0:
192,192,129635,128,0,129822:0:0:0:0:
320,192,129822,128,0,130010:0:0:0:0:
64,192,130010,128,0,130572:0:0:0:0:
192,192,130197,128,0,130572:0:0:0:0:
64,192,130947,128,0,132260:0:0:0:0:
448,192,130947,128,0,131064:0:0:0:0:
320,192,131064,128,0,131205:0:0:0:0:
192,192,131205,128,0,131322:0:0:0:0:
448,192,131322,128,0,131439:0:0:0:0:
320,192,131439,128,0,132260:0:0:0:0:
192,192,131697,128,0,132260:0:0:0:0:
448,192,132260,128,0,132635:0:0:0:0:
64,192,132635,128,0,132752:0:0:0:0:
192,192,132728,128,0,132822:0:0:0:0:
320,192,132822,128,0,132916:0:0:0:0:
448,192,132916,128,0,133010:0:0:0:0:
64,192,133010,128,0,133103:0:0:0:0:
192,192,133103,128,0,133197:0:0:0:0:
320,192,133197,128,0,133291:0:0:0:0:
448,192,133291,128,0,133385:0:0:0:0:
64,192,133385,128,0,133478:0:0:0:0:
192,192,133478,128,0,133760:0:0:0:0:
448,192,133853,128,0,133947:0:0:0:0:
320,192,133947,128,0,134041:0:0:0:0:
192,192,134041,128,0,134135:0:0:0:0:
448,192,134135,128,0,134228:0:0:0:0:
64,192,134135,128,0,134228:0:0:0:0:
320,192,134228,128,0,134322:0:0:0:0:
192,192,134322,128,0,134416:0:0:0:0:
64,192,134416,128,0,134510:0:0:0:0:
448,192,134510,128,0,134791:0:0:0:0:
64,192,134791,1,0,0:0:0:0:
192,192,134885,1,0,0:0:0:0:
320,192,134978,1,0,0:0:0:0:
448,192,135072,1,0,0:0:0:0:
192,192,135260,1,0,0:0:0:0:
320,192,135260,1,0,0:0:0:0:
64,192,135260,128,0,135635:0:0:0:0:
448,192,135635,128,0,135728:0:0:0:0:
192,192,135728,128,0,135822:0:0:0:0:
320,192,135822,128,0,135916:0:0:0:0:
64,192,135916,128,0,136010:0:0:0:0:
448,192,136010,128,0,136103:0:0:0:0:
320,192,136010,1,0,0:0:0:0:
192,192,136103,128,0,136197:0:0:0:0:
320,192,136197,128,0,136291:0:0:0:0:
64,192,136291,128,0,136385:0:0:0:0:
192,192,136385,128,0,136642:0:0:0:0:
448,192,136385,1,0,0:0:0:0:
64,192,136760,128,0,136853:0:0:0:0:
320,192,136853,128,0,136947:0:0:0:0:
192,192,136947,128,0,137041:0:0:0:0:
64,192,136947,1,0,0:0:0:0:
448,192,137041,128,0,137135:0:0:0:0:
64,192,137135,128,0,137228:0:0:0:0:
320,192,137135,1,0,0:0:0:0:
320,192,137228,128,0,137322:0:0:0:0:
192,192,137322,128,0,137416:0:0:0:0:
448,192,137416,128,0,137510:0:0:0:0:
64,192,137510,128,0,137791:0:0:0:0:
320,192,137510,1,0,0:0:0:0:
448,192,137697,1,0,0:0:0:0:
320,192,137814,1,0,0:0:0:0:
192,192,137955,1,0,0:0:0:0:
64,192,138072,1,0,0:0:0:0:
320,192,138260,1,0,0:0:0:0:
192,192,138260,1,0,0:0:0:0:
448,192,138260,128,0,138635:0:0:0:0:
64,192,138635,128,0,138728:0:0:0:0:
192,192,138728,128,0,138822:0:0:0:0:
448,192,138822,128,0,138916:0:0:0:0:
320,192,138916,128,0,139010:0:0:0:0:
64,192,139010,128,0,139103:0:0:0:0:
192,192,139103,128,0,139197:0:0:0:0:
448,192,139197,128,0,139291:0:0:0:0:
320,192,139291,128,0,139385:0:0:0:0:
192,192,139385,128,0,139666:0:0:0:0:
320,192,139760,128,0,139853:0:0:0:0:
448,192,139853,128,0,139947:0:0:0:0:
192,192,139947,128,0,140041:0:0:0:0:
64,192,140041,128,0,140135:0:0:0:0:
320,192,140135,128,0,140228:0:0:0:0:
192,192,140135,1,0,0:0:0:0:
448,192,140228,128,0,140322:0:0:0:0:
192,192,140322,128,0,140416:0:0:0:0:
64,192,140416,128,0,140510:0:0:0:0:
448,192,140510,128,0,140885:0:0:0:0:
320,192,140510,1,0,0:0:0:0:
320,192,140697,128,0,141260:0:0:0:0:
192,192,140885,128,0,141260:0:0:0:0:
64,192,141260,128,0,142385:0:0:0:0:
448,192,141260,1,0,0:0:0:0:
448,192,141447,128,0,141635:0:0:0:0:
320,192,141447,1,0,0:0:0:0:
320,192,141635,128,0,141822:0:0:0:0:
192,192,141635,1,0,0:0:0:0:
192,192,141822,128,0,142010:0:0:0:0:
448,192,141822,1,0,0:0:0:0:
448,192,142010,128,0,142385:0:0:0:0:
320,192,142010,1,0,0:0:0:0:
192,192,142197,1,0,0:0:0:0:
320,192,142385,1,0,0:0:0:0:
448,192,142947,128,0,144260:0:0:0:0:
64,192,142947,128,0,143135:0:0:0:0:
192,192,142947,1,0,0:0:0:0:
320,192,143135,1,0,0:0:0:0:
192,192,143135,128,0,143228:0:0:0:0:
320,192,143228,128,0,143322:0:0:0:0:
64,192,143322,128,0,144260:0:0:0:0:
192,192,143322,1,0,0:0:0:0:
192,192,143510,128,0,144260:0:0:0:0:
320,192,143510,1,0,0:0:0:0:
320,192,143697,1,0,0:0:0:0:
320,192,143885,1,0,0:0:0:0:
320,192,144072,1,0,0:0:0:0:
320,192,144260,128,4,151760:0:0:0:0:
64,192,151760,1,0,0:0:0:0:
448,192,152135,1,0,0:0:0:0:
64,192,152510,1,0,0:0:0:0:
448,192,152885,1,0,0:0:0:0:
64,192,153260,1,0,0:0:0:0:
448,192,153635,1,0,0:0:0:0:
64,192,154010,1,0,0:0:0:0:
448,192,154385,1,0,0:0:0:0:
64,192,154760,1,0,0:0:0:0:
448,192,155135,1,0,0:0:0:0:
64,192,155510,1,0,0:0:0:0:
448,192,155885,1,0,0:0:0:0:
64,192,156072,1,0,0:0:0:0:
192,192,156135,1,0,0:0:0:0:
320,192,156197,1,0,0:0:0:0:
192,192,156260,1,0,0:0:0:0:
64,192,156260,128,4,157760:0:0:0:0:
448,192,156260,1,0,0:0:0:0:
448,192,156635,1,0,0:0:0:0:
192,192,157010,1,0,0:0:0:0:
448,192,157385,1,0,0:0:0:0:
192,192,157760,1,0,0:0:0:0:
448,192,157947,1,0,0:0:0:0:
448,192,158135,1,0,0:0:0:0:
64,192,158322,1,0,0:0:0:0:
64,192,158510,1,0,0:0:0:0:
448,192,158697,1,0,0:0:0:0:
448,192,158885,1,0,0:0:0:0:
64,192,159072,1,0,0:0:0:0:
64,192,159260,1,0,0:0:0:0:
448,192,159447,1,0,0:0:0:0:
448,192,159635,1,0,0:0:0:0:
64,192,159822,1,0,0:0:0:0:
64,192,160010,1,0,0:0:0:0:
448,192,160197,1,0,0:0:0:0:
448,192,160385,1,0,0:0:0:0:
64,192,160572,1,0,0:0:0:0:
64,192,160760,1,0,0:0:0:0:
448,192,160947,1,0,0:0:0:0:
448,192,161135,1,0,0:0:0:0:
64,192,161322,1,0,0:0:0:0:
64,192,161510,1,0,0:0:0:0:
448,192,161697,1,0,0:0:0:0:
448,192,161885,1,0,0:0:0:0:
64,192,162072,1,0,0:0:0:0:
64,192,162260,1,0,0:0:0:0:
448,192,162447,1,0,0:0:0:0:
448,192,162635,1,0,0:0:0:0:
64,192,162822,1,0,0:0:0:0:
64,192,163010,1,0,0:0:0:0:
448,192,163197,1,0,0:0:0:0:
448,192,163385,1,0,0:0:0:0:
64,192,163572,1,0,0:0:0:0:
64,192,163760,1,0,0:0:0:0:
320,192,163947,1,0,0:0:0:0:
320,192,164135,1,0,0:0:0:0:
192,192,164322,1,0,0:0:0:0:
192,192,164510,1,0,0:0:0:0:
320,192,164791,1,0,0:0:0:0:
448,192,164885,1,0,0:0:0:0:
64,192,164885,1,0,0:0:0:0:
320,192,164978,1,0,0:0:0:0:
192,192,164978,1,0,0:0:0:0:
448,192,165072,1,0,0:0:0:0:
64,192,165072,1,0,0:0:0:0:
320,192,165166,1,0,0:0:0:0:
192,192,165166,1,0,0:0:0:0:
448,192,165260,1,0,0:0:0:0:
64,192,165260,1,0,0:0:0:0:
192,192,165353,1,0,0:0:0:0:
192,192,165541,1,0,0:0:0:0:
192,192,165728,1,0,0:0:0:0:
320,192,165822,1,0,0:0:0:0:
448,192,165822,1,0,0:0:0:0:
64,192,165916,1,0,0:0:0:0:
64,192,166103,1,0,0:0:0:0:
64,192,166291,1,0,0:0:0:0:
320,192,166385,1,0,0:0:0:0:
448,192,166385,1,0,0:0:0:0:
64,192,166447,1,0,0:0:0:0:
192,192,166510,1,0,0:0:0:0:
320,192,166572,1,0,0:0:0:0:
448,192,166635,1,0,0:0:0:0:
64,192,166697,1,0,0:0:0:0:
448,192,166760,1,0,0:0:0:0:
320,192,166822,1,0,0:0:0:0:
192,192,166885,1,0,0:0:0:0:
64,192,166947,1,0,0:0:0:0:
448,192,167064,1,0,0:0:0:0:
320,192,167205,1,0,0:0:0:0:
64,192,167252,1,0,0:0:0:0:
192,192,167322,1,0,0:0:0:0:
448,192,167322,1,0,0:0:0:0:
320,192,167447,1,0,0:0:0:0:
64,192,167580,1,0,0:0:0:0:
320,192,167627,1,0,0:0:0:0:
192,192,167760,1,0,0:0:0:0:
64,192,167885,1,0,0:0:0:0:
192,192,167947,1,0,0:0:0:0:
320,192,168002,1,0,0:0:0:0:
448,192,168072,1,0,0:0:0:0:
192,192,168135,1,0,0:0:0:0:
64,192,168260,128,0,168635:0:0:0:0:
320,192,168260,128,0,168517:0:0:0:0:
448,192,168260,128,0,168377:0:0:0:0:
448,192,168822,128,0,169010:0:0:0:0:
192,192,168822,128,0,168916:0:0:0:0:
64,192,168822,1,0,0:0:0:0:
320,192,169010,128,0,169572:0:0:0:0:
64,192,169197,128,0,169572:0:0:0:0:
192,192,169947,128,0,170205:0:0:0:0:
448,192,170135,128,0,170392:0:0:0:0:
64,192,170322,128,0,170580:0:0:0:0:
320,192,170510,128,0,171072:0:0:0:0:
192,192,170697,128,0,171072:0:0:0:0:
448,192,170767,1,0,0:0:0:0:
64,192,170814,1,0,0:0:0:0:
448,192,170955,1,0,0:0:0:0:
64,192,171002,1,0,0:0:0:0:
448,192,171072,1,0,0:0:0:0:
64,192,171142,1,0,0:0:0:0:
448,192,171260,128,0,171635:0:0:0:0:
192,192,171260,128,0,171517:0:0:0:0:
320,192,171260,128,0,171377:0:0:0:0:
64,192,171822,128,0,172010:0:0:0:0:
320,192,171822,128,0,171916:0:0:0:0:
192,192,171822,1,0,0:0:0:0:
448,192,172010,128,0,172385:0:0:0:0:
192,192,172267,128,0,172572:0:0:0:0:
448,192,172947,128,0,173205:0:0:0:0:
192,192,173135,128,0,173392:0:0:0:0:
320,192,173322,128,0,173580:0:0:0:0:
64,192,173510,128,0,173814:0:0:0:0:
448,192,173510,1,0,0:0:0:0:
192,192,173580,1,0,0:0:0:0:
448,192,173767,128,0,174260:0:0:0:0:
320,192,173814,1,0,0:0:0:0:
192,192,173885,1,0,0:0:0:0:
64,192,173955,1,0,0:0:0:0:
320,192,174002,1,0,0:0:0:0:
192,192,174072,1,0,0:0:0:0:
64,192,174142,1,0,0:0:0:0:
320,192,174260,128,0,174635:0:0:0:0:
192,192,174260,128,0,174517:0:0:0:0:
64,192,174260,128,0,174377:0:0:0:0:
192,192,174822,128,0,175010:0:0:0:0:
320,192,174822,128,0,174916:0:0:0:0:
448,192,174822,1,0,0:0:0:0:
64,192,175010,128,0,175455:0:0:0:0:
448,192,175197,128,0,175455:0:0:0:0:
192,192,175947,128,0,176064:0:0:0:0:
320,192,176064,128,0,176205:0:0:0:0:
64,192,176205,128,0,176322:0:0:0:0:
448,192,176322,128,0,176439:0:0:0:0:
192,192,176439,128,0,177260:0:0:0:0:
320,192,176697,128,0,177260:0:0:0:0:
64,192,176885,1,0,0:0:0:0:
448,192,177002,1,0,0:0:0:0:
64,192,177142,1,0,0:0:0:0:
448,192,177260,128,0,178572:0:0:0:0:
192,192,177447,1,0,0:0:0:0:
64,192,177447,1,0,0:0:0:0:
320,192,177635,1,0,0:0:0:0:
64,192,177822,1,0,0:0:0:0:
320,192,177822,1,0,0:0:0:0:
192,192,178010,128,0,178197:0:0:0:0:
64,192,178197,128,0,178385:0:0:0:0:
320,192,178197,1,0,0:0:0:0:
320,192,178385,128,0,178572:0:0:0:0:
64,192,178572,1,0,0:0:0:0:
192,192,178689,1,0,0:0:0:0:
320,192,178830,1,0,0:0:0:0:
64,192,178947,128,0,180072:0:0:0:0:
448,192,178947,1,0,0:0:0:0:
320,192,179135,1,0,0:0:0:0:
192,192,179135,1,0,0:0:0:0:
448,192,179322,1,0,0:0:0:0:
192,192,179510,1,0,0:0:0:0:
448,192,179510,1,0,0:0:0:0:
320,192,179697,128,0,180072:0:0:0:0:
192,192,179885,128,0,180072:0:0:0:0:
448,192,179885,1,0,0:0:0:0:
448,192,180072,1,0,0:0:0:0:
192,192,180260,128,0,180635:0:0:0:0:
448,192,180260,128,0,180517:0:0:0:0:
64,192,180260,128,0,180377:0:0:0:0:
320,192,180822,128,0,181010:0:0:0:0:
64,192,180822,128,0,180916:0:0:0:0:
448,192,180822,1,0,0:0:0:0:
192,192,181010,128,0,181267:0:0:0:0:
448,192,181197,128,0,181572:0:0:0:0:
64,192,181877,128,0,182135:0:0:0:0:
320,192,182135,128,0,182322:0:0:0:0:
192,192,182135,1,0,0:0:0:0:
192,192,182322,128,0,182510:0:0:0:0:
64,192,182322,1,0,0:0:0:0:
448,192,182510,128,0,182885:0:0:0:0:
320,192,182510,1,0,0:0:0:0:
64,192,182697,1,0,0:0:0:0:
320,192,182767,128,0,183142:0:0:0:0:
192,192,182885,1,0,0:0:0:0:
64,192,183002,1,0,0:0:0:0:
448,192,183142,1,0,0:0:0:0:
192,192,183260,128,0,183635:0:0:0:0:
64,192,183260,128,0,183517:0:0:0:0:
448,192,183260,128,0,183377:0:0:0:0:
320,192,183822,128,0,184010:0:0:0:0:
448,192,183822,128,0,183916:0:0:0:0:
64,192,183822,1,0,0:0:0:0:
192,192,184010,128,0,184385:0:0:0:0:
64,192,184267,128,0,184642:0:0:0:0:
448,192,184947,128,0,185135:0:0:0:0:
192,192,185017,128,0,185135:0:0:0:0:
320,192,185135,128,0,185322:0:0:0:0:
64,192,185322,128,0,185510:0:0:0:0:
448,192,185322,1,0,0:0:0:0:
192,192,185510,128,0,186072:0:0:0:0:
320,192,185510,1,0,0:0:0:0:
64,192,185697,128,0,186072:0:0:0:0:
448,192,185697,1,0,0:0:0:0:
320,192,185885,1,0,0:0:0:0:
448,192,185955,1,0,0:0:0:0:
320,192,186002,1,0,0:0:0:0:
448,192,186072,1,0,0:0:0:0:
192,192,186260,128,0,186377:0:0:0:0:
320,192,186260,128,0,186517:0:0:0:0:
448,192,186260,128,0,186635:0:0:0:0:
64,192,186822,128,0,187010:0:0:0:0:
192,192,186822,128,0,186916:0:0:0:0:
320,192,186822,1,0,0:0:0:0:
448,192,187010,128,0,187572:0:0:0:0:
192,192,187197,128,0,187572:0:0:0:0:
448,192,187947,128,0,188064:0:0:0:0:
192,192,188064,128,0,188205:0:0:0:0:
320,192,188205,128,0,188322:0:0:0:0:
64,192,188322,128,0,188510:0:0:0:0:
448,192,188510,128,0,189260:0:0:0:0:
192,192,188510,1,0,0:0:0:0:
320,192,188697,128,0,189260:0:0:0:0:
192,192,188697,1,0,0:0:0:0:
64,192,189260,128,0,190572:0:0:0:0:
192,192,189260,1,0,0:0:0:0:
320,192,189447,1,0,0:0:0:0:
448,192,189447,1,0,0:0:0:0:
320,192,189635,1,0,0:0:0:0:
448,192,189822,1,0,0:0:0:0:
192,192,190010,128,0,190385:0:0:0:0:
320,192,190197,128,0,190572:0:0:0:0:
448,192,190197,1,0,0:0:0:0:
448,192,190385,1,0,0:0:0:0:
448,192,190572,1,0,0:0:0:0:
320,192,190760,1,0,0:0:0:0:
448,192,190947,128,0,192260:0:0:0:0:
192,192,190947,1,0,0:0:0:0:
64,192,191135,1,0,0:0:0:0:
320,192,191135,1,0,0:0:0:0:
320,192,191322,1,0,0:0:0:0:
192,192,191510,1,0,0:0:0:0:
64,192,191510,1,0,0:0:0:0:
320,192,191697,128,0,192260:0:0:0:0:
192,192,191885,128,0,192260:0:0:0:0:
64,192,191885,1,0,0:0:0:0:
64,192,192072,1,0,0:0:0:0:
64,192,192260,128,0,193760:0:0:0:0:
320,192,192447,1,0,0:0:0:0:
320,192,192635,1,0,0:0:0:0:
448,192,192635,1,0,0:0:0:0:
192,192,192822,1,0,0:0:0:0:
192,192,193010,1,0,0:0:0:0:
448,192,193010,1,0,0:0:0:0:
320,192,193197,1,0,0:0:0:0:
192,192,193385,1,0,0:0:0:0:
448,192,193385,1,0,0:0:0:0:
320,192,193572,1,0,0:0:0:0:
320,192,193760,1,0,0:0:0:0:
192,192,193760,1,0,0:0:0:0:
448,192,193947,128,0,195260:0:0:0:0:
64,192,193947,1,0,0:0:0:0:
64,192,194135,1,0,0:0:0:0:
320,192,194135,1,0,0:0:0:0:
192,192,194322,1,0,0:0:0:0:
192,192,194510,1,0,0:0:0:0:
320,192,194510,1,0,0:0:0:0:
320,192,194697,1,0,0:0:0:0:
192,192,194885,1,0,0:0:0:0:
64,192,194885,1,0,0:0:0:0:
192,192,195072,1,0,0:0:0:0:
64,192,195260,1,0,0:0:0:0:
320,192,195260,1,0,0:0:0:0:
64,192,195447,128,0,196760:0:0:0:0:
192,192,195447,1,0,0:0:0:0:
320,192,195635,1,0,0:0:0:0:
448,192,195635,1,0,0:0:0:0:
320,192,195822,1,0,0:0:0:0:
192,192,196010,1,0,0:0:0:0:
448,192,196010,1,0,0:0:0:0:
448,192,196197,1,0,0:0:0:0:
320,192,196385,1,0,0:0:0:0:
192,192,196385,1,0,0:0:0:0:
448,192,196572,1,0,0:0:0:0:
192,192,196760,1,0,0:0:0:0:
448,192,196760,1,0,0:0:0:0:
320,192,196947,128,0,198260:0:0:0:0:
64,192,196947,1,0,0:0:0:0:
192,192,197135,1,0,0:0:0:0:
448,192,197135,1,0,0:0:0:0:
64,192,197322,1,0,0:0:0:0:
192,192,197510,1,0,0:0:0:0:
64,192,197510,1,0,0:0:0:0:
448,192,197697,1,0,0:0:0:0:
448,192,197885,1,0,0:0:0:0:
192,192,197885,1,0,0:0:0:0:
64,192,198072,1,0,0:0:0:0:
64,192,198260,1,0,0:0:0:0:
448,192,198260,1,0,0:0:0:0:
192,192,198447,128,0,200885:0:0:0:0:
320,192,198447,1,0,0:0:0:0:
64,192,198635,1,0,0:0:0:0:
448,192,198635,1,0,0:0:0:0:
64,192,198822,1,0,0:0:0:0:
320,192,199010,1,0,0:0:0:0:
448,192,199010,1,0,0:0:0:0:
64,192,199314,128,0,199760:0:0:0:0:
320,192,199760,128,0,200322:0:0:0:0:
448,192,200322,128,0,200885:0:0:0:0:
64,192,200885,128,0,202385:0:0:0:0:
320,192,200885,1,0,0:0:0:0:
192,192,201072,1,0,0:0:0:0:
448,192,201072,1,0,0:0:0:0:
448,192,201260,1,0,0:0:0:0:
192,192,201447,1,0,0:0:0:0:
320,192,201447,1,0,0:0:0:0:
448,192,201635,1,0,0:0:0:0:
192,192,201822,128,0,202385:0:0:0:0:
448,192,201822,1,0,0:0:0:0:
320,192,201822,1,0,0:0:0:0:
320,192,202010,1,0,0:0:0:0:
448,192,202197,1,0,0:0:0:0:
448,192,202385,128,0,204260:0:0:0:0:
320,192,202385,128,0,202760:0:0:0:0:
192,192,202760,128,0,203322:0:0:0:0:
64,192,203322,128,0,204260:0:0:0:0:
320,192,204447,128,0,205760:0:0:0:0:
192,192,204447,1,0,0:0:0:0:
64,192,204635,1,0,0:0:0:0:
448,192,204822,1,0,0:0:0:0:
192,192,204822,1,0,0:0:0:0:
192,192,205010,1,0,0:0:0:0:
64,192,205197,1,0,0:0:0:0:
448,192,205197,1,0,0:0:0:0:
448,192,205385,1,0,0:0:0:0:
192,192,205572,1,0,0:0:0:0:
64,192,205572,1,0,0:0:0:0:
448,192,205760,1,0,0:0:0:0:
192,192,205947,128,0,207260:0:0:0:0:
64,192,205947,1,0,0:0:0:0:
320,192,206135,1,0,0:0:0:0:
448,192,206135,1,0,0:0:0:0:
64,192,206322,1,0,0:0:0:0:
320,192,206510,1,0,0:0:0:0:
64,192,206510,1,0,0:0:0:0:
320,192,206697,1,0,0:0:0:0:
64,192,206885,1,0,0:0:0:0:
448,192,206885,1,0,0:0:0:0:
64,192,207072,1,0,0:0:0:0:
320,192,207260,1,0,0:0:0:0:
448,192,207260,1,0,0:0:0:0:
64,192,207447,128,0,207635:0:0:0:0:
320,192,207635,128,0,207822:0:0:0:0:
448,192,207822,128,0,208760:0:0:0:0:
192,192,208010,1,0,0:0:0:0:
64,192,208197,1,0,0:0:0:0:
320,192,208197,1,0,0:0:0:0:
192,192,208385,1,0,0:0:0:0:
320,192,208572,1,0,0:0:0:0:
192,192,208572,1,0,0:0:0:0:
64,192,208760,1,0,0:0:0:0:
320,192,208947,128,0,210260:0:0:0:0:
192,192,208947,1,0,0:0:0:0:
64,192,209135,1,0,0:0:0:0:
448,192,209135,1,0,0:0:0:0:
448,192,209322,1,0,0:0:0:0:
192,192,209510,1,0,0:0:0:0:
64,192,209510,1,0,0:0:0:0:
64,192,209697,1,0,0:0:0:0:
192,192,209885,1,0,0:0:0:0:
448,192,209885,1,0,0:0:0:0:
448,192,210072,1,0,0:0:0:0:
192,192,210260,1,0,0:0:0:0:
64,192,210260,1,0,0:0:0:0:
448,192,210447,128,0,210822:0:0:0:0:
64,192,210822,128,0,213072:0:0:0:0:
448,192,211385,128,0,211760:0:0:0:0:
320,192,211760,128,0,212322:0:0:0:0:
192,192,212322,128,0,213072:0:0:0:0:
448,192,213260,1,0,0:0:0:0:
320,192,213260,1,0,0:0:0:0:
64,192,213353,1,0,0:0:0:0:
192,192,213353,1,0,0:0:0:0:
448,192,213400,1,0,0:0:0:0:
320,192,213447,1,0,0:0:0:0:
64,192,213541,1,0,0:0:0:0:
448,192,213541,1,0,0:0:0:0:
320,192,213635,1,0,0:0:0:0:
192,192,213635,1,0,0:0:0:0:
448,192,213822,1,0,0:0:0:0:
64,192,213822,1,0,0:0:0:0:
192,192,213916,1,0,0:0:0:0:
320,192,213916,1,0,0:0:0:0:
64,192,213963,1,0,0:0:0:0:
448,192,214010,1,0,0:0:0:0:
192,192,214103,1,0,0:0:0:0:
64,192,214103,1,0,0:0:0:0:
320,192,214197,1,0,0:0:0:0:
448,192,214197,1,0,0:0:0:0:
192,192,214385,1,0,0:0:0:0:
64,192,214385,1,0,0:0:0:0:
320,192,214478,1,0,0:0:0:0:
448,192,214478,1,0,0:0:0:0:
64,192,214525,1,0,0:0:0:0:
192,192,214572,1,0,0:0:0:0:
64,192,214666,1,0,0:0:0:0:
448,192,214666,1,0,0:0:0:0:
192,192,214760,1,0,0:0:0:0:
320,192,214760,1,0,0:0:0:0:
320,192,214947,1,0,0:0:0:0:
64,192,214947,1,0,0:0:0:0:
192,192,215135,1,0,0:0:0:0:
448,192,215135,1,0,0:0:0:0:
448,192,215322,128,0,215510:0:0:0:0:
320,192,215322,1,0,0:0:0:0:
64,192,215510,1,0,0:0:0:0:
192,192,215580,1,0,0:0:0:0:
320,192,215627,1,0,0:0:0:0:
448,192,215697,1,0,0:0:0:0:
64,192,215697,1,0,0:0:0:0:
192,192,215767,1,0,0:0:0:0:
320,192,215814,1,0,0:0:0:0:
448,192,215885,1,0,0:0:0:0:
64,192,215885,1,0,0:0:0:0:
192,192,215955,1,0,0:0:0:0:
320,192,216002,1,0,0:0:0:0:
448,192,216072,1,0,0:0:0:0:
320,192,216260,128,0,216635:0:0:0:0:
64,192,216260,128,0,216517:0:0:0:0:
448,192,216260,128,0,216377:0:0:0:0:
192,192,216822,128,0,217010:0:0:0:0:
448,192,216822,128,0,216916:0:0:0:0:
64,192,216822,1,0,0:0:0:0:
320,192,217010,128,0,217197:0:0:0:0:
64,192,217197,128,0,217760:0:0:0:0:
192,192,217385,1,0,0:0:0:0:
320,192,217385,1,0,0:0:0:0:
320,192,217572,1,0,0:0:0:0:
192,192,217572,1,0,0:0:0:0:
320,192,217760,1,0,0:0:0:0:
192,192,217760,1,0,0:0:0:0:
448,192,217947,128,0,218205:0:0:0:0:
192,192,218135,128,0,218392:0:0:0:0:
320,192,218322,128,0,218580:0:0:0:0:
64,192,218510,128,0,218767:0:0:0:0:
448,192,218697,128,0,219072:0:0:0:0:
320,192,218885,1,0,0:0:0:0:
192,192,218955,1,0,0:0:0:0:
64,192,219002,1,0,0:0:0:0:
320,192,219072,1,0,0:0:0:0:
192,192,219260,128,0,219635:0:0:0:0:
448,192,219260,128,0,219517:0:0:0:0:
64,192,219260,128,0,219377:0:0:0:0:
320,192,219822,128,0,220010:0:0:0:0:
64,192,219822,128,0,219916:0:0:0:0:
448,192,219822,1,0,0:0:0:0:
192,192,220010,128,0,220197:0:0:0:0:
448,192,220197,128,0,220760:0:0:0:0:
320,192,220385,1,0,0:0:0:0:
192,192,220385,1,0,0:0:0:0:
192,192,220572,1,0,0:0:0:0:
320,192,220572,1,0,0:0:0:0:
192,192,220760,1,0,0:0:0:0:
320,192,220760,1,0,0:0:0:0:
320,192,220947,128,0,221205:0:0:0:0:
64,192,221135,128,0,221392:0:0:0:0:
448,192,221322,128,0,221580:0:0:0:0:
192,192,221510,128,0,221885:0:0:0:0:
448,192,221885,128,0,222260:0:0:0:0:
64,192,221885,1,0,0:0:0:0:
320,192,221955,1,0,0:0:0:0:
192,192,222002,1,0,0:0:0:0:
64,192,222072,1,0,0:0:0:0:
320,192,222142,1,0,0:0:0:0:
64,192,222260,128,0,222635:0:0:0:0:
192,192,222260,128,0,222517:0:0:0:0:
320,192,222260,128,0,222377:0:0:0:0:
448,192,222822,128,0,223010:0:0:0:0:
320,192,222822,128,0,222916:0:0:0:0:
192,192,222822,1,0,0:0:0:0:
64,192,223010,128,0,223385:0:0:0:0:
448,192,223385,128,0,223760:0:0:0:0:
192,192,223385,1,0,0:0:0:0:
320,192,223385,1,0,0:0:0:0:
192,192,223572,1,0,0:0:0:0:
320,192,223572,1,0,0:0:0:0:
320,192,223760,1,0,0:0:0:0:
192,192,223760,1,0,0:0:0:0:
192,192,223947,128,0,224064:0:0:0:0:
320,192,224064,128,0,224205:0:0:0:0:
448,192,224205,128,0,224322:0:0:0:0:
64,192,224322,128,0,224510:0:0:0:0:
320,192,224510,128,0,225260:0:0:0:0:
448,192,224697,128,0,225260:0:0:0:0:
64,192,224885,1,0,0:0:0:0:
192,192,224955,1,0,0:0:0:0:
64,192,225072,1,0,0:0:0:0:
192,192,225142,1,0,0:0:0:0:
64,192,225260,128,0,226572:0:0:0:0:
192,192,225447,1,0,0:0:0:0:
320,192,225447,1,0,0:0:0:0:
320,192,225635,1,0,0:0:0:0:
448,192,225635,1,0,0:0:0:0:
192,192,225822,1,0,0:0:0:0:
448,192,225822,1,0,0:0:0:0:
320,192,226010,1,0,0:0:0:0:
192,192,226010,1,0,0:0:0:0:
320,192,226197,1,0,0:0:0:0:
448,192,226197,1,0,0:0:0:0:
192,192,226385,1,0,0:0:0:0:
448,192,226385,1,0,0:0:0:0:
320,192,226572,1,0,0:0:0:0:
192,192,226572,1,0,0:0:0:0:
448,192,226760,128,0,228260:0:0:0:0:
192,192,226760,1,0,0:0:0:0:
64,192,226760,1,0,0:0:0:0:
64,192,226947,1,0,0:0:0:0:
320,192,226947,1,0,0:0:0:0:
192,192,227135,1,0,0:0:0:0:
320,192,227135,1,0,0:0:0:0:
192,192,227322,1,0,0:0:0:0:
64,192,227322,1,0,0:0:0:0:
64,192,227510,1,0,0:0:0:0:
320,192,227510,1,0,0:0:0:0:
192,192,227697,1,0,0:0:0:0:
320,192,227697,1,0,0:0:0:0:
192,192,227885,1,0,0:0:0:0:
64,192,227885,1,0,0:0:0:0:
64,192,228072,1,0,0:0:0:0:
320,192,228072,1,0,0:0:0:0:
192,192,228260,1,0,0:0:0:0:
64,192,228260,1,0,0:0:0:0:
320,192,228260,1,0,0:0:0:0:
192,192,228447,1,0,0:0:0:0:
448,192,228447,128,0,228635:0:0:0:0:
320,192,228635,1,0,0:0:0:0:
64,192,228635,128,0,228822:0:0:0:0:
192,192,228822,128,0,229010:0:0:0:0:
320,192,228822,1,0,0:0:0:0:
448,192,229010,128,0,229197:0:0:0:0:
64,192,229010,1,0,0:0:0:0:
320,192,229197,128,0,229385:0:0:0:0:
192,192,229197,1,0,0:0:0:0:
192,192,229385,128,0,229572:0:0:0:0:
448,192,229385,1,0,0:0:0:0:
64,192,229572,128,0,229760:0:0:0:0:
320,192,229572,1,0,0:0:0:0:
320,192,229760,128,0,229947:0:0:0:0:
192,192,229760,1,0,0:0:0:0:
448,192,229947,128,0,230135:0:0:0:0:
64,192,229947,1,0,0:0:0:0:
192,192,230135,128,0,230322:0:0:0:0:
320,192,230135,1,0,0:0:0:0:
64,192,230322,128,0,230510:0:0:0:0:
448,192,230322,1,0,0:0:0:0:
448,192,230510,128,0,230697:0:0:0:0:
320,192,230510,1,0,0:0:0:0:
192,192,230697,128,0,230885:0:0:0:0:
64,192,230697,1,0,0:0:0:0:
320,192,230885,128,0,231072:0:0:0:0:
448,192,230885,1,0,0:0:0:0:
64,192,231072,128,0,231260:0:0:0:0:
192,192,231072,1,0,0:0:0:0:
320,192,231260,128,0,231447:0:0:0:0:
448,192,231260,1,0,0:0:0:0:
192,192,231447,128,0,231635:0:0:0:0:
64,192,231447,1,0,0:0:0:0:
448,192,231635,128,0,231822:0:0:0:0:
320,192,231635,1,0,0:0:0:0:
320,192,231822,128,0,232010:0:0:0:0:
64,192,231822,1,0,0:0:0:0:
64,192,232010,128,0,232197:0:0:0:0:
448,192,232010,1,0,0:0:0:0:
192,192,232197,128,0,232385:0:0:0:0:
320,192,232197,1,0,0:0:0:0:
320,192,232385,128,0,232572:0:0:0:0:
448,192,232385,1,0,0:0:0:0:
448,192,232572,128,0,232760:0:0:0:0:
192,192,232572,1,0,0:0:0:0:
64,192,232760,1,0,0:0:0:0:
192,192,232760,128,0,232947:0:0:0:0:
448,192,232947,1,0,0:0:0:0:
320,192,232947,128,0,233135:0:0:0:0:
64,192,233135,128,0,233322:0:0:0:0:
192,192,233135,1,0,0:0:0:0:
448,192,233322,128,0,233510:0:0:0:0:
320,192,233322,1,0,0:0:0:0:
192,192,233510,128,0,233697:0:0:0:0:
64,192,233510,1,0,0:0:0:0:
320,192,233697,128,0,233885:0:0:0:0:
448,192,233697,1,0,0:0:0:0:
64,192,233885,128,0,234072:0:0:0:0:
192,192,233885,1,0,0:0:0:0:
448,192,234072,128,0,234260:0:0:0:0:
320,192,234072,1,0,0:0:0:0:
320,192,234260,1,0,0:0:0:0:
192,192,234260,1,0,0:0:0:0:
64,192,234260,1,0,0:0:0:0:
64,192,234447,1,0,0:0:0:0:
192,192,234447,128,0,234635:0:0:0:0:
64,192,234635,1,0,0:0:0:0:
320,192,234635,1,0,0:0:0:0:
448,192,234635,128,0,234822:0:0:0:0:
192,192,234822,1,0,0:0:0:0:
320,192,234822,128,0,235010:0:0:0:0:
192,192,235010,1,0,0:0:0:0:
448,192,235010,1,0,0:0:0:0:
64,192,235010,128,0,235197:0:0:0:0:
320,192,235197,1,0,0:0:0:0:
192,192,235197,128,0,235385:0:0:0:0:
64,192,235385,1,0,0:0:0:0:
320,192,235385,1,0,0:0:0:0:
448,192,235385,1,0,0:0:0:0:
192,192,235572,1,0,0:0:0:0:
448,192,235572,1,0,0:0:0:0:
320,192,235760,1,0,0:0:0:0:
192,192,235760,1,0,0:0:0:0:
64,192,235760,1,0,0:0:0:0:
448,192,235947,128,0,236135:0:0:0:0:
320,192,235947,1,0,0:0:0:0:
320,192,236135,1,0,0:0:0:0:
64,192,236135,1,0,0:0:0:0:
192,192,236135,128,0,236322:0:0:0:0:
64,192,236322,1,0,0:0:0:0:
448,192,236322,128,0,236510:0:0:0:0:
320,192,236510,1,0,0:0:0:0:
192,192,236510,1,0,0:0:0:0:
64,192,236510,128,0,236697:0:0:0:0:
192,192,236697,128,0,236885:0:0:0:0:
64,192,236885,1,0,0:0:0:0:
320,192,236885,1,0,0:0:0:0:
448,192,236885,1,0,0:0:0:0:
192,192,237072,1,0,0:0:0:0:
320,192,237072,1,0,0:0:0:0:
448,192,237260,1,0,0:0:0:0:
320,192,237260,1,0,0:0:0:0:
192,192,237353,1,0,0:0:0:0:
64,192,237353,1,0,0:0:0:0:
448,192,237447,1,0,0:0:0:0:
320,192,237447,128,0,237541:0:0:0:0:
192,192,237541,1,0,0:0:0:0:
64,192,237541,1,0,0:0:0:0:
448,192,237635,128,0,237728:0:0:0:0:
320,192,237635,1,0,0:0:0:0:
192,192,237728,1,0,0:0:0:0:
64,192,237728,1,0,0:0:0:0:
448,192,237822,1,0,0:0:0:0:
320,192,237822,128,0,237916:0:0:0:0:
192,192,237916,1,0,0:0:0:0:
64,192,237916,1,0,0:0:0:0:
320,192,238010,1,0,0:0:0:0:
448,192,238010,128,0,238197:0:0:0:0:
192,192,238103,1,0,0:0:0:0:
64,192,238103,1,0,0:0:0:0:
192,192,238197,1,0,0:0:0:0:
320,192,238197,128,0,238385:0:0:0:0:
64,192,238291,1,0,0:0:0:0:
448,192,238291,1,0,0:0:0:0:
192,192,238385,1,0,0:0:0:0:
64,192,238385,1,0,0:0:0:0:
448,192,238478,1,0,0:0:0:0:
320,192,238525,1,0,0:0:0:0:
192,192,238572,1,0,0:0:0:0:
64,192,238619,1,0,0:0:0:0:
448,192,238666,1,0,0:0:0:0:
320,192,238713,1,0,0:0:0:0:
64,192,238947,128,0,240142:0:0:0:0:
192,192,239135,128,0,240142:0:0:0:0:
320,192,239322,128,0,240142:0:0:0:0:
448,192,239510,128,0,240142:0:0:0:0:
320,192,240260,128,0,240447:0:0:0:0:
448,192,240260,128,0,240822:0:0:0:0:
64,192,240635,128,0,241010:0:0:0:0:
320,192,241010,1,0,0:0:0:0:
448,192,241010,1,0,0:0:0:0:
192,192,241010,128,0,241267:0:0:0:0:
448,192,241127,1,0,0:0:0:0:
64,192,241197,128,0,241455:0:0:0:0:
320,192,241267,1,0,0:0:0:0:
448,192,241385,128,0,241642:0:0:0:0:
192,192,241385,1,0,0:0:0:0:
320,192,241572,128,0,241760:0:0:0:0:
64,192,241572,1,0,0:0:0:0:
192,192,241689,1,0,0:0:0:0:
448,192,241877,128,0,242135:0:0:0:0:
64,192,242017,128,0,242322:0:0:0:0:
320,192,242017,128,0,242510:0:0:0:0:
192,192,242135,1,0,0:0:0:0:
448,192,242322,128,0,242439:0:0:0:0:
192,192,242392,1,0,0:0:0:0:
64,192,242510,128,0,242627:0:0:0:0:
192,192,242697,128,0,242814:0:0:0:0:
320,192,242697,1,0,0:0:0:0:
448,192,242885,128,0,243260:0:0:0:0:
64,192,243260,1,0,0:0:0:0:
320,192,243260,1,0,0:0:0:0:
192,192,243260,128,0,243517:0:0:0:0:
448,192,243635,128,0,244197:0:0:0:0:
64,192,244010,128,0,244385:0:0:0:0:
320,192,244010,1,0,0:0:0:0:
192,192,244010,128,0,244572:0:0:0:0:
320,192,244197,1,0,0:0:0:0:
320,192,244385,1,0,0:0:0:0:
448,192,244385,128,0,244760:0:0:0:0:
64,192,244572,128,0,244947:0:0:0:0:
192,192,244760,1,0,0:0:0:0:
320,192,244830,1,0,0:0:0:0:
448,192,244877,1,0,0:0:0:0:
192,192,244947,128,0,245064:0:0:0:0:
320,192,244947,1,0,0:0:0:0:
448,192,245135,128,0,245252:0:0:0:0:
64,192,245135,1,0,0:0:0:0:
64,192,245322,128,0,245439:0:0:0:0:
192,192,245322,1,0,0:0:0:0:
320,192,245510,128,0,245627:0:0:0:0:
448,192,245510,1,0,0:0:0:0:
64,192,245697,128,0,246260:0:0:0:0:
192,192,245697,1,0,0:0:0:0:
320,192,245885,128,0,246260:0:0:0:0:
448,192,246072,128,0,246447:0:0:0:0:
192,192,246260,128,0,246635:0:0:0:0:
320,192,246635,1,0,0:0:0:0:
64,192,246635,128,0,246752:0:0:0:0:
448,192,246752,128,0,246892:0:0:0:0:
192,192,246892,128,0,247010:0:0:0:0:
320,192,247010,128,0,247127:0:0:0:0:
64,192,247010,1,0,0:0:0:0:
448,192,247127,128,0,247267:0:0:0:0:
192,192,247127,1,0,0:0:0:0:
320,192,247267,1,0,0:0:0:0:
448,192,247385,1,0,0:0:0:0:
320,192,247385,128,0,247502:0:0:0:0:
64,192,247502,1,0,0:0:0:0:
448,192,247502,128,0,247642:0:0:0:0:
192,192,247642,1,0,0:0:0:0:
64,192,247642,128,0,247760:0:0:0:0:
320,192,247760,1,0,0:0:0:0:
192,192,247760,128,0,247877:0:0:0:0:
448,192,247877,1,0,0:0:0:0:
64,192,247877,128,0,248017:0:0:0:0:
320,192,247877,128,0,248017:0:0:0:0:
448,192,248017,128,0,248510:0:0:0:0:
192,192,248135,1,0,0:0:0:0:
64,192,248135,1,0,0:0:0:0:
192,192,248322,128,0,248697:0:0:0:0:
320,192,248510,1,0,0:0:0:0:
64,192,248510,128,0,248627:0:0:0:0:
320,192,248697,128,0,248885:0:0:0:0:
448,192,248814,128,0,249072:0:0:0:0:
64,192,248955,1,0,0:0:0:0:
192,192,249002,1,0,0:0:0:0:
320,192,249072,128,0,249260:0:0:0:0:
192,192,249260,1,0,0:0:0:0:
64,192,249260,128,0,250572:0:0:0:0:
448,192,249447,128,0,249635:0:0:0:0:
320,192,249635,128,0,249822:0:0:0:0:
192,192,249822,128,0,250010:0:0:0:0:
448,192,250010,128,0,250572:0:0:0:0:
320,192,250197,128,0,250572:0:0:0:0:
448,192,250947,128,0,252260:0:0:0:0:
64,192,250947,128,0,251064:0:0:0:0:
192,192,251064,128,0,251205:0:0:0:0:
320,192,251205,128,0,251322:0:0:0:0:
64,192,251322,128,0,251439:0:0:0:0:
192,192,251439,128,0,252260:0:0:0:0:
320,192,251627,128,0,252260:0:0:0:0:
64,192,252260,128,0,252822:0:0:0:0:
320,192,252635,128,0,253010:0:0:0:0:
448,192,252752,128,0,252892:0:0:0:0:
64,192,253010,1,0,0:0:0:0:
192,192,253080,1,0,0:0:0:0:
448,192,253127,1,0,0:0:0:0:
320,192,253197,1,0,0:0:0:0:
192,192,253267,1,0,0:0:0:0:
64,192,253314,1,0,0:0:0:0:
448,192,253385,128,0,253572:0:0:0:0:
320,192,253385,1,0,0:0:0:0:
192,192,253502,128,0,253689:0:0:0:0:
320,192,253642,128,0,253830:0:0:0:0:
64,192,253760,128,0,253947:0:0:0:0:
192,192,253947,1,0,0:0:0:0:
448,192,253947,128,0,254064:0:0:0:0:
320,192,254064,128,0,254322:0:0:0:0:
64,192,254205,128,0,254322:0:0:0:0:
192,192,254205,1,0,0:0:0:0:
448,192,254322,128,0,254439:0:0:0:0:
192,192,254439,1,0,0:0:0:0:
64,192,254439,128,0,254580:0:0:0:0:
448,192,254580,1,0,0:0:0:0:
320,192,254580,128,0,254697:0:0:0:0:
64,192,254697,128,0,255072:0:0:0:0:
448,192,254885,128,0,255260:0:0:0:0:
320,192,255260,1,0,0:0:0:0:
192,192,255260,128,0,255635:0:0:0:0:
448,192,255447,128,0,255564:0:0:0:0:
64,192,255635,128,0,256010:0:0:0:0:
320,192,255752,128,0,255892:0:0:0:0:
448,192,256010,1,0,0:0:0:0:
320,192,256080,1,0,0:0:0:0:
192,192,256127,1,0,0:0:0:0:
64,192,256197,1,0,0:0:0:0:
448,192,256197,1,0,0:0:0:0:
320,192,256267,1,0,0:0:0:0:
192,192,256314,1,0,0:0:0:0:
64,192,256385,1,0,0:0:0:0:
448,192,256385,128,0,256502:0:0:0:0:
64,192,256502,1,0,0:0:0:0:
192,192,256572,1,0,0:0:0:0:
320,192,256642,1,0,0:0:0:0:
448,192,256689,1,0,0:0:0:0:
64,192,256689,128,0,256830:0:0:0:0:
448,192,256830,128,0,256947:0:0:0:0:
320,192,256877,128,0,257017:0:0:0:0:
192,192,257017,128,0,257322:0:0:0:0:
448,192,257135,128,0,257205:0:0:0:0:
64,192,257252,128,0,257439:0:0:0:0:
320,192,257510,1,0,0:0:0:0:
448,192,257510,1,0,0:0:0:0:
192,192,257510,128,0,257627:0:0:0:0:
64,192,257627,128,0,257767:0:0:0:0:
320,192,257814,128,0,257955:0:0:0:0:
448,192,257955,128,0,258260:0:0:0:0:
192,192,258072,1,0,0:0:0:0:
192,192,258260,1,0,0:0:0:0:
64,192,258260,128,0,258447:0:0:0:0:
320,192,258260,1,0,0:0:0:0:
192,192,258635,1,0,0:0:0:0:
320,192,258635,1,0,0:0:0:0:
448,192,258635,128,0,258822:0:0:0:0:
64,192,259010,1,0,0:0:0:0:
320,192,259010,1,0,0:0:0:0:
192,192,259010,128,0,259197:0:0:0:0:
64,192,259385,1,0,0:0:0:0:
192,192,259455,1,0,0:0:0:0:
320,192,259502,1,0,0:0:0:0:
448,192,259572,1,0,0:0:0:0:
64,192,259572,128,0,259760:0:0:0:0:
192,192,259642,128,0,259760:0:0:0:0:
320,192,259689,128,0,259830:0:0:0:0:
448,192,259760,128,0,259877:0:0:0:0:
64,192,259877,128,0,260017:0:0:0:0:
192,192,259947,1,0,0:0:0:0:
320,192,260017,1,0,0:0:0:0:
448,192,260064,1,0,0:0:0:0:
64,192,260135,128,0,260252:0:0:0:0:
192,192,260135,1,0,0:0:0:0:
448,192,260252,1,0,0:0:0:0:
320,192,260322,1,0,0:0:0:0:
192,192,260392,1,0,0:0:0:0:
64,192,260439,1,0,0:0:0:0:
448,192,260510,128,0,260697:0:0:0:0:
320,192,260510,1,0,0:0:0:0:
192,192,260697,128,0,260814:0:0:0:0:
64,192,260814,128,0,261142:0:0:0:0:
320,192,260955,128,0,261142:0:0:0:0:
448,192,261072,128,0,261260:0:0:0:0:
192,192,261260,1,0,0:0:0:0:
64,192,261260,128,0,262572:0:0:0:0:
192,192,261447,128,0,261635:0:0:0:0:
320,192,261447,1,0,0:0:0:0:
448,192,261635,128,0,261822:0:0:0:0:
320,192,261635,1,0,0:0:0:0:
320,192,261822,128,0,262010:0:0:0:0:
192,192,261822,1,0,0:0:0:0:
192,192,262010,128,0,262572:0:0:0:0:
448,192,262010,1,0,0:0:0:0:
448,192,262197,128,0,262572:0:0:0:0:
320,192,262197,1,0,0:0:0:0:
320,192,262385,1,0,0:0:0:0:
320,192,262572,1,0,0:0:0:0:
448,192,262947,128,0,264260:0:0:0:0:
192,192,262947,128,0,263064:0:0:0:0:
64,192,262947,1,0,0:0:0:0:
320,192,263064,128,0,263205:0:0:0:0:
64,192,263205,128,0,263322:0:0:0:0:
192,192,263205,1,0,0:0:0:0:
192,192,263322,128,0,263510:0:0:0:0:
320,192,263322,1,0,0:0:0:0:
320,192,263510,128,0,264260:0:0:0:0:
64,192,263510,1,0,0:0:0:0:
64,192,263697,128,0,264260:0:0:0:0:
192,192,263697,1,0,0:0:0:0:
192,192,263885,1,0,0:0:0:0:
192,192,264072,1,0,0:0:0:0:
192,192,264260,128,0,264447:0:0:0:0:
448,192,264635,128,0,265010:0:0:0:0:
64,192,265010,1,0,0:0:0:0:
192,192,265080,1,0,0:0:0:0:
320,192,265127,1,0,0:0:0:0:
448,192,265197,1,0,0:0:0:0:
64,192,265267,1,0,0:0:0:0:
192,192,265314,1,0,0:0:0:0:
320,192,265385,1,0,0:0:0:0:
448,192,265385,1,0,0:0:0:0:
64,192,265455,1,0,0:0:0:0:
192,192,265502,1,0,0:0:0:0:
320,192,265572,1,0,0:0:0:0:
448,192,265642,1,0,0:0:0:0:
64,192,265760,128,0,265877:0:0:0:0:
192,192,265877,128,0,266017:0:0:0:0:
320,192,266017,128,0,266135:0:0:0:0:
448,192,266135,128,0,266252:0:0:0:0:
64,192,266135,1,0,0:0:0:0:
192,192,266252,128,0,266392:0:0:0:0:
64,192,266392,128,0,266510:0:0:0:0:
320,192,266510,1,0,0:0:0:0:
448,192,266510,128,0,266697:0:0:0:0:
192,192,266697,128,0,267260:0:0:0:0:
64,192,267260,1,0,0:0:0:0:
320,192,267260,1,0,0:0:0:0:
320,192,267635,128,0,268010:0:0:0:0:
448,192,267635,128,0,268010:0:0:0:0:
64,192,268010,1,0,0:0:0:0:
192,192,268010,1,0,0:0:0:0:
192,192,268385,1,0,0:0:0:0:
320,192,268385,1,0,0:0:0:0:
448,192,268760,128,0,268947:0:0:0:0:
64,192,268947,1,0,0:0:0:0:
320,192,268947,1,0,0:0:0:0:
192,192,269135,1,0,0:0:0:0:
448,192,269135,1,0,0:0:0:0:
320,192,269322,128,0,269510:0:0:0:0:
64,192,269510,1,0,0:0:0:0:
192,192,269510,1,0,0:0:0:0:
448,192,269885,1,0,0:0:0:0:
320,192,269955,1,0,0:0:0:0:
192,192,270002,1,0,0:0:0:0:
64,192,270072,1,0,0:0:0:0:
320,192,270260,1,0,0:0:0:0:
448,192,270260,1,0,0:0:0:0:
64,192,270635,1,0,0:0:0:0:
192,192,270705,1,0,0:0:0:0:
320,192,270752,1,0,0:0:0:0:
448,192,270822,128,0,270939:0:0:0:0:
64,192,270939,128,0,271080:0:0:0:0:
192,192,271080,1,0,0:0:0:0:
320,192,271080,1,0,0:0:0:0:
448,192,271197,1,0,0:0:0:0:
320,192,271267,1,0,0:0:0:0:
192,192,271314,1,0,0:0:0:0:
64,192,271385,1,0,0:0:0:0:
320,192,271455,1,0,0:0:0:0:
448,192,271455,128,0,271572:0:0:0:0:
192,192,271760,128,0,272135:0:0:0:0:
320,192,272135,1,0,0:0:0:0:
448,192,272135,128,0,272252:0:0:0:0:
192,192,272510,1,0,0:0:0:0:
64,192,272510,128,0,272627:0:0:0:0:
448,192,272627,1,0,0:0:0:0:
320,192,272697,1,0,0:0:0:0:
192,192,272767,1,0,0:0:0:0:
64,192,272814,1,0,0:0:0:0:
448,192,272885,128,0,273002:0:0:0:0:
320,192,273002,128,0,273142:0:0:0:0:
192,192,273142,128,0,273260:0:0:0:0:
64,192,273260,1,0,0:0:0:0:
448,192,273260,128,0,273330:0:0:0:0:
64,192,273447,1,0,0:0:0:0:
192,192,273541,1,0,0:0:0:0:
320,192,273635,1,0,0:0:0:0:
448,192,273728,1,0,0:0:0:0:
64,192,273822,1,0,0:0:0:0:
192,192,273916,1,0,0:0:0:0:
320,192,274010,1,0,0:0:0:0:
448,192,274103,1,0,0:0:0:0:
64,192,274197,1,0,0:0:0:0:
192,192,274291,1,0,0:0:0:0:
320,192,274385,1,0,0:0:0:0:
448,192,274478,1,0,0:0:0:0:
64,192,274478,128,0,274760:0:0:0:0:
448,192,274760,128,0,275510:0:0:0:0:
320,192,274947,1,0,0:0:0:0:
192,192,274947,1,0,0:0:0:0:
192,192,275135,1,0,0:0:0:0:
64,192,275135,1,0,0:0:0:0:
64,192,275510,128,0,276072:0:0:0:0:
192,192,275510,1,0,0:0:0:0:
320,192,275510,128,0,275627:0:0:0:0:
192,192,276072,128,0,276260:0:0:0:0:
448,192,276072,128,0,276260:0:0:0:0:
64,192,276260,1,0,0:0:0:0:
320,192,276260,128,0,276447:0:0:0:0:
192,192,276635,1,0,0:0:0:0:
64,192,276635,128,0,277385:0:0:0:0:
320,192,277010,1,0,0:0:0:0:
448,192,277010,1,0,0:0:0:0:
320,192,277385,1,0,0:0:0:0:
192,192,277385,128,0,277760:0:0:0:0:
448,192,277760,128,0,277877:0:0:0:0:
64,192,277760,128,0,278135:0:0:0:0:
192,192,278135,1,0,0:0:0:0:
320,192,278135,128,0,278510:0:0:0:0:
64,192,278510,1,0,0:0:0:0:
448,192,278510,128,0,279260:0:0:0:0:
64,192,278885,128,0,279072:0:0:0:0:
192,192,279260,1,0,0:0:0:0:
320,192,279260,1,0,0:0:0:0:
64,192,279635,128,0,280010:0:0:0:0:
448,192,280010,128,0,280385:0:0:0:0:
192,192,280010,1,0,0:0:0:0:
64,192,280385,128,0,280760:0:0:0:0:
320,192,280385,1,0,0:0:0:0:
448,192,280760,1,0,0:0:0:0:
320,192,280760,128,0,280947:0:0:0:0:
64,192,280947,1,0,0:0:0:0:
192,192,280947,1,0,0:0:0:0:
320,192,281135,1,0,0:0:0:0:
448,192,281135,1,0,0:0:0:0:
192,192,281322,128,0,281510:0:0:0:0:
64,192,281510,1,0,0:0:0:0:
320,192,281510,1,0,0:0:0:0:
448,192,281697,128,0,281885:0:0:0:0:
64,192,281885,128,0,282072:0:0:0:0:
448,192,282260,1,0,0:0:0:0:
64,192,282260,128,0,282447:0:0:0:0:
320,192,282353,1,0,0:0:0:0:
192,192,282447,1,0,0:0:0:0:
448,192,282541,1,0,0:0:0:0:
320,192,282635,1,0,0:0:0:0:
192,192,282728,1,0,0:0:0:0:
64,192,282822,128,0,283010:0:0:0:0:
320,192,283010,1,0,0:0:0:0:
448,192,283010,128,0,283127:0:0:0:0:
320,192,283385,1,0,0:0:0:0:
64,192,283385,128,0,283502:0:0:0:0:
320,192,283760,128,0,283877:0:0:0:0:
192,192,284135,1,0,0:0:0:0:
448,192,284135,128,0,284252:0:0:0:0:
192,192,284510,1,0,0:0:0:0:
64,192,284510,128,0,284627:0:0:0:0:
448,192,284885,1,0,0:0:0:0:
64,192,285260,128,0,285377:0:0:0:0:
192,192,285260,128,0,285377:0:0:0:0:
448,192,285635,128,0,285752:0:0:0:0:
192,192,286010,128,0,286197:0:0:0:0:
320,192,286010,1,0,0:0:0:0:
64,192,286385,1,0,0:0:0:0:
448,192,286385,128,0,286572:0:0:0:0:
192,192,286760,128,0,286947:0:0:0:0:
448,192,286947,128,0,287135:0:0:0:0:
320,192,286947,1,0,0:0:0:0:
64,192,287135,128,0,288260:0:0:0:0:
192,192,287135,1,0,0:0:0:0:
320,192,287228,1,0,0:0:0:0:
448,192,287322,1,0,0:0:0:0:
192,192,287416,1,0,0:0:0:0:
320,192,287510,1,0,0:0:0:0:
448,192,287603,1,0,0:0:0:0:
192,192,287697,1,0,0:0:0:0:
320,192,287791,1,0,0:0:0:0:
448,192,287885,1,0,0:0:0:0:
192,192,287955,1,0,0:0:0:0:
320,192,288002,1,0,0:0:0:0:
448,192,288072,1,0,0:0:0:0:
192,192,288142,1,0,0:0:0:0:
320,192,288189,1,0,0:0:0:0:
448,192,288260,128,4,298760:0:0:0:0:
