osu file format v14

[General]
AudioFilename: audio.mp3
AudioLeadIn: 0
PreviewTime: 84120
Countdown: 0
SampleSet: Soft
StackLeniency: 0.7
Mode: 3
LetterboxInBreaks: 0
SpecialStyle: 0
WidescreenStoryboard: 0

[Editor]
DistanceSpacing: 1
BeatDivisor: 4
GridSize: 8
TimelineZoom: 2.299999

[Metadata]
Title:Be Wild
TitleUnicode:Be Wild
Artist:Camellia feat. Yukacco
ArtistUnicode:かめりあ feat. Yukacco
Creator:AHHHHHHHHHHHHHH
Version:WILD CANNON
Source:
Tags:cut version MBCD-0030 かめるかめりあ Kamerukameria KamelCamellia MelonBooks ShopBGM Compilations:001 Nature C92 trap english japanese electronic
BeatmapID:1861586
BeatmapSetID:890491

[Difficulty]
HPDrainRate:9
CircleSize:4
OverallDifficulty:8
ApproachRate:5
SliderMultiplier:1.4
SliderTickRate:1

[Events]
//Background and Video events
0,0,"be wild.jpg",0,0
//Break Periods
//Storyboard Layer 0 (Background)
//Storyboard Layer 1 (Fail)
//Storyboard Layer 2 (Pass)
//Storyboard Layer 3 (Foreground)
//Storyboard Layer 4 (Overlay)
//Storyboard Sound Samples

[TimingPoints]
120,375,4,2,1,5,1,0
10620,-100,4,2,1,40,0,0
12120,-66.6666666666667,4,2,1,40,0,0
12213,-80,4,2,1,40,0,0
12307,-133.333333333333,4,2,1,40,0,0
12401,-200,4,2,1,40,0,0
12588,-66.6666666666667,4,2,1,40,0,0
12682,-12.5,4,2,1,40,0,0
12705,-1000,4,2,1,40,0,0
14229,-500,4,2,1,40,0,0
14276,-333.333333333333,4,2,1,40,0,0
14323,-250,4,2,1,40,0,0
14370,-181.818181818182,4,2,1,40,0,0
14463,-133.333333333333,4,2,1,40,0,0
14557,-100,4,2,1,40,0,0
15120,-66.6666666666667,4,2,1,40,0,0
15213,-80,4,2,1,40,0,0
15307,-133.333333333333,4,2,1,40,0,0
15401,-200,4,2,1,40,0,0
15588,-66.6666666666667,4,2,1,40,0,0
15682,-12.5,4,2,1,40,0,0
15705,-1000,4,2,1,40,0,0
17042,-500,4,2,1,40,0,0
17089,-333.333333333333,4,2,1,40,0,0
17136,-250,4,2,1,40,0,0
17183,-181.818181818182,4,2,1,40,0,0
17276,-133.333333333333,4,2,1,40,0,0
17370,-100,4,2,1,40,0,0
18120,-66.6666666666667,4,2,1,40,0,0
18213,-80,4,2,1,40,0,0
18307,-133.333333333333,4,2,1,40,0,0
18401,-200,4,2,1,40,0,0
18588,-66.6666666666667,4,2,1,40,0,0
18682,-12.5,4,2,1,40,0,0
18705,-1000,4,2,1,40,0,0
20229,-500,4,2,1,40,0,0
20276,-333.333333333333,4,2,1,40,0,0
20323,-250,4,2,1,40,0,0
20370,-181.818181818182,4,2,1,40,0,0
20463,-133.333333333333,4,2,1,40,0,0
20557,-100,4,2,1,40,0,0
24120,-66.6666666666667,4,2,1,40,0,0
24213,-80,4,2,1,40,0,0
24307,-133.333333333333,4,2,1,40,0,0
24401,-200,4,2,1,40,0,0
24588,-66.6666666666667,4,2,1,40,0,0
24682,-12.5,4,2,1,40,0,0
24705,-1000,4,2,1,40,0,0
25667,-500,4,2,1,40,0,0
25714,-333.333333333333,4,2,1,40,0,0
25761,-250,4,2,1,40,0,0
25808,-181.818181818182,4,2,1,40,0,0
25901,-133.333333333333,4,2,1,40,0,0
25995,-100,4,2,1,40,0,0
27120,-66.6666666666667,4,2,1,40,0,0
27213,-80,4,2,1,40,0,0
27307,-133.333333333333,4,2,1,40,0,0
27401,-200,4,2,1,40,0,0
27588,-66.6666666666667,4,2,1,40,0,0
27682,-12.5,4,2,1,40,0,0
27705,-1000,4,2,1,40,0,0
28667,-500,4,2,1,40,0,0
28714,-333.333333333333,4,2,1,40,0,0
28761,-250,4,2,1,40,0,0
28808,-181.818181818182,4,2,1,40,0,0
28901,-133.333333333333,4,2,1,40,0,0
28995,-100,4,2,1,40,0,0
30120,-66.6666666666667,4,2,1,40,0,0
30213,-80,4,2,1,40,0,0
30307,-133.333333333333,4,2,1,40,0,0
30401,-200,4,2,1,40,0,0
30588,-66.6666666666667,4,2,1,40,0,0
30682,-12.5,4,2,1,40,0,0
30705,-1000,4,2,1,40,0,0
31854,-500,4,2,1,40,0,0
31901,-333.333333333333,4,2,1,40,0,0
31948,-250,4,2,1,40,0,0
31995,-181.818181818182,4,2,1,40,0,0
32088,-133.333333333333,4,2,1,40,0,0
32182,-100,4,2,1,40,0,0
36120,-111.111111111111,4,2,1,40,0,0
57870,-105.263157894737,4,2,1,40,0,0
58245,-100,4,2,1,40,0,0
60120,-66.6666666666667,4,2,1,40,0,0
60213,-80,4,2,1,40,0,0
60307,-133.333333333333,4,2,1,40,0,0
60401,-200,4,2,1,40,0,0
60588,-66.6666666666667,4,2,1,40,0,0
60682,-12.5,4,2,1,40,0,0
60705,-200,4,2,1,40,0,0
61057,-166.666666666667,4,2,1,40,0,0
61104,-133.333333333333,4,2,1,40,0,0
61151,-100,4,2,1,40,0,0
61198,-90.9090909090909,4,2,1,40,0,0
61245,-40,4,2,1,40,0,0
61291,-250,4,2,1,40,0,0
61432,-40,4,2,1,40,0,0
61479,-250,4,2,1,40,0,0
61620,-100,4,2,1,40,0,0
63120,-66.6666666666667,4,2,1,40,0,0
63213,-80,4,2,1,40,0,0
63307,-133.333333333333,4,2,1,40,0,0
63401,-200,4,2,1,40,0,0
63588,-66.6666666666667,4,2,1,40,0,0
63682,-12.5,4,2,1,40,0,0
63705,-200,4,2,1,40,0,0
64057,-166.666666666667,4,2,1,40,0,0
64104,-133.333333333333,4,2,1,40,0,0
64151,-100,4,2,1,40,0,0
64198,-90.9090909090909,4,2,1,40,0,0
64245,-40,4,2,1,40,0,0
64291,-250,4,2,1,40,0,0
64432,-40,4,2,1,40,0,0
64479,-250,4,2,1,40,0,0
64620,-100,4,2,1,40,0,0
66120,-66.6666666666667,4,2,1,40,0,0
66213,-80,4,2,1,40,0,0
66307,-133.333333333333,4,2,1,40,0,0
66401,-200,4,2,1,40,0,0
66588,-66.6666666666667,4,2,1,40,0,0
66682,-12.5,4,2,1,40,0,0
66705,-200,4,2,1,40,0,0
67057,-166.666666666667,4,2,1,40,0,0
67104,-133.333333333333,4,2,1,40,0,0
67151,-100,4,2,1,40,0,0
67198,-90.9090909090909,4,2,1,40,0,0
67245,-40,4,2,1,40,0,0
67291,-250,4,2,1,40,0,0
67432,-40,4,2,1,40,0,0
67479,-250,4,2,1,40,0,0
67620,-100,4,2,1,40,0,0
69120,-1000,4,2,1,40,0,0
69448,-769.230769230769,4,2,1,40,0,0
69776,-666.666666666667,4,2,1,40,0,0
70104,-555.555555555556,4,2,1,40,0,0
70432,-500,4,2,1,40,0,0
70666,-400,4,2,1,40,0,0
70901,-333.333333333333,4,2,1,40,0,0
70995,-166.666666666667,4,2,1,40,0,0
71041,-500,4,2,1,40,0,0
71088,-250,4,2,1,40,0,0
71276,-200,4,2,1,40,0,0
71370,-166.666666666667,4,2,1,40,0,0
71463,-95.2380952380952,4,2,1,40,0,0
71510,-285.714285714286,4,2,1,40,0,0
71557,-142.857142857143,4,2,1,40,0,0
71651,-125,4,2,1,40,0,0
71698,-111.111111111111,4,2,1,40,0,0
71745,-200,4,2,1,40,0,0
71791,-66.6666666666667,4,2,1,40,0,0
71838,-200,4,2,1,40,0,0
71885,-66.6666666666667,4,2,1,40,0,0
71932,-400,4,2,1,40,0,0
71979,-57.1428571428571,4,2,1,40,0,0
72026,-1000,4,2,1,40,0,0
72073,-52.6315789473684,4,2,1,40,0,0
72120,-100,4,2,1,40,0,0
84120,-1000,4,2,1,40,0,1
84307,-166.666666666667,4,2,1,40,0,1
84354,-100,4,2,1,40,0,1
84401,-76.9230769230769,4,2,1,40,0,1
84448,-58.8235294117647,4,2,1,40,0,1
84495,-27.027027027027,4,2,1,40,0,1
84541,-1000,4,2,1,40,0,1
84729,-200,4,2,1,40,0,1
84776,-100,4,2,1,40,0,1
84823,-66.6666666666667,4,2,1,40,0,1
84870,-200,4,2,1,40,0,1
84916,-66.6666666666667,4,2,1,40,0,1
84963,-200,4,2,1,40,0,1
85010,-66.6666666666667,4,2,1,40,0,1
85057,-200,4,2,1,40,0,1
85104,-66.6666666666667,4,2,1,40,0,1
85151,-200,4,2,1,40,0,1
85198,-66.6666666666667,4,2,1,40,0,1
85245,-200,4,2,1,40,0,1
85291,-66.6666666666667,4,2,1,40,0,1
85338,-200,4,2,1,40,0,1
85385,-66.6666666666667,4,2,1,40,0,1
85432,-200,4,2,1,40,0,1
85479,-66.6666666666667,4,2,1,40,0,1
85526,-200,4,2,1,40,0,1
85573,-66.6666666666667,4,2,1,40,0,1
85620,-200,4,2,1,40,0,1
85666,-66.6666666666667,4,2,1,40,0,1
85713,-200,4,2,1,40,0,1
85760,-66.6666666666667,4,2,1,40,0,1
85807,-100,4,2,1,40,0,1
85901,-200,4,2,1,40,0,1
85948,-66.6666666666667,4,2,1,40,0,1
85995,-100,4,2,1,40,0,1
86088,-200,4,2,1,40,0,1
86135,-66.6666666666667,4,2,1,40,0,1
86182,-100,4,2,1,40,0,1
86276,-200,4,2,1,40,0,1
86323,-66.6666666666667,4,2,1,40,0,1
86370,-100,4,2,1,40,0,1
86463,-200,4,2,1,40,0,1
86510,-66.6666666666667,4,2,1,40,0,1
86557,-66.6666666666667,4,2,1,40,0,1
86604,-100,4,2,1,40,0,1
86651,-133.333333333333,4,2,1,40,0,1
86698,-200,4,2,1,40,0,1
86745,-1000,4,2,1,40,0,1
86885,-142.857142857143,4,2,1,40,0,1
86932,-100,4,2,1,40,0,1
86979,-80,4,2,1,40,0,1
87026,-57.1428571428571,4,2,1,40,0,1
87073,-50,4,2,1,40,0,1
87120,-1000,4,2,1,40,0,1
87143,-52.6315789473684,4,2,1,40,0,1
87166,-1000,4,2,1,40,0,1
87190,-52.6315789473684,4,2,1,40,0,1
87213,-1000,4,2,1,40,0,1
87237,-52.6315789473684,4,2,1,40,0,1
87260,-1000,4,2,1,40,0,1
87284,-52.6315789473684,4,2,1,40,0,1
87307,-1000,4,2,1,40,0,1
87330,-52.6315789473684,4,2,1,40,0,1
87354,-1000,4,2,1,40,0,1
87377,-52.6315789473684,4,2,1,40,0,1
87401,-1000,4,2,1,40,0,1
87424,-52.6315789473684,4,2,1,40,0,1
87448,-1000,4,2,1,40,0,1
87471,-52.6315789473684,4,2,1,40,0,1
87495,-27.027027027027,4,2,1,40,0,1
87541,-1000,4,2,1,40,0,1
87729,-200,4,2,1,40,0,1
87776,-100,4,2,1,40,0,1
87823,-66.6666666666667,4,2,1,40,0,1
87870,-200,4,2,1,40,0,1
87916,-66.6666666666667,4,2,1,40,0,1
87963,-200,4,2,1,40,0,1
88010,-66.6666666666667,4,2,1,40,0,1
88057,-200,4,2,1,40,0,1
88104,-66.6666666666667,4,2,1,40,0,1
88151,-200,4,2,1,40,0,1
88198,-66.6666666666667,4,2,1,40,0,1
88245,-200,4,2,1,40,0,1
88291,-66.6666666666667,4,2,1,40,0,1
88338,-200,4,2,1,40,0,1
88385,-66.6666666666667,4,2,1,40,0,1
88432,-200,4,2,1,40,0,1
88479,-66.6666666666667,4,2,1,40,0,1
88526,-200,4,2,1,40,0,1
88573,-66.6666666666667,4,2,1,40,0,1
88620,-200,4,2,1,40,0,1
88666,-66.6666666666667,4,2,1,40,0,1
88713,-200,4,2,1,40,0,1
88760,-66.6666666666667,4,2,1,40,0,1
88807,-100,4,2,1,40,0,1
88901,-200,4,2,1,40,0,1
88948,-66.6666666666667,4,2,1,40,0,1
88995,-100,4,2,1,40,0,1
89088,-200,4,2,1,40,0,1
89135,-66.6666666666667,4,2,1,40,0,1
89182,-100,4,2,1,40,0,1
89276,-200,4,2,1,40,0,1
89323,-66.6666666666667,4,2,1,40,0,1
89370,-100,4,2,1,40,0,1
89557,-57.1428571428571,4,2,1,40,0,1
89604,-100,4,2,1,40,0,1
89651,-133.333333333333,4,2,1,40,0,1
89698,-200,4,2,1,40,0,1
89745,-100,4,2,1,40,0,1
89932,-57.1428571428571,4,2,1,40,0,1
89979,-100,4,2,1,40,0,1
90026,-133.333333333333,4,2,1,40,0,1
90073,-200,4,2,1,40,0,1
90120,-1000,4,2,1,40,0,1
90307,-166.666666666667,4,2,1,40,0,1
90354,-100,4,2,1,40,0,1
90401,-76.9230769230769,4,2,1,40,0,1
90448,-58.8235294117647,4,2,1,40,0,1
90495,-27.027027027027,4,2,1,40,0,1
90541,-1000,4,2,1,40,0,1
90729,-200,4,2,1,40,0,1
90776,-100,4,2,1,40,0,1
90823,-66.6666666666667,4,2,1,40,0,1
90870,-200,4,2,1,40,0,1
90916,-66.6666666666667,4,2,1,40,0,1
90963,-200,4,2,1,40,0,1
91010,-66.6666666666667,4,2,1,40,0,1
91057,-200,4,2,1,40,0,1
91104,-66.6666666666667,4,2,1,40,0,1
91151,-200,4,2,1,40,0,1
91198,-66.6666666666667,4,2,1,40,0,1
91245,-200,4,2,1,40,0,1
91291,-66.6666666666667,4,2,1,40,0,1
91338,-200,4,2,1,40,0,1
91385,-66.6666666666667,4,2,1,40,0,1
91432,-200,4,2,1,40,0,1
91479,-66.6666666666667,4,2,1,40,0,1
91526,-200,4,2,1,40,0,1
91573,-66.6666666666667,4,2,1,40,0,1
91620,-200,4,2,1,40,0,1
91666,-66.6666666666667,4,2,1,40,0,1
91713,-200,4,2,1,40,0,1
91760,-66.6666666666667,4,2,1,40,0,1
91807,-100,4,2,1,40,0,1
91901,-200,4,2,1,40,0,1
91948,-66.6666666666667,4,2,1,40,0,1
91995,-100,4,2,1,40,0,1
92088,-200,4,2,1,40,0,1
92135,-66.6666666666667,4,2,1,40,0,1
92182,-100,4,2,1,40,0,1
92276,-200,4,2,1,40,0,1
92323,-66.6666666666667,4,2,1,40,0,1
92370,-100,4,2,1,40,0,1
92463,-200,4,2,1,40,0,1
92510,-52.6315789473684,4,2,1,40,0,1
92557,-55.5555555555556,4,2,1,40,0,1
92604,-100,4,2,1,40,0,1
92651,-166.666666666667,4,2,1,40,0,1
92745,-100,4,2,1,40,0,1
92838,-90.9090909090909,4,2,1,40,0,1
92932,-83.3333333333333,4,2,1,40,0,1
93026,-76.9230769230769,4,2,1,40,0,1
93120,-100,4,2,1,40,0,1
96026,-100,4,2,1,40,0,0
96120,-1000,4,2,1,40,0,1
96307,-166.666666666667,4,2,1,40,0,1
96354,-100,4,2,1,40,0,1
96401,-76.9230769230769,4,2,1,40,0,1
96448,-58.8235294117647,4,2,1,40,0,1
96495,-27.027027027027,4,2,1,40,0,1
96541,-1000,4,2,1,40,0,1
96729,-200,4,2,1,40,0,1
96776,-100,4,2,1,40,0,1
96823,-66.6666666666667,4,2,1,40,0,1
96870,-200,4,2,1,40,0,1
96916,-66.6666666666667,4,2,1,40,0,1
96963,-200,4,2,1,40,0,1
97010,-66.6666666666667,4,2,1,40,0,1
97057,-200,4,2,1,40,0,1
97104,-66.6666666666667,4,2,1,40,0,1
97151,-200,4,2,1,40,0,1
97198,-66.6666666666667,4,2,1,40,0,1
97245,-200,4,2,1,40,0,1
97291,-66.6666666666667,4,2,1,40,0,1
97338,-1000,4,2,1,40,0,1
97385,-66.6666666666667,4,2,1,40,0,1
97432,-200,4,2,1,40,0,1
97479,-66.6666666666667,4,2,1,40,0,1
97526,-200,4,2,1,40,0,1
97573,-66.6666666666667,4,2,1,40,0,1
97620,-200,4,2,1,40,0,1
97666,-66.6666666666667,4,2,1,40,0,1
97713,-200,4,2,1,40,0,1
97760,-66.6666666666667,4,2,1,40,0,1
97807,-100,4,2,1,40,0,1
97901,-200,4,2,1,40,0,1
97948,-66.6666666666667,4,2,1,40,0,1
97995,-100,4,2,1,40,0,1
98088,-200,4,2,1,40,0,1
98135,-66.6666666666667,4,2,1,40,0,1
98182,-100,4,2,1,40,0,1
98276,-200,4,2,1,40,0,1
98323,-66.6666666666667,4,2,1,40,0,1
98370,-100,4,2,1,40,0,1
98463,-200,4,2,1,40,0,1
98510,-52.6315789473684,4,2,1,40,0,1
98557,-66.6666666666667,4,2,1,40,0,1
98604,-100,4,2,1,40,0,1
98651,-133.333333333333,4,2,1,40,0,1
98698,-200,4,2,1,40,0,1
98745,-1000,4,2,1,40,0,1
98885,-142.857142857143,4,2,1,40,0,1
98932,-100,4,2,1,40,0,1
98979,-80,4,2,1,40,0,1
99026,-57.1428571428571,4,2,1,40,0,1
99073,-50,4,2,1,40,0,1
99120,-1000,4,2,1,40,0,1
99143,-52.6315789473684,4,2,1,40,0,1
99166,-1000,4,2,1,40,0,1
99190,-52.6315789473684,4,2,1,40,0,1
99213,-1000,4,2,1,40,0,1
99237,-52.6315789473684,4,2,1,40,0,1
99260,-1000,4,2,1,40,0,1
99284,-52.6315789473684,4,2,1,40,0,1
99307,-1000,4,2,1,40,0,1
99330,-52.6315789473684,4,2,1,40,0,1
99354,-1000,4,2,1,40,0,1
99377,-52.6315789473684,4,2,1,40,0,1
99401,-1000,4,2,1,40,0,1
99424,-52.6315789473684,4,2,1,40,0,1
99448,-1000,4,2,1,40,0,1
99471,-52.6315789473684,4,2,1,40,0,1
99495,-27.027027027027,4,2,1,40,0,1
99541,-1000,4,2,1,40,0,1
99729,-200,4,2,1,40,0,1
99776,-100,4,2,1,40,0,1
99823,-66.6666666666667,4,2,1,40,0,1
99870,-200,4,2,1,40,0,1
99916,-66.6666666666667,4,2,1,40,0,1
99963,-200,4,2,1,40,0,1
100010,-66.6666666666667,4,2,1,40,0,1
100057,-200,4,2,1,40,0,1
100104,-66.6666666666667,4,2,1,40,0,1
100151,-200,4,2,1,40,0,1
100198,-66.6666666666667,4,2,1,40,0,1
100245,-200,4,2,1,40,0,1
100291,-66.6666666666667,4,2,1,40,0,1
100338,-200,4,2,1,40,0,1
100385,-66.6666666666667,4,2,1,40,0,1
100432,-200,4,2,1,40,0,1
100479,-66.6666666666667,4,2,1,40,0,1
100526,-200,4,2,1,40,0,1
100573,-66.6666666666667,4,2,1,40,0,1
100620,-200,4,2,1,40,0,1
100666,-66.6666666666667,4,2,1,40,0,1
100713,-200,4,2,1,40,0,1
100760,-66.6666666666667,4,2,1,40,0,1
100807,-100,4,2,1,40,0,1
100901,-200,4,2,1,40,0,1
100948,-66.6666666666667,4,2,1,40,0,1
100995,-100,4,2,1,40,0,1
101088,-200,4,2,1,40,0,1
101135,-66.6666666666667,4,2,1,40,0,1
101182,-100,4,2,1,40,0,1
101276,-200,4,2,1,40,0,1
101323,-52.6315789473684,4,2,1,40,0,1
101370,-100,4,2,1,40,0,1
101557,-57.1428571428571,4,2,1,40,0,1
101604,-100,4,2,1,40,0,1
101651,-133.333333333333,4,2,1,40,0,1
101698,-200,4,2,1,40,0,1
101745,-100,4,2,1,40,0,1
101932,-57.1428571428571,4,2,1,40,0,1
101979,-100,4,2,1,40,0,1
102026,-133.333333333333,4,2,1,40,0,1
102073,-200,4,2,1,40,0,1
102120,-1000,4,2,1,40,0,1
102307,-166.666666666667,4,2,1,40,0,1
102354,-100,4,2,1,40,0,1
102401,-76.9230769230769,4,2,1,40,0,1
102448,-58.8235294117647,4,2,1,40,0,1
102495,-27.027027027027,4,2,1,40,0,1
102541,-1000,4,2,1,40,0,1
102729,-200,4,2,1,40,0,1
102776,-100,4,2,1,40,0,1
102823,-66.6666666666667,4,2,1,40,0,1
102870,-200,4,2,1,40,0,1
102916,-66.6666666666667,4,2,1,40,0,1
102963,-200,4,2,1,40,0,1
103010,-66.6666666666667,4,2,1,40,0,1
103057,-200,4,2,1,40,0,1
103104,-66.6666666666667,4,2,1,40,0,1
103151,-200,4,2,1,40,0,1
103198,-66.6666666666667,4,2,1,40,0,1
103245,-200,4,2,1,40,0,1
103291,-66.6666666666667,4,2,1,40,0,1
103338,-200,4,2,1,40,0,1
103385,-66.6666666666667,4,2,1,40,0,1
103432,-27.027027027027,4,2,1,40,0,1
103455,-1000,4,2,1,40,0,1
103526,-200,4,2,1,40,0,1
103573,-66.6666666666667,4,2,1,40,0,1
103620,-200,4,2,1,40,0,1
103666,-66.6666666666667,4,2,1,40,0,1
103713,-200,4,2,1,40,0,1
103760,-66.6666666666667,4,2,1,40,0,1
103807,-200,4,2,1,40,0,1
103854,-66.6666666666667,4,2,1,40,0,1
103901,-200,4,2,1,40,0,1
103948,-66.6666666666667,4,2,1,40,0,1
103995,-200,4,2,1,40,0,1
104041,-66.6666666666667,4,2,1,40,0,1
104088,-200,4,2,1,40,0,1
104135,-66.6666666666667,4,2,1,40,0,1
104182,-66.6666666666667,4,2,1,40,0,1
104229,-200,4,2,1,40,0,1
104276,-100,4,2,1,40,0,1
104370,-58.8235294117647,4,2,1,40,0,1
104416,-200,4,2,1,40,0,1
104463,-100,4,2,1,40,0,1
104557,-52.6315789473684,4,2,1,40,0,1
104604,-200,4,2,1,40,0,1
104651,-100,4,2,1,40,0,1
104745,-47.6190476190476,4,2,1,40,0,1
104791,-200,4,2,1,40,0,1
104838,-100,4,2,1,40,0,1
104932,-43.4782608695652,4,2,1,40,0,1
104979,-200,4,2,1,40,0,1
105026,-100,4,2,1,40,0,1
108120,-100,4,2,1,40,0,0
118620,-333.333333333333,4,2,1,40,0,0
119370,-200,4,2,1,40,0,0
119463,-133.333333333333,4,2,1,40,0,0
119557,-100,4,2,1,40,0,0
119651,-80,4,2,1,40,0,0
119745,-200,4,2,1,40,0,0
119791,-66.6666666666667,4,2,1,40,0,0
119838,-200,4,2,1,40,0,0
119885,-66.6666666666667,4,2,1,40,0,0
119932,-200,4,2,1,40,0,0
119979,-66.6666666666667,4,2,1,40,0,0
120026,-200,4,2,1,40,0,0
120073,-66.6666666666667,4,2,1,40,0,0
120120,-10,4,2,1,40,0,1
120166,-1000,4,2,1,40,0,1
120307,-200,4,2,1,40,0,1
120401,-100,4,2,1,40,0,1
120448,-66.6666666666667,4,2,1,40,0,1
120541,-200,4,2,1,40,0,1
120588,-100,4,2,1,40,0,1
120682,-200,4,2,1,40,0,1
120729,-66.6666666666667,4,2,1,40,0,1
120776,-100,4,2,1,40,0,1
120870,-200,4,2,1,40,0,1
120916,-66.6666666666667,4,2,1,40,0,1
120963,-100,4,2,1,40,0,1
121057,-200,4,2,1,40,0,1
121104,-66.6666666666667,4,2,1,40,0,1
121151,-100,4,2,1,40,0,1
122557,-1000,4,2,1,40,0,1
122580,-52.6315789473684,4,2,1,40,0,1
122604,-1000,4,2,1,40,0,1
122627,-52.6315789473684,4,2,1,40,0,1
122651,-1000,4,2,1,40,0,1
122674,-52.6315789473684,4,2,1,40,0,1
122698,-1000,4,2,1,40,0,1
122721,-52.6315789473684,4,2,1,40,0,1
122745,-100,4,2,1,40,0,1
122791,-80,4,2,1,40,0,1
122838,-66.6666666666667,4,2,1,40,0,1
122885,-1000,4,2,1,40,0,1
123026,-52.6315789473684,4,2,1,40,0,1
123120,-1000,4,2,1,40,0,1
123143,-52.6315789473684,4,2,1,40,0,1
123166,-1000,4,2,1,40,0,1
123190,-52.6315789473684,4,2,1,40,0,1
123213,-1000,4,2,1,40,0,1
123237,-52.6315789473684,4,2,1,40,0,1
123260,-1000,4,2,1,40,0,1
123284,-52.6315789473684,4,2,1,40,0,1
123307,-1000,4,2,1,40,0,1
123330,-52.6315789473684,4,2,1,40,0,1
123354,-100,4,2,1,40,0,1
124432,-1000,4,2,1,40,0,1
124455,-52.6315789473684,4,2,1,40,0,1
124479,-1000,4,2,1,40,0,1
124502,-52.6315789473684,4,2,1,40,0,1
124526,-1000,4,2,1,40,0,1
124549,-52.6315789473684,4,2,1,40,0,1
124573,-1000,4,2,1,40,0,1
124596,-52.6315789473684,4,2,1,40,0,1
124620,-100,4,2,1,40,0,1
124807,-133.333333333333,4,2,1,40,0,1
124838,-80,4,2,1,40,0,1
124870,-133.333333333333,4,2,1,40,0,1
124901,-80,4,2,1,40,0,1
124932,-133.333333333333,4,2,1,40,0,1
124963,-80,4,2,1,40,0,1
124995,-50,4,2,1,40,0,1
125026,-133.333333333333,4,2,1,40,0,1
125151,-200,4,2,1,40,0,1
125213,-66.6666666666667,4,2,1,40,0,1
125276,-200,4,2,1,40,0,1
125323,-66.6666666666667,4,2,1,40,0,1
125416,-200,4,2,1,40,0,1
125463,-100,4,2,1,40,0,1
125557,-66.6666666666667,4,2,1,40,0,1
125604,-200,4,2,1,40,0,1
125651,-100,4,2,1,40,0,1
125745,-1000,4,2,1,40,0,1
125885,-142.857142857143,4,2,1,40,0,1
125932,-100,4,2,1,40,0,1
125979,-80,4,2,1,40,0,1
126026,-57.1428571428571,4,2,1,40,0,1
126073,-50,4,2,1,40,0,1
126120,-10,4,2,1,40,0,1
126166,-1000,4,2,1,40,0,1
126307,-133.333333333333,4,2,1,40,0,1
126401,-100,4,2,1,40,0,1
126495,-66.6666666666667,4,2,1,40,0,1
126541,-200,4,2,1,40,0,1
126588,-100,4,2,1,40,0,1
126682,-66.6666666666667,4,2,1,40,0,1
126729,-200,4,2,1,40,0,1
126776,-100,4,2,1,40,0,1
126870,-66.6666666666667,4,2,1,40,0,1
126916,-200,4,2,1,40,0,1
126963,-100,4,2,1,40,0,1
127057,-66.6666666666667,4,2,1,40,0,1
127104,-200,4,2,1,40,0,1
127151,-100,4,2,1,40,0,1
128557,-1000,4,2,1,40,0,1
128580,-52.6315789473684,4,2,1,40,0,1
128604,-1000,4,2,1,40,0,1
128627,-52.6315789473684,4,2,1,40,0,1
128651,-1000,4,2,1,40,0,1
128674,-52.6315789473684,4,2,1,40,0,1
128698,-1000,4,2,1,40,0,1
128721,-52.6315789473684,4,2,1,40,0,1
128745,-66.6666666666667,4,2,1,40,0,1
128791,-50,4,2,1,40,0,1
128838,-1000,4,2,1,40,0,1
128932,-200,4,2,1,40,0,1
128979,-100,4,2,1,40,0,1
129026,-66.6666666666667,4,2,1,40,0,1
129073,-50,4,2,1,40,0,1
129120,-100,4,2,1,40,0,1
131370,-1000,4,2,1,40,0,1
131416,-52.6315789473684,4,2,1,40,0,1
131463,-100,4,2,1,40,0,1
132120,-66.6666666666667,4,2,1,40,0,0
132166,-100,4,2,1,40,0,0
132213,-133.333333333333,4,2,1,40,0,0
132260,-200,4,2,1,40,0,0
132307,-66.6666666666667,4,2,1,40,0,0
132354,-100,4,2,1,40,0,0
132401,-133.333333333333,4,2,1,40,0,0
132448,-200,4,2,1,40,0,0
132495,-80,4,2,1,40,0,0
132541,-133.333333333333,4,2,1,40,0,0
132588,-80,4,2,1,40,0,0
132635,-133.333333333333,4,2,1,40,0,0
132682,-80,4,2,1,40,0,0
132729,-133.333333333333,4,2,1,40,0,0
132776,-80,4,2,1,40,0,0
132823,-133.333333333333,4,2,1,40,0,0
132870,-80,4,2,1,40,0,0
132916,-133.333333333333,4,2,1,40,0,0
132963,-80,4,2,1,40,0,0
133010,-133.333333333333,4,2,1,40,0,0
133057,-80,4,2,1,40,0,0
133104,-133.333333333333,4,2,1,40,0,0
133151,-80,4,2,1,40,0,0
133198,-133.333333333333,4,2,1,40,0,0
133245,-66.6666666666667,4,2,1,40,0,0
133291,-80,4,2,1,40,0,0
133338,-133.333333333333,4,2,1,40,0,0
133385,-200,4,2,1,40,0,0
133432,-333.333333333333,4,2,1,40,0,0
133526,-133.333333333333,4,2,1,40,0,0
133573,-100,4,2,1,40,0,0
133620,-80,4,2,1,40,0,0
133666,-133.333333333333,4,2,1,40,0,0
133713,-80,4,2,1,40,0,0
133760,-133.333333333333,4,2,1,40,0,0
133807,-80,4,2,1,40,0,0
133830,-133.333333333333,4,2,1,40,0,0
133854,-80,4,2,1,40,0,0
133877,-133.333333333333,4,2,1,40,0,0
133901,-80,4,2,1,40,0,0
133948,-133.333333333333,4,2,1,40,0,0
133995,-80,4,2,1,40,0,0
134041,-133.333333333333,4,2,1,40,0,0
134088,-80,4,2,1,40,0,0
134135,-133.333333333333,4,2,1,40,0,0
134182,-80,4,2,1,40,0,0
134229,-133.333333333333,4,2,1,40,0,0
134276,-80,4,2,1,40,0,0
134323,-133.333333333333,4,2,1,40,0,0
134370,-80,4,2,1,40,0,0
134416,-133.333333333333,4,2,1,40,0,0
134463,-100,4,2,1,40,0,0
135120,-200,4,2,1,40,0,1
135143,-66.6666666666667,4,2,1,40,0,1
135166,-200,4,2,1,40,0,1
135190,-66.6666666666667,4,2,1,40,0,1
135213,-200,4,2,1,40,0,1
135237,-66.6666666666667,4,2,1,40,0,1
135260,-200,4,2,1,40,0,1
135284,-66.6666666666667,4,2,1,40,0,1
135307,-200,4,2,1,40,0,1
135330,-66.6666666666667,4,2,1,40,0,1
135354,-200,4,2,1,40,0,1
135377,-66.6666666666667,4,2,1,40,0,1
135401,-200,4,2,1,40,0,1
135424,-66.6666666666667,4,2,1,40,0,1
135448,-200,4,2,1,40,0,1
135471,-66.6666666666667,4,2,1,40,0,1
135495,-100,4,2,1,40,0,1
137557,-1000,4,2,1,40,0,1
137604,-52.6315789473684,4,2,1,40,0,1
137651,-1000,4,2,1,40,0,1
137698,-52.6315789473684,4,2,1,40,0,1
137745,-1000,4,2,1,40,0,1
137885,-142.857142857143,4,2,1,40,0,1
137932,-100,4,2,1,40,0,1
137979,-80,4,2,1,40,0,1
138026,-57.1428571428571,4,2,1,40,0,1
138073,-50,4,2,1,40,0,1
138120,-10,4,2,1,40,0,1
138166,-1000,4,2,1,40,0,1
138307,-200,4,2,1,40,0,1
138401,-133.333333333333,4,2,1,40,0,1
138495,-80,4,2,1,40,0,1
138541,-133.333333333333,4,2,1,40,0,1
138588,-80,4,2,1,40,0,1
138635,-133.333333333333,4,2,1,40,0,1
138682,-80,4,2,1,40,0,1
138729,-133.333333333333,4,2,1,40,0,1
138776,-80,4,2,1,40,0,1
138823,-133.333333333333,4,2,1,40,0,1
138870,-80,4,2,1,40,0,1
138916,-133.333333333333,4,2,1,40,0,1
138963,-80,4,2,1,40,0,1
139010,-133.333333333333,4,2,1,40,0,1
139057,-80,4,2,1,40,0,1
139104,-133.333333333333,4,2,1,40,0,1
139151,-80,4,2,1,40,0,1
139198,-133.333333333333,4,2,1,40,0,1
139245,-100,4,2,1,40,0,1
140557,-1000,4,2,1,40,0,1
140580,-52.6315789473684,4,2,1,40,0,1
140604,-1000,4,2,1,40,0,1
140627,-52.6315789473684,4,2,1,40,0,1
140651,-1000,4,2,1,40,0,1
140674,-52.6315789473684,4,2,1,40,0,1
140698,-1000,4,2,1,40,0,1
140721,-52.6315789473684,4,2,1,40,0,1
140745,-66.6666666666667,4,2,1,40,0,1
140791,-50,4,2,1,40,0,1
140838,-1000,4,2,1,40,0,1
140932,-200,4,2,1,40,0,1
140979,-100,4,2,1,40,0,1
141026,-66.6666666666667,4,2,1,40,0,1
141073,-50,4,2,1,40,0,1
141120,-100,4,2,1,40,0,1
144120,-100,4,2,1,40,0,0

[HitObjects]
192,192,120,5,0,0:0:0:0:
64,192,307,1,0,0:0:0:0:
448,192,495,1,0,0:0:0:0:
192,192,682,1,0,0:0:0:0:
448,192,870,1,0,0:0:0:0:
64,192,1057,1,0,0:0:0:0:
192,192,1245,1,0,0:0:0:0:
320,192,1432,1,0,0:0:0:0:
192,192,1620,1,0,0:0:0:0:
320,192,1807,1,0,0:0:0:0:
64,192,1995,1,0,0:0:0:0:
448,192,2182,1,0,0:0:0:0:
320,192,2370,1,0,0:0:0:0:
64,192,2557,1,0,0:0:0:0:
320,192,2745,1,0,0:0:0:0:
192,192,2932,1,0,0:0:0:0:
448,192,3120,1,0,0:0:0:0:
192,192,3307,1,0,0:0:0:0:
64,192,3495,1,0,0:0:0:0:
320,192,3682,1,0,0:0:0:0:
64,192,3870,1,0,0:0:0:0:
192,192,4057,1,0,0:0:0:0:
448,192,4245,1,0,0:0:0:0:
320,192,4432,1,0,0:0:0:0:
192,192,4620,1,0,0:0:0:0:
320,192,4807,1,0,0:0:0:0:
64,192,4995,1,0,0:0:0:0:
192,192,5182,1,0,0:0:0:0:
320,192,5370,1,0,0:0:0:0:
64,192,5557,1,0,0:0:0:0:
192,192,5745,1,0,0:0:0:0:
448,192,5932,1,0,0:0:0:0:
192,192,6120,1,0,0:0:0:0:
320,192,6307,1,0,0:0:0:0:
64,192,6495,1,0,0:0:0:0:
448,192,6682,1,0,0:0:0:0:
64,192,6870,1,0,0:0:0:0:
320,192,7057,1,0,0:0:0:0:
192,192,7245,1,0,0:0:0:0:
448,192,7432,1,0,0:0:0:0:
64,192,7620,1,0,0:0:0:0:
448,192,7807,1,0,0:0:0:0:
320,192,7995,1,0,0:0:0:0:
192,192,8182,1,0,0:0:0:0:
320,192,8370,1,0,0:0:0:0:
64,192,8557,1,0,0:0:0:0:
192,192,8745,1,0,0:0:0:0:
448,192,8932,1,0,0:0:0:0:
64,192,9120,1,0,0:0:0:0:
448,192,9307,1,0,0:0:0:0:
192,192,9495,1,0,0:0:0:0:
320,192,9682,1,0,0:0:0:0:
192,192,9870,1,0,0:0:0:0:
448,192,10057,1,0,0:0:0:0:
64,192,10245,1,0,0:0:0:0:
192,192,10432,1,0,0:0:0:0:
320,192,10495,1,0,0:0:0:0:
192,192,10557,1,0,0:0:0:0:
448,192,10620,1,4,0:0:0:0:
320,192,10620,1,0,0:0:0:0:
64,192,10807,1,0,0:0:0:0:
192,192,10901,1,0,0:0:0:0:
320,192,10995,1,0,0:0:0:0:
448,192,10995,1,4,0:0:0:0:
64,192,11182,1,0,0:0:0:0:
192,192,11276,1,0,0:0:0:0:
320,192,11370,1,0,0:0:0:0:
448,192,11370,1,4,0:0:0:0:
64,192,11557,1,2,0:0:0:0:
320,192,11620,1,2,0:0:0:0:
64,192,11682,1,2,0:0:0:0:
320,192,11745,1,0,0:0:0:0:
448,192,11745,1,8,0:0:0:0:
448,192,11932,1,8,0:0:0:0:
320,192,11932,1,0,0:0:0:0:
192,192,12026,1,0,0:0:0:0:
64,192,12026,1,0,0:0:0:0:
192,192,12120,128,2,12495:0:0:0:0:
64,192,12120,128,4,12495:0:0:0:0:
448,192,12120,128,0,12495:0:0:0:0:
192,192,12682,1,2,0:0:0:0:
64,192,12682,1,4,0:0:0:0:
448,192,12682,1,0,0:0:0:0:
320,192,14557,1,2,0:0:0:0:
448,192,14557,1,0,0:0:0:0:
448,192,14651,1,0,0:0:0:0:
320,192,14651,1,2,0:0:0:0:
192,192,14745,1,8,0:0:0:0:
64,192,14745,1,0,0:0:0:0:
64,192,14838,1,0,0:0:0:0:
320,192,14838,1,2,0:0:0:0:
320,192,14932,1,2,0:0:0:0:
448,192,14932,1,0,0:0:0:0:
448,192,15026,1,0,0:0:0:0:
192,192,15026,1,2,0:0:0:0:
64,192,15120,128,0,15495:0:0:0:0:
192,192,15120,128,4,15495:0:0:0:0:
320,192,15120,128,2,15495:0:0:0:0:
320,192,15682,1,2,0:0:0:0:
192,192,15682,1,4,0:0:0:0:
64,192,15682,1,0,0:0:0:0:
320,192,17370,1,2,0:0:0:0:
64,192,17401,1,0,0:0:0:0:
192,192,17401,1,2,0:0:0:0:
448,192,17557,1,0,0:0:0:0:
320,192,17557,1,2,0:0:0:0:
192,192,17651,1,2,0:0:0:0:
448,192,17651,1,0,0:0:0:0:
320,192,17745,1,2,0:0:0:0:
64,192,17745,1,0,0:0:0:0:
192,192,17838,1,2,0:0:0:0:
64,192,17838,1,0,0:0:0:0:
448,192,17932,1,0,0:0:0:0:
320,192,17932,1,2,0:0:0:0:
64,192,18026,1,0,0:0:0:0:
192,192,18026,1,2,0:0:0:0:
64,192,18120,128,0,18495:0:0:0:0:
320,192,18120,128,2,18495:0:0:0:0:
448,192,18120,128,4,18495:0:0:0:0:
64,192,18682,1,0,0:0:0:0:
320,192,18682,1,2,0:0:0:0:
448,192,18682,1,4,0:0:0:0:
64,192,20557,1,2,0:0:0:0:
320,192,20620,1,2,0:0:0:0:
64,192,20682,1,2,0:0:0:0:
320,192,20745,1,0,0:0:0:0:
448,192,20745,1,8,0:0:0:0:
448,192,20838,1,2,0:0:0:0:
192,192,20838,1,0,0:0:0:0:
64,192,20932,1,0,0:0:0:0:
192,192,20932,1,2,0:0:0:0:
64,192,21026,1,2,0:0:0:0:
320,192,21026,1,0,0:0:0:0:
192,192,21120,1,0,0:0:0:0:
448,192,21120,1,4,0:0:0:0:
320,192,21120,128,2,21870:0:0:0:0:
192,192,21682,1,2,0:0:0:0:
448,192,21682,1,0,0:0:0:0:
192,192,21870,1,8,0:0:0:0:
448,192,21870,1,0,0:0:0:0:
64,192,21870,128,0,22620:0:0:0:0:
320,192,22432,1,2,0:0:0:0:
448,192,22432,1,0,0:0:0:0:
320,192,22526,1,2,0:0:0:0:
448,192,22526,1,0,0:0:0:0:
448,192,22620,1,0,0:0:0:0:
320,192,22620,1,2,0:0:0:0:
192,192,22620,128,0,23370:0:0:0:0:
448,192,22901,1,0,0:0:0:0:
64,192,22901,1,2,0:0:0:0:
448,192,23182,1,0,0:0:0:0:
64,192,23182,1,2,0:0:0:0:
320,192,23370,1,0,0:0:0:0:
448,192,23370,1,8,0:0:0:0:
64,192,23370,128,0,24120:0:0:0:0:
320,192,23557,1,2,0:0:0:0:
192,192,23557,1,0,0:0:0:0:
320,192,23745,1,8,0:0:0:0:
448,192,23745,1,0,0:0:0:0:
448,192,23838,1,0,0:0:0:0:
192,192,23932,1,0,0:0:0:0:
192,192,24120,128,0,24495:0:0:0:0:
320,192,24120,128,2,24495:0:0:0:0:
448,192,24120,128,4,24495:0:0:0:0:
192,192,24682,1,0,0:0:0:0:
320,192,24682,1,2,0:0:0:0:
448,192,24682,1,4,0:0:0:0:
64,192,25995,1,0,0:0:0:0:
192,192,25995,1,0,0:0:0:0:
448,192,26088,1,0,0:0:0:0:
320,192,26088,1,0,0:0:0:0:
64,192,26182,1,0,0:0:0:0:
448,192,26276,1,0,0:0:0:0:
320,192,26276,1,0,0:0:0:0:
64,192,26370,1,0,0:0:0:0:
192,192,26370,1,0,0:0:0:0:
448,192,26463,1,0,0:0:0:0:
64,192,26557,1,0,0:0:0:0:
192,192,26557,1,0,0:0:0:0:
448,192,26651,1,0,0:0:0:0:
320,192,26651,1,0,0:0:0:0:
192,192,26745,1,0,0:0:0:0:
320,192,26838,1,0,0:0:0:0:
64,192,26932,1,0,0:0:0:0:
192,192,27026,1,0,0:0:0:0:
64,192,27120,128,0,27495:0:0:0:0:
320,192,27120,128,2,27495:0:0:0:0:
448,192,27120,128,4,27495:0:0:0:0:
64,192,27682,1,0,0:0:0:0:
320,192,27682,1,2,0:0:0:0:
448,192,27682,1,4,0:0:0:0:
448,192,28995,1,2,0:0:0:0:
64,192,29041,1,0,0:0:0:0:
192,192,29041,1,2,0:0:0:0:
320,192,29182,1,2,0:0:0:0:
448,192,29182,1,0,0:0:0:0:
320,192,29276,1,0,0:0:0:0:
192,192,29276,1,2,0:0:0:0:
448,192,29370,1,2,0:0:0:0:
192,192,29416,1,2,0:0:0:0:
64,192,29416,1,0,0:0:0:0:
320,192,29557,1,0,0:0:0:0:
448,192,29557,1,2,0:0:0:0:
320,192,29651,1,0,0:0:0:0:
192,192,29651,1,2,0:0:0:0:
64,192,29745,1,0,0:0:0:0:
192,192,29745,1,2,0:0:0:0:
448,192,29745,1,0,0:0:0:0:
320,192,29838,1,0,0:0:0:0:
64,192,29932,1,0,0:0:0:0:
192,192,29932,1,2,0:0:0:0:
192,192,30026,1,2,0:0:0:0:
64,192,30026,1,0,0:0:0:0:
64,192,30120,128,0,30495:0:0:0:0:
320,192,30120,128,2,30495:0:0:0:0:
448,192,30120,128,4,30495:0:0:0:0:
64,192,30682,1,0,0:0:0:0:
320,192,30682,1,2,0:0:0:0:
448,192,30682,1,4,0:0:0:0:
320,192,32182,1,2,0:0:0:0:
448,192,32182,1,0,0:0:0:0:
64,192,32370,1,2,0:0:0:0:
64,192,32463,1,0,0:0:0:0:
320,192,32463,1,8,0:0:0:0:
192,192,32557,1,2,0:0:0:0:
320,192,32557,1,0,0:0:0:0:
448,192,32745,128,2,33120:0:0:0:0:
320,192,32838,1,2,0:0:0:0:
192,192,32932,128,2,33120:0:0:0:0:
320,192,33120,1,2,0:0:0:0:
64,192,33120,128,4,33870:0:0:0:0:
320,192,33682,1,2,0:0:0:0:
192,192,33682,1,0,0:0:0:0:
192,192,33870,1,0,0:0:0:0:
320,192,33870,1,8,0:0:0:0:
448,192,33870,128,0,34620:0:0:0:0:
64,192,34432,1,0,0:0:0:0:
192,192,34432,1,2,0:0:0:0:
192,192,34526,1,2,0:0:0:0:
64,192,34526,1,0,0:0:0:0:
64,192,34620,1,0,0:0:0:0:
192,192,34620,1,2,0:0:0:0:
320,192,34620,128,0,35370:0:0:0:0:
192,192,34901,1,2,0:0:0:0:
64,192,34901,1,0,0:0:0:0:
192,192,35182,1,2,0:0:0:0:
64,192,35182,1,0,0:0:0:0:
64,192,35370,1,8,0:0:0:0:
448,192,35370,1,0,0:0:0:0:
192,192,35463,1,2,0:0:0:0:
320,192,35510,1,2,0:0:0:0:
64,192,35557,1,2,0:0:0:0:
448,192,35557,1,0,0:0:0:0:
192,192,35651,1,2,0:0:0:0:
320,192,35651,1,0,0:0:0:0:
448,192,35745,1,0,0:0:0:0:
64,192,35745,1,2,0:0:0:0:
192,192,35791,1,2,0:0:0:0:
320,192,35838,1,2,0:0:0:0:
64,192,35932,1,2,0:0:0:0:
448,192,35932,1,0,0:0:0:0:
320,192,36026,1,2,0:0:0:0:
192,192,36026,1,0,0:0:0:0:
192,192,36120,1,0,0:0:0:0:
448,192,36120,128,4,37338:0:0:0:0:
64,192,36120,1,2,0:0:0:0:
192,192,36307,128,0,36776:0:0:0:0:
320,192,36495,128,0,36963:0:0:0:0:
64,192,36682,128,0,37151:0:0:0:0:
192,192,36870,128,0,37620:0:0:0:0:
320,192,37057,128,0,37526:0:0:0:0:
64,192,37245,128,0,37620:0:0:0:0:
448,192,37432,128,0,37620:0:0:0:0:
320,192,37620,128,0,38463:0:0:0:0:
64,192,37807,128,0,38276:0:0:0:0:
192,192,37995,128,0,38651:0:0:0:0:
448,192,38182,128,0,38838:0:0:0:0:
64,192,38370,128,0,39120:0:0:0:0:
320,192,38557,128,0,39026:0:0:0:0:
192,192,38745,128,0,39120:0:0:0:0:
448,192,38932,128,0,39120:0:0:0:0:
320,192,39120,128,0,39963:0:0:0:0:
192,192,39307,128,0,39776:0:0:0:0:
64,192,39495,128,0,40151:0:0:0:0:
448,192,39682,128,0,40338:0:0:0:0:
192,192,39870,128,0,40620:0:0:0:0:
320,192,40057,128,0,40526:0:0:0:0:
64,192,40245,128,0,40620:0:0:0:0:
448,192,40432,128,0,40620:0:0:0:0:
320,192,40620,128,0,41651:0:0:0:0:
64,192,40807,128,0,41276:0:0:0:0:
448,192,40995,128,0,41463:0:0:0:0:
192,192,41182,128,0,41838:0:0:0:0:
64,192,41370,128,0,42588:0:0:0:0:
448,192,41557,128,0,42026:0:0:0:0:
320,192,41745,128,0,42213:0:0:0:0:
192,192,41932,128,0,42401:0:0:0:0:
448,192,42120,128,0,42776:0:0:0:0:
320,192,42307,128,0,42963:0:0:0:0:
192,192,42495,128,0,43151:0:0:0:0:
64,192,42682,128,0,43338:0:0:0:0:
448,192,42870,128,0,43713:0:0:0:0:
320,192,43057,128,0,43526:0:0:0:0:
192,192,43245,128,0,44088:0:0:0:0:
64,192,43432,128,0,43901:0:0:0:0:
320,192,43620,128,0,44463:0:0:0:0:
448,192,43807,128,0,44276:0:0:0:0:
64,192,43995,128,0,44838:0:0:0:0:
192,192,44182,128,0,44651:0:0:0:0:
448,192,44370,128,0,45120:0:0:0:0:
320,192,44557,128,0,45026:0:0:0:0:
192,192,44745,128,0,45120:0:0:0:0:
64,192,44932,128,0,45120:0:0:0:0:
320,192,45120,128,0,45963:0:0:0:0:
192,192,45307,128,0,45776:0:0:0:0:
448,192,45495,128,0,46151:0:0:0:0:
64,192,45682,128,0,46338:0:0:0:0:
192,192,45870,128,0,47088:0:0:0:0:
320,192,46057,128,0,46526:0:0:0:0:
448,192,46245,128,0,46713:0:0:0:0:
64,192,46432,128,0,46901:0:0:0:0:
320,192,46620,128,0,47651:0:0:0:0:
448,192,46807,128,0,47276:0:0:0:0:
64,192,46995,128,0,47463:0:0:0:0:
192,192,47182,128,0,47838:0:0:0:0:
448,192,47370,128,0,48120:0:0:0:0:
64,192,47557,128,0,48026:0:0:0:0:
320,192,47745,128,0,48120:0:0:0:0:
192,192,47932,128,0,48120:0:0:0:0:
64,192,48120,128,0,48963:0:0:0:0:
320,192,48307,128,0,48776:0:0:0:0:
448,192,48495,128,0,49151:0:0:0:0:
192,192,48682,128,0,49338:0:0:0:0:
320,192,48870,128,0,49620:0:0:0:0:
64,192,49057,128,0,49526:0:0:0:0:
448,192,49245,128,0,49620:0:0:0:0:
192,192,49432,128,0,49620:0:0:0:0:
64,192,49620,128,0,50463:0:0:0:0:
448,192,49807,128,0,50276:0:0:0:0:
192,192,49995,128,0,50651:0:0:0:0:
320,192,50182,128,0,50838:0:0:0:0:
448,192,50370,128,0,51120:0:0:0:0:
64,192,50557,128,0,51026:0:0:0:0:
192,192,50745,128,0,51120:0:0:0:0:
320,192,50932,128,0,51120:0:0:0:0:
64,192,51120,128,0,51963:0:0:0:0:
192,192,51307,128,0,51776:0:0:0:0:
320,192,51495,128,0,52151:0:0:0:0:
448,192,51682,128,0,52338:0:0:0:0:
192,192,51870,128,0,52620:0:0:0:0:
64,192,52057,128,0,52526:0:0:0:0:
320,192,52245,128,0,52620:0:0:0:0:
448,192,52432,128,0,52620:0:0:0:0:
64,192,52620,128,0,53463:0:0:0:0:
320,192,52807,128,0,53276:0:0:0:0:
448,192,52995,128,0,53651:0:0:0:0:
192,192,53182,128,0,53838:0:0:0:0:
320,192,53370,128,0,54401:0:0:0:0:
64,192,53557,128,0,54026:0:0:0:0:
448,192,53745,128,0,54213:0:0:0:0:
192,192,53932,128,0,54588:0:0:0:0:
64,192,54120,128,0,54776:0:0:0:0:
448,192,54307,128,0,54963:0:0:0:0:
320,192,54495,128,0,55151:0:0:0:0:
192,192,54682,128,0,55338:0:0:0:0:
64,192,54870,128,0,55901:0:0:0:0:
448,192,55057,128,0,55526:0:0:0:0:
320,192,55245,128,0,55713:0:0:0:0:
192,192,55432,128,0,56088:0:0:0:0:
448,192,55620,128,0,56651:0:0:0:0:
320,192,55807,128,0,56276:0:0:0:0:
64,192,55995,128,0,56463:0:0:0:0:
192,192,56182,128,0,56838:0:0:0:0:
320,192,56370,128,0,57120:0:0:0:0:
64,192,56557,128,0,57026:0:0:0:0:
448,192,56745,128,0,57120:0:0:0:0:
192,192,56932,128,0,57120:0:0:0:0:
64,192,57120,128,0,57963:0:0:0:0:
192,192,57307,128,0,57776:0:0:0:0:
448,192,57495,128,0,58151:0:0:0:0:
320,192,57682,128,0,58620:0:0:0:0:
192,192,57870,128,0,58338:0:0:0:0:
64,192,58057,128,0,58526:0:0:0:0:
448,192,58245,128,0,58526:0:0:0:0:
192,192,58432,128,0,58620:0:0:0:0:
448,192,58620,1,0,0:0:0:0:
64,192,58620,1,4,0:0:0:0:
320,192,58807,1,0,0:0:0:0:
448,192,58901,1,0,0:0:0:0:
64,192,58995,1,4,0:0:0:0:
192,192,58995,1,0,0:0:0:0:
320,192,59182,1,0,0:0:0:0:
448,192,59276,1,0,0:0:0:0:
64,192,59370,1,4,0:0:0:0:
192,192,59370,1,0,0:0:0:0:
320,192,59557,1,0,0:0:0:0:
448,192,59651,1,0,0:0:0:0:
320,192,59745,1,8,0:0:0:0:
64,192,59745,1,0,0:0:0:0:
192,192,59838,1,0,0:0:0:0:
448,192,59932,1,0,0:0:0:0:
320,192,60026,1,0,0:0:0:0:
192,192,60120,128,2,60495:0:0:0:0:
64,192,60120,128,4,60495:0:0:0:0:
448,192,60120,128,0,60495:0:0:0:0:
64,192,60682,1,2,0:0:0:0:
192,192,60682,1,4,0:0:0:0:
448,192,60682,1,0,0:0:0:0:
192,192,61245,1,0,0:0:0:0:
64,192,61245,1,0,0:0:0:0:
192,192,61432,1,0,0:0:0:0:
64,192,61432,1,0,0:0:0:0:
448,192,61620,1,0,0:0:0:0:
320,192,61620,1,0,0:0:0:0:
320,192,61995,1,0,0:0:0:0:
448,192,61995,1,0,0:0:0:0:
448,192,62370,1,0,0:0:0:0:
320,192,62370,1,0,0:0:0:0:
192,192,62557,1,2,0:0:0:0:
64,192,62557,1,0,0:0:0:0:
192,192,62651,1,2,0:0:0:0:
64,192,62651,1,0,0:0:0:0:
320,192,62745,1,8,0:0:0:0:
448,192,62745,1,0,0:0:0:0:
448,192,62838,1,0,0:0:0:0:
192,192,62838,1,2,0:0:0:0:
64,192,62932,1,0,0:0:0:0:
192,192,62932,1,2,0:0:0:0:
64,192,63026,1,0,0:0:0:0:
320,192,63026,1,2,0:0:0:0:
320,192,63120,128,2,63495:0:0:0:0:
192,192,63120,128,4,63495:0:0:0:0:
448,192,63120,128,0,63495:0:0:0:0:
448,192,63682,1,0,0:0:0:0:
192,192,63682,1,4,0:0:0:0:
320,192,63682,1,2,0:0:0:0:
64,192,64245,1,0,0:0:0:0:
448,192,64245,1,0,0:0:0:0:
64,192,64432,1,0,0:0:0:0:
448,192,64432,1,0,0:0:0:0:
320,192,64620,1,0,0:0:0:0:
192,192,64620,1,0,0:0:0:0:
192,192,64995,1,0,0:0:0:0:
320,192,64995,1,0,0:0:0:0:
64,192,65182,1,2,0:0:0:0:
192,192,65229,1,2,0:0:0:0:
320,192,65276,1,2,0:0:0:0:
64,192,65323,1,2,0:0:0:0:
192,192,65370,1,2,0:0:0:0:
448,192,65370,1,0,0:0:0:0:
64,192,65557,1,0,0:0:0:0:
192,192,65557,1,2,0:0:0:0:
192,192,65651,1,2,0:0:0:0:
448,192,65651,1,0,0:0:0:0:
320,192,65745,1,2,0:0:0:0:
64,192,65745,1,0,0:0:0:0:
320,192,65838,1,2,0:0:0:0:
448,192,65838,1,0,0:0:0:0:
192,192,65932,1,2,0:0:0:0:
64,192,65932,1,0,0:0:0:0:
320,192,66026,1,2,0:0:0:0:
448,192,66026,1,0,0:0:0:0:
64,192,66120,128,4,66495:0:0:0:0:
192,192,66120,128,2,66495:0:0:0:0:
448,192,66120,128,0,66495:0:0:0:0:
448,192,66682,1,0,0:0:0:0:
192,192,66682,1,2,0:0:0:0:
64,192,66682,1,4,0:0:0:0:
192,192,67245,1,0,0:0:0:0:
448,192,67245,1,0,0:0:0:0:
448,192,67432,1,0,0:0:0:0:
192,192,67432,1,0,0:0:0:0:
320,192,67620,1,0,0:0:0:0:
64,192,67620,1,0,0:0:0:0:
320,192,67995,1,0,0:0:0:0:
64,192,67995,1,0,0:0:0:0:
64,192,68370,1,0,0:0:0:0:
320,192,68370,1,0,0:0:0:0:
192,192,68557,1,2,0:0:0:0:
448,192,68620,1,2,0:0:0:0:
192,192,68682,1,2,0:0:0:0:
448,192,68745,1,0,0:0:0:0:
64,192,68745,1,8,0:0:0:0:
320,192,68838,1,0,0:0:0:0:
192,192,68838,1,2,0:0:0:0:
320,192,68932,1,2,0:0:0:0:
448,192,68932,1,0,0:0:0:0:
192,192,69026,1,2,0:0:0:0:
64,192,69026,1,0,0:0:0:0:
64,192,69120,1,0,0:0:0:0:
320,192,69120,1,2,0:0:0:0:
448,192,69120,128,4,72120:0:0:0:0:
192,192,70995,1,2,0:0:0:0:
64,192,71088,1,2,0:0:0:0:
192,192,71463,1,2,0:0:0:0:
64,192,71557,1,2,0:0:0:0:
192,192,71745,1,2,0:0:0:0:
64,192,71838,1,2,0:0:0:0:
192,192,71932,1,2,0:0:0:0:
64,192,72026,1,2,0:0:0:0:
320,192,72120,1,2,0:0:0:0:
192,192,72120,1,4,0:0:0:0:
448,192,72213,1,0,0:0:0:0:
192,192,72307,1,0,0:0:0:0:
64,192,72307,1,0,0:0:0:0:
320,192,72401,1,0,0:0:0:0:
64,192,72495,1,0,0:0:0:0:
448,192,72495,1,2,0:0:0:0:
192,192,72588,1,0,0:0:0:0:
320,192,72588,1,0,0:0:0:0:
64,192,72682,1,0,0:0:0:0:
448,192,72682,1,0,0:0:0:0:
192,192,72776,1,0,0:0:0:0:
320,192,72870,1,2,0:0:0:0:
448,192,72870,1,0,0:0:0:0:
64,192,72963,1,0,0:0:0:0:
320,192,73057,1,0,0:0:0:0:
192,192,73057,1,0,0:0:0:0:
448,192,73151,1,0,0:0:0:0:
64,192,73245,1,0,0:0:0:0:
192,192,73245,1,2,0:0:0:0:
320,192,73338,1,0,0:0:0:0:
448,192,73432,1,0,0:0:0:0:
192,192,73432,1,0,0:0:0:0:
64,192,73526,1,0,0:0:0:0:
448,192,73620,1,0,0:0:0:0:
320,192,73620,1,2,0:0:0:0:
192,192,73713,1,0,0:0:0:0:
64,192,73807,1,0,0:0:0:0:
320,192,73807,1,0,0:0:0:0:
448,192,73901,1,0,0:0:0:0:
64,192,73995,1,0,0:0:0:0:
192,192,73995,1,2,0:0:0:0:
320,192,74088,1,0,0:0:0:0:
448,192,74088,1,0,0:0:0:0:
192,192,74182,1,0,0:0:0:0:
64,192,74182,1,0,0:0:0:0:
448,192,74276,1,0,0:0:0:0:
192,192,74370,1,2,0:0:0:0:
320,192,74370,1,0,0:0:0:0:
64,192,74463,1,0,0:0:0:0:
448,192,74557,1,0,0:0:0:0:
320,192,74557,1,0,0:0:0:0:
192,192,74651,1,0,0:0:0:0:
64,192,74745,1,2,0:0:0:0:
448,192,74745,1,0,0:0:0:0:
320,192,74838,1,0,0:0:0:0:
64,192,74932,1,0,0:0:0:0:
192,192,74932,1,0,0:0:0:0:
320,192,75026,1,0,0:0:0:0:
448,192,75120,1,0,0:0:0:0:
64,192,75120,1,2,0:0:0:0:
192,192,75213,1,0,0:0:0:0:
448,192,75307,1,0,0:0:0:0:
320,192,75307,1,0,0:0:0:0:
192,192,75401,1,0,0:0:0:0:
320,192,75495,1,2,0:0:0:0:
64,192,75495,1,0,0:0:0:0:
448,192,75588,1,0,0:0:0:0:
192,192,75588,1,0,0:0:0:0:
64,192,75682,1,0,0:0:0:0:
320,192,75682,1,0,0:0:0:0:
448,192,75776,1,0,0:0:0:0:
192,192,75870,1,2,0:0:0:0:
64,192,75870,1,0,0:0:0:0:
320,192,75963,1,0,0:0:0:0:
192,192,76057,1,0,0:0:0:0:
448,192,76057,1,0,0:0:0:0:
64,192,76151,1,0,0:0:0:0:
320,192,76245,1,0,0:0:0:0:
448,192,76245,1,2,0:0:0:0:
192,192,76338,1,0,0:0:0:0:
64,192,76432,1,0,0:0:0:0:
320,192,76432,1,0,0:0:0:0:
448,192,76526,1,0,0:0:0:0:
192,192,76620,1,2,0:0:0:0:
64,192,76620,1,0,0:0:0:0:
320,192,76713,1,0,0:0:0:0:
64,192,76807,1,0,0:0:0:0:
448,192,76807,1,0,0:0:0:0:
192,192,76901,1,0,0:0:0:0:
320,192,76995,1,2,0:0:0:0:
448,192,76995,1,0,0:0:0:0:
64,192,77088,1,0,0:0:0:0:
192,192,77088,1,0,0:0:0:0:
448,192,77182,1,0,0:0:0:0:
320,192,77182,1,0,0:0:0:0:
64,192,77276,1,0,0:0:0:0:
192,192,77370,1,2,0:0:0:0:
320,192,77370,1,0,0:0:0:0:
448,192,77463,1,0,0:0:0:0:
192,192,77557,1,0,0:0:0:0:
64,192,77557,1,0,0:0:0:0:
320,192,77651,1,0,0:0:0:0:
448,192,77745,1,2,0:0:0:0:
192,192,77745,1,0,0:0:0:0:
64,192,77838,1,0,0:0:0:0:
320,192,77932,1,0,0:0:0:0:
448,192,77932,1,0,0:0:0:0:
192,192,78026,1,0,0:0:0:0:
64,192,78120,1,0,0:0:0:0:
320,192,78120,1,4,0:0:0:0:
448,192,78120,1,2,0:0:0:0:
448,192,78307,1,0,0:0:0:0:
320,192,78307,1,2,0:0:0:0:
64,192,78495,1,0,0:0:0:0:
192,192,78495,1,8,0:0:0:0:
448,192,78495,1,0,0:0:0:0:
320,192,78682,1,0,0:0:0:0:
192,192,78682,1,2,0:0:0:0:
320,192,78870,1,0,0:0:0:0:
192,192,78870,1,2,0:0:0:0:
192,192,79057,1,2,0:0:0:0:
320,192,79057,1,0,0:0:0:0:
64,192,79245,1,0,0:0:0:0:
320,192,79245,1,8,0:0:0:0:
448,192,79245,1,0,0:0:0:0:
192,192,79432,1,2,0:0:0:0:
64,192,79432,1,0,0:0:0:0:
64,192,79620,1,0,0:0:0:0:
192,192,79620,1,2,0:0:0:0:
192,192,79807,1,2,0:0:0:0:
64,192,79807,1,0,0:0:0:0:
64,192,79995,1,0,0:0:0:0:
320,192,79995,1,8,0:0:0:0:
448,192,79995,1,0,0:0:0:0:
192,192,80182,1,2,0:0:0:0:
448,192,80182,1,0,0:0:0:0:
448,192,80370,1,0,0:0:0:0:
192,192,80370,1,2,0:0:0:0:
192,192,80557,1,2,0:0:0:0:
448,192,80557,1,0,0:0:0:0:
320,192,80745,1,8,0:0:0:0:
192,192,80745,1,0,0:0:0:0:
64,192,80745,1,0,0:0:0:0:
64,192,80932,1,0,0:0:0:0:
448,192,80932,1,2,0:0:0:0:
448,192,81120,1,4,0:0:0:0:
64,192,81120,1,0,0:0:0:0:
192,192,81120,1,8,0:0:0:0:
320,192,81213,1,0,0:0:0:0:
192,192,81213,1,2,0:0:0:0:
448,192,81307,1,0,0:0:0:0:
320,192,81307,1,2,0:0:0:0:
192,192,81401,1,2,0:0:0:0:
64,192,81401,1,0,0:0:0:0:
448,192,81495,1,4,0:0:0:0:
64,192,81495,1,0,0:0:0:0:
320,192,81495,1,8,0:0:0:0:
320,192,81588,1,0,0:0:0:0:
192,192,81588,1,2,0:0:0:0:
64,192,81682,1,0,0:0:0:0:
192,192,81682,1,2,0:0:0:0:
448,192,81776,1,0,0:0:0:0:
320,192,81776,1,2,0:0:0:0:
192,192,81870,1,8,0:0:0:0:
448,192,81870,1,4,0:0:0:0:
64,192,81870,1,0,0:0:0:0:
192,192,81963,1,0,0:0:0:0:
320,192,81963,1,2,0:0:0:0:
448,192,82057,1,0,0:0:0:0:
320,192,82057,1,2,0:0:0:0:
64,192,82151,1,0,0:0:0:0:
192,192,82151,1,2,0:0:0:0:
320,192,82245,1,8,0:0:0:0:
64,192,82245,1,0,0:0:0:0:
448,192,82245,1,4,0:0:0:0:
320,192,82338,1,2,0:0:0:0:
448,192,82338,1,0,0:0:0:0:
192,192,82432,1,2,0:0:0:0:
64,192,82432,1,0,0:0:0:0:
64,192,82526,1,0,0:0:0:0:
192,192,82526,1,2,0:0:0:0:
448,192,82620,1,2,0:0:0:0:
448,192,82713,1,0,0:0:0:0:
192,192,82807,1,0,0:0:0:0:
192,192,82901,1,0,0:0:0:0:
320,192,82995,1,0,0:0:0:0:
320,192,83088,1,0,0:0:0:0:
64,192,83182,1,0,0:0:0:0:
64,192,83276,1,0,0:0:0:0:
448,192,83370,1,0,0:0:0:0:
448,192,83463,1,0,0:0:0:0:
192,192,83557,1,0,0:0:0:0:
192,192,83651,1,0,0:0:0:0:
320,192,83745,1,0,0:0:0:0:
320,192,83838,1,0,0:0:0:0:
64,192,83932,1,0,0:0:0:0:
64,192,84026,1,0,0:0:0:0:
192,192,84120,1,0,0:0:0:0:
320,192,84120,1,2,0:0:0:0:
448,192,84120,1,4,0:0:0:0:
64,192,84495,128,0,84682:0:0:0:0:
448,192,84870,1,0,0:0:0:0:
320,192,84870,1,8,0:0:0:0:
192,192,84870,1,0,0:0:0:0:
320,192,84963,1,0,0:0:0:0:
448,192,84963,1,0,0:0:0:0:
192,192,85057,1,0,0:0:0:0:
64,192,85057,1,0,0:0:0:0:
64,192,85151,1,0,0:0:0:0:
192,192,85151,1,0,0:0:0:0:
448,192,85245,1,0,0:0:0:0:
320,192,85245,1,2,0:0:0:0:
448,192,85338,1,0,0:0:0:0:
64,192,85338,1,0,0:0:0:0:
192,192,85432,1,0,0:0:0:0:
320,192,85432,1,0,0:0:0:0:
64,192,85526,1,0,0:0:0:0:
192,192,85526,1,0,0:0:0:0:
448,192,85620,1,0,0:0:0:0:
320,192,85620,1,0,0:0:0:0:
448,192,85713,1,0,0:0:0:0:
64,192,85713,1,0,0:0:0:0:
320,192,85807,128,0,85901:0:0:0:0:
192,192,85807,128,0,85901:0:0:0:0:
192,192,85995,128,2,86088:0:0:0:0:
448,192,85995,128,0,86088:0:0:0:0:
64,192,86182,128,0,86276:0:0:0:0:
320,192,86182,128,0,86276:0:0:0:0:
64,192,86370,128,0,86463:0:0:0:0:
448,192,86370,128,8,86463:0:0:0:0:
192,192,86370,1,0,0:0:0:0:
320,192,86557,128,0,86745:0:0:0:0:
64,192,86745,128,0,87120:0:0:0:0:
192,192,87120,1,2,0:0:0:0:
448,192,87120,1,0,0:0:0:0:
320,192,87166,1,0,0:0:0:0:
64,192,87213,1,0,0:0:0:0:
192,192,87260,1,0,0:0:0:0:
320,192,87307,1,0,0:0:0:0:
448,192,87354,1,0,0:0:0:0:
192,192,87401,1,0,0:0:0:0:
320,192,87448,1,0,0:0:0:0:
64,192,87495,128,0,87682:0:0:0:0:
448,192,87870,1,8,0:0:0:0:
64,192,87870,1,0,0:0:0:0:
192,192,87870,1,0,0:0:0:0:
64,192,87963,1,0,0:0:0:0:
192,192,87963,1,0,0:0:0:0:
320,192,88057,1,0,0:0:0:0:
448,192,88057,1,0,0:0:0:0:
320,192,88151,1,0,0:0:0:0:
448,192,88151,1,0,0:0:0:0:
192,192,88245,1,2,0:0:0:0:
64,192,88245,1,0,0:0:0:0:
64,192,88338,1,0,0:0:0:0:
320,192,88338,1,0,0:0:0:0:
192,192,88432,1,0,0:0:0:0:
448,192,88432,1,0,0:0:0:0:
320,192,88526,1,0,0:0:0:0:
192,192,88526,1,0,0:0:0:0:
64,192,88620,1,0,0:0:0:0:
448,192,88620,1,0,0:0:0:0:
448,192,88713,1,0,0:0:0:0:
320,192,88713,1,0,0:0:0:0:
192,192,88807,128,2,88901:0:0:0:0:
64,192,88807,128,0,88901:0:0:0:0:
64,192,88995,128,2,89088:0:0:0:0:
448,192,88995,128,0,89088:0:0:0:0:
320,192,89182,128,0,89276:0:0:0:0:
192,192,89182,128,0,89276:0:0:0:0:
64,192,89370,1,0,0:0:0:0:
192,192,89370,1,8,0:0:0:0:
448,192,89370,128,0,89557:0:0:0:0:
192,192,89557,128,0,89745:0:0:0:0:
448,192,89745,128,0,89932:0:0:0:0:
64,192,89932,128,0,90120:0:0:0:0:
192,192,90120,1,2,0:0:0:0:
448,192,90120,1,0,0:0:0:0:
320,192,90120,1,0,0:0:0:0:
64,192,90495,128,0,90682:0:0:0:0:
448,192,90870,1,0,0:0:0:0:
320,192,90870,1,8,0:0:0:0:
64,192,90870,1,0,0:0:0:0:
320,192,90963,1,0,0:0:0:0:
448,192,90963,1,0,0:0:0:0:
64,192,91057,1,0,0:0:0:0:
192,192,91057,1,0,0:0:0:0:
192,192,91151,1,0,0:0:0:0:
64,192,91151,1,0,0:0:0:0:
320,192,91245,1,2,0:0:0:0:
448,192,91245,1,0,0:0:0:0:
320,192,91338,1,0,0:0:0:0:
192,192,91338,1,0,0:0:0:0:
64,192,91432,1,0,0:0:0:0:
448,192,91432,1,0,0:0:0:0:
64,192,91526,1,0,0:0:0:0:
192,192,91526,1,0,0:0:0:0:
320,192,91620,1,0,0:0:0:0:
448,192,91620,1,0,0:0:0:0:
192,192,91713,1,0,0:0:0:0:
448,192,91713,1,0,0:0:0:0:
64,192,91807,128,0,91901:0:0:0:0:
320,192,91807,128,0,91901:0:0:0:0:
64,192,91995,128,2,92088:0:0:0:0:
448,192,91995,128,0,92088:0:0:0:0:
192,192,92182,128,0,92276:0:0:0:0:
320,192,92182,128,0,92276:0:0:0:0:
448,192,92370,128,8,92463:0:0:0:0:
192,192,92370,128,0,92463:0:0:0:0:
64,192,92370,1,0,0:0:0:0:
320,192,92557,128,0,92745:0:0:0:0:
192,192,92745,128,0,92838:0:0:0:0:
320,192,92838,128,0,92932:0:0:0:0:
64,192,92932,128,0,93026:0:0:0:0:
448,192,93026,128,0,93120:0:0:0:0:
320,192,93120,1,2,0:0:0:0:
192,192,93120,1,4,0:0:0:0:
64,192,93120,128,0,94245:0:0:0:0:
448,192,93870,1,0,0:0:0:0:
320,192,93870,1,8,0:0:0:0:
192,192,93870,1,0,0:0:0:0:
192,192,94057,1,0,0:0:0:0:
320,192,94245,1,2,0:0:0:0:
448,192,94245,128,0,95370:0:0:0:0:
192,192,94432,1,2,0:0:0:0:
320,192,94526,1,2,0:0:0:0:
64,192,94620,1,2,0:0:0:0:
192,192,94901,1,0,0:0:0:0:
320,192,94901,1,2,0:0:0:0:
192,192,95182,1,0,0:0:0:0:
320,192,95182,1,2,0:0:0:0:
64,192,95276,1,2,0:0:0:0:
320,192,95370,1,8,0:0:0:0:
192,192,95370,1,0,0:0:0:0:
64,192,95370,1,0,0:0:0:0:
320,192,95463,1,2,0:0:0:0:
448,192,95463,1,0,0:0:0:0:
64,192,95557,1,0,0:0:0:0:
192,192,95557,1,2,0:0:0:0:
320,192,95651,1,2,0:0:0:0:
448,192,95651,1,0,0:0:0:0:
448,192,95745,1,0,0:0:0:0:
320,192,95745,1,2,0:0:0:0:
192,192,95838,1,2,0:0:0:0:
64,192,95838,1,0,0:0:0:0:
320,192,95932,1,2,0:0:0:0:
448,192,95932,1,0,0:0:0:0:
64,192,96026,1,0,0:0:0:0:
192,192,96026,1,2,0:0:0:0:
192,192,96120,1,2,0:0:0:0:
64,192,96120,1,0,0:0:0:0:
448,192,96120,1,4,0:0:0:0:
448,192,96495,128,0,96682:0:0:0:0:
192,192,96870,1,0,0:0:0:0:
64,192,96870,1,0,0:0:0:0:
320,192,96870,1,8,0:0:0:0:
192,192,96963,1,0,0:0:0:0:
64,192,96963,1,0,0:0:0:0:
448,192,97057,1,0,0:0:0:0:
320,192,97057,1,0,0:0:0:0:
448,192,97151,1,0,0:0:0:0:
320,192,97151,1,0,0:0:0:0:
64,192,97245,1,0,0:0:0:0:
192,192,97245,1,2,0:0:0:0:
64,192,97338,1,0,0:0:0:0:
448,192,97338,1,0,0:0:0:0:
192,192,97432,1,0,0:0:0:0:
320,192,97432,1,0,0:0:0:0:
448,192,97526,1,0,0:0:0:0:
320,192,97526,1,0,0:0:0:0:
192,192,97620,1,0,0:0:0:0:
64,192,97620,1,0,0:0:0:0:
448,192,97713,1,0,0:0:0:0:
192,192,97713,1,0,0:0:0:0:
320,192,97807,128,0,97901:0:0:0:0:
64,192,97807,128,0,97901:0:0:0:0:
192,192,97995,128,2,98088:0:0:0:0:
448,192,97995,128,0,98088:0:0:0:0:
64,192,98182,128,0,98276:0:0:0:0:
448,192,98182,128,0,98276:0:0:0:0:
320,192,98370,128,0,98463:0:0:0:0:
192,192,98370,128,8,98463:0:0:0:0:
64,192,98370,1,0,0:0:0:0:
448,192,98557,128,0,98745:0:0:0:0:
192,192,98745,128,0,99120:0:0:0:0:
448,192,99120,1,2,0:0:0:0:
64,192,99120,1,0,0:0:0:0:
320,192,99166,1,0,0:0:0:0:
192,192,99213,1,0,0:0:0:0:
448,192,99260,1,0,0:0:0:0:
320,192,99307,1,0,0:0:0:0:
64,192,99354,1,0,0:0:0:0:
192,192,99401,1,0,0:0:0:0:
320,192,99448,1,0,0:0:0:0:
448,192,99495,128,0,99682:0:0:0:0:
448,192,99870,1,0,0:0:0:0:
320,192,99870,1,0,0:0:0:0:
192,192,99870,1,8,0:0:0:0:
320,192,99963,1,0,0:0:0:0:
448,192,99963,1,0,0:0:0:0:
192,192,100057,1,0,0:0:0:0:
64,192,100057,1,0,0:0:0:0:
64,192,100151,1,0,0:0:0:0:
192,192,100151,1,0,0:0:0:0:
320,192,100245,1,2,0:0:0:0:
448,192,100245,1,0,0:0:0:0:
320,192,100338,1,0,0:0:0:0:
64,192,100338,1,0,0:0:0:0:
192,192,100432,1,0,0:0:0:0:
448,192,100432,1,0,0:0:0:0:
192,192,100526,1,0,0:0:0:0:
320,192,100526,1,0,0:0:0:0:
64,192,100620,1,0,0:0:0:0:
448,192,100620,1,0,0:0:0:0:
448,192,100713,1,0,0:0:0:0:
320,192,100713,1,0,0:0:0:0:
64,192,100807,128,0,100901:0:0:0:0:
192,192,100807,128,2,100901:0:0:0:0:
320,192,100995,128,2,101088:0:0:0:0:
448,192,100995,128,0,101088:0:0:0:0:
192,192,101182,128,0,101276:0:0:0:0:
448,192,101182,128,0,101276:0:0:0:0:
64,192,101370,128,0,101557:0:0:0:0:
320,192,101370,1,8,0:0:0:0:
192,192,101370,1,0,0:0:0:0:
320,192,101557,128,0,101745:0:0:0:0:
64,192,101745,128,0,101932:0:0:0:0:
448,192,101932,128,0,102120:0:0:0:0:
320,192,102120,1,0,0:0:0:0:
192,192,102120,1,2,0:0:0:0:
64,192,102120,1,0,0:0:0:0:
448,192,102495,128,0,102682:0:0:0:0:
192,192,102870,1,8,0:0:0:0:
64,192,102870,1,0,0:0:0:0:
448,192,102870,1,0,0:0:0:0:
192,192,102963,1,0,0:0:0:0:
64,192,102963,1,0,0:0:0:0:
448,192,103057,1,0,0:0:0:0:
320,192,103057,1,0,0:0:0:0:
320,192,103151,1,0,0:0:0:0:
448,192,103151,1,0,0:0:0:0:
192,192,103245,1,2,0:0:0:0:
64,192,103245,1,0,0:0:0:0:
192,192,103338,1,0,0:0:0:0:
64,192,103338,1,0,0:0:0:0:
64,192,103432,128,0,103526:0:0:0:0:
448,192,103432,128,0,103526:0:0:0:0:
448,192,103620,1,0,0:0:0:0:
320,192,103620,1,0,0:0:0:0:
320,192,103713,1,0,0:0:0:0:
448,192,103713,1,0,0:0:0:0:
192,192,103807,1,0,0:0:0:0:
64,192,103807,1,0,0:0:0:0:
64,192,103901,1,0,0:0:0:0:
192,192,103901,1,0,0:0:0:0:
448,192,103995,1,0,0:0:0:0:
320,192,103995,1,2,0:0:0:0:
320,192,104088,1,0,0:0:0:0:
448,192,104088,1,0,0:0:0:0:
64,192,104182,128,0,104276:0:0:0:0:
448,192,104182,128,0,104276:0:0:0:0:
64,192,104370,128,8,104463:0:0:0:0:
448,192,104370,128,0,104463:0:0:0:0:
448,192,104557,128,0,104651:0:0:0:0:
64,192,104557,128,0,104651:0:0:0:0:
64,192,104745,128,0,104838:0:0:0:0:
448,192,104745,128,0,104838:0:0:0:0:
64,192,104932,128,0,105026:0:0:0:0:
448,192,104932,128,0,105026:0:0:0:0:
192,192,105120,1,2,0:0:0:0:
64,192,105120,1,4,0:0:0:0:
448,192,105120,128,0,106245:0:0:0:0:
320,192,105495,1,0,0:0:0:0:
320,192,105870,1,0,0:0:0:0:
192,192,105870,1,8,0:0:0:0:
64,192,105870,1,0,0:0:0:0:
320,192,106057,1,0,0:0:0:0:
192,192,106245,1,2,0:0:0:0:
64,192,106245,128,0,107370:0:0:0:0:
448,192,106432,1,2,0:0:0:0:
320,192,106526,1,2,0:0:0:0:
192,192,106620,1,2,0:0:0:0:
192,192,106901,1,0,0:0:0:0:
448,192,106901,1,2,0:0:0:0:
448,192,107182,1,2,0:0:0:0:
192,192,107182,1,0,0:0:0:0:
320,192,107276,1,2,0:0:0:0:
192,192,107370,1,0,0:0:0:0:
320,192,107370,1,0,0:0:0:0:
448,192,107370,1,8,0:0:0:0:
192,192,107463,1,2,0:0:0:0:
64,192,107463,1,0,0:0:0:0:
448,192,107557,1,0,0:0:0:0:
320,192,107557,1,2,0:0:0:0:
64,192,107651,1,0,0:0:0:0:
448,192,107651,1,2,0:0:0:0:
320,192,107745,1,2,0:0:0:0:
192,192,107745,1,0,0:0:0:0:
192,192,107838,1,2,0:0:0:0:
64,192,107838,1,0,0:0:0:0:
320,192,107932,1,2,0:0:0:0:
448,192,107932,1,0,0:0:0:0:
64,192,108026,1,2,0:0:0:0:
448,192,108026,1,0,0:0:0:0:
192,192,108120,1,2,0:0:0:0:
64,192,108120,128,4,108213:0:0:0:0:
320,192,108120,1,0,0:0:0:0:
448,192,108213,1,0,0:0:0:0:
192,192,108307,128,0,108401:0:0:0:0:
320,192,108307,1,0,0:0:0:0:
64,192,108401,1,0,0:0:0:0:
320,192,108495,128,0,108588:0:0:0:0:
448,192,108495,1,2,0:0:0:0:
192,192,108588,1,0,0:0:0:0:
448,192,108682,128,0,108776:0:0:0:0:
64,192,108682,1,0,0:0:0:0:
192,192,108776,1,0,0:0:0:0:
64,192,108870,128,0,108963:0:0:0:0:
320,192,108870,1,2,0:0:0:0:
448,192,108963,1,0,0:0:0:0:
192,192,109057,128,0,109151:0:0:0:0:
320,192,109057,1,0,0:0:0:0:
64,192,109151,1,0,0:0:0:0:
320,192,109245,128,2,109338:0:0:0:0:
192,192,109245,1,0,0:0:0:0:
64,192,109338,1,0,0:0:0:0:
448,192,109432,128,0,109526:0:0:0:0:
320,192,109432,1,0,0:0:0:0:
192,192,109526,1,0,0:0:0:0:
64,192,109620,128,0,109713:0:0:0:0:
448,192,109620,1,2,0:0:0:0:
320,192,109713,1,0,0:0:0:0:
192,192,109807,128,0,109901:0:0:0:0:
64,192,109807,1,0,0:0:0:0:
448,192,109901,1,0,0:0:0:0:
320,192,109995,128,0,110088:0:0:0:0:
192,192,109995,1,2,0:0:0:0:
64,192,110088,1,0,0:0:0:0:
448,192,110182,128,0,110276:0:0:0:0:
192,192,110182,1,0,0:0:0:0:
320,192,110276,1,0,0:0:0:0:
64,192,110370,128,0,110463:0:0:0:0:
448,192,110370,1,2,0:0:0:0:
320,192,110463,1,0,0:0:0:0:
192,192,110557,128,0,110651:0:0:0:0:
64,192,110557,1,0,0:0:0:0:
448,192,110651,1,0,0:0:0:0:
320,192,110745,128,0,110838:0:0:0:0:
64,192,110745,1,2,0:0:0:0:
192,192,110838,1,0,0:0:0:0:
448,192,110932,128,0,111026:0:0:0:0:
320,192,110932,1,0,0:0:0:0:
192,192,111026,1,0,0:0:0:0:
448,192,111120,128,0,111213:0:0:0:0:
320,192,111120,1,2,0:0:0:0:
64,192,111213,1,0,0:0:0:0:
320,192,111307,128,0,111401:0:0:0:0:
192,192,111307,1,0,0:0:0:0:
448,192,111401,1,0,0:0:0:0:
192,192,111495,128,0,111588:0:0:0:0:
64,192,111495,1,2,0:0:0:0:
320,192,111588,1,0,0:0:0:0:
64,192,111682,128,0,111776:0:0:0:0:
448,192,111682,1,0,0:0:0:0:
192,192,111776,1,0,0:0:0:0:
448,192,111870,128,0,111963:0:0:0:0:
320,192,111870,1,2,0:0:0:0:
64,192,111963,1,0,0:0:0:0:
320,192,112057,128,0,112151:0:0:0:0:
192,192,112057,1,0,0:0:0:0:
64,192,112151,1,0,0:0:0:0:
192,192,112245,128,0,112338:0:0:0:0:
448,192,112245,1,2,0:0:0:0:
320,192,112338,1,0,0:0:0:0:
64,192,112432,128,0,112526:0:0:0:0:
192,192,112432,1,0,0:0:0:0:
320,192,112526,1,0,0:0:0:0:
448,192,112620,128,0,112713:0:0:0:0:
64,192,112620,1,2,0:0:0:0:
192,192,112713,1,0,0:0:0:0:
320,192,112807,128,0,112901:0:0:0:0:
448,192,112807,1,0,0:0:0:0:
64,192,112901,1,0,0:0:0:0:
192,192,112995,128,0,113088:0:0:0:0:
320,192,112995,1,2,0:0:0:0:
448,192,113088,1,0,0:0:0:0:
64,192,113182,128,0,113276:0:0:0:0:
192,192,113182,1,0,0:0:0:0:
320,192,113276,1,0,0:0:0:0:
448,192,113370,128,0,113463:0:0:0:0:
64,192,113370,1,2,0:0:0:0:
192,192,113463,1,0,0:0:0:0:
320,192,113557,128,0,113651:0:0:0:0:
64,192,113557,1,0,0:0:0:0:
448,192,113651,1,0,0:0:0:0:
192,192,113745,128,0,113838:0:0:0:0:
320,192,113745,1,2,0:0:0:0:
448,192,113838,1,0,0:0:0:0:
64,192,113932,128,0,114026:0:0:0:0:
192,192,113932,1,0,0:0:0:0:
320,192,114026,1,0,0:0:0:0:
448,192,114120,1,4,0:0:0:0:
192,192,114120,1,2,0:0:0:0:
64,192,114120,128,0,114213:0:0:0:0:
64,192,114307,1,2,0:0:0:0:
192,192,114307,128,0,114401:0:0:0:0:
192,192,114495,1,8,0:0:0:0:
448,192,114495,1,0,0:0:0:0:
320,192,114495,128,0,114588:0:0:0:0:
64,192,114682,1,2,0:0:0:0:
448,192,114682,128,0,114776:0:0:0:0:
448,192,114870,1,2,0:0:0:0:
64,192,114870,128,0,114963:0:0:0:0:
64,192,115057,1,2,0:0:0:0:
192,192,115057,128,0,115151:0:0:0:0:
448,192,115245,1,0,0:0:0:0:
192,192,115245,1,8,0:0:0:0:
320,192,115245,128,0,115338:0:0:0:0:
64,192,115432,1,2,0:0:0:0:
448,192,115432,128,0,115526:0:0:0:0:
448,192,115620,1,2,0:0:0:0:
64,192,115620,128,0,115713:0:0:0:0:
64,192,115807,1,2,0:0:0:0:
192,192,115807,128,0,115901:0:0:0:0:
448,192,115995,1,8,0:0:0:0:
192,192,115995,1,0,0:0:0:0:
320,192,115995,128,0,116088:0:0:0:0:
64,192,116182,1,2,0:0:0:0:
448,192,116182,128,0,116276:0:0:0:0:
192,192,116370,1,2,0:0:0:0:
64,192,116370,128,0,116463:0:0:0:0:
64,192,116557,1,2,0:0:0:0:
192,192,116557,128,0,116651:0:0:0:0:
192,192,116745,1,8,0:0:0:0:
448,192,116745,1,0,0:0:0:0:
320,192,116745,128,0,116838:0:0:0:0:
64,192,116932,1,2,0:0:0:0:
448,192,116932,128,0,117026:0:0:0:0:
64,192,117120,1,0,0:0:0:0:
448,192,117120,1,4,0:0:0:0:
320,192,117120,1,8,0:0:0:0:
320,192,117213,1,0,0:0:0:0:
192,192,117213,1,2,0:0:0:0:
64,192,117307,1,0,0:0:0:0:
192,192,117307,1,2,0:0:0:0:
448,192,117401,1,0,0:0:0:0:
320,192,117401,1,2,0:0:0:0:
192,192,117495,1,8,0:0:0:0:
64,192,117495,1,4,0:0:0:0:
448,192,117495,1,0,0:0:0:0:
192,192,117588,1,2,0:0:0:0:
320,192,117588,1,0,0:0:0:0:
448,192,117682,1,0,0:0:0:0:
320,192,117682,1,2,0:0:0:0:
64,192,117776,1,0,0:0:0:0:
192,192,117776,1,2,0:0:0:0:
448,192,117870,1,4,0:0:0:0:
320,192,117870,1,8,0:0:0:0:
64,192,117870,1,0,0:0:0:0:
320,192,117963,1,0,0:0:0:0:
192,192,117963,1,2,0:0:0:0:
192,192,118057,1,2,0:0:0:0:
64,192,118057,1,0,0:0:0:0:
448,192,118151,1,0,0:0:0:0:
320,192,118151,1,2,0:0:0:0:
192,192,118245,1,8,0:0:0:0:
64,192,118245,1,0,0:0:0:0:
448,192,118245,1,4,0:0:0:0:
192,192,118338,1,2,0:0:0:0:
64,192,118338,1,0,0:0:0:0:
448,192,118432,1,0,0:0:0:0:
320,192,118432,1,2,0:0:0:0:
320,192,118526,1,2,0:0:0:0:
448,192,118526,1,0,0:0:0:0:
192,192,118620,1,2,0:0:0:0:
64,192,118620,1,0,0:0:0:0:
448,192,119370,128,0,119745:0:0:0:0:
192,192,119745,1,0,0:0:0:0:
320,192,119745,1,2,0:0:0:0:
192,192,119838,1,2,0:0:0:0:
64,192,119838,1,0,0:0:0:0:
448,192,119932,1,0,0:0:0:0:
320,192,119932,1,2,0:0:0:0:
192,192,120026,1,2,0:0:0:0:
320,192,120026,1,0,0:0:0:0:
64,192,120120,1,2,0:0:0:0:
192,192,120120,1,4,0:0:0:0:
448,192,120120,1,0,0:0:0:0:
448,192,120495,128,0,120588:0:0:0:0:
64,192,120495,128,0,120588:0:0:0:0:
320,192,120682,128,0,120776:0:0:0:0:
64,192,120682,128,0,120776:0:0:0:0:
192,192,120870,128,8,120963:0:0:0:0:
448,192,120870,128,0,120963:0:0:0:0:
320,192,121057,128,0,121151:0:0:0:0:
448,192,121057,128,0,121151:0:0:0:0:
64,192,121245,1,2,0:0:0:0:
448,192,121245,1,0,0:0:0:0:
192,192,121291,1,0,0:0:0:0:
320,192,121338,1,0,0:0:0:0:
448,192,121385,1,0,0:0:0:0:
64,192,121432,1,0,0:0:0:0:
320,192,121479,1,0,0:0:0:0:
448,192,121526,1,0,0:0:0:0:
192,192,121573,1,0,0:0:0:0:
320,192,121620,1,0,0:0:0:0:
64,192,121620,1,0,0:0:0:0:
448,192,121666,1,0,0:0:0:0:
192,192,121713,1,0,0:0:0:0:
320,192,121760,1,0,0:0:0:0:
64,192,121807,1,0,0:0:0:0:
448,192,121854,1,0,0:0:0:0:
320,192,121901,1,0,0:0:0:0:
192,192,121948,1,0,0:0:0:0:
64,192,121995,1,2,0:0:0:0:
448,192,121995,1,0,0:0:0:0:
320,192,122041,1,0,0:0:0:0:
192,192,122088,1,0,0:0:0:0:
448,192,122135,1,0,0:0:0:0:
320,192,122182,1,0,0:0:0:0:
64,192,122182,1,0,0:0:0:0:
192,192,122229,1,0,0:0:0:0:
448,192,122276,1,0,0:0:0:0:
320,192,122323,1,0,0:0:0:0:
192,192,122370,1,8,0:0:0:0:
64,192,122370,1,0,0:0:0:0:
448,192,122416,1,0,0:0:0:0:
320,192,122463,1,0,0:0:0:0:
64,192,122510,1,0,0:0:0:0:
448,192,122557,128,0,122745:0:0:0:0:
192,192,122557,128,0,122745:0:0:0:0:
64,192,122745,128,0,122932:0:0:0:0:
320,192,122745,128,0,122932:0:0:0:0:
448,192,122932,1,0,0:0:0:0:
192,192,122932,1,0,0:0:0:0:
64,192,123120,1,0,0:0:0:0:
448,192,123120,1,2,0:0:0:0:
192,192,123166,1,0,0:0:0:0:
320,192,123213,1,0,0:0:0:0:
64,192,123260,1,0,0:0:0:0:
192,192,123307,1,0,0:0:0:0:
448,192,123354,1,0,0:0:0:0:
320,192,123401,1,0,0:0:0:0:
192,192,123448,1,0,0:0:0:0:
448,192,123495,1,0,0:0:0:0:
64,192,123495,1,0,0:0:0:0:
320,192,123541,1,0,0:0:0:0:
192,192,123588,1,0,0:0:0:0:
64,192,123635,1,0,0:0:0:0:
448,192,123682,1,0,0:0:0:0:
320,192,123729,1,0,0:0:0:0:
192,192,123776,1,0,0:0:0:0:
64,192,123823,1,0,0:0:0:0:
448,192,123870,1,8,0:0:0:0:
320,192,123870,1,0,0:0:0:0:
192,192,123916,1,0,0:0:0:0:
64,192,123963,1,0,0:0:0:0:
448,192,124010,1,0,0:0:0:0:
320,192,124057,1,0,0:0:0:0:
192,192,124104,1,0,0:0:0:0:
448,192,124151,1,0,0:0:0:0:
320,192,124198,1,0,0:0:0:0:
64,192,124245,1,0,0:0:0:0:
192,192,124245,1,2,0:0:0:0:
448,192,124291,1,0,0:0:0:0:
320,192,124338,1,0,0:0:0:0:
64,192,124385,1,0,0:0:0:0:
448,192,124432,1,0,0:0:0:0:
192,192,124479,1,0,0:0:0:0:
320,192,124526,1,0,0:0:0:0:
64,192,124573,1,0,0:0:0:0:
192,192,124620,1,0,0:0:0:0:
448,192,124620,128,0,124807:0:0:0:0:
64,192,124807,1,2,0:0:0:0:
320,192,124807,1,0,0:0:0:0:
192,192,124870,1,0,0:0:0:0:
320,192,124932,1,0,0:0:0:0:
448,192,124995,1,2,0:0:0:0:
64,192,124995,128,0,125151:0:0:0:0:
192,192,125151,1,0,0:0:0:0:
192,192,125276,1,0,0:0:0:0:
320,192,125370,1,8,0:0:0:0:
448,192,125370,128,0,125463:0:0:0:0:
64,192,125370,1,0,0:0:0:0:
448,192,125557,128,0,125651:0:0:0:0:
448,192,125745,128,0,126120:0:0:0:0:
192,192,125745,1,0,0:0:0:0:
320,192,126120,1,2,0:0:0:0:
64,192,126120,1,4,0:0:0:0:
192,192,126120,1,0,0:0:0:0:
64,192,126495,128,0,126588:0:0:0:0:
448,192,126495,128,0,126588:0:0:0:0:
320,192,126682,128,0,126776:0:0:0:0:
448,192,126682,128,0,126776:0:0:0:0:
192,192,126870,128,8,126963:0:0:0:0:
64,192,126870,128,0,126963:0:0:0:0:
448,192,126870,1,0,0:0:0:0:
64,192,127057,128,0,127151:0:0:0:0:
320,192,127057,128,0,127151:0:0:0:0:
448,192,127245,1,0,0:0:0:0:
320,192,127245,1,2,0:0:0:0:
64,192,127291,1,0,0:0:0:0:
192,192,127338,1,0,0:0:0:0:
320,192,127385,1,0,0:0:0:0:
448,192,127432,1,0,0:0:0:0:
192,192,127479,1,0,0:0:0:0:
64,192,127526,1,0,0:0:0:0:
320,192,127573,1,0,0:0:0:0:
448,192,127620,1,0,0:0:0:0:
192,192,127620,1,0,0:0:0:0:
64,192,127666,1,0,0:0:0:0:
320,192,127713,1,0,0:0:0:0:
192,192,127760,1,0,0:0:0:0:
64,192,127807,1,0,0:0:0:0:
448,192,127854,1,0,0:0:0:0:
320,192,127901,1,0,0:0:0:0:
192,192,127948,1,0,0:0:0:0:
64,192,127995,1,2,0:0:0:0:
448,192,127995,1,0,0:0:0:0:
320,192,128041,1,0,0:0:0:0:
192,192,128088,1,0,0:0:0:0:
448,192,128135,1,0,0:0:0:0:
320,192,128182,1,0,0:0:0:0:
64,192,128229,1,0,0:0:0:0:
192,192,128276,1,0,0:0:0:0:
320,192,128323,1,0,0:0:0:0:
448,192,128370,1,8,0:0:0:0:
64,192,128370,1,0,0:0:0:0:
192,192,128416,1,0,0:0:0:0:
320,192,128463,1,0,0:0:0:0:
448,192,128510,1,0,0:0:0:0:
64,192,128557,128,0,128745:0:0:0:0:
192,192,128557,128,0,128745:0:0:0:0:
448,192,128745,128,0,129120:0:0:0:0:
320,192,129120,1,2,0:0:0:0:
192,192,129120,1,4,0:0:0:0:
64,192,129120,128,0,129870:0:0:0:0:
448,192,129213,1,0,0:0:0:0:
192,192,129307,1,0,0:0:0:0:
320,192,129401,1,0,0:0:0:0:
192,192,129495,1,0,0:0:0:0:
448,192,129588,1,0,0:0:0:0:
320,192,129682,1,0,0:0:0:0:
448,192,129776,1,0,0:0:0:0:
192,192,129870,1,0,0:0:0:0:
320,192,129870,1,8,0:0:0:0:
448,192,129870,1,0,0:0:0:0:
64,192,129963,1,0,0:0:0:0:
192,192,130057,1,0,0:0:0:0:
320,192,130151,1,0,0:0:0:0:
64,192,130245,1,2,0:0:0:0:
448,192,130245,128,0,131370:0:0:0:0:
192,192,130338,1,0,0:0:0:0:
320,192,130432,1,0,0:0:0:0:
64,192,130526,1,0,0:0:0:0:
192,192,130620,1,2,0:0:0:0:
320,192,130620,1,0,0:0:0:0:
64,192,130713,1,0,0:0:0:0:
320,192,130807,1,0,0:0:0:0:
192,192,130901,1,0,0:0:0:0:
64,192,130901,1,2,0:0:0:0:
320,192,130995,1,0,0:0:0:0:
64,192,131088,1,0,0:0:0:0:
192,192,131182,1,0,0:0:0:0:
320,192,131182,1,2,0:0:0:0:
64,192,131276,1,2,0:0:0:0:
320,192,131370,1,2,0:0:0:0:
64,192,131463,1,0,0:0:0:0:
192,192,131463,1,2,0:0:0:0:
320,192,131510,1,2,0:0:0:0:
448,192,131557,1,2,0:0:0:0:
64,192,131651,1,0,0:0:0:0:
192,192,131651,1,2,0:0:0:0:
448,192,131745,1,2,0:0:0:0:
320,192,131745,1,0,0:0:0:0:
320,192,131838,1,0,0:0:0:0:
448,192,131838,1,2,0:0:0:0:
192,192,131932,1,2,0:0:0:0:
64,192,131932,1,0,0:0:0:0:
64,192,132026,1,0,0:0:0:0:
192,192,132026,1,2,0:0:0:0:
64,192,132120,1,0,0:0:0:0:
320,192,132120,1,2,0:0:0:0:
448,192,132120,128,4,132307:0:0:0:0:
192,192,132307,128,0,132495:0:0:0:0:
64,192,132495,128,0,132588:0:0:0:0:
448,192,132588,128,0,132682:0:0:0:0:
192,192,132682,128,0,132776:0:0:0:0:
448,192,132776,128,0,132870:0:0:0:0:
320,192,132870,128,0,132963:0:0:0:0:
448,192,132963,128,0,133057:0:0:0:0:
320,192,133057,128,0,133151:0:0:0:0:
448,192,133151,128,0,133245:0:0:0:0:
320,192,133245,128,0,133432:0:0:0:0:
448,192,133620,128,0,133713:0:0:0:0:
64,192,133713,128,0,133807:0:0:0:0:
320,192,133807,128,8,133901:0:0:0:0:
64,192,133901,128,8,133995:0:0:0:0:
192,192,133995,128,0,134088:0:0:0:0:
64,192,134088,128,2,134182:0:0:0:0:
192,192,134182,128,2,134276:0:0:0:0:
64,192,134276,128,2,134370:0:0:0:0:
192,192,134370,128,0,134463:0:0:0:0:
320,192,134370,1,2,0:0:0:0:
320,192,134463,1,2,0:0:0:0:
448,192,134463,1,0,0:0:0:0:
192,192,134557,1,2,0:0:0:0:
64,192,134557,1,0,0:0:0:0:
192,192,134651,1,2,0:0:0:0:
448,192,134651,1,0,0:0:0:0:
64,192,134745,1,2,0:0:0:0:
320,192,134745,1,0,0:0:0:0:
320,192,134838,1,0,0:0:0:0:
192,192,134838,1,2,0:0:0:0:
64,192,134932,1,2,0:0:0:0:
448,192,134932,1,0,0:0:0:0:
448,192,135026,1,2,0:0:0:0:
192,192,135026,1,0,0:0:0:0:
64,192,135120,1,4,0:0:0:0:
320,192,135120,1,0,0:0:0:0:
192,192,135120,128,2,135495:0:0:0:0:
448,192,135495,1,0,0:0:0:0:
64,192,135495,1,0,0:0:0:0:
320,192,135541,1,0,0:0:0:0:
192,192,135588,1,0,0:0:0:0:
64,192,135635,1,0,0:0:0:0:
448,192,135682,1,0,0:0:0:0:
320,192,135729,1,0,0:0:0:0:
64,192,135776,1,0,0:0:0:0:
192,192,135823,1,0,0:0:0:0:
448,192,135870,1,8,0:0:0:0:
320,192,135870,1,0,0:0:0:0:
64,192,135916,1,0,0:0:0:0:
192,192,135963,1,0,0:0:0:0:
448,192,136010,1,0,0:0:0:0:
320,192,136057,1,0,0:0:0:0:
64,192,136104,1,0,0:0:0:0:
192,192,136151,1,0,0:0:0:0:
320,192,136198,1,0,0:0:0:0:
64,192,136245,1,2,0:0:0:0:
448,192,136245,1,0,0:0:0:0:
192,192,136291,1,0,0:0:0:0:
320,192,136338,1,0,0:0:0:0:
64,192,136385,1,0,0:0:0:0:
192,192,136432,1,0,0:0:0:0:
448,192,136479,1,0,0:0:0:0:
320,192,136526,1,0,0:0:0:0:
192,192,136573,1,0,0:0:0:0:
64,192,136620,1,0,0:0:0:0:
448,192,136620,1,0,0:0:0:0:
320,192,136666,1,0,0:0:0:0:
192,192,136713,1,0,0:0:0:0:
64,192,136760,1,0,0:0:0:0:
320,192,136807,1,0,0:0:0:0:
448,192,136807,1,2,0:0:0:0:
192,192,136854,1,0,0:0:0:0:
64,192,136901,1,0,0:0:0:0:
320,192,136948,1,0,0:0:0:0:
192,192,136995,1,0,0:0:0:0:
448,192,136995,1,2,0:0:0:0:
64,192,137041,1,0,0:0:0:0:
320,192,137088,1,0,0:0:0:0:
448,192,137135,1,0,0:0:0:0:
192,192,137182,1,0,0:0:0:0:
320,192,137229,1,0,0:0:0:0:
448,192,137276,1,0,0:0:0:0:
192,192,137323,1,0,0:0:0:0:
64,192,137370,1,0,0:0:0:0:
320,192,137370,1,8,0:0:0:0:
448,192,137416,1,0,0:0:0:0:
192,192,137463,1,0,0:0:0:0:
64,192,137510,1,0,0:0:0:0:
320,192,137557,1,0,0:0:0:0:
448,192,137557,1,0,0:0:0:0:
448,192,137651,1,0,0:0:0:0:
320,192,137651,1,0,0:0:0:0:
64,192,137745,1,0,0:0:0:0:
192,192,137745,128,0,138120:0:0:0:0:
448,192,138120,1,0,0:0:0:0:
320,192,138120,1,2,0:0:0:0:
64,192,138495,128,0,138588:0:0:0:0:
448,192,138588,128,0,138682:0:0:0:0:
192,192,138682,128,0,138776:0:0:0:0:
448,192,138776,128,0,138870:0:0:0:0:
320,192,138870,128,0,138963:0:0:0:0:
192,192,138870,1,0,0:0:0:0:
64,192,138870,1,8,0:0:0:0:
448,192,138963,128,0,139057:0:0:0:0:
320,192,139057,128,0,139151:0:0:0:0:
448,192,139151,128,0,139245:0:0:0:0:
64,192,139245,1,2,0:0:0:0:
192,192,139245,1,0,0:0:0:0:
320,192,139291,1,0,0:0:0:0:
448,192,139338,1,0,0:0:0:0:
64,192,139385,1,0,0:0:0:0:
192,192,139432,1,0,0:0:0:0:
448,192,139479,1,0,0:0:0:0:
320,192,139526,1,0,0:0:0:0:
64,192,139573,1,0,0:0:0:0:
192,192,139620,1,0,0:0:0:0:
448,192,139620,1,0,0:0:0:0:
320,192,139666,1,0,0:0:0:0:
64,192,139713,1,0,0:0:0:0:
192,192,139760,1,0,0:0:0:0:
448,192,139807,1,0,0:0:0:0:
64,192,139854,1,0,0:0:0:0:
320,192,139901,1,0,0:0:0:0:
448,192,139948,1,0,0:0:0:0:
192,192,139995,1,2,0:0:0:0:
64,192,139995,1,0,0:0:0:0:
320,192,140041,1,0,0:0:0:0:
448,192,140088,1,0,0:0:0:0:
192,192,140135,1,0,0:0:0:0:
64,192,140182,1,0,0:0:0:0:
320,192,140229,1,0,0:0:0:0:
192,192,140276,1,0,0:0:0:0:
64,192,140323,1,0,0:0:0:0:
320,192,140370,1,8,0:0:0:0:
448,192,140370,1,0,0:0:0:0:
192,192,140416,1,0,0:0:0:0:
64,192,140463,1,0,0:0:0:0:
448,192,140510,1,0,0:0:0:0:
320,192,140557,128,0,140745:0:0:0:0:
192,192,140557,128,0,140745:0:0:0:0:
64,192,140745,128,0,141120:0:0:0:0:
320,192,141120,1,2,0:0:0:0:
192,192,141120,1,4,0:0:0:0:
448,192,141120,128,0,142245:0:0:0:0:
64,192,141213,1,0,0:0:0:0:
320,192,141307,1,0,0:0:0:0:
64,192,141401,1,0,0:0:0:0:
192,192,141495,1,0,0:0:0:0:
320,192,141588,1,0,0:0:0:0:
192,192,141682,1,0,0:0:0:0:
64,192,141776,1,0,0:0:0:0:
192,192,141870,1,8,0:0:0:0:
320,192,141870,1,0,0:0:0:0:
64,192,141870,1,0,0:0:0:0:
320,192,141963,1,0,0:0:0:0:
64,192,142057,1,0,0:0:0:0:
192,192,142151,1,0,0:0:0:0:
320,192,142245,1,0,0:0:0:0:
64,192,142245,128,2,143370:0:0:0:0:
448,192,142338,1,0,0:0:0:0:
192,192,142432,1,0,0:0:0:0:
320,192,142526,1,0,0:0:0:0:
448,192,142620,1,2,0:0:0:0:
192,192,142713,1,0,0:0:0:0:
320,192,142807,1,0,0:0:0:0:
192,192,142901,1,2,0:0:0:0:
448,192,142995,1,0,0:0:0:0:
320,192,143088,1,0,0:0:0:0:
448,192,143182,1,2,0:0:0:0:
192,192,143276,1,2,0:0:0:0:
448,192,143370,1,0,0:0:0:0:
320,192,143370,1,2,0:0:0:0:
192,192,143463,1,2,0:0:0:0:
64,192,143510,1,2,0:0:0:0:
320,192,143557,1,2,0:0:0:0:
448,192,143557,1,0,0:0:0:0:
192,192,143651,1,2,0:0:0:0:
64,192,143651,1,0,0:0:0:0:
448,192,143745,1,0,0:0:0:0:
320,192,143745,1,2,0:0:0:0:
448,192,143838,1,0,0:0:0:0:
320,192,143838,1,2,0:0:0:0:
64,192,143932,1,0,0:0:0:0:
192,192,143932,1,2,0:0:0:0:
192,192,144026,1,2,0:0:0:0:
64,192,144026,1,0,0:0:0:0:
64,192,144120,1,0,0:0:0:0:
448,192,144120,1,8,0:0:0:0:
320,192,144120,1,4,0:0:0:0:
192,192,144120,1,0,0:0:0:0:
