osu file format v14

[General]
AudioFilename: audio.mp3
AudioLeadIn: 0
PreviewTime: 23362
Countdown: 0
SampleSet: Normal
StackLeniency: 0.7
Mode: 1
LetterboxInBreaks: 0
WidescreenStoryboard: 0

[Editor]
Bookmarks: 143988,211359,275645,286617,297648,301762
DistanceSpacing: 0.1
BeatDivisor: 4
GridSize: 32
TimelineZoom: 2.4

[Metadata]
Title:Minasoko Yuuhodou
TitleUnicode:水底游歩道
Artist:Camellia feat. Reol
ArtistUnicode:かめりあ feat. れをる
Creator:hikikochan
Version:Promenade
Source:
Tags:reol camellia gokusaishoku れをる 極彩色 かめりあ
BeatmapID:868760
BeatmapSetID:399270

[Difficulty]
HPDrainRate:5
CircleSize:5
OverallDifficulty:5
ApproachRate:5
SliderMultiplier:1.4
SliderTickRate:1

[Events]
//Background and Video events
0,0,"26339586_p0.jpg",0,0
//Break Periods
//Storyboard Layer 0 (Background)
//Storyboard Layer 1 (Fail)
//Storyboard Layer 2 (Pass)
//Storyboard Layer 3 (Foreground)
//Storyboard Sound Samples

[TimingPoints]
1419.99296217582,342.857142857143,4,1,0,40,1,0
12391,-83.3333333333333,4,1,0,60,0,0
13762,-83.3333333333333,4,1,0,70,0,0
15134,-83.3333333333333,4,1,0,80,0,0
16505,-83.3333333333333,4,1,0,90,0,0
17877,-81.9672131147541,4,1,0,100,0,0
18048,-80.6451612903226,4,1,0,100,0,0
18219,-79.3650793650794,4,1,0,100,0,0
18391,-78.125,4,1,0,100,0,0
18562,-76.9230769230769,4,1,0,100,0,0
18734,-75.7575757575758,4,1,0,100,0,0
18905,-74.6268656716418,4,1,0,100,0,0
19077,-73.5294117647059,4,1,0,100,0,0
19248,-72.463768115942,4,1,0,100,0,0
19419,-71.4285714285714,4,1,0,100,0,0
19591,-70.4225352112676,4,1,0,100,0,0
19762,-69.4444444444444,4,1,0,100,0,0
19934,-68.4931506849315,4,1,0,100,0,0
20105,-67.5675675675676,4,1,0,100,0,0
20277,-66.6666666666667,4,1,0,100,0,0
20448,-65.7894736842105,4,1,0,100,0,0
20619,-64.9350649350649,4,1,0,100,0,0
20705,-64.1025641025641,4,1,0,100,0,0
20791,-63.2911392405063,4,1,0,100,0,0
20877,-62.5,4,1,0,100,0,0
20962,-61.7283950617284,4,1,0,100,0,0
21048,-60.9756097560976,4,1,0,100,0,0
21134,-60.6060606060606,4,1,0,100,0,0
21219,-60.2409638554217,4,1,0,100,0,0
21305,-59.8802395209581,4,1,0,100,0,0
21391,-59.5238095238095,4,1,0,100,0,0
21477,-59.1715976331361,4,1,0,100,0,0
21562,-58.8235294117647,4,1,0,100,0,0
21648,-58.4795321637427,4,1,0,100,0,0
21734,-58.1395348837209,4,1,0,100,0,0
21819,-57.8034682080925,4,1,0,100,0,0
21905,-57.4712643678161,4,1,0,100,0,0
21991,-57.1428571428571,4,1,0,100,0,0
23362,-80,4,1,0,100,0,1
44962,-83.3333333333333,4,1,0,100,0,1
45048,-86.9565217391304,4,1,0,100,0,1
45134,-90.9090909090909,4,1,0,100,0,1
45219,-95.2380952380952,4,1,0,100,0,1
45305,-100,4,2,0,60,0,0
56277,-83.3333333333333,4,1,0,70,0,0
59019,-83.3333333333333,4,1,0,80,0,0
61762,-83.3333333333333,4,1,0,90,0,0
64503,-83.3333333333333,4,1,0,100,0,0
67248,-83.3333333333333,4,1,0,60,0,0
68619,-83.3333333333333,4,1,0,70,0,0
69991,-83.3333333333333,4,1,0,80,0,0
71362,-83.3333333333333,4,1,0,90,0,0
72734,-81.9672131147541,4,1,0,100,0,0
72905,-80.6451612903226,4,1,0,100,0,0
73077,-79.3650793650794,4,1,0,100,0,0
73248,-78.125,4,1,0,100,0,0
73419,-76.9230769230769,4,1,0,100,0,0
73591,-75.7575757575758,4,1,0,100,0,0
73762,-74.6268656716418,4,1,0,100,0,0
73934,-73.5294117647059,4,1,0,100,0,0
74105,-72.463768115942,4,1,0,100,0,0
74277,-71.4285714285714,4,1,0,100,0,0
74448,-70.4225352112676,4,1,0,100,0,0
74619,-69.4444444444444,4,1,0,100,0,0
74791,-68.4931506849315,4,1,0,100,0,0
74962,-67.5675675675676,4,1,0,100,0,0
75134,-66.6666666666667,4,1,0,100,0,0
75305,-65.7894736842105,4,1,0,100,0,0
75477,-64.9350649350649,4,1,0,100,0,0
75562,-64.1025641025641,4,1,0,100,0,0
75648,-63.2911392405063,4,1,0,100,0,0
75734,-62.5,4,1,0,100,0,0
75819,-61.7283950617284,4,1,0,100,0,0
75905,-60.9756097560976,4,1,0,100,0,0
75991,-60.6060606060606,4,1,0,100,0,0
76077,-60.2409638554217,4,1,0,100,0,0
76162,-59.8802395209581,4,1,0,100,0,0
76248,-59.5238095238095,4,1,0,100,0,0
76334,-59.1715976331361,4,1,0,100,0,0
76419,-58.8235294117647,4,1,0,100,0,0
76505,-58.4795321637427,4,1,0,100,0,0
76591,-58.1395348837209,4,1,0,100,0,0
76677,-57.8034682080925,4,1,0,100,0,0
76762,-57.4712643678161,4,1,0,100,0,0
76848,-57.1428571428571,4,1,0,100,0,0
78219,-80,4,1,0,100,0,1
100162,-80,4,1,0,100,0,0
121762,-83.3333333333333,4,1,0,100,0,0
121848,-86.9565217391304,4,1,0,100,0,0
121934,-90.9090909090909,4,1,0,100,0,0
122019,-95.2380952380952,4,1,0,100,0,0
122105,-100,4,1,0,100,0,0
144048,-83.3333333333333,4,2,0,60,0,0
155019,-83.3333333333333,4,1,0,60,0,0
156391,-83.3333333333333,4,1,0,70,0,0
157762,-83.3333333333333,4,1,0,80,0,0
159134,-83.3333333333333,4,1,0,90,0,0
160505,-81.9672131147541,4,1,0,100,0,0
160677,-80.6451612903226,4,1,0,100,0,0
160848,-79.3650793650794,4,1,0,100,0,0
161019,-78.125,4,1,0,100,0,0
161191,-76.9230769230769,4,1,0,100,0,0
161362,-75.7575757575758,4,1,0,100,0,0
161534,-74.6268656716418,4,1,0,100,0,0
161705,-73.5294117647059,4,1,0,100,0,0
161877,-72.463768115942,4,1,0,100,0,0
162048,-71.4285714285714,4,1,0,100,0,0
162219,-70.4225352112676,4,1,0,100,0,0
162391,-69.4444444444444,4,1,0,100,0,0
162562,-68.4931506849315,4,1,0,100,0,0
162734,-67.5675675675676,4,1,0,100,0,0
162905,-66.6666666666667,4,1,0,100,0,0
163077,-65.7894736842105,4,1,0,100,0,0
163248,-64.9350649350649,4,1,0,100,0,0
163334,-64.1025641025641,4,1,0,100,0,0
163419,-63.2911392405063,4,1,0,100,0,0
163505,-62.5,4,1,0,100,0,0
163591,-61.7283950617284,4,1,0,100,0,0
163677,-60.9756097560976,4,1,0,100,0,0
163762,-60.6060606060606,4,1,0,100,0,0
163848,-60.2409638554217,4,1,0,100,0,0
163934,-59.8802395209581,4,1,0,100,0,0
164019,-59.5238095238095,4,1,0,100,0,0
164105,-59.1715976331361,4,1,0,100,0,0
164191,-58.8235294117647,4,1,0,100,0,0
164277,-58.4795321637427,4,1,0,100,0,0
164362,-58.1395348837209,4,1,0,100,0,0
164448,-57.8034682080925,4,1,0,100,0,0
164534,-57.4712643678161,4,1,0,100,0,0
164619,-57.1428571428571,4,1,0,100,0,0
165991,-80,4,1,0,100,0,1
187591,-83.3333333333333,4,1,0,100,0,1
187677,-86.9565217391304,4,1,0,100,0,1
187762,-90.9090909090909,4,1,0,100,0,1
187848,-95.2380952380952,4,1,0,100,0,1
187934,-100,4,2,0,100,0,0
198905,-83.3333333333333,4,1,0,60,0,0
200277,-83.3333333333333,4,1,0,70,0,0
201648,-83.3333333333333,4,1,0,80,0,0
203019,-83.3333333333333,4,1,0,90,0,0
204391,-81.9672131147541,4,1,0,100,0,0
204562,-80.6451612903226,4,1,0,100,0,0
204734,-79.3650793650794,4,1,0,100,0,0
204905,-78.125,4,1,0,100,0,0
205077,-76.9230769230769,4,1,0,100,0,0
205248,-75.7575757575758,4,1,0,100,0,0
205419,-74.6268656716418,4,1,0,100,0,0
205591,-73.5294117647059,4,1,0,100,0,0
205762,-72.463768115942,4,1,0,100,0,0
205934,-71.4285714285714,4,1,0,100,0,0
206105,-70.4225352112676,4,1,0,100,0,0
206277,-69.4444444444444,4,1,0,100,0,0
206448,-68.4931506849315,4,1,0,100,0,0
206619,-67.5675675675676,4,1,0,100,0,0
206791,-66.6666666666667,4,1,0,100,0,0
206962,-65.7894736842105,4,1,0,100,0,0
207134,-64.9350649350649,4,1,0,100,0,0
207219,-64.1025641025641,4,1,0,100,0,0
207305,-63.2911392405063,4,1,0,100,0,0
207391,-62.5,4,1,0,100,0,0
207477,-61.7283950617284,4,1,0,100,0,0
207562,-60.9756097560976,4,1,0,100,0,0
207648,-60.6060606060606,4,1,0,100,0,0
207734,-60.2409638554217,4,1,0,100,0,0
207819,-59.8802395209581,4,1,0,100,0,0
207905,-59.5238095238095,4,1,0,100,0,0
207991,-59.1715976331361,4,1,0,100,0,0
208077,-58.8235294117647,4,1,0,100,0,0
208162,-58.4795321637427,4,1,0,100,0,0
208248,-58.1395348837209,4,1,0,100,0,0
208334,-57.8034682080925,4,1,0,100,0,0
208419,-57.4712643678161,4,1,0,100,0,0
208505,-57.1428571428571,4,1,0,100,0,0
209877,-80,4,1,0,100,0,1
231819,-80,4,1,0,100,0,0
253762,-80,4,1,0,100,0,1
275705,-100,4,1,0,40,0,0

[HitObjects]
256,192,734,5,0,0:2:0:0:
256,192,905,1,0,0:2:0:0:
256,192,1077,1,8,0:2:0:0:
256,192,1248,1,8,0:2:0:0:
256,192,1419,1,0,0:2:0:0:
256,192,1591,1,8,0:2:0:0:
256,192,1762,1,0,0:2:0:0:
256,192,1934,1,0,0:2:0:0:
256,192,2019,1,0,0:2:0:0:
256,192,2105,1,8,0:2:0:0:
256,192,2277,1,0,0:2:0:0:
256,192,2448,1,0,0:2:0:0:
256,192,2534,1,0,0:2:0:0:
256,192,2619,1,8,0:2:0:0:
256,192,2705,1,0,0:2:0:0:
256,192,2791,1,8,0:2:0:0:
256,192,2962,1,8,0:2:0:0:
256,192,3019,1,8,0:2:0:0:
256,192,3077,1,8,0:2:0:0:
256,192,3134,1,0,0:2:0:0:
256,192,3305,1,8,0:2:0:0:
256,192,3477,1,0,0:2:0:0:
256,192,3534,1,0,0:2:0:0:
256,192,3591,1,0,0:0:0:0:
256,192,3648,1,8,0:2:0:0:
256,192,3819,1,0,0:2:0:0:
256,192,3991,1,0,0:2:0:0:
256,192,4162,1,8,0:2:0:0:
256,192,4334,1,0,0:2:0:0:
256,192,4419,1,0,0:2:0:0:
256,192,4505,1,0,0:2:0:0:
256,192,4591,1,0,0:2:0:0:
256,192,4677,1,8,0:2:0:0:
256,192,4848,1,0,0:2:0:0:
256,192,4934,1,0,0:2:0:0:
256,192,5019,1,0,0:2:0:0:
256,192,5105,1,0,0:2:0:0:
256,192,5191,1,8,0:2:0:0:
256,192,5362,1,8,0:2:0:0:
256,192,5448,1,0,0:2:0:0:
256,192,5534,1,8,0:2:0:0:
256,192,5705,1,0,0:2:0:0:
256,192,5791,1,0,0:2:0:0:
256,192,5877,1,8,0:2:0:0:
256,192,6048,1,0,0:2:0:0:
256,192,6134,1,0,0:2:0:0:
256,192,6219,1,8,0:2:0:0:
256,192,6305,1,0,0:2:0:0:
256,192,6391,1,8,0:2:0:0:
256,192,6562,1,8,0:2:0:0:
256,192,6648,1,0,0:2:0:0:
256,192,6734,1,0,0:2:0:0:
256,192,6905,1,0,0:2:0:0:
256,192,6991,1,0,0:2:0:0:
256,192,7077,1,8,0:2:0:0:
256,192,7162,1,0,0:2:0:0:
256,192,7248,1,8,0:2:0:0:
256,192,7419,1,0,0:2:0:0:
256,192,7505,1,0,0:2:0:0:
256,192,7591,1,8,0:2:0:0:
256,192,7677,1,0,0:2:0:0:
256,192,7762,1,8,0:2:0:0:
256,192,7848,1,8,0:2:0:0:
256,192,7934,1,0,0:2:0:0:
256,192,8105,1,0,0:2:0:0:
256,192,8191,1,0,0:2:0:0:
256,192,8277,1,8,0:2:0:0:
256,192,8448,1,8,0:2:0:0:
256,192,8534,1,8,0:2:0:0:
256,192,8619,1,0,0:2:0:0:
256,192,8791,1,0,0:2:0:0:
256,192,8877,1,0,0:2:0:0:
256,192,8962,1,8,0:2:0:0:
256,192,9019,1,0,0:0:0:0:
256,192,9077,1,0,0:2:0:0:
256,192,9134,1,8,0:2:0:0:
256,192,9305,1,0,0:2:0:0:
256,192,9391,1,0,0:2:0:0:
256,192,9477,1,8,0:2:0:0:
256,192,9562,1,0,0:2:0:0:
256,192,9648,1,8,0:2:0:0:
256,192,9819,1,0,0:2:0:0:
256,192,9905,1,0,0:2:0:0:
256,192,9991,1,8,0:2:0:0:
256,192,10048,1,0,0:2:0:0:
256,192,10105,1,0,0:0:0:0:
256,192,10162,1,8,0:2:0:0:
256,192,10334,1,0,0:2:0:0:
256,192,10505,1,8,0:2:0:0:
256,192,10677,1,0,0:2:0:0:
256,192,10762,1,0,0:2:0:0:
256,192,10848,1,0,0:2:0:0:
256,192,10934,1,0,0:2:0:0:
256,192,11019,1,8,0:2:0:0:
256,192,11105,1,8,0:2:0:0:
256,192,11191,1,0,0:2:0:0:
256,192,11277,1,0,0:2:0:0:
256,192,11362,1,8,0:2:0:0:
256,192,11448,1,0,0:2:0:0:
256,192,11534,1,0,0:2:0:0:
256,192,11619,1,0,0:2:0:0:
256,192,11705,1,8,0:2:0:0:
256,192,11877,1,0,0:2:0:0:
256,192,11962,1,0,0:2:0:0:
256,192,12048,1,8,0:2:0:0:
256,192,12134,1,0,0:2:0:0:
256,192,12219,1,8,0:2:0:0:
256,192,12391,1,0,0:0:0:0:
256,192,12734,1,0,0:0:0:0:
256,192,12991,1,8,0:0:0:0:
256,192,13077,1,0,0:0:0:0:
256,192,13419,1,0,0:0:0:0:
256,192,13762,1,0,0:0:0:0:
256,192,14105,1,0,0:0:0:0:
256,192,14362,1,8,0:0:0:0:
256,192,14448,1,0,0:0:0:0:
256,192,14791,1,0,0:0:0:0:
256,192,15134,1,0,0:0:0:0:
256,192,15477,1,0,0:0:0:0:
256,192,15734,1,8,0:0:0:0:
256,192,15819,1,0,0:0:0:0:
256,192,16162,1,0,0:0:0:0:
256,192,16505,1,0,0:0:0:0:
256,192,16848,1,0,0:0:0:0:
256,192,17105,1,8,0:0:0:0:
256,192,17191,1,0,0:0:0:0:
256,192,17534,1,0,0:0:0:0:
256,192,17877,1,0,0:0:0:0:
256,192,18048,1,0,0:0:0:0:
256,192,18219,1,0,0:0:0:0:
256,192,18391,1,0,0:0:0:0:
256,192,18562,1,0,0:0:0:0:
256,192,18734,1,0,0:0:0:0:
256,192,18905,1,0,0:0:0:0:
256,192,19077,1,0,0:0:0:0:
256,192,19248,1,0,0:0:0:0:
256,192,19419,1,0,0:0:0:0:
256,192,19591,1,0,0:0:0:0:
256,192,19762,1,0,0:0:0:0:
256,192,19934,1,0,0:0:0:0:
256,192,20105,1,0,0:0:0:0:
256,192,20277,1,0,0:0:0:0:
256,192,20448,1,0,0:0:0:0:
256,192,20619,1,0,0:0:0:0:
256,192,20705,1,0,0:0:0:0:
256,192,20791,1,0,0:0:0:0:
256,192,20877,1,0,0:0:0:0:
256,192,20962,1,0,0:0:0:0:
256,192,21048,1,0,0:0:0:0:
256,192,21134,1,0,0:0:0:0:
256,192,21219,1,0,0:0:0:0:
256,192,21305,1,0,0:0:0:0:
256,192,21391,1,0,0:0:0:0:
256,192,21477,1,0,0:0:0:0:
256,192,21562,1,0,0:0:0:0:
256,192,21648,1,8,0:0:0:0:
256,192,21734,1,8,0:0:0:0:
256,192,21819,1,8,0:0:0:0:
256,192,21905,1,8,0:0:0:0:
256,192,21991,1,0,0:0:0:0:
256,192,22848,1,0,0:0:0:0:
256,192,22934,1,0,0:0:0:0:
256,192,23019,1,8,0:0:0:0:
256,192,23362,1,0,0:0:0:0:
256,192,23448,1,0,0:0:0:0:
256,192,23534,1,0,0:0:0:0:
256,192,23619,1,0,0:0:0:0:
256,192,23705,1,0,0:0:0:0:
256,192,23877,1,0,0:0:0:0:
256,192,23962,1,0,0:0:0:0:
256,192,24048,1,8,0:0:0:0:
256,192,24219,1,0,0:0:0:0:
256,192,24305,1,8,0:0:0:0:
256,192,24391,1,0,0:0:0:0:
256,192,24477,1,0,0:0:0:0:
256,192,24562,1,8,0:0:0:0:
256,192,24734,1,0,0:0:0:0:
256,192,24820,1,0,0:0:0:0:
256,192,24906,1,8,0:0:0:0:
256,192,24991,1,8,0:0:0:0:
256,192,25077,1,0,0:0:0:0:
256,192,25162,1,0,0:0:0:0:
256,192,25248,1,8,0:0:0:0:
256,192,25334,1,0,0:0:0:0:
256,192,25419,1,8,0:0:0:0:
256,192,25505,1,0,0:0:0:0:
256,192,25591,1,0,0:0:0:0:
256,192,25677,1,0,0:0:0:0:
256,192,25762,1,8,0:0:0:0:
256,192,25848,1,0,0:0:0:0:
256,192,25934,1,8,0:0:0:0:
256,192,26019,1,8,0:0:0:0:
256,192,26105,1,0,0:0:0:0:
256,192,26277,1,0,0:0:0:0:
256,192,26362,1,0,0:0:0:0:
256,192,26448,1,8,0:0:0:0:
256,192,26534,1,8,0:0:0:0:
256,192,26619,1,0,0:0:0:0:
256,192,26791,1,8,0:0:0:0:
256,192,26877,1,8,0:0:0:0:
256,192,26962,1,0,0:0:0:0:
256,192,27048,1,0,0:0:0:0:
256,192,27134,1,0,0:0:0:0:
256,192,27219,1,0,0:0:0:0:
256,192,27305,1,8,0:0:0:0:
256,192,27391,1,8,0:0:0:0:
256,192,27477,1,0,0:0:0:0:
256,192,27562,1,8,0:0:0:0:
256,192,27648,1,0,0:0:0:0:
256,192,27819,1,0,0:0:0:0:
256,192,27905,1,8,0:0:0:0:
256,192,27991,1,0,0:0:0:0:
256,192,28077,1,0,0:0:0:0:
256,192,28162,1,8,0:0:0:0:
256,192,28248,1,0,0:0:0:0:
256,192,28334,1,0,0:0:0:0:
256,192,28419,1,0,0:0:0:0:
256,192,28505,1,8,0:0:0:0:
256,192,28591,1,0,0:0:0:0:
256,192,28677,1,8,0:0:0:0:
256,192,28762,1,8,0:0:0:0:
256,192,28848,1,0,0:0:0:0:
256,192,29019,1,8,0:0:0:0:
256,192,29105,1,8,0:0:0:0:
256,192,29191,1,0,0:0:0:0:
256,192,29277,1,0,0:0:0:0:
256,192,29362,1,8,0:0:0:0:
256,192,29448,1,8,0:0:0:0:
256,192,29534,1,8,0:0:0:0:
256,192,29705,1,8,0:0:0:0:
256,192,29791,1,0,0:0:0:0:
256,192,29877,1,0,0:0:0:0:
256,192,29962,1,0,0:0:0:0:
256,192,30048,1,8,0:0:0:0:
256,192,30219,1,0,0:0:0:0:
256,192,30305,1,0,0:0:0:0:
256,192,30391,1,8,0:0:0:0:
256,192,30477,1,0,0:0:0:0:
256,192,30562,1,8,0:0:0:0:
256,192,30648,1,8,0:0:0:0:
256,192,30734,1,0,0:0:0:0:
256,192,30819,1,0,0:0:0:0:
256,192,30905,1,8,0:0:0:0:
256,192,31077,1,0,0:0:0:0:
256,192,31162,1,0,0:0:0:0:
256,192,31248,1,8,0:0:0:0:
256,192,31419,1,8,0:0:0:0:
256,192,31591,1,0,0:0:0:0:
256,192,31762,1,0,0:0:0:0:
256,192,31848,1,0,0:0:0:0:
256,192,31934,1,8,0:0:0:0:
256,192,32019,1,0,0:0:0:0:
256,192,32105,1,8,0:0:0:0:
256,192,32191,1,8,0:0:0:0:
256,192,32277,1,0,0:0:0:0:
256,192,32448,1,0,0:0:0:0:
256,192,32534,1,8,0:0:0:0:
256,192,32619,1,0,0:0:0:0:
256,192,32705,1,0,0:0:0:0:
256,192,32791,1,8,0:0:0:0:
256,192,32962,1,0,0:0:0:0:
256,192,33048,1,0,0:0:0:0:
256,192,33134,1,8,0:0:0:0:
256,192,33219,1,0,0:0:0:0:
256,192,33305,1,8,0:0:0:0:
256,192,33391,1,0,0:0:0:0:
256,192,33477,1,0,0:0:0:0:
256,192,33648,1,8,0:0:0:0:
256,192,33819,1,0,0:0:0:0:
256,192,33905,1,8,0:0:0:0:
256,192,34077,1,0,0:0:0:0:
256,192,34162,1,8,0:0:0:0:
256,192,34334,1,0,0:0:0:0:
256,192,34848,1,0,0:0:0:0:
256,192,34934,1,0,0:0:0:0:
256,192,35019,1,8,0:0:0:0:
256,192,35362,1,0,0:0:0:0:
256,192,35448,1,0,0:0:0:0:
256,192,35534,1,8,0:0:0:0:
256,192,35619,1,0,0:0:0:0:
256,192,35705,1,8,0:0:0:0:
256,192,35877,1,0,0:0:0:0:
256,192,36048,1,8,0:0:0:0:
256,192,36134,1,8,0:0:0:0:
256,192,36219,1,8,0:0:0:0:
256,192,36305,1,8,0:0:0:0:
256,192,36391,1,0,0:0:0:0:
256,192,36477,1,0,0:0:0:0:
256,192,36562,1,0,0:0:0:0:
256,192,36648,1,0,0:0:0:0:
256,192,36734,1,8,0:0:0:0:
256,192,37077,1,0,0:0:0:0:
256,192,37162,1,0,0:0:0:0:
256,192,37248,1,0,0:0:0:0:
256,192,37334,1,0,0:0:0:0:
256,192,37419,1,8,0:0:0:0:
256,192,37505,1,8,0:0:0:0:
256,192,37591,1,0,0:0:0:0:
256,192,37762,1,8,0:0:0:0:
256,192,37848,1,0,0:0:0:0:
256,192,38105,1,0,0:0:0:0:
256,192,38191,1,0,0:0:0:0:
256,192,38276,1,8,0:0:0:0:
256,192,38362,1,8,0:0:0:0:
256,192,38448,1,8,0:0:0:0:
256,192,38533,1,8,0:0:0:0:
256,192,38619,1,0,0:0:0:0:
256,192,38705,1,0,0:0:0:0:
256,192,38791,1,0,0:0:0:0:
256,192,38962,1,0,0:0:0:0:
256,192,39048,1,0,0:0:0:0:
256,192,39134,1,8,0:0:0:0:
256,192,39305,1,0,0:0:0:0:
256,192,39477,1,8,0:0:0:0:
256,192,39562,1,8,0:0:0:0:
256,192,39648,1,8,0:0:0:0:
256,192,39734,1,8,0:0:0:0:
256,192,39819,1,0,0:0:0:0:
256,192,39905,1,0,0:0:0:0:
256,192,39991,1,8,0:0:0:0:
256,192,40077,1,8,0:0:0:0:
256,192,40162,1,0,0:0:0:0:
256,192,40248,1,0,0:0:0:0:
256,192,40334,1,8,0:0:0:0:
256,192,40419,1,0,0:0:0:0:
256,192,40505,1,8,0:0:0:0:
256,192,40677,1,8,0:0:0:0:
256,192,40762,1,8,0:0:0:0:
256,192,40848,1,0,0:0:0:0:
256,192,40934,1,0,0:0:0:0:
256,192,41019,1,8,0:0:0:0:
256,192,41105,1,0,0:0:0:0:
256,192,41191,1,0,0:0:0:0:
256,192,41277,1,0,0:0:0:0:
256,192,41362,1,8,0:0:0:0:
256,192,41448,1,8,0:0:0:0:
256,192,41534,1,8,0:0:0:0:
256,192,41705,1,0,0:0:0:0:
256,192,41791,1,0,0:0:0:0:
256,192,41877,1,8,0:0:0:0:
256,192,42048,1,0,0:0:0:0:
256,192,42219,1,8,0:0:0:0:
256,192,42305,1,8,0:0:0:0:
256,192,42391,1,8,0:0:0:0:
256,192,42477,1,8,0:0:0:0:
256,192,42562,1,0,0:0:0:0:
256,192,42905,1,8,0:0:0:0:
256,192,43077,1,8,0:0:0:0:
256,192,43248,1,0,0:0:0:0:
256,192,43591,1,0,0:0:0:0:
256,192,43677,1,0,0:0:0:0:
256,192,43762,1,8,0:0:0:0:
256,192,43848,1,0,0:0:0:0:
256,192,43934,1,0,0:0:0:0:
256,192,44019,1,0,0:0:0:0:
256,192,44105,1,8,0:0:0:0:
256,192,44277,1,8,0:0:0:0:
256,192,44391,1,8,0:0:0:0:
256,192,44505,1,8,0:0:0:0:
256,192,44619,1,0,0:0:0:0:
256,192,44705,1,0,0:0:0:0:
256,192,44791,1,0,0:0:0:0:
256,192,44877,1,0,0:0:0:0:
256,192,44962,1,8,0:0:0:0:
256,192,45048,1,8,0:0:0:0:
256,192,45134,1,8,0:0:0:0:
256,192,45219,1,8,0:0:0:0:
256,192,45305,1,0,0:0:0:0:
256,192,45877,1,8,0:0:0:0:
256,192,45991,1,8,0:0:0:0:
256,192,47248,1,8,0:0:0:0:
256,192,47362,1,8,0:0:0:0:
256,192,47534,1,8,0:0:0:0:
256,192,47705,1,8,0:0:0:0:
256,192,48619,1,8,0:0:0:0:
256,192,48734,1,8,0:0:0:0:
256,192,49991,1,8,0:0:0:0:
256,192,50105,1,8,0:2:0:0:
256,192,50277,1,8,0:0:0:0:
256,192,50448,1,8,0:0:0:0:
256,192,51362,1,8,0:0:0:0:
256,192,51477,1,8,0:2:0:0:
256,192,52734,1,8,0:0:0:0:
256,192,52848,1,8,0:0:0:0:
256,192,53019,1,8,0:0:0:0:
256,192,53191,1,8,0:0:0:0:
256,192,53534,1,0,0:0:0:0:
256,192,54105,1,8,0:0:0:0:
256,192,54219,1,8,0:2:0:0:
256,192,54905,1,0,0:0:0:0:
256,192,55477,1,8,0:0:0:0:
256,192,55591,1,8,0:2:0:0:
256,192,55762,1,8,0:0:0:0:
256,192,55934,1,8,0:0:0:0:
256,192,56277,1,0,0:0:0:0:
256,192,56791,1,0,0:0:0:0:
256,192,56962,1,8,0:0:0:0:
256,192,57305,1,0,0:0:0:0:
256,192,58162,1,0,0:0:0:0:
256,192,58248,1,0,0:0:0:0:
256,192,58334,1,8,0:0:0:0:
256,192,58505,1,0,0:0:0:0:
256,192,58677,1,8,0:0:0:0:
256,192,58848,1,8,0:0:0:0:
256,192,59019,1,0,0:0:0:0:
256,192,59534,1,0,0:0:0:0:
256,192,59705,1,8,0:0:0:0:
256,192,59791,1,0,0:0:0:0:
256,192,60048,1,0,0:0:0:0:
256,192,60734,1,0,0:0:0:0:
256,192,60905,1,0,0:0:0:0:
256,192,61077,1,8,0:0:0:0:
256,192,61248,1,0,0:0:0:0:
256,192,61419,1,8,0:0:0:0:
256,192,61762,1,0,0:0:0:0:
256,192,62277,1,0,0:0:0:0:
256,192,62448,1,8,0:0:0:0:
256,192,62791,1,0,0:0:0:0:
256,192,63648,1,0,0:0:0:0:
256,192,63734,1,0,0:0:0:0:
256,192,63819,1,8,0:0:0:0:
256,192,64505,1,0,0:0:0:0:
256,192,65191,1,8,0:0:0:0:
256,192,65534,1,0,0:0:0:0:
256,192,66391,1,0,0:0:0:0:
256,192,66562,1,8,0:0:0:0:
256,192,66734,1,0,0:0:0:0:
256,192,66819,1,8,0:0:0:0:
256,192,67077,1,8,0:0:0:0:
256,192,67248,1,4,0:0:0:0:
256,192,67591,1,0,0:0:0:0:
256,192,67934,1,0,0:0:0:0:
256,192,68277,1,0,0:0:0:0:
256,192,68619,1,0,0:0:0:0:
256,192,68962,1,0,0:0:0:0:
256,192,69305,1,0,0:0:0:0:
256,192,69648,1,0,0:0:0:0:
256,192,69991,1,0,0:0:0:0:
256,192,70334,1,0,0:0:0:0:
256,192,70677,1,0,0:0:0:0:
256,192,71019,1,0,0:0:0:0:
256,192,71362,1,0,0:0:0:0:
256,192,71705,1,0,0:0:0:0:
256,192,72048,1,0,0:0:0:0:
256,192,72391,1,0,0:0:0:0:
256,192,72734,1,0,0:0:0:0:
256,192,72905,1,0,0:0:0:0:
256,192,73077,1,0,0:0:0:0:
256,192,73248,1,0,0:0:0:0:
256,192,73419,1,0,0:0:0:0:
256,192,73591,1,0,0:0:0:0:
256,192,73762,1,0,0:0:0:0:
256,192,73934,1,0,0:0:0:0:
256,192,74105,1,0,0:0:0:0:
256,192,74277,1,0,0:0:0:0:
256,192,74448,1,0,0:0:0:0:
256,192,74619,1,0,0:0:0:0:
256,192,74791,1,0,0:0:0:0:
256,192,74962,1,0,0:0:0:0:
256,192,75134,1,0,0:0:0:0:
256,192,75305,1,0,0:0:0:0:
256,192,75477,1,0,0:0:0:0:
256,192,75562,1,0,0:0:0:0:
256,192,75648,1,0,0:0:0:0:
256,192,75734,1,0,0:0:0:0:
256,192,75819,1,8,0:0:0:0:
256,192,75905,1,8,0:0:0:0:
256,192,75991,1,8,0:0:0:0:
256,192,76077,1,8,0:0:0:0:
256,192,76162,1,0,0:0:0:0:
256,192,76248,1,0,0:0:0:0:
256,192,76334,1,0,0:0:0:0:
256,192,76419,1,0,0:0:0:0:
256,192,76505,1,8,0:0:0:0:
256,192,76591,1,0,0:0:0:0:
256,192,76677,1,8,0:0:0:0:
256,192,76762,1,8,0:0:0:0:
256,192,76848,1,0,0:0:0:0:
256,192,77705,1,0,0:0:0:0:
256,192,77791,1,0,0:0:0:0:
256,192,77877,1,8,0:0:0:0:
256,192,78219,1,0,0:0:0:0:
256,192,78305,1,0,0:0:0:0:
256,192,78391,1,0,0:0:0:0:
256,192,78477,1,0,0:0:0:0:
256,192,78562,1,0,0:0:0:0:
256,192,78734,1,0,0:0:0:0:
256,192,78905,1,8,0:0:0:0:
256,192,78991,1,8,0:0:0:0:
256,192,79077,1,8,0:0:0:0:
256,192,79248,1,0,0:0:0:0:
256,192,79334,1,8,0:0:0:0:
256,192,79419,1,0,0:0:0:0:
256,192,79505,1,0,0:0:0:0:
256,192,79591,1,8,0:0:0:0:
256,192,79677,1,0,0:0:0:0:
256,192,79762,1,0,0:0:0:0:
256,192,79848,1,0,0:0:0:0:
256,192,79934,1,8,0:0:0:0:
256,192,80105,1,0,0:0:0:0:
256,192,80191,1,0,0:0:0:0:
256,192,80277,1,8,0:0:0:0:
256,192,80362,1,0,0:0:0:0:
256,192,80448,1,0,0:0:0:0:
256,192,80534,1,0,0:0:0:0:
256,192,80619,1,8,0:0:0:0:
256,192,80705,1,0,0:0:0:0:
256,192,80791,1,8,0:0:0:0:
256,192,80877,1,8,0:0:0:0:
256,192,80962,1,0,0:0:0:0:
256,192,81048,1,0,0:0:0:0:
256,192,81134,1,0,0:0:0:0:
256,192,81305,1,8,0:0:0:0:
256,192,81391,1,8,0:0:0:0:
256,192,81477,1,0,0:0:0:0:
256,192,81562,1,0,0:0:0:0:
256,192,81648,1,8,0:0:0:0:
256,192,81734,1,0,0:0:0:0:
256,192,81819,1,0,0:0:0:0:
256,192,81991,1,0,0:0:0:0:
256,192,82077,1,8,0:0:0:0:
256,192,82162,1,8,0:0:0:0:
256,192,82248,1,8,0:0:0:0:
256,192,82334,1,0,0:0:0:0:
256,192,82419,1,8,0:0:0:0:
256,192,82505,1,8,0:0:0:0:
256,192,82677,1,0,0:0:0:0:
256,192,82762,1,0,0:0:0:0:
256,192,82848,1,0,0:0:0:0:
256,192,82934,1,0,0:0:0:0:
256,192,83019,1,8,0:0:0:0:
256,192,83105,1,8,0:0:0:0:
256,192,83191,1,0,0:0:0:0:
256,192,83277,1,0,0:0:0:0:
256,192,83362,1,8,0:0:0:0:
256,192,83705,1,0,0:0:0:0:
256,192,83791,1,0,0:0:0:0:
256,192,83877,1,0,0:0:0:0:
256,192,83962,1,0,0:0:0:0:
256,192,84048,1,8,0:0:0:0:
256,192,84219,1,0,0:0:0:0:
256,192,84391,1,8,0:0:0:0:
256,192,84734,1,0,0:0:0:0:
256,192,84819,1,0,0:0:0:0:
256,192,84905,1,8,0:0:0:0:
256,192,84991,1,8,0:0:0:0:
256,192,85077,1,0,0:0:0:0:
256,192,85162,1,0,0:0:0:0:
256,192,85248,1,8,0:0:0:0:
256,192,85334,1,8,0:0:0:0:
256,192,85419,1,8,0:0:0:0:
256,192,85591,1,0,0:0:0:0:
256,192,85677,1,0,0:0:0:0:
256,192,85762,1,8,0:0:0:0:
256,192,85934,1,8,0:0:0:0:
256,192,86019,1,8,0:0:0:0:
256,192,86105,1,0,0:0:0:0:
256,192,86277,1,8,0:0:0:0:
256,192,86448,1,0,0:0:0:0:
256,192,86619,1,0,0:0:0:0:
256,192,86705,1,0,0:0:0:0:
256,192,86791,1,0,0:0:0:0:
256,192,86877,1,0,0:0:0:0:
256,192,86962,1,8,0:0:0:0:
256,192,87048,1,8,0:0:0:0:
256,192,87134,1,0,0:0:0:0:
256,192,87305,1,8,0:0:0:0:
256,192,87391,1,8,0:0:0:0:
256,192,87477,1,0,0:0:0:0:
256,192,87648,1,0,0:0:0:0:
256,192,87734,1,0,0:0:0:0:
256,192,87819,1,8,0:0:0:0:
256,192,87905,1,0,0:0:0:0:
256,192,87991,1,0,0:0:0:0:
256,192,88077,1,0,0:0:0:0:
256,192,88162,1,8,0:0:0:0:
256,192,88248,1,0,0:0:0:0:
256,192,88334,1,8,0:0:0:0:
256,192,88419,1,8,0:0:0:0:
256,192,88505,1,0,0:0:0:0:
256,192,88677,1,8,0:0:0:0:
256,192,88762,1,0,0:0:0:0:
256,192,88848,1,0,0:0:0:0:
256,192,89019,1,8,0:0:0:0:
256,192,89191,1,0,0:0:0:0:
256,192,89277,1,0,0:0:0:0:
256,192,89362,1,0,0:0:0:0:
256,192,89448,1,0,0:0:0:0:
256,192,89534,1,0,0:0:0:0:
256,192,89705,1,0,0:0:0:0:
256,192,89791,1,0,0:0:0:0:
256,192,89877,1,8,0:0:0:0:
256,192,89962,1,8,0:0:0:0:
256,192,90048,1,8,0:0:0:0:
256,192,90134,1,8,0:0:0:0:
256,192,90219,1,0,0:0:0:0:
256,192,90305,1,8,0:0:0:0:
256,192,90391,1,0,0:0:0:0:
256,192,90562,1,8,0:0:0:0:
256,192,90648,1,8,0:0:0:0:
256,192,90734,1,0,0:0:0:0:
256,192,90905,1,8,0:0:0:0:
256,192,90991,1,8,0:0:0:0:
256,192,91077,1,8,0:0:0:0:
256,192,91162,1,8,0:0:0:0:
256,192,91248,1,0,0:0:0:0:
256,192,91334,1,0,0:0:0:0:
256,192,91419,1,0,0:0:0:0:
256,192,91505,1,0,0:0:0:0:
256,192,91591,1,8,0:0:0:0:
256,192,91762,1,0,0:0:0:0:
256,192,91848,1,0,0:0:0:0:
256,192,91934,1,8,0:0:0:0:
256,192,92019,1,0,0:0:0:0:
256,192,92105,1,0,0:0:0:0:
256,192,92191,1,0,0:0:0:0:
256,192,92277,1,8,0:0:0:0:
256,192,92362,1,8,0:0:0:0:
256,192,92448,1,0,0:0:0:0:
256,192,92619,1,8,0:0:0:0:
256,192,92705,1,0,0:0:0:0:
256,192,92962,1,0,0:0:0:0:
256,192,93048,1,0,0:0:0:0:
256,192,93134,1,8,0:0:0:0:
256,192,93219,1,0,0:0:0:0:
256,192,93305,1,8,0:0:0:0:
256,192,93391,1,8,0:0:0:0:
256,192,93477,1,0,0:0:0:0:
256,192,93562,1,0,0:0:0:0:
256,192,93648,1,0,0:0:0:0:
256,192,93819,1,0,0:0:0:0:
256,192,93905,1,0,0:0:0:0:
256,192,93991,1,8,0:0:0:0:
256,192,94077,1,0,0:0:0:0:
256,192,94162,1,0,0:0:0:0:
256,192,94248,1,0,0:0:0:0:
256,192,94334,1,8,0:0:0:0:
256,192,94419,1,8,0:0:0:0:
256,192,94505,1,8,0:0:0:0:
256,192,94591,1,8,0:0:0:0:
256,192,94677,1,0,0:0:0:0:
256,192,95019,1,0,0:0:0:0:
256,192,95105,1,0,0:0:0:0:
256,192,95191,1,0,0:0:0:0:
256,192,95277,1,0,0:0:0:0:
256,192,95362,1,8,0:0:0:0:
256,192,95705,1,0,0:0:0:0:
256,192,95791,1,0,0:0:0:0:
256,192,95877,1,0,0:0:0:0:
256,192,96048,1,0,0:0:0:0:
256,192,96134,1,0,0:0:0:0:
256,192,96219,1,8,0:0:0:0:
256,192,96305,1,0,0:0:0:0:
256,192,96391,1,8,0:0:0:0:
256,192,96477,1,0,0:0:0:0:
256,192,96562,1,8,0:0:0:0:
256,192,96648,1,8,0:0:0:0:
256,192,96734,1,8,0:0:0:0:
256,192,96905,1,0,0:0:0:0:
256,192,96991,1,0,0:0:0:0:
256,192,97077,1,0,0:0:0:0:
256,192,97162,1,8,0:0:0:0:
256,192,97248,1,0,0:0:0:0:
256,192,97419,1,0,0:0:0:0:
256,192,97505,1,0,0:0:0:0:
256,192,97591,1,0,0:0:0:0:
256,192,97762,1,8,0:0:0:0:
256,192,97934,1,0,0:0:0:0:
256,192,98019,1,0,0:0:0:0:
256,192,98105,1,8,0:0:0:0:
256,192,98277,1,0,0:0:0:0:
256,192,98448,1,8,0:0:0:0:
256,192,98619,1,0,0:0:0:0:
256,192,98791,1,8,0:0:0:0:
256,192,98877,1,0,0:0:0:0:
256,192,98962,1,0,0:0:0:0:
256,192,99048,1,0,0:0:0:0:
256,192,99134,1,8,0:0:0:0:
256,192,99219,1,0,0:0:0:0:
256,192,99305,1,0,0:0:0:0:
256,192,99391,1,0,0:0:0:0:
256,192,99477,1,8,0:0:0:0:
256,192,99648,1,0,0:0:0:0:
256,192,99734,1,0,0:0:0:0:
256,192,99819,1,8,0:0:0:0:
256,192,99905,1,0,0:0:0:0:
256,192,99991,1,8,0:0:0:0:
256,192,100077,1,8,0:0:0:0:
256,192,100162,1,0,0:0:0:0:
256,192,100334,1,8,0:0:0:0:
256,192,100419,1,8,0:0:0:0:
256,192,100505,1,0,0:0:0:0:
256,192,100591,1,0,0:0:0:0:
256,192,100677,1,0,0:0:0:0:
256,192,100848,1,8,0:0:0:0:
256,192,100934,1,8,0:0:0:0:
256,192,101019,1,8,0:0:0:0:
256,192,101191,1,0,0:0:0:0:
256,192,101277,1,0,0:0:0:0:
256,192,101362,1,8,0:0:0:0:
256,192,101448,1,8,0:0:0:0:
256,192,101534,1,8,0:0:0:0:
256,192,101619,1,8,0:0:0:0:
256,192,101705,1,8,0:0:0:0:
256,192,101791,1,0,0:0:0:0:
256,192,101877,1,0,0:0:0:0:
256,192,102048,1,0,0:0:0:0:
256,192,102134,1,0,0:0:0:0:
256,192,102219,1,8,0:0:0:0:
256,192,102391,1,0,0:0:0:0:
256,192,102477,1,8,0:0:0:0:
256,192,102562,1,0,0:0:0:0:
256,192,102648,1,8,0:0:0:0:
256,192,102734,1,0,0:0:0:0:
256,192,102905,1,8,0:0:0:0:
256,192,102991,1,8,0:0:0:0:
256,192,103077,1,8,0:0:0:0:
256,192,103162,1,8,0:0:0:0:
256,192,103248,1,0,0:0:0:0:
256,192,103334,1,0,0:0:0:0:
256,192,103419,1,0,0:0:0:0:
256,192,103505,1,0,0:0:0:0:
256,192,103591,1,8,0:0:0:0:
256,192,103677,1,0,0:0:0:0:
256,192,103762,1,8,0:0:0:0:
256,192,103934,1,8,0:0:0:0:
256,192,104019,1,0,0:0:0:0:
256,192,104105,1,8,0:0:0:0:
256,192,104191,1,0,0:0:0:0:
256,192,104277,1,8,0:0:0:0:
256,192,104362,1,0,0:0:0:0:
256,192,104448,1,0,0:0:0:0:
256,192,104534,1,0,0:0:0:0:
256,192,104619,1,0,0:0:0:0:
256,192,104791,1,0,0:0:0:0:
256,192,104877,1,0,0:0:0:0:
256,192,104962,1,8,0:0:0:0:
256,192,105134,1,0,0:0:0:0:
256,192,105305,1,8,0:0:0:0:
256,192,105391,1,8,0:0:0:0:
256,192,105477,1,8,0:0:0:0:
256,192,105562,1,8,0:0:0:0:
256,192,105648,1,0,0:0:0:0:
256,192,105819,1,0,0:0:0:0:
256,192,105905,1,0,0:0:0:0:
256,192,105991,1,0,0:0:0:0:
256,192,106162,1,0,0:0:0:0:
256,192,106248,1,0,0:0:0:0:
256,192,106334,1,8,0:0:0:0:
256,192,106419,1,0,0:0:0:0:
256,192,106505,1,0,0:0:0:0:
256,192,106591,1,8,0:0:0:0:
256,192,106677,1,0,0:0:0:0:
256,192,106848,1,0,0:0:0:0:
256,192,106934,1,0,0:0:0:0:
256,192,107019,1,8,0:0:0:0:
256,192,107105,1,8,0:0:0:0:
256,192,107191,1,0,0:0:0:0:
256,192,107277,1,0,0:0:0:0:
256,192,107362,1,0,0:0:0:0:
256,192,107534,1,0,0:0:0:0:
256,192,107619,1,0,0:0:0:0:
256,192,107705,1,8,0:0:0:0:
256,192,107877,1,0,0:0:0:0:
256,192,107962,1,8,0:0:0:0:
256,192,108048,1,0,0:0:0:0:
256,192,108134,1,8,0:0:0:0:
256,192,108219,1,8,0:0:0:0:
256,192,108391,1,8,0:0:0:0:
256,192,108477,1,0,0:0:0:0:
256,192,108562,1,0,0:0:0:0:
256,192,108648,1,0,0:0:0:0:
256,192,108734,1,8,0:0:0:0:
256,192,108819,1,0,0:0:0:0:
256,192,108905,1,0,0:0:0:0:
256,192,109077,1,8,0:0:0:0:
256,192,109162,1,0,0:0:0:0:
256,192,109248,1,8,0:0:0:0:
256,192,109334,1,8,0:0:0:0:
256,192,109419,1,0,0:0:0:0:
256,192,109591,1,0,0:0:0:0:
256,192,109677,1,0,0:0:0:0:
256,192,109762,1,8,0:0:0:0:
256,192,109848,1,8,0:0:0:0:
256,192,109934,1,0,0:0:0:0:
256,192,110019,1,8,0:0:0:0:
256,192,110105,1,0,0:0:0:0:
256,192,110277,1,0,0:0:0:0:
256,192,110448,1,8,0:0:0:0:
256,192,110619,1,0,0:0:0:0:
256,192,110705,1,8,0:0:0:0:
256,192,110877,1,0,0:0:0:0:
256,192,110962,1,8,0:0:0:0:
256,192,111134,1,0,0:0:0:0:
256,192,111219,1,0,0:0:0:0:
256,192,111305,1,8,0:0:0:0:
256,192,111391,1,8,0:0:0:0:
256,192,111477,1,8,0:0:0:0:
256,192,111562,1,0,0:0:0:0:
256,192,111648,1,0,0:0:0:0:
256,192,111819,1,8,0:0:0:0:
256,192,111905,1,0,0:0:0:0:
256,192,111991,1,0,0:0:0:0:
256,192,112162,1,0,0:0:0:0:
256,192,112248,1,0,0:0:0:0:
256,192,112334,1,0,0:0:0:0:
256,192,112419,1,0,0:0:0:0:
256,192,112505,1,8,0:0:0:0:
256,192,112591,1,0,0:0:0:0:
256,192,112677,1,8,0:0:0:0:
256,192,112762,1,8,0:0:0:0:
256,192,112848,1,0,0:0:0:0:
256,192,113019,1,0,0:0:0:0:
256,192,113105,1,0,0:0:0:0:
256,192,113191,1,8,0:0:0:0:
256,192,113362,1,0,0:0:0:0:
256,192,113448,1,8,0:0:0:0:
256,192,113534,1,0,0:0:0:0:
256,192,113619,1,8,0:0:0:0:
256,192,113705,1,0,0:0:0:0:
256,192,113791,1,0,0:0:0:0:
256,192,113877,1,8,0:0:0:0:
256,192,114048,1,8,0:0:0:0:
256,192,114134,1,8,0:0:0:0:
256,192,114219,1,0,0:0:0:0:
256,192,114305,1,0,0:0:0:0:
256,192,114391,1,0,0:0:0:0:
256,192,114562,1,8,0:0:0:0:
256,192,114648,1,0,0:0:0:0:
256,192,114905,1,0,0:0:0:0:
256,192,114991,1,0,0:0:0:0:
256,192,115077,1,8,0:0:0:0:
256,192,115162,1,8,0:0:0:0:
256,192,115248,1,0,0:0:0:0:
256,192,115334,1,8,0:0:0:0:
256,192,115419,1,8,0:0:0:0:
256,192,115505,1,0,0:0:0:0:
256,192,115591,1,0,0:0:0:0:
256,192,115762,1,0,0:0:0:0:
256,192,115934,1,8,0:0:0:0:
256,192,116105,1,0,0:0:0:0:
256,192,116191,1,0,0:0:0:0:
256,192,116277,1,8,0:0:0:0:
256,192,116448,1,0,0:0:0:0:
256,192,116534,1,0,0:0:0:0:
256,192,116619,1,8,0:0:0:0:
256,192,116705,1,8,0:0:0:0:
256,192,116791,1,0,0:0:0:0:
256,192,116877,1,0,0:0:0:0:
256,192,116962,1,8,0:0:0:0:
256,192,117134,1,0,0:0:0:0:
256,192,117305,1,8,0:0:0:0:
256,192,117477,1,0,0:0:0:0:
256,192,117562,1,0,0:0:0:0:
256,192,117648,1,0,0:0:0:0:
256,192,117819,1,0,0:0:0:0:
256,192,117905,1,0,0:0:0:0:
256,192,117991,1,8,0:0:0:0:
256,192,118077,1,8,0:0:0:0:
256,192,118162,1,8,0:0:0:0:
256,192,118248,1,0,0:0:0:0:
256,192,118334,1,0,0:0:0:0:
256,192,118505,1,0,0:0:0:0:
256,192,118591,1,0,0:0:0:0:
256,192,118677,1,8,0:0:0:0:
256,192,118848,1,0,0:0:0:0:
256,192,119019,1,8,0:0:0:0:
256,192,119105,1,8,0:0:0:0:
256,192,119191,1,0,0:0:0:0:
256,192,119277,1,8,0:0:0:0:
256,192,119362,1,0,0:0:0:0:
256,192,119534,1,8,0:0:0:0:
256,192,119619,1,0,0:0:0:0:
256,192,119705,1,0,0:0:0:0:
256,192,119877,1,0,0:0:0:0:
256,192,119962,1,0,0:0:0:0:
256,192,120048,1,8,0:0:0:0:
256,192,120134,1,0,0:0:0:0:
256,192,120219,1,0,0:0:0:0:
256,192,120391,1,0,0:0:0:0:
256,192,120477,1,0,0:0:0:0:
256,192,120562,1,0,0:0:0:0:
256,192,120648,1,8,0:0:0:0:
256,192,120734,1,8,0:0:0:0:
256,192,120819,1,8,0:0:0:0:
256,192,120905,1,0,0:0:0:0:
256,192,120991,1,0,0:0:0:0:
256,192,121077,1,0,0:0:0:0:
256,192,121248,1,0,0:0:0:0:
256,192,121334,1,0,0:0:0:0:
256,192,121419,1,8,0:0:0:0:
256,192,121591,1,8,0:0:0:0:
256,192,121762,1,8,0:0:0:0:
256,192,121848,1,0,0:0:0:0:
256,192,121934,1,0,0:0:0:0:
256,192,122019,1,0,0:0:0:0:
256,192,122105,1,0,0:0:0:0:
256,192,122619,1,0,0:0:0:0:
256,192,122791,1,8,0:0:0:0:
256,192,123134,1,0,0:0:0:0:
256,192,123991,1,0,0:0:0:0:
256,192,124077,1,0,0:0:0:0:
256,192,124162,1,8,0:0:0:0:
256,192,124848,1,0,0:0:0:0:
256,192,125362,1,0,0:0:0:0:
256,192,125534,1,8,0:0:0:0:
256,192,125619,1,0,0:0:0:0:
256,192,125877,1,0,0:0:0:0:
256,192,126562,1,0,0:0:0:0:
256,192,126734,1,0,0:0:0:0:
256,192,126819,1,0,0:0:0:0:
256,192,126905,1,8,0:0:0:0:
256,192,127077,1,0,0:0:0:0:
256,192,127248,1,8,0:0:0:0:
256,192,127591,1,0,0:0:0:0:
256,192,128105,1,0,0:0:0:0:
256,192,128277,1,8,0:0:0:0:
256,192,128619,1,0,0:0:0:0:
256,192,129477,1,0,0:0:0:0:
256,192,129562,1,0,0:0:0:0:
256,192,129648,1,8,0:0:0:0:
256,192,129819,1,0,0:0:0:0:
256,192,130334,1,0,0:0:0:0:
256,192,130677,1,0,0:0:0:0:
256,192,130848,1,0,0:0:0:0:
256,192,131019,1,8,0:0:0:0:
256,192,131362,1,0,0:0:0:0:
256,192,132219,1,0,0:0:0:0:
256,192,132305,1,0,0:0:0:0:
256,192,132391,1,8,0:0:0:0:
256,192,132562,1,0,0:0:0:0:
256,192,132648,1,8,0:0:0:0:
256,192,132905,1,8,0:0:0:0:
256,192,133077,1,4,0:0:0:0:
256,192,133591,1,0,0:0:0:0:
256,192,133762,1,8,0:0:0:0:
256,192,134105,1,0,0:0:0:0:
256,192,134962,1,0,0:0:0:0:
256,192,135048,1,0,0:0:0:0:
256,192,135134,1,8,0:0:0:0:
256,192,135305,1,0,0:0:0:0:
256,192,135819,1,0,0:0:0:0:
256,192,136162,1,0,0:0:0:0:
256,192,136334,1,0,0:0:0:0:
256,192,136505,1,8,0:0:0:0:
256,192,136591,1,0,0:0:0:0:
256,192,136848,1,0,0:0:0:0:
256,192,137534,1,0,0:0:0:0:
256,192,137705,1,0,0:0:0:0:
256,192,137791,1,0,0:0:0:0:
256,192,137877,1,8,0:0:0:0:
256,192,138048,1,0,0:0:0:0:
256,192,138219,1,8,0:0:0:0:
256,192,138562,1,0,0:0:0:0:
256,192,139077,1,0,0:0:0:0:
256,192,139248,1,8,0:0:0:0:
256,192,139591,1,0,0:0:0:0:
256,192,140448,1,0,0:0:0:0:
256,192,140534,1,0,0:0:0:0:
256,192,140619,1,8,0:0:0:0:
256,192,141305,1,0,0:0:0:0:
256,192,141819,1,0,0:0:0:0:
256,192,141991,1,8,0:0:0:0:
256,192,142334,1,0,0:0:0:0:
256,192,143019,1,0,0:0:0:0:
256,192,143191,1,0,0:0:0:0:
256,192,143362,1,8,0:0:0:0:
256,192,143534,1,0,0:0:0:0:
256,192,143619,1,8,0:0:0:0:
256,192,143877,1,8,0:0:0:0:
256,192,144048,1,4,0:0:0:0:
256,192,144562,1,8,0:0:0:0:
256,192,144734,1,0,0:0:0:0:
256,192,144905,1,8,0:0:0:0:
256,192,145077,1,8,0:0:0:0:
256,192,145419,1,0,0:0:0:0:
256,192,146105,1,0,0:0:0:0:
256,192,146791,1,0,0:0:0:0:
256,192,147305,1,8,0:0:0:0:
256,192,147477,1,0,0:0:0:0:
256,192,147648,1,8,0:0:0:0:
256,192,147819,1,8,0:0:0:0:
256,192,148162,1,0,0:0:0:0:
256,192,148848,1,0,0:0:0:0:
256,192,149534,1,0,0:0:0:0:
256,192,150048,1,8,0:0:0:0:
256,192,150219,1,0,0:0:0:0:
256,192,150391,1,8,0:0:0:0:
256,192,150562,1,8,0:0:0:0:
256,192,150734,1,8,0:0:0:0:
256,192,150905,1,0,0:0:0:0:
256,192,151591,1,0,0:0:0:0:
256,192,152277,1,0,0:0:0:0:
256,192,152791,1,8,0:0:0:0:
256,192,152962,1,0,0:0:0:0:
256,192,153134,1,8,0:0:0:0:
256,192,153305,1,8,0:0:0:0:
256,192,153477,1,8,0:0:0:0:
256,192,153648,1,0,0:0:0:0:
256,192,154334,1,0,0:0:0:0:
256,192,155019,1,0,0:0:0:0:
256,192,155362,1,0,0:0:0:0:
256,192,155534,1,8,0:0:0:0:
256,192,155705,1,0,0:0:0:0:
256,192,155877,1,8,0:0:0:0:
256,192,156048,1,0,0:0:0:0:
256,192,156219,1,8,0:0:0:0:
256,192,156391,1,0,0:0:0:0:
256,192,156734,1,0,0:0:0:0:
256,192,157077,1,0,0:0:0:0:
256,192,157419,1,0,0:0:0:0:
256,192,157762,1,0,0:0:0:0:
256,192,158105,1,0,0:0:0:0:
256,192,158277,1,8,0:0:0:0:
256,192,158448,1,0,0:0:0:0:
256,192,158619,1,8,0:0:0:0:
256,192,158791,1,0,0:0:0:0:
256,192,158962,1,8,0:0:0:0:
256,192,159134,1,0,0:0:0:0:
256,192,159477,1,0,0:0:0:0:
256,192,159819,1,0,0:0:0:0:
256,192,160162,1,0,0:0:0:0:
256,192,160505,1,0,0:0:0:0:
256,192,160677,1,0,0:0:0:0:
256,192,160848,1,0,0:0:0:0:
256,192,161019,1,0,0:0:0:0:
256,192,161191,1,0,0:0:0:0:
256,192,161362,1,0,0:0:0:0:
256,192,161534,1,0,0:0:0:0:
256,192,161705,1,0,0:0:0:0:
256,192,161877,1,0,0:0:0:0:
256,192,162048,1,0,0:0:0:0:
256,192,162219,1,0,0:0:0:0:
256,192,162391,1,0,0:0:0:0:
256,192,162562,1,0,0:0:0:0:
256,192,162734,1,0,0:0:0:0:
256,192,162905,1,0,0:0:0:0:
256,192,163077,1,0,0:0:0:0:
256,192,163248,1,0,0:0:0:0:
256,192,163334,1,0,0:0:0:0:
256,192,163419,1,0,0:0:0:0:
256,192,163505,1,0,0:0:0:0:
256,192,163591,1,0,0:0:0:0:
256,192,163677,1,0,0:0:0:0:
256,192,163762,1,0,0:0:0:0:
256,192,163848,1,0,0:0:0:0:
256,192,163934,1,0,0:0:0:0:
256,192,164019,1,0,0:0:0:0:
256,192,164105,1,0,0:0:0:0:
256,192,164191,1,0,0:0:0:0:
256,192,164277,1,8,0:0:0:0:
256,192,164362,1,8,0:0:0:0:
256,192,164448,1,8,0:0:0:0:
256,192,164534,1,8,0:0:0:0:
256,192,164619,1,0,0:0:0:0:
256,192,165477,1,0,0:0:0:0:
256,192,165562,1,0,0:0:0:0:
256,192,165648,1,8,0:0:0:0:
256,192,165991,1,0,0:0:0:0:
256,192,166077,1,8,0:0:0:0:
256,192,166162,1,0,0:0:0:0:
256,192,166334,1,0,0:0:0:0:
256,192,166419,1,0,0:0:0:0:
256,192,166505,1,0,0:0:0:0:
256,192,166591,1,0,0:0:0:0:
256,192,166677,1,8,0:0:0:0:
256,192,166762,1,0,0:0:0:0:
256,192,166848,1,0,0:0:0:0:
256,192,166934,1,8,0:0:0:0:
256,192,167019,1,0,0:0:0:0:
256,192,167191,1,8,0:0:0:0:
256,192,167277,1,0,0:0:0:0:
256,192,167362,1,8,0:0:0:0:
256,192,167448,1,0,0:0:0:0:
256,192,167534,1,0,0:0:0:0:
256,192,167619,1,8,0:0:0:0:
256,192,167705,1,0,0:0:0:0:
256,192,167877,1,0,0:0:0:0:
256,192,167962,1,0,0:0:0:0:
256,192,168048,1,8,0:0:0:0:
256,192,168219,1,0,0:0:0:0:
256,192,168305,1,0,0:0:0:0:
256,192,168391,1,8,0:0:0:0:
256,192,168477,1,8,0:0:0:0:
256,192,168562,1,8,0:0:0:0:
256,192,168734,1,0,0:0:0:0:
256,192,168819,1,0,0:0:0:0:
256,192,168905,1,8,0:0:0:0:
256,192,168991,1,8,0:0:0:0:
256,192,169077,1,8,0:0:0:0:
256,192,169162,1,8,0:0:0:0:
256,192,169248,1,0,0:0:0:0:
256,192,169419,1,8,0:0:0:0:
256,192,169505,1,0,0:0:0:0:
256,192,169591,1,8,0:0:0:0:
256,192,169677,1,8,0:0:0:0:
256,192,169762,1,0,0:0:0:0:
256,192,169934,1,8,0:0:0:0:
256,192,170019,1,0,0:0:0:0:
256,192,170105,1,0,0:0:0:0:
256,192,170191,1,0,0:0:0:0:
256,192,170277,1,8,0:0:0:0:
256,192,170362,1,0,0:0:0:0:
256,192,170448,1,8,0:0:0:0:
256,192,170534,1,0,0:0:0:0:
256,192,170619,1,8,0:0:0:0:
256,192,170705,1,0,0:0:0:0:
256,192,170791,1,8,0:0:0:0:
256,192,170962,1,0,0:0:0:0:
256,192,171134,1,8,0:0:0:0:
256,192,171305,1,8,0:0:0:0:
256,192,171391,1,8,0:0:0:0:
256,192,171477,1,0,0:0:0:0:
256,192,171562,1,8,0:0:0:0:
256,192,171648,1,8,0:0:0:0:
256,192,171734,1,8,0:0:0:0:
256,192,171819,1,8,0:0:0:0:
256,192,171905,1,8,0:0:0:0:
256,192,171991,1,0,0:0:0:0:
256,192,172162,1,8,0:0:0:0:
256,192,172248,1,0,0:0:0:0:
256,192,172334,1,0,0:0:0:0:
256,192,172419,1,8,0:0:0:0:
256,192,172505,1,0,0:0:0:0:
256,192,172677,1,8,0:0:0:0:
256,192,172762,1,0,0:0:0:0:
256,192,172848,1,8,0:0:0:0:
256,192,172934,1,0,0:0:0:0:
256,192,173019,1,0,0:0:0:0:
256,192,173105,1,8,0:0:0:0:
256,192,173191,1,0,0:0:0:0:
256,192,173362,1,0,0:0:0:0:
256,192,173448,1,0,0:0:0:0:
256,192,173534,1,8,0:0:0:0:
256,192,173705,1,0,0:0:0:0:
256,192,173791,1,0,0:0:0:0:
256,192,173877,1,0,0:0:0:0:
256,192,173962,1,0,0:0:0:0:
256,192,174048,1,8,0:0:0:0:
256,192,174134,1,8,0:0:0:0:
256,192,174219,1,0,0:0:0:0:
256,192,174391,1,8,0:0:0:0:
256,192,174477,1,8,0:0:0:0:
256,192,174562,1,8,0:0:0:0:
256,192,174648,1,0,0:0:0:0:
256,192,174734,1,8,0:0:0:0:
256,192,174819,1,8,0:0:0:0:
256,192,174905,1,0,0:0:0:0:
256,192,175077,1,8,0:0:0:0:
256,192,175162,1,8,0:0:0:0:
256,192,175248,1,0,0:0:0:0:
256,192,175334,1,0,0:0:0:0:
256,192,175419,1,8,0:0:0:0:
256,192,175505,1,8,0:0:0:0:
256,192,175591,1,0,0:0:0:0:
256,192,175934,1,8,0:0:0:0:
256,192,176105,1,0,0:0:0:0:
256,192,176448,1,8,0:0:0:0:
256,192,176619,1,0,0:0:0:0:
256,192,176705,1,0,0:0:0:0:
256,192,176791,1,0,0:0:0:0:
256,192,176877,1,0,0:0:0:0:
256,192,176962,1,0,0:0:0:0:
256,192,177134,1,8,0:0:0:0:
256,192,177219,1,8,0:0:0:0:
256,192,177305,1,8,0:0:0:0:
256,192,177477,1,0,0:0:0:0:
256,192,177648,1,8,0:0:0:0:
256,192,177819,1,0,0:0:0:0:
256,192,177905,1,8,0:0:0:0:
256,192,177991,1,0,0:0:0:0:
256,192,178077,1,0,0:0:0:0:
256,192,178162,1,8,0:0:0:0:
256,192,178248,1,0,0:0:0:0:
256,192,178334,1,8,0:0:0:0:
256,192,178419,1,0,0:0:0:0:
256,192,178505,1,0,0:0:0:0:
256,192,178591,1,8,0:0:0:0:
256,192,178677,1,0,0:0:0:0:
256,192,178848,1,0,0:0:0:0:
256,192,178934,1,0,0:0:0:0:
256,192,179019,1,8,0:0:0:0:
256,192,179191,1,0,0:0:0:0:
256,192,179277,1,0,0:0:0:0:
256,192,179362,1,8,0:0:0:0:
256,192,179448,1,8,0:0:0:0:
256,192,179534,1,8,0:0:0:0:
256,192,179619,1,0,0:0:0:0:
256,192,179705,1,0,0:0:0:0:
256,192,179877,1,0,0:0:0:0:
256,192,179962,1,0,0:0:0:0:
256,192,180048,1,8,0:0:0:0:
256,192,180219,1,0,0:0:0:0:
256,192,180391,1,8,0:0:0:0:
256,192,180477,1,0,0:0:0:0:
256,192,180734,1,0,0:0:0:0:
256,192,180819,1,0,0:0:0:0:
256,192,180905,1,0,0:0:0:0:
256,192,180991,1,8,0:0:0:0:
256,192,181077,1,0,0:0:0:0:
256,192,181248,1,0,0:0:0:0:
256,192,181334,1,8,0:0:0:0:
256,192,181419,1,0,0:0:0:0:
256,192,181505,1,8,0:0:0:0:
256,192,181591,1,8,0:0:0:0:
256,192,181677,1,0,0:0:0:0:
256,192,181762,1,8,0:0:0:0:
256,192,181934,1,0,0:0:0:0:
256,192,182019,1,0,0:0:0:0:
256,192,182105,1,8,0:0:0:0:
256,192,182277,1,8,0:0:0:0:
256,192,182362,1,8,0:0:0:0:
256,192,182448,1,0,0:0:0:0:
256,192,182534,1,0,0:0:0:0:
256,192,182619,1,8,0:0:0:0:
256,192,182705,1,8,0:0:0:0:
256,192,182791,1,8,0:0:0:0:
256,192,182877,1,0,0:0:0:0:
256,192,182962,1,0,0:0:0:0:
256,192,183048,1,0,0:0:0:0:
256,192,183134,1,8,0:0:0:0:
256,192,183477,1,0,0:0:0:0:
256,192,183648,1,8,0:0:0:0:
256,192,183734,1,0,0:0:0:0:
256,192,183819,1,0,0:0:0:0:
256,192,183905,1,8,0:0:0:0:
256,192,183991,1,0,0:0:0:0:
256,192,184077,1,8,0:0:0:0:
256,192,184162,1,0,0:0:0:0:
256,192,184334,1,0,0:0:0:0:
256,192,184419,1,0,0:0:0:0:
256,192,184505,1,8,0:0:0:0:
256,192,184677,1,0,0:0:0:0:
256,192,184762,1,0,0:0:0:0:
256,192,184848,1,8,0:0:0:0:
256,192,184934,1,8,0:0:0:0:
256,192,185019,1,8,0:0:0:0:
256,192,185105,1,8,0:0:0:0:
256,192,185191,1,0,0:0:0:0:
256,192,185362,1,8,0:0:0:0:
256,192,185448,1,8,0:0:0:0:
256,192,185534,1,0,0:0:0:0:
256,192,185619,1,0,0:0:0:0:
256,192,185705,1,8,0:0:0:0:
256,192,185791,1,0,0:0:0:0:
256,192,185877,1,8,0:0:0:0:
256,192,185962,1,0,0:0:0:0:
256,192,186048,1,8,0:0:0:0:
256,192,186219,1,8,0:0:0:0:
256,192,186305,1,8,0:0:0:0:
256,192,186391,1,0,0:0:0:0:
256,192,186477,1,0,0:0:0:0:
256,192,186562,1,0,0:0:0:0:
256,192,186905,1,8,0:0:0:0:
256,192,186991,1,8,0:0:0:0:
256,192,187077,1,8,0:0:0:0:
256,192,187162,1,0,0:0:0:0:
256,192,187248,1,8,0:0:0:0:
256,192,187419,1,8,0:0:0:0:
256,192,187591,1,8,0:0:0:0:
256,192,187677,1,8,0:0:0:0:
256,192,187762,1,8,0:0:0:0:
256,192,187848,1,8,0:0:0:0:
256,192,187934,1,0,0:0:0:0:
256,192,190677,1,8,0:0:0:0:
256,192,192905,1,8,0:0:0:0:
256,192,193419,1,0,0:0:0:0:
256,192,195819,1,0,0:0:0:0:
256,192,196162,1,8,0:0:0:0:
256,192,197019,1,0,0:0:0:0:
256,192,197191,1,8,0:0:0:0:
256,192,198219,1,8,0:0:0:0:
256,192,198391,1,8,0:0:0:0:
256,192,198562,1,8,0:0:0:0:
256,192,198905,1,0,0:0:0:0:
256,192,199248,1,0,0:0:0:0:
256,192,199505,1,8,0:0:0:0:
256,192,199591,1,0,0:0:0:0:
256,192,199934,1,0,0:0:0:0:
256,192,200277,1,0,0:0:0:0:
256,192,200619,1,0,0:0:0:0:
256,192,200877,1,8,0:0:0:0:
256,192,200962,1,0,0:0:0:0:
256,192,201305,1,0,0:0:0:0:
256,192,201648,1,0,0:0:0:0:
256,192,201991,1,0,0:0:0:0:
256,192,202248,1,8,0:0:0:0:
256,192,202334,1,0,0:0:0:0:
256,192,202677,1,0,0:0:0:0:
256,192,203019,1,0,0:0:0:0:
256,192,203362,1,0,0:0:0:0:
256,192,203619,1,8,0:0:0:0:
256,192,203705,1,0,0:0:0:0:
256,192,204048,1,0,0:0:0:0:
256,192,204391,1,0,0:0:0:0:
256,192,204562,1,0,0:0:0:0:
256,192,204734,1,0,0:0:0:0:
256,192,204905,1,0,0:0:0:0:
256,192,205077,1,0,0:0:0:0:
256,192,205248,1,0,0:0:0:0:
256,192,205419,1,0,0:0:0:0:
256,192,205591,1,0,0:0:0:0:
256,192,205762,1,0,0:0:0:0:
256,192,205934,1,0,0:0:0:0:
256,192,206105,1,0,0:0:0:0:
256,192,206277,1,0,0:0:0:0:
256,192,206448,1,0,0:0:0:0:
256,192,206619,1,0,0:0:0:0:
256,192,206791,1,0,0:0:0:0:
256,192,206962,1,0,0:0:0:0:
256,192,207134,1,0,0:0:0:0:
256,192,207219,1,0,0:0:0:0:
256,192,207305,1,0,0:0:0:0:
256,192,207391,1,0,0:0:0:0:
256,192,207477,1,8,0:0:0:0:
256,192,207562,1,8,0:0:0:0:
256,192,207648,1,8,0:0:0:0:
256,192,207734,1,8,0:0:0:0:
256,192,207819,1,0,0:0:0:0:
256,192,207905,1,0,0:0:0:0:
256,192,207991,1,0,0:0:0:0:
256,192,208077,1,0,0:0:0:0:
256,192,208162,1,8,0:0:0:0:
256,192,208248,1,0,0:0:0:0:
256,192,208334,1,0,0:0:0:0:
256,192,208419,1,0,0:0:0:0:
256,192,208505,1,8,0:0:0:0:
256,192,208762,1,12,0:0:0:0:
256,192,209019,1,12,0:0:0:0:
256,192,209191,1,4,0:0:0:0:
256,192,209877,1,0,0:0:0:0:
256,192,209962,1,0,0:0:0:0:
256,192,210048,1,0,0:0:0:0:
256,192,210134,1,0,0:0:0:0:
256,192,210219,1,0,0:0:0:0:
256,192,210391,1,0,0:0:0:0:
256,192,210562,1,8,0:0:0:0:
256,192,210734,1,8,0:0:0:0:
256,192,210819,1,8,0:0:0:0:
256,192,210905,1,0,0:0:0:0:
256,192,210991,1,0,0:0:0:0:
256,192,211077,1,8,0:0:0:0:
256,192,211162,1,8,0:0:0:0:
256,192,211248,1,8,0:0:0:0:
256,192,211419,1,0,0:0:0:0:
256,192,211505,1,0,0:0:0:0:
256,192,211591,1,0,0:0:0:0:
256,192,211762,1,0,0:0:0:0:
256,192,211848,1,0,0:0:0:0:
256,192,211934,1,8,0:0:0:0:
256,192,212105,1,0,0:0:0:0:
256,192,212191,1,0,0:0:0:0:
256,192,212277,1,8,0:0:0:0:
256,192,212362,1,0,0:0:0:0:
256,192,212448,1,8,0:0:0:0:
256,192,212534,1,8,0:0:0:0:
256,192,212619,1,0,0:0:0:0:
256,192,212705,1,0,0:0:0:0:
256,192,212791,1,0,0:0:0:0:
256,192,212962,1,8,0:0:0:0:
256,192,213134,1,0,0:0:0:0:
256,192,213305,1,8,0:0:0:0:
256,192,213391,1,0,0:0:0:0:
256,192,213648,1,0,0:0:0:0:
256,192,213734,1,8,0:0:0:0:
256,192,213820,1,8,0:0:0:0:
256,192,213906,1,8,0:0:0:0:
256,192,213991,1,0,0:0:0:0:
256,192,214162,1,0,0:0:0:0:
256,192,214248,1,0,0:0:0:0:
256,192,214334,1,0,0:0:0:0:
256,192,214505,1,0,0:0:0:0:
256,192,214677,1,8,0:0:0:0:
256,192,214848,1,0,0:0:0:0:
256,192,215019,1,8,0:0:0:0:
256,192,215191,1,8,0:0:0:0:
256,192,215277,1,8,0:0:0:0:
256,192,215362,1,0,0:0:0:0:
256,192,215448,1,8,0:0:0:0:
256,192,215534,1,8,0:0:0:0:
256,192,215619,1,8,0:0:0:0:
256,192,215705,1,0,0:0:0:0:
256,192,215877,1,0,0:0:0:0:
256,192,216048,1,8,0:0:0:0:
256,192,216219,1,0,0:0:0:0:
256,192,216305,1,0,0:0:0:0:
256,192,216391,1,0,0:0:0:0:
256,192,216562,1,8,0:0:0:0:
256,192,216648,1,0,0:0:0:0:
256,192,216734,1,8,0:0:0:0:
256,192,216905,1,8,0:0:0:0:
256,192,216991,1,8,0:0:0:0:
256,192,217077,1,0,0:0:0:0:
256,192,217162,1,0,0:0:0:0:
256,192,217248,1,0,0:0:0:0:
256,192,217334,1,0,0:0:0:0:
256,192,217419,1,8,0:0:0:0:
256,192,217591,1,0,0:0:0:0:
256,192,217677,1,0,0:0:0:0:
256,192,217762,1,8,0:0:0:0:
256,192,217848,1,0,0:0:0:0:
256,192,217934,1,0,0:0:0:0:
256,192,218105,1,0,0:0:0:0:
256,192,218277,1,0,0:0:0:0:
256,192,218362,1,0,0:0:0:0:
256,192,218448,1,0,0:0:0:0:
256,192,218534,1,0,0:0:0:0:
256,192,218619,1,8,0:0:0:0:
256,192,218791,1,0,0:0:0:0:
256,192,218877,1,8,0:0:0:0:
256,192,218962,1,0,0:0:0:0:
256,192,219134,1,0,0:0:0:0:
256,192,219305,1,8,0:0:0:0:
256,192,219391,1,0,0:0:0:0:
256,192,219477,1,8,0:0:0:0:
256,192,219648,1,8,0:0:0:0:
256,192,219734,1,0,0:0:0:0:
256,192,219819,1,0,0:0:0:0:
256,192,219991,1,0,0:0:0:0:
256,192,220162,1,8,0:0:0:0:
256,192,220334,1,0,0:0:0:0:
256,192,220419,1,8,0:0:0:0:
256,192,220677,1,8,0:0:0:0:
256,192,220848,1,0,0:0:0:0:
256,192,220934,1,0,0:0:0:0:
256,192,221019,1,0,0:0:0:0:
256,192,221191,1,0,0:0:0:0:
256,192,221277,1,0,0:0:0:0:
256,192,221362,1,8,0:0:0:0:
256,192,221448,1,0,0:0:0:0:
256,192,221534,1,8,0:0:0:0:
256,192,221705,1,8,0:0:0:0:
256,192,221791,1,8,0:0:0:0:
256,192,221877,1,0,0:0:0:0:
256,192,221962,1,0,0:0:0:0:
256,192,222048,1,8,0:0:0:0:
256,192,222134,1,8,0:0:0:0:
256,192,222219,1,8,0:0:0:0:
256,192,222391,1,0,0:0:0:0:
256,192,222562,1,8,0:0:0:0:
256,192,222648,1,8,0:0:0:0:
256,192,222734,1,8,0:0:0:0:
256,192,222819,1,8,0:0:0:0:
256,192,222905,1,0,0:0:0:0:
256,192,222991,1,0,0:0:0:0:
256,192,223077,1,0,0:0:0:0:
256,192,223162,1,0,0:0:0:0:
256,192,223248,1,8,0:0:0:0:
256,192,223419,1,8,0:0:0:0:
256,192,223505,1,8,0:0:0:0:
256,192,223591,1,0,0:0:0:0:
256,192,223677,1,0,0:0:0:0:
256,192,223762,1,0,0:0:0:0:
256,192,223934,1,8,0:0:0:0:
256,192,224105,1,0,0:0:0:0:
256,192,224277,1,8,0:0:0:0:
256,192,224362,1,0,0:0:0:0:
256,192,224619,1,0,0:0:0:0:
256,192,224705,1,8,0:0:0:0:
256,192,224791,1,8,0:0:0:0:
256,192,224877,1,8,0:0:0:0:
256,192,224962,1,0,0:0:0:0:
256,192,225048,1,0,0:0:0:0:
256,192,225134,1,0,0:0:0:0:
256,192,225305,1,0,0:0:0:0:
256,192,225477,1,0,0:0:0:0:
256,192,225648,1,8,0:0:0:0:
256,192,225819,1,0,0:0:0:0:
256,192,225991,1,8,0:0:0:0:
256,192,226162,1,8,0:0:0:0:
256,192,226248,1,8,0:0:0:0:
256,192,226334,1,0,0:0:0:0:
256,192,226677,1,0,0:0:0:0:
256,192,226762,1,0,0:0:0:0:
256,192,226848,1,0,0:0:0:0:
256,192,226934,1,0,0:0:0:0:
256,192,227019,1,8,0:0:0:0:
256,192,227191,1,8,0:0:0:0:
256,192,227277,1,8,0:0:0:0:
256,192,227362,1,0,0:0:0:0:
256,192,227534,1,8,0:0:0:0:
256,192,227705,1,0,0:0:0:0:
256,192,227877,1,0,0:0:0:0:
256,192,228048,1,0,0:0:0:0:
256,192,228219,1,0,0:0:0:0:
256,192,228305,1,0,0:0:0:0:
256,192,228391,1,8,0:0:0:0:
256,192,228562,1,0,0:0:0:0:
256,192,228648,1,0,0:0:0:0:
256,192,228734,1,0,0:0:0:0:
256,192,228819,1,8,0:0:0:0:
256,192,228905,1,0,0:0:0:0:
256,192,229077,1,8,0:0:0:0:
256,192,229162,1,0,0:0:0:0:
256,192,229248,1,0,0:0:0:0:
256,192,229419,1,8,0:0:0:0:
256,192,229591,1,0,0:0:0:0:
256,192,229677,1,0,0:0:0:0:
256,192,229762,1,8,0:0:0:0:
256,192,229934,1,0,0:0:0:0:
256,192,230105,1,8,0:0:0:0:
256,192,230277,1,0,0:0:0:0:
256,192,230448,1,8,0:0:0:0:
256,192,230534,1,0,0:0:0:0:
256,192,230619,1,0,0:0:0:0:
256,192,230705,1,0,0:0:0:0:
256,192,230791,1,8,0:0:0:0:
256,192,230877,1,0,0:0:0:0:
256,192,230962,1,0,0:0:0:0:
256,192,231048,1,0,0:0:0:0:
256,192,231134,1,8,0:0:0:0:
256,192,231305,1,0,0:0:0:0:
256,192,231391,1,0,0:0:0:0:
256,192,231477,1,8,0:0:0:0:
256,192,231562,1,8,0:0:0:0:
256,192,231648,1,8,0:0:0:0:
256,192,231734,1,8,0:0:0:0:
256,192,231819,1,0,0:0:0:0:
256,192,231991,1,0,0:0:0:0:
256,192,232077,1,0,0:0:0:0:
256,192,232162,1,0,0:0:0:0:
256,192,232248,1,0,0:0:0:0:
256,192,232334,1,0,0:0:0:0:
256,192,232505,1,8,0:0:0:0:
256,192,232591,1,8,0:0:0:0:
256,192,232677,1,8,0:0:0:0:
256,192,232762,1,8,0:0:0:0:
256,192,232848,1,0,0:0:0:0:
256,192,233019,1,0,0:0:0:0:
256,192,233105,1,0,0:0:0:0:
256,192,233191,1,8,0:0:0:0:
256,192,233277,1,8,0:0:0:0:
256,192,233362,1,0,0:0:0:0:
256,192,233448,1,0,0:0:0:0:
256,192,233534,1,0,0:0:0:0:
256,192,233705,1,0,0:0:0:0:
256,192,233791,1,0,0:0:0:0:
256,192,233877,1,8,0:0:0:0:
256,192,234048,1,8,0:0:0:0:
256,192,234134,1,0,0:0:0:0:
256,192,234219,1,8,0:0:0:0:
256,192,234305,1,0,0:0:0:0:
256,192,234391,1,0,0:0:0:0:
256,192,234477,1,8,0:0:0:0:
256,192,234562,1,0,0:0:0:0:
256,192,234734,1,8,0:0:0:0:
256,192,234819,1,8,0:0:0:0:
256,192,234905,1,0,0:0:0:0:
256,192,234991,1,0,0:0:0:0:
256,192,235077,1,0,0:0:0:0:
256,192,235248,1,8,0:0:0:0:
256,192,235334,1,0,0:0:0:0:
256,192,235591,1,0,0:0:0:0:
256,192,235677,1,8,0:0:0:0:
256,192,235762,1,8,0:0:0:0:
256,192,235848,1,8,0:0:0:0:
256,192,235934,1,0,0:0:0:0:
256,192,236019,1,8,0:0:0:0:
256,192,236105,1,0,0:0:0:0:
256,192,236191,1,0,0:0:0:0:
256,192,236277,1,0,0:0:0:0:
256,192,236448,1,0,0:0:0:0:
256,192,236619,1,8,0:0:0:0:
256,192,236791,1,0,0:0:0:0:
256,192,236962,1,8,0:0:0:0:
256,192,237048,1,8,0:0:0:0:
256,192,237134,1,8,0:0:0:0:
256,192,237219,1,0,0:0:0:0:
256,192,237305,1,0,0:0:0:0:
256,192,237477,1,8,0:0:0:0:
256,192,237562,1,8,0:0:0:0:
256,192,237648,1,0,0:0:0:0:
256,192,237734,1,0,0:0:0:0:
256,192,237819,1,0,0:0:0:0:
256,192,237991,1,8,0:0:0:0:
256,192,238162,1,8,0:0:0:0:
256,192,238248,1,8,0:0:0:0:
256,192,238334,1,0,0:0:0:0:
256,192,238419,1,0,0:0:0:0:
256,192,238505,1,0,0:0:0:0:
256,192,238591,1,8,0:0:0:0:
256,192,238677,1,8,0:0:0:0:
256,192,238848,1,0,0:0:0:0:
256,192,238934,1,0,0:0:0:0:
256,192,239019,1,0,0:0:0:0:
256,192,239191,1,0,0:0:0:0:
256,192,239277,1,0,0:0:0:0:
256,192,239362,1,8,0:0:0:0:
256,192,239534,1,8,0:0:0:0:
256,192,239619,1,0,0:0:0:0:
256,192,239705,1,8,0:0:0:0:
256,192,239791,1,8,0:0:0:0:
256,192,239877,1,0,0:0:0:0:
256,192,240048,1,0,0:0:0:0:
256,192,240134,1,8,0:0:0:0:
256,192,240219,1,8,0:0:0:0:
256,192,240305,1,8,0:0:0:0:
256,192,240391,1,0,0:0:0:0:
256,192,240477,1,0,0:0:0:0:
256,192,240562,1,0,0:0:0:0:
256,192,240648,1,0,0:0:0:0:
256,192,240734,1,8,0:0:0:0:
256,192,240905,1,8,0:0:0:0:
256,192,240991,1,8,0:0:0:0:
256,192,241077,1,0,0:0:0:0:
256,192,241162,1,0,0:0:0:0:
256,192,241248,1,0,0:0:0:0:
256,192,241334,1,8,0:0:0:0:
256,192,241419,1,0,0:0:0:0:
256,192,241591,1,8,0:0:0:0:
256,192,241677,1,0,0:0:0:0:
256,192,241762,1,0,0:0:0:0:
256,192,241934,1,0,0:0:0:0:
256,192,242105,1,8,0:0:0:0:
256,192,242277,1,0,0:0:0:0:
256,192,242362,1,8,0:0:0:0:
256,192,242534,1,0,0:0:0:0:
256,192,242619,1,8,0:0:0:0:
256,192,242705,1,8,0:0:0:0:
256,192,242791,1,0,0:0:0:0:
256,192,242877,1,0,0:0:0:0:
256,192,242962,1,0,0:0:0:0:
256,192,243048,1,0,0:0:0:0:
256,192,243134,1,8,0:0:0:0:
256,192,243305,1,0,0:0:0:0:
256,192,243477,1,8,0:0:0:0:
256,192,243648,1,8,0:0:0:0:
256,192,243734,1,8,0:0:0:0:
256,192,243819,1,0,0:0:0:0:
256,192,243905,1,0,0:0:0:0:
256,192,243991,1,8,0:0:0:0:
256,192,244077,1,8,0:0:0:0:
256,192,244162,1,8,0:0:0:0:
256,192,244248,1,8,0:0:0:0:
256,192,244334,1,0,0:0:0:0:
256,192,244419,1,0,0:0:0:0:
256,192,244505,1,0,0:0:0:0:
256,192,244677,1,0,0:0:0:0:
256,192,244762,1,0,0:0:0:0:
256,192,244848,1,8,0:0:0:0:
256,192,245019,1,8,0:0:0:0:
256,192,245105,1,0,0:0:0:0:
256,192,245191,1,8,0:0:0:0:
256,192,245277,1,0,0:0:0:0:
256,192,245362,1,8,0:0:0:0:
256,192,245448,1,0,0:0:0:0:
256,192,245534,1,0,0:0:0:0:
256,192,245705,1,8,0:0:0:0:
256,192,245791,1,8,0:0:0:0:
256,192,245877,1,0,0:0:0:0:
256,192,246048,1,0,0:0:0:0:
256,192,246219,1,8,0:0:0:0:
256,192,246305,1,0,0:0:0:0:
256,192,246562,1,8,0:0:0:0:
256,192,246648,1,8,0:0:0:0:
256,192,246734,1,8,0:0:0:0:
256,192,246819,1,8,0:0:0:0:
256,192,246905,1,0,0:0:0:0:
256,192,246991,1,0,0:0:0:0:
256,192,247077,1,0,0:0:0:0:
256,192,247248,1,0,0:0:0:0:
256,192,247419,1,0,0:0:0:0:
256,192,247591,1,8,0:0:0:0:
256,192,247677,1,8,0:0:0:0:
256,192,247762,1,0,0:0:0:0:
256,192,247934,1,8,0:0:0:0:
256,192,248105,1,8,0:0:0:0:
256,192,248191,1,8,0:0:0:0:
256,192,248277,1,0,0:0:0:0:
256,192,248362,1,8,0:0:0:0:
256,192,248448,1,0,0:0:0:0:
256,192,248534,1,0,0:0:0:0:
256,192,248619,1,0,0:0:0:0:
256,192,248791,1,0,0:0:0:0:
256,192,248962,1,8,0:0:0:0:
256,192,249134,1,8,0:0:0:0:
256,192,249219,1,0,0:0:0:0:
256,192,249305,1,0,0:0:0:0:
256,192,249477,1,0,0:0:0:0:
256,192,249562,1,0,0:0:0:0:
256,192,249648,1,8,0:0:0:0:
256,192,249734,1,8,0:0:0:0:
256,192,249819,1,8,0:0:0:0:
256,192,249905,1,0,0:0:0:0:
256,192,249991,1,0,0:0:0:0:
256,192,250162,1,0,0:0:0:0:
256,192,250248,1,0,0:0:0:0:
256,192,250334,1,8,0:0:0:0:
256,192,250505,1,0,0:0:0:0:
256,192,250677,1,8,0:0:0:0:
256,192,250762,1,8,0:0:0:0:
256,192,250848,1,0,0:0:0:0:
256,192,250934,1,0,0:0:0:0:
256,192,251019,1,0,0:0:0:0:
256,192,251191,1,8,0:0:0:0:
256,192,251277,1,8,0:0:0:0:
256,192,251362,1,8,0:0:0:0:
256,192,251534,1,0,0:0:0:0:
256,192,251619,1,0,0:0:0:0:
256,192,251705,1,0,0:0:0:0:
256,192,251791,1,0,0:0:0:0:
256,192,251877,1,8,0:0:0:0:
256,192,252048,1,0,0:0:0:0:
256,192,252134,1,0,0:0:0:0:
256,192,252219,1,0,0:0:0:0:
256,192,252305,1,0,0:0:0:0:
256,192,252391,1,8,0:0:0:0:
256,192,252562,1,0,0:0:0:0:
256,192,252648,1,0,0:0:0:0:
256,192,252734,1,0,0:0:0:0:
256,192,252905,1,8,0:0:0:0:
256,192,252991,1,8,0:0:0:0:
256,192,253077,1,8,0:0:0:0:
256,192,253248,1,8,0:0:0:0:
256,192,253419,1,0,0:0:0:0:
256,192,253591,1,0,0:0:0:0:
256,192,253762,1,0,0:0:0:0:
256,192,253848,1,0,0:0:0:0:
256,192,253934,1,0,0:0:0:0:
256,192,254019,1,0,0:0:0:0:
256,192,254105,1,0,0:0:0:0:
256,192,254277,1,0,0:0:0:0:
256,192,254448,1,8,0:0:0:0:
256,192,254619,1,0,0:0:0:0:
256,192,254705,1,0,0:0:0:0:
256,192,254791,1,0,0:0:0:0:
256,192,254962,1,8,0:0:0:0:
256,192,255048,1,8,0:0:0:0:
256,192,255134,1,0,0:0:0:0:
256,192,255219,1,0,0:0:0:0:
256,192,255305,1,8,0:0:0:0:
256,192,255391,1,0,0:0:0:0:
256,192,255477,1,8,0:0:0:0:
256,192,255648,1,0,0:0:0:0:
256,192,255734,1,0,0:0:0:0:
256,192,255819,1,8,0:0:0:0:
256,192,255991,1,0,0:0:0:0:
256,192,256077,1,8,0:0:0:0:
256,192,256162,1,0,0:0:0:0:
256,192,256248,1,0,0:0:0:0:
256,192,256334,1,8,0:0:0:0:
256,192,256505,1,0,0:0:0:0:
256,192,256677,1,0,0:0:0:0:
256,192,256762,1,0,0:0:0:0:
256,192,256848,1,8,0:0:0:0:
256,192,257019,1,0,0:0:0:0:
256,192,257191,1,8,0:0:0:0:
256,192,257277,1,0,0:0:0:0:
256,192,257534,1,0,0:0:0:0:
256,192,257619,1,0,0:0:0:0:
256,192,257705,1,8,0:0:0:0:
256,192,257791,1,8,0:0:0:0:
256,192,257877,1,8,0:0:0:0:
256,192,257962,1,0,0:0:0:0:
256,192,258048,1,0,0:0:0:0:
256,192,258219,1,0,0:0:0:0:
256,192,258391,1,0,0:0:0:0:
256,192,258562,1,8,0:0:0:0:
256,192,258734,1,0,0:0:0:0:
256,192,258905,1,8,0:0:0:0:
256,192,259077,1,8,0:0:0:0:
256,192,259162,1,8,0:0:0:0:
256,192,259248,1,0,0:0:0:0:
256,192,259334,1,0,0:0:0:0:
256,192,259419,1,0,0:0:0:0:
256,192,259505,1,0,0:0:0:0:
256,192,259591,1,8,0:0:0:0:
256,192,259762,1,0,0:0:0:0:
256,192,259934,1,8,0:0:0:0:
256,192,260277,1,0,0:0:0:0:
256,192,260448,1,0,0:0:0:0:
256,192,260534,1,0,0:0:0:0:
256,192,260619,1,0,0:0:0:0:
256,192,260705,1,0,0:0:0:0:
256,192,260791,1,8,0:0:0:0:
256,192,260877,1,8,0:0:0:0:
256,192,260962,1,8,0:0:0:0:
256,192,261134,1,0,0:0:0:0:
256,192,261219,1,0,0:0:0:0:
256,192,261305,1,8,0:0:0:0:
256,192,261477,1,0,0:0:0:0:
256,192,261562,1,0,0:0:0:0:
256,192,261648,1,8,0:0:0:0:
256,192,261734,1,0,0:0:0:0:
256,192,261819,1,8,0:0:0:0:
256,192,261991,1,0,0:0:0:0:
256,192,262162,1,0,0:0:0:0:
256,192,262248,1,0,0:0:0:0:
256,192,262334,1,0,0:0:0:0:
256,192,262419,1,0,0:0:0:0:
256,192,262505,1,8,0:0:0:0:
256,192,262591,1,0,0:0:0:0:
256,192,262677,1,8,0:0:0:0:
256,192,262848,1,0,0:0:0:0:
256,192,262934,1,0,0:0:0:0:
256,192,263019,1,8,0:0:0:0:
256,192,263105,1,0,0:0:0:0:
256,192,263191,1,8,0:0:0:0:
256,192,263362,1,0,0:0:0:0:
256,192,263448,1,0,0:0:0:0:
256,192,263534,1,8,0:0:0:0:
256,192,263619,1,8,0:0:0:0:
256,192,263705,1,0,0:0:0:0:
256,192,263877,1,0,0:0:0:0:
256,192,264048,1,8,0:0:0:0:
256,192,264219,1,0,0:0:0:0:
256,192,264305,1,8,0:0:0:0:
256,192,264562,1,8,0:0:0:0:
256,192,264734,1,0,0:0:0:0:
256,192,264819,1,0,0:0:0:0:
256,192,264905,1,0,0:0:0:0:
256,192,265077,1,0,0:0:0:0:
256,192,265162,1,0,0:0:0:0:
256,192,265248,1,0,0:0:0:0:
256,192,265334,1,0,0:0:0:0:
256,192,265419,1,8,0:0:0:0:
256,192,265591,1,8,0:0:0:0:
256,192,265677,1,8,0:0:0:0:
256,192,265762,1,8,0:0:0:0:
256,192,265848,1,0,0:0:0:0:
256,192,265934,1,0,0:0:0:0:
256,192,266019,1,0,0:0:0:0:
256,192,266105,1,0,0:0:0:0:
256,192,266277,1,0,0:0:0:0:
256,192,266448,1,8,0:0:0:0:
256,192,266534,1,8,0:0:0:0:
256,192,266619,1,8,0:0:0:0:
256,192,266705,1,8,0:0:0:0:
256,192,266791,1,0,0:0:0:0:
256,192,266877,1,0,0:0:0:0:
256,192,266962,1,0,0:0:0:0:
256,192,267048,1,0,0:0:0:0:
256,192,267134,1,8,0:0:0:0:
256,192,267305,1,8,0:0:0:0:
256,192,267391,1,8,0:0:0:0:
256,192,267477,1,0,0:0:0:0:
256,192,267562,1,0,0:0:0:0:
256,192,267648,1,0,0:0:0:0:
256,192,267819,1,0,0:0:0:0:
256,192,267905,1,8,0:0:0:0:
256,192,267991,1,0,0:0:0:0:
256,192,268162,1,8,0:0:0:0:
256,192,268248,1,0,0:0:0:0:
256,192,268505,1,0,0:0:0:0:
256,192,268591,1,8,0:0:0:0:
256,192,268677,1,8,0:0:0:0:
256,192,268762,1,8,0:0:0:0:
256,192,268848,1,8,0:0:0:0:
256,192,268934,1,8,0:0:0:0:
256,192,269019,1,0,0:0:0:0:
256,192,269191,1,0,0:0:0:0:
256,192,269362,1,0,0:0:0:0:
256,192,269534,1,8,0:0:0:0:
256,192,269705,1,0,0:0:0:0:
256,192,269877,1,8,0:0:0:0:
256,192,270048,1,8,0:0:0:0:
256,192,270134,1,8,0:0:0:0:
256,192,270219,1,0,0:0:0:0:
256,192,270305,1,0,0:0:0:0:
256,192,270391,1,0,0:0:0:0:
256,192,270477,1,0,0:0:0:0:
256,192,270562,1,0,0:0:0:0:
256,192,270734,1,0,0:0:0:0:
256,192,270905,1,8,0:0:0:0:
256,192,271248,1,0,0:0:0:0:
256,192,271419,1,8,0:0:0:0:
256,192,271505,1,0,0:0:0:0:
256,192,271591,1,8,0:0:0:0:
256,192,271677,1,0,0:0:0:0:
256,192,271762,1,8,0:0:0:0:
256,192,271848,1,0,0:0:0:0:
256,192,271934,1,0,0:0:0:0:
256,192,272105,1,0,0:0:0:0:
256,192,272191,1,0,0:0:0:0:
256,192,272277,1,8,0:0:0:0:
256,192,272448,1,0,0:0:0:0:
256,192,272534,1,0,0:0:0:0:
256,192,272619,1,8,0:0:0:0:
256,192,272705,1,0,0:0:0:0:
256,192,272791,1,8,0:0:0:0:
256,192,272962,1,0,0:0:0:0:
256,192,273048,1,0,0:0:0:0:
256,192,273134,1,0,0:0:0:0:
256,192,273305,1,0,0:0:0:0:
256,192,273391,1,8,0:0:0:0:
256,192,273648,1,8,0:0:0:0:
256,192,273734,1,8,0:0:0:0:
256,192,273819,1,0,0:0:0:0:
256,192,273991,1,0,0:0:0:0:
256,192,274077,1,0,0:0:0:0:
256,192,274162,1,0,0:0:0:0:
256,192,274248,1,0,0:0:0:0:
256,192,274334,1,8,0:0:0:0:
256,192,274677,1,8,0:0:0:0:
256,192,274791,1,8,0:0:0:0:
256,192,274905,1,8,0:0:0:0:
256,192,275019,1,0,0:0:0:0:
256,192,275705,1,0,0:2:0:0:
256,192,275877,1,8,0:2:0:0:
256,192,276048,1,0,0:2:0:0:
256,192,276220,1,0,0:2:0:0:
256,192,276305,1,0,0:2:0:0:
256,192,276391,1,8,0:2:0:0:
256,192,276563,1,0,0:2:0:0:
256,192,276734,1,0,0:2:0:0:
256,192,276820,1,0,0:2:0:0:
256,192,276905,1,8,0:2:0:0:
256,192,276991,1,0,0:2:0:0:
256,192,277077,1,8,0:2:0:0:
256,192,277248,1,8,0:2:0:0:
256,192,277305,1,8,0:2:0:0:
256,192,277363,1,8,0:2:0:0:
256,192,277420,1,0,0:2:0:0:
256,192,277591,1,8,0:2:0:0:
256,192,277763,1,0,0:2:0:0:
256,192,277820,1,0,0:2:0:0:
256,192,277877,1,0,0:0:0:0:
256,192,277934,1,8,0:2:0:0:
256,192,278105,1,0,0:2:0:0:
256,192,278277,1,0,0:2:0:0:
256,192,278448,1,8,0:2:0:0:
256,192,278620,1,0,0:2:0:0:
256,192,278705,1,0,0:2:0:0:
256,192,278791,1,0,0:2:0:0:
256,192,278877,1,0,0:2:0:0:
256,192,278963,1,8,0:2:0:0:
256,192,279134,1,0,0:2:0:0:
256,192,279220,1,0,0:2:0:0:
256,192,279305,1,0,0:2:0:0:
256,192,279391,1,0,0:2:0:0:
256,192,279477,1,8,0:2:0:0:
256,192,279648,1,8,0:2:0:0:
256,192,279734,1,0,0:2:0:0:
256,192,279820,1,8,0:2:0:0:
256,192,279991,1,0,0:2:0:0:
256,192,280077,1,0,0:2:0:0:
256,192,280163,1,8,0:2:0:0:
256,192,280334,1,0,0:2:0:0:
256,192,280420,1,0,0:2:0:0:
256,192,280505,1,8,0:2:0:0:
256,192,280591,1,0,0:2:0:0:
256,192,280677,1,8,0:2:0:0:
256,192,280848,1,8,0:2:0:0:
256,192,280934,1,0,0:2:0:0:
256,192,281020,1,0,0:2:0:0:
256,192,281191,1,0,0:2:0:0:
256,192,281277,1,0,0:2:0:0:
256,192,281363,1,8,0:2:0:0:
256,192,281448,1,0,0:2:0:0:
256,192,281534,1,8,0:2:0:0:
256,192,281705,1,0,0:2:0:0:
256,192,281791,1,0,0:2:0:0:
256,192,281877,1,8,0:2:0:0:
256,192,281963,1,0,0:2:0:0:
256,192,282048,1,8,0:2:0:0:
256,192,282134,1,8,0:2:0:0:
256,192,282220,1,0,0:2:0:0:
256,192,282391,1,0,0:2:0:0:
256,192,282477,1,0,0:2:0:0:
256,192,282563,1,8,0:2:0:0:
256,192,282734,1,8,0:2:0:0:
256,192,282820,1,8,0:2:0:0:
256,192,282905,1,0,0:2:0:0:
256,192,283077,1,0,0:2:0:0:
256,192,283163,1,0,0:2:0:0:
256,192,283248,1,8,0:2:0:0:
256,192,283305,1,0,0:0:0:0:
256,192,283363,1,0,0:2:0:0:
256,192,283420,1,8,0:2:0:0:
256,192,283591,1,0,0:2:0:0:
256,192,283677,1,0,0:2:0:0:
256,192,283763,1,8,0:2:0:0:
256,192,283848,1,0,0:2:0:0:
256,192,283934,1,8,0:2:0:0:
256,192,284105,1,0,0:2:0:0:
256,192,284191,1,0,0:2:0:0:
256,192,284277,1,8,0:2:0:0:
256,192,284334,1,0,0:2:0:0:
256,192,284391,1,0,0:0:0:0:
256,192,284448,1,8,0:2:0:0:
256,192,284620,1,0,0:2:0:0:
256,192,284791,1,8,0:2:0:0:
256,192,284963,1,0,0:2:0:0:
256,192,285048,1,0,0:2:0:0:
256,192,285134,1,0,0:2:0:0:
256,192,285220,1,0,0:2:0:0:
256,192,285305,1,8,0:2:0:0:
256,192,285391,1,8,0:2:0:0:
256,192,285477,1,0,0:2:0:0:
256,192,285563,1,0,0:2:0:0:
256,192,285648,1,8,0:2:0:0:
256,192,285734,1,0,0:2:0:0:
256,192,285820,1,0,0:2:0:0:
256,192,285905,1,0,0:2:0:0:
256,192,285991,1,8,0:2:0:0:
256,192,286163,1,0,0:2:0:0:
256,192,286248,1,0,0:2:0:0:
256,192,286334,1,8,0:2:0:0:
256,192,286420,1,0,0:2:0:0:
256,192,286505,1,8,0:2:0:0:
256,192,286677,1,0,0:2:0:0:
256,192,286849,1,8,0:2:0:0:
256,192,287020,1,0,0:2:0:0:
256,192,287192,1,0,0:2:0:0:
256,192,287277,1,0,0:2:0:0:
256,192,287363,1,8,0:2:0:0:
256,192,287535,1,0,0:2:0:0:
256,192,287706,1,0,0:2:0:0:
256,192,287792,1,0,0:2:0:0:
256,192,287877,1,8,0:2:0:0:
256,192,287963,1,0,0:2:0:0:
256,192,288049,1,8,0:2:0:0:
256,192,288220,1,8,0:2:0:0:
256,192,288306,1,0,0:2:0:0:
256,192,288392,1,0,0:2:0:0:
256,192,288563,1,0,0:2:0:0:
256,192,288735,1,0,0:2:0:0:
256,192,288820,1,0,0:2:0:0:
256,192,288906,1,8,0:2:0:0:
256,192,289077,1,0,0:2:0:0:
256,192,289249,1,0,0:2:0:0:
256,192,289335,1,0,0:2:0:0:
256,192,289420,1,8,0:2:0:0:
256,192,289592,1,0,0:2:0:0:
256,192,289677,1,0,0:2:0:0:
256,192,289763,1,0,0:2:0:0:
256,192,289849,1,0,0:2:0:0:
256,192,289935,1,8,0:2:0:0:
256,192,290106,1,0,0:2:0:0:
256,192,290192,1,0,0:2:0:0:
256,192,290277,1,0,0:2:0:0:
256,192,290363,1,0,0:2:0:0:
256,192,290449,1,8,0:2:0:0:
256,192,290620,1,8,0:2:0:0:
256,192,290706,1,0,0:2:0:0:
256,192,290792,1,8,0:2:0:0:
256,192,290963,1,0,0:2:0:0:
256,192,291049,1,0,0:2:0:0:
256,192,291135,1,8,0:2:0:0:
256,192,291306,1,0,0:2:0:0:
256,192,291392,1,0,0:2:0:0:
256,192,291477,1,8,0:2:0:0:
256,192,291563,1,0,0:2:0:0:
256,192,291649,1,8,0:2:0:0:
256,192,291820,1,8,0:2:0:0:
256,192,291906,1,0,0:2:0:0:
256,192,291992,1,0,0:2:0:0:
256,192,292163,1,0,0:2:0:0:
256,192,292249,1,0,0:2:0:0:
256,192,292335,1,8,0:2:0:0:
256,192,292420,1,0,0:2:0:0:
256,192,292506,1,8,0:2:0:0:
256,192,292677,1,0,0:2:0:0:
256,192,292763,1,0,0:2:0:0:
256,192,292849,1,8,0:2:0:0:
256,192,292935,1,0,0:2:0:0:
256,192,293020,1,8,0:2:0:0:
256,192,293106,1,8,0:2:0:0:
256,192,293192,1,0,0:2:0:0:
256,192,293363,1,0,0:2:0:0:
256,192,293449,1,0,0:2:0:0:
256,192,293535,1,8,0:2:0:0:
256,192,293706,1,8,0:2:0:0:
256,192,293792,1,8,0:2:0:0:
256,192,293877,1,0,0:2:0:0:
256,192,294049,1,0,0:2:0:0:
256,192,294135,1,0,0:2:0:0:
256,192,294220,1,8,0:2:0:0:
256,192,294306,1,0,0:2:0:0:
256,192,294392,1,8,0:2:0:0:
256,192,294563,1,0,0:2:0:0:
256,192,294649,1,0,0:2:0:0:
256,192,294735,1,8,0:2:0:0:
256,192,294820,1,0,0:2:0:0:
256,192,294906,1,8,0:2:0:0:
256,192,295077,1,0,0:2:0:0:
256,192,295163,1,0,0:2:0:0:
256,192,295249,1,0,0:2:0:0:
256,192,295335,1,0,0:2:0:0:
256,192,295420,1,8,0:2:0:0:
256,192,295592,1,0,0:2:0:0:
256,192,295677,1,0,0:2:0:0:
256,192,295763,1,8,0:2:0:0:
256,192,295935,1,0,0:2:0:0:
256,192,296020,1,0,0:2:0:0:
256,192,296106,1,0,0:2:0:0:
256,192,296192,1,0,0:2:0:0:
256,192,296277,1,8,0:2:0:0:
256,192,296363,1,8,0:2:0:0:
256,192,296449,1,0,0:2:0:0:
256,192,296535,1,0,0:2:0:0:
256,192,296706,1,0,0:2:0:0:
256,192,296792,1,0,0:2:0:0:
256,192,296877,1,0,0:2:0:0:
256,192,296963,1,8,0:2:0:0:
256,192,297135,1,0,0:2:0:0:
256,192,297220,1,0,0:2:0:0:
256,192,297306,1,8,0:2:0:0:
256,192,297392,1,0,0:2:0:0:
256,192,297477,1,8,0:2:0:0:
256,192,297648,12,0,301762,0:2:0:0:
