osu file format v14

[General]
AudioFilename: audio.mp3
AudioLeadIn: 0
PreviewTime: 223727
Countdown: 0
SampleSet: Normal
StackLeniency: 0.7
Mode: 1
LetterboxInBreaks: 0
WidescreenStoryboard: 1

[Editor]
DistanceSpacing: 0.3
BeatDivisor: 4
GridSize: 32
TimelineZoom: 2.5

[Metadata]
Title:senpai, notice me!
TitleUnicode:senpai, notice me!
Artist:Camellia feat. Nanahira
ArtistUnicode:かめりあ feat. ななひら
Creator:rubies87
Version:oni!
Source:osu!
Tags:Denpa 電波 English Featured Artist FA Mappers' Guild MG electronic j-core jcore comic market comiket C93 A-75ab KCCD-06 かめるかめりあ kamelcamellia A-75ab ふぉーす! force! 4orce! confetto
BeatmapID:2381583
BeatmapSetID:1113149

[Difficulty]
HPDrainRate:7
CircleSize:2
OverallDifficulty:6
ApproachRate:10
SliderMultiplier:1.4
SliderTickRate:1

[Events]
//Background and Video events
0,0,"noticeme.jpg",0,0
//Break Periods
//Storyboard Layer 0 (Background)
//Storyboard Layer 1 (Fail)
//Storyboard Layer 2 (Pass)
//Storyboard Layer 3 (Foreground)
//Storyboard Layer 4 (Overlay)
//Storyboard Sound Samples

[TimingPoints]
770,387.096774193548,4,1,0,60,1,0
11608,-100,4,1,0,70,0,0
13157,-100,4,1,0,80,0,0
37931,-100,4,1,0,80,0,1
47221,-100,4,1,0,80,0,0
50318,-100,4,1,0,80,0,1
62705,-100,4,1,0,80,0,0
75092,-100,4,1,0,80,0,1
84382,-100,4,1,0,80,0,0
87479,-100,4,1,0,80,0,1
96769,-100,4,1,0,80,0,0
97544,-100,4,1,0,80,0,1
99866,-100,4,1,0,80,0,0
174189,-100,4,1,0,80,0,1
185802,-100,4,1,0,80,0,0
186576,-100,4,1,0,80,0,1
197415,-100,4,1,0,80,0,0
198963,-100,4,1,0,80,0,1
210576,-100,4,1,0,80,0,0
211350,-100,4,1,0,80,0,1
216769,-100,4,1,0,80,0,0
217544,-100,4,1,0,80,0,1
222963,-100,4,1,0,80,0,0
223737,-100,4,1,0,80,0,1
236124,-100,4,1,0,80,0,0
236899,-100,4,1,0,80,0,1
248511,-100,4,1,0,80,0,0
248705,-100,4,1,0,70,0,0
260899,-100,4,1,0,60,0,0
263995,-100,4,1,0,50,0,0
267092,-100,4,1,0,40,0,0
270189,-100,4,1,0,30,0,0
272511,-100,4,1,0,25,0,0
273286,-100,4,1,0,20,0,0
274060,-100,4,1,0,15,0,0
274834,-100,4,1,0,10,0,0
275608,-100,4,1,0,5,0,0

[HitObjects]
256,192,770,5,8,0:0:0:0:
256,192,1350,1,0,0:0:0:0:
256,192,1737,1,8,0:0:0:0:
256,192,2124,1,8,0:0:0:0:
256,192,2511,1,8,0:0:0:0:
256,192,2705,1,8,0:0:0:0:
256,192,2899,1,8,0:0:0:0:
256,192,3092,1,8,0:0:0:0:
256,192,3286,1,8,0:0:0:0:
256,192,3866,1,8,0:0:0:0:
256,192,4447,1,0,0:0:0:0:
256,192,4834,1,8,0:0:0:0:
256,192,5221,1,8,0:0:0:0:
256,192,5608,1,8,0:0:0:0:
256,192,5802,1,8,0:0:0:0:
256,192,5995,1,8,0:0:0:0:
256,192,6189,1,8,0:0:0:0:
256,192,6382,1,8,0:0:0:0:
256,192,6576,1,0,0:0:0:0:
256,192,6963,1,8,0:0:0:0:
256,192,7544,1,0,0:0:0:0:
256,192,7931,1,8,0:0:0:0:
256,192,8318,1,8,0:0:0:0:
256,192,8705,1,8,0:0:0:0:
256,192,8899,1,8,0:0:0:0:
256,192,9092,1,8,0:0:0:0:
256,192,9286,1,8,0:0:0:0:
256,192,9479,1,8,0:0:0:0:
256,192,10060,1,8,0:0:0:0:
256,192,10640,1,0,0:0:0:0:
256,192,11028,1,8,0:0:0:0:
256,192,11415,1,0,0:0:0:0:
256,192,11608,1,8,0:0:0:0:
256,192,11705,1,0,0:0:0:0:
256,192,11802,1,0,0:0:0:0:
256,192,11995,1,8,0:0:0:0:
256,192,12189,1,0,0:0:0:0:
256,192,12286,1,0,0:0:0:0:
256,192,12382,1,8,0:0:0:0:
256,192,12576,1,8,0:0:0:0:
256,192,12673,1,0,0:0:0:0:
256,192,12769,1,8,0:0:0:0:
256,192,12866,1,8,0:0:0:0:
256,192,12963,1,8,0:0:0:0:
256,192,13157,1,12,0:0:0:0:
256,192,13737,1,8,0:0:0:0:
256,192,14124,1,8,0:0:0:0:
256,192,14511,1,0,0:0:0:0:
256,192,14899,1,8,0:0:0:0:
256,192,15092,1,8,0:0:0:0:
256,192,15286,1,0,0:0:0:0:
256,192,15479,1,0,0:0:0:0:
256,192,15673,1,8,0:0:0:0:
256,192,15866,1,8,0:0:0:0:
256,192,16253,1,8,0:0:0:0:
256,192,16834,1,0,0:0:0:0:
256,192,17221,1,8,0:0:0:0:
256,192,17608,1,0,0:0:0:0:
256,192,17995,1,8,0:0:0:0:
256,192,18189,1,0,0:0:0:0:
256,192,18382,1,0,0:0:0:0:
256,192,18479,1,0,0:0:0:0:
256,192,18576,1,8,0:0:0:0:
256,192,18769,1,0,0:0:0:0:
256,192,18963,1,8,0:0:0:0:
256,192,19350,1,8,0:0:0:0:
256,192,19931,1,8,0:0:0:0:
256,192,20318,1,8,0:0:0:0:
256,192,20705,1,0,0:0:0:0:
256,192,21092,1,8,0:0:0:0:
256,192,21286,1,8,0:0:0:0:
256,192,21479,1,0,0:0:0:0:
256,192,21673,1,0,0:0:0:0:
256,192,21866,1,8,0:0:0:0:
256,192,22060,1,8,0:0:0:0:
256,192,22447,1,8,0:0:0:0:
256,192,23028,1,0,0:0:0:0:
256,192,23415,1,8,0:0:0:0:
256,192,23608,1,0,0:0:0:0:
256,192,23802,1,8,0:0:0:0:
256,192,24189,1,0,0:0:0:0:
256,192,24576,1,8,0:0:0:0:
256,192,24963,1,0,0:0:0:0:
256,192,25157,1,8,0:0:0:0:
256,192,25544,1,8,0:0:0:0:
256,192,25931,1,8,0:0:0:0:
256,192,26124,1,0,0:0:0:0:
256,192,26318,1,8,0:0:0:0:
256,192,26705,1,8,0:0:0:0:
256,192,26899,1,0,0:0:0:0:
256,192,27092,1,8,0:0:0:0:
256,192,27479,1,8,0:0:0:0:
256,192,27673,1,0,0:0:0:0:
256,192,27866,1,8,0:0:0:0:
256,192,28157,1,0,0:0:0:0:
256,192,28253,1,8,0:0:0:0:
256,192,28447,1,0,0:0:0:0:
256,192,28640,1,8,0:0:0:0:
256,192,29028,1,8,0:0:0:0:
256,192,29221,1,0,0:0:0:0:
256,192,29415,1,8,0:0:0:0:
256,192,29802,1,8,0:0:0:0:
256,192,29995,1,0,0:0:0:0:
256,192,30189,1,8,0:0:0:0:
256,192,30576,1,8,0:0:0:0:
256,192,30769,1,0,0:0:0:0:
256,192,30963,1,8,0:0:0:0:
256,192,31157,1,0,0:0:0:0:
256,192,31253,1,0,0:0:0:0:
256,192,31350,1,8,0:0:0:0:
256,192,31544,1,0,0:0:0:0:
256,192,31737,1,8,0:0:0:0:
256,192,31931,1,0,0:0:0:0:
256,192,32028,1,0,0:0:0:0:
256,192,32124,1,8,0:0:0:0:
256,192,32318,1,0,0:0:0:0:
256,192,32415,1,0,0:0:0:0:
256,192,32511,1,8,0:0:0:0:
256,192,32705,1,0,0:0:0:0:
256,192,32802,1,0,0:0:0:0:
256,192,32899,1,8,0:0:0:0:
256,192,33092,1,0,0:0:0:0:
256,192,33189,1,0,0:0:0:0:
256,192,33286,1,8,0:0:0:0:
256,192,33479,1,8,0:0:0:0:
256,192,33576,1,0,0:0:0:0:
256,192,33673,1,8,0:0:0:0:
256,192,33866,1,8,0:0:0:0:
256,192,33963,1,0,0:0:0:0:
256,192,34060,1,8,0:0:0:0:
256,192,34253,1,8,0:0:0:0:
256,192,34350,1,0,0:0:0:0:
256,192,34447,1,8,0:0:0:0:
256,192,34640,1,8,0:0:0:0:
256,192,34737,1,0,0:0:0:0:
256,192,34834,1,8,0:0:0:0:
256,192,34931,1,8,0:0:0:0:
256,192,35028,1,8,0:0:0:0:
256,192,35221,1,8,0:0:0:0:
256,192,35318,1,8,0:0:0:0:
256,192,35415,1,8,0:0:0:0:
256,192,35608,1,8,0:0:0:0:
256,192,35705,1,8,0:0:0:0:
256,192,35802,1,8,0:0:0:0:
256,192,35995,1,8,0:0:0:0:
256,192,36092,1,8,0:0:0:0:
256,192,36189,1,8,0:0:0:0:
256,192,36286,1,8,0:0:0:0:
256,192,36382,1,0,0:0:0:0:
256,192,36769,1,8,0:0:0:0:
256,192,36963,1,0,0:0:0:0:
256,192,37157,1,8,0:0:0:0:
256,192,37350,1,8,0:0:0:0:
256,192,37544,1,0,0:0:0:0:
256,192,37931,1,4,0:0:0:0:
256,192,38511,1,0,0:0:0:0:
256,192,38705,1,8,0:0:0:0:
256,192,38802,1,0,0:0:0:0:
256,192,38899,1,8,0:0:0:0:
256,192,38995,1,8,0:0:0:0:
256,192,39092,1,0,0:0:0:0:
256,192,39479,1,8,0:0:0:0:
256,192,39576,1,8,0:0:0:0:
256,192,39673,1,8,0:0:0:0:
256,192,39769,1,8,0:0:0:0:
256,192,39866,1,0,0:0:0:0:
256,192,40253,1,8,0:0:0:0:
256,192,40350,1,0,0:0:0:0:
256,192,40447,1,8,0:0:0:0:
256,192,40544,1,8,0:0:0:0:
256,192,40640,1,0,0:0:0:0:
256,192,41028,1,4,0:0:0:0:
256,192,41608,1,0,0:0:0:0:
256,192,41802,1,8,0:0:0:0:
256,192,41995,1,8,0:0:0:0:
256,192,42092,1,8,0:0:0:0:
256,192,42189,1,8,0:0:0:0:
256,192,42286,1,8,0:0:0:0:
256,192,42479,1,8,0:0:0:0:
256,192,42576,1,0,0:0:0:0:
256,192,42769,1,8,0:0:0:0:
256,192,42866,1,8,0:0:0:0:
256,192,42963,1,8,0:0:0:0:
256,192,43060,1,8,0:0:0:0:
256,192,43253,1,0,0:0:0:0:
256,192,43350,1,8,0:0:0:0:
256,192,43544,1,0,0:0:0:0:
256,192,43737,1,8,0:0:0:0:
256,192,43931,1,8,0:0:0:0:
256,192,44124,1,4,0:0:0:0:
256,192,44705,1,0,0:0:0:0:
256,192,44899,1,8,0:0:0:0:
256,192,44995,1,0,0:0:0:0:
256,192,45092,1,8,0:0:0:0:
256,192,45189,1,8,0:0:0:0:
256,192,45286,1,0,0:0:0:0:
256,192,45673,1,8,0:0:0:0:
256,192,45769,1,8,0:0:0:0:
256,192,45866,1,8,0:0:0:0:
256,192,45963,1,8,0:0:0:0:
256,192,46060,1,0,0:0:0:0:
256,192,46447,1,8,0:0:0:0:
256,192,46544,1,0,0:0:0:0:
256,192,46640,1,8,0:0:0:0:
256,192,46737,1,8,0:0:0:0:
256,192,46834,1,0,0:0:0:0:
256,192,47221,1,12,0:0:0:0:
256,192,47802,1,0,0:0:0:0:
256,192,47995,1,8,0:0:0:0:
256,192,48189,1,0,0:0:0:0:
256,192,48576,1,0,0:0:0:0:
256,192,48769,1,8,0:0:0:0:
256,192,48963,1,0,0:0:0:0:
256,192,49157,1,8,0:0:0:0:
256,192,49350,1,0,0:0:0:0:
256,192,49544,1,8,0:0:0:0:
256,192,49737,1,8,0:0:0:0:
256,192,49931,1,8,0:0:0:0:
256,192,50124,1,8,0:0:0:0:
256,192,50318,1,4,0:0:0:0:
256,192,50705,1,8,0:0:0:0:
256,192,50899,1,0,0:0:0:0:
256,192,50995,1,0,0:0:0:0:
256,192,51092,1,8,0:0:0:0:
256,192,51286,1,0,0:0:0:0:
256,192,51382,1,8,0:0:0:0:
256,192,51479,1,8,0:0:0:0:
256,192,51673,1,0,0:0:0:0:
256,192,51769,1,0,0:0:0:0:
256,192,51866,1,8,0:0:0:0:
256,192,52060,1,0,0:0:0:0:
256,192,52157,1,8,0:0:0:0:
256,192,52253,1,8,0:0:0:0:
256,192,52447,1,0,0:0:0:0:
256,192,52640,1,8,0:0:0:0:
256,192,52834,1,8,0:0:0:0:
256,192,53028,1,0,0:0:0:0:
256,192,53221,1,8,0:0:0:0:
256,192,53415,1,4,0:0:0:0:
256,192,53802,1,8,0:0:0:0:
256,192,53995,1,0,0:0:0:0:
256,192,54092,1,0,0:0:0:0:
256,192,54189,1,8,0:0:0:0:
256,192,54382,1,0,0:0:0:0:
256,192,54479,1,8,0:0:0:0:
256,192,54576,1,8,0:0:0:0:
256,192,54769,1,8,0:0:0:0:
256,192,54866,1,8,0:0:0:0:
256,192,54963,1,0,0:0:0:0:
256,192,55157,1,8,0:0:0:0:
256,192,55253,1,8,0:0:0:0:
256,192,55350,1,0,0:0:0:0:
256,192,55447,1,0,0:0:0:0:
256,192,55544,1,0,0:0:0:0:
256,192,55737,1,8,0:0:0:0:
256,192,55931,1,0,0:0:0:0:
256,192,56124,1,8,0:0:0:0:
256,192,56318,1,8,0:0:0:0:
256,192,56511,1,4,0:0:0:0:
256,192,56899,1,8,0:0:0:0:
256,192,57092,1,0,0:0:0:0:
256,192,57189,1,0,0:0:0:0:
256,192,57286,1,8,0:0:0:0:
256,192,57479,1,8,0:0:0:0:
256,192,57576,1,0,0:0:0:0:
256,192,57673,1,8,0:0:0:0:
256,192,57866,1,0,0:0:0:0:
256,192,57963,1,8,0:0:0:0:
256,192,58060,1,0,0:0:0:0:
256,192,58253,1,8,0:0:0:0:
256,192,58350,1,8,0:0:0:0:
256,192,58447,1,0,0:0:0:0:
256,192,58640,1,0,0:0:0:0:
256,192,58834,1,8,0:0:0:0:
256,192,59028,1,8,0:0:0:0:
256,192,59221,1,0,0:0:0:0:
256,192,59415,1,8,0:0:0:0:
256,192,59608,1,4,0:0:0:0:
256,192,59995,1,8,0:0:0:0:
256,192,60189,1,0,0:0:0:0:
256,192,60286,1,0,0:0:0:0:
256,192,60382,1,8,0:0:0:0:
256,192,60576,1,8,0:0:0:0:
256,192,60673,1,0,0:0:0:0:
256,192,60769,1,8,0:0:0:0:
256,192,60963,1,0,0:0:0:0:
256,192,61060,1,8,0:0:0:0:
256,192,61157,1,0,0:0:0:0:
256,192,61350,1,8,0:0:0:0:
256,192,61447,1,0,0:0:0:0:
256,192,61640,1,8,0:0:0:0:
256,192,61737,1,0,0:0:0:0:
256,192,61834,1,0,0:0:0:0:
256,192,61931,1,8,0:0:0:0:
256,192,62124,1,8,0:0:0:0:
256,192,62318,1,8,0:0:0:0:
256,192,62705,1,12,0:0:0:0:
256,192,63092,1,8,0:0:0:0:
256,192,63286,1,0,0:0:0:0:
256,192,63479,1,8,0:0:0:0:
256,192,63866,1,8,0:0:0:0:
256,192,64060,1,0,0:0:0:0:
256,192,64253,1,8,0:0:0:0:
256,192,64640,1,8,0:0:0:0:
256,192,64834,1,0,0:0:0:0:
256,192,65028,1,8,0:0:0:0:
256,192,65318,1,0,0:0:0:0:
256,192,65415,1,8,0:0:0:0:
256,192,65608,1,0,0:0:0:0:
256,192,65802,1,8,0:0:0:0:
256,192,66189,1,8,0:0:0:0:
256,192,66382,1,0,0:0:0:0:
256,192,66576,1,8,0:0:0:0:
256,192,66963,1,8,0:0:0:0:
256,192,67157,1,0,0:0:0:0:
256,192,67350,1,8,0:0:0:0:
256,192,67737,1,8,0:0:0:0:
256,192,67931,1,0,0:0:0:0:
256,192,68124,1,8,0:0:0:0:
256,192,68318,1,0,0:0:0:0:
256,192,68415,1,0,0:0:0:0:
256,192,68511,1,8,0:0:0:0:
256,192,68705,1,0,0:0:0:0:
256,192,68899,1,8,0:0:0:0:
256,192,69092,1,0,0:0:0:0:
256,192,69189,1,0,0:0:0:0:
256,192,69286,1,8,0:0:0:0:
256,192,69479,1,0,0:0:0:0:
256,192,69576,1,0,0:0:0:0:
256,192,69673,1,8,0:0:0:0:
256,192,69866,1,0,0:0:0:0:
256,192,69963,1,0,0:0:0:0:
256,192,70060,1,8,0:0:0:0:
256,192,70253,1,0,0:0:0:0:
256,192,70350,1,0,0:0:0:0:
256,192,70447,1,8,0:0:0:0:
256,192,70640,1,8,0:0:0:0:
256,192,70737,1,0,0:0:0:0:
256,192,70834,1,8,0:0:0:0:
256,192,71028,1,8,0:0:0:0:
256,192,71124,1,0,0:0:0:0:
256,192,71221,1,8,0:0:0:0:
256,192,71415,1,8,0:0:0:0:
256,192,71511,1,0,0:0:0:0:
256,192,71608,1,8,0:0:0:0:
256,192,71802,1,8,0:0:0:0:
256,192,71899,1,0,0:0:0:0:
256,192,71995,1,8,0:0:0:0:
256,192,72092,1,8,0:0:0:0:
256,192,72189,1,8,0:0:0:0:
256,192,72382,1,8,0:0:0:0:
256,192,72479,1,8,0:0:0:0:
256,192,72576,1,8,0:0:0:0:
256,192,72769,1,8,0:0:0:0:
256,192,72866,1,8,0:0:0:0:
256,192,72963,1,8,0:0:0:0:
256,192,73157,1,8,0:0:0:0:
256,192,73253,1,8,0:0:0:0:
256,192,73350,1,8,0:0:0:0:
256,192,73447,1,8,0:0:0:0:
256,192,73544,1,0,0:0:0:0:
256,192,73931,1,8,0:0:0:0:
256,192,74124,1,8,0:0:0:0:
256,192,74318,1,0,0:0:0:0:
256,192,74511,1,0,0:0:0:0:
256,192,74705,1,8,0:0:0:0:
256,192,75092,1,4,0:0:0:0:
256,192,75479,1,8,0:0:0:0:
256,192,75673,1,0,0:0:0:0:
256,192,75769,1,0,0:0:0:0:
256,192,75866,1,8,0:0:0:0:
256,192,76060,1,0,0:0:0:0:
256,192,76157,1,8,0:0:0:0:
256,192,76253,1,0,0:0:0:0:
256,192,76350,1,0,0:0:0:0:
256,192,76447,1,8,0:0:0:0:
256,192,76640,1,0,0:0:0:0:
256,192,76834,1,8,0:0:0:0:
256,192,76931,1,8,0:0:0:0:
256,192,77028,1,0,0:0:0:0:
256,192,77124,1,8,0:0:0:0:
256,192,77221,1,0,0:0:0:0:
256,192,77415,1,8,0:0:0:0:
256,192,77608,1,8,0:0:0:0:
256,192,77802,1,0,0:0:0:0:
256,192,77995,1,8,0:0:0:0:
256,192,78189,1,4,0:0:0:0:
256,192,78576,1,8,0:0:0:0:
256,192,78769,1,8,0:0:0:0:
256,192,78866,1,8,0:0:0:0:
256,192,78963,1,8,0:0:0:0:
256,192,79157,1,8,0:0:0:0:
256,192,79253,1,8,0:0:0:0:
256,192,79350,1,0,0:0:0:0:
256,192,79544,1,8,0:0:0:0:
256,192,79640,1,8,0:0:0:0:
256,192,79737,1,0,0:0:0:0:
256,192,79931,1,8,0:0:0:0:
256,192,80028,1,8,0:0:0:0:
256,192,80124,1,0,0:0:0:0:
256,192,80221,1,8,0:0:0:0:
256,192,80318,1,0,0:0:0:0:
256,192,80511,1,8,0:0:0:0:
256,192,80899,1,8,0:0:0:0:
256,192,80995,1,8,0:0:0:0:
256,192,81092,1,8,0:0:0:0:
256,192,81286,1,4,0:0:0:0:
256,192,81673,1,8,0:0:0:0:
256,192,81866,1,0,0:0:0:0:
256,192,81963,1,0,0:0:0:0:
256,192,82060,1,8,0:0:0:0:
256,192,82253,1,0,0:0:0:0:
256,192,82350,1,8,0:0:0:0:
256,192,82447,1,0,0:0:0:0:
256,192,82544,1,0,0:0:0:0:
256,192,82640,1,8,0:0:0:0:
256,192,82834,1,0,0:0:0:0:
256,192,83028,1,8,0:0:0:0:
256,192,83124,1,8,0:0:0:0:
256,192,83221,1,0,0:0:0:0:
256,192,83318,1,8,0:0:0:0:
256,192,83415,1,0,0:0:0:0:
256,192,83608,1,8,0:0:0:0:
256,192,83995,1,8,0:0:0:0:
256,192,84382,1,12,0:0:0:0:
256,192,84963,1,0,0:0:0:0:
256,192,85157,1,8,0:0:0:0:
256,192,85350,1,0,0:0:0:0:
256,192,85544,1,0,0:0:0:0:
256,192,85737,1,8,0:0:0:0:
256,192,86124,1,8,0:0:0:0:
256,192,86318,1,0,0:0:0:0:
256,192,86511,1,0,0:0:0:0:
256,192,86705,1,8,0:0:0:0:
256,192,86899,1,8,0:0:0:0:
256,192,87092,1,8,0:0:0:0:
256,192,87286,1,8,0:0:0:0:
256,192,87479,1,4,0:0:0:0:
256,192,87866,1,8,0:0:0:0:
256,192,88060,1,8,0:0:0:0:
256,192,88157,1,8,0:0:0:0:
256,192,88253,1,0,0:0:0:0:
256,192,88350,1,0,0:0:0:0:
256,192,88447,1,8,0:0:0:0:
256,192,88640,1,0,0:0:0:0:
256,192,88834,1,8,0:0:0:0:
256,192,88931,1,8,0:0:0:0:
256,192,89028,1,0,0:0:0:0:
256,192,89124,1,0,0:0:0:0:
256,192,89221,1,8,0:0:0:0:
256,192,89415,1,0,0:0:0:0:
256,192,89608,1,0,0:0:0:0:
256,192,89705,1,0,0:0:0:0:
256,192,89802,1,8,0:0:0:0:
256,192,89995,1,8,0:0:0:0:
256,192,90189,1,8,0:0:0:0:
256,192,90382,1,8,0:0:0:0:
256,192,90576,1,4,0:0:0:0:
256,192,90963,1,8,0:0:0:0:
256,192,91157,1,8,0:0:0:0:
256,192,91253,1,8,0:0:0:0:
256,192,91350,1,8,0:0:0:0:
256,192,91544,1,8,0:0:0:0:
256,192,91640,1,8,0:0:0:0:
256,192,91737,1,0,0:0:0:0:
256,192,91931,1,8,0:0:0:0:
256,192,92028,1,8,0:0:0:0:
256,192,92124,1,0,0:0:0:0:
256,192,92318,1,8,0:0:0:0:
256,192,92415,1,8,0:0:0:0:
256,192,92511,1,0,0:0:0:0:
256,192,92608,1,8,0:0:0:0:
256,192,92705,1,0,0:0:0:0:
256,192,92899,1,8,0:0:0:0:
256,192,93286,1,8,0:0:0:0:
256,192,93382,1,8,0:0:0:0:
256,192,93479,1,8,0:0:0:0:
256,192,93673,1,4,0:0:0:0:
256,192,94060,1,8,0:0:0:0:
256,192,94253,1,0,0:0:0:0:
256,192,94350,1,0,0:0:0:0:
256,192,94447,1,8,0:0:0:0:
256,192,94640,1,0,0:0:0:0:
256,192,94737,1,8,0:0:0:0:
256,192,94834,1,0,0:0:0:0:
256,192,94931,1,0,0:0:0:0:
256,192,95028,1,8,0:0:0:0:
256,192,95221,1,0,0:0:0:0:
256,192,95415,1,8,0:0:0:0:
256,192,95511,1,8,0:0:0:0:
256,192,95608,1,0,0:0:0:0:
256,192,95705,1,8,0:0:0:0:
256,192,95802,1,0,0:0:0:0:
256,192,95995,1,8,0:0:0:0:
256,192,96382,1,8,0:0:0:0:
256,192,96769,1,0,0:0:0:0:
256,192,97544,1,8,0:0:0:0:
256,192,97640,1,0,0:0:0:0:
256,192,97834,1,8,0:0:0:0:
256,192,98028,1,0,0:0:0:0:
256,192,98124,1,8,0:0:0:0:
256,192,98318,1,8,0:0:0:0:
256,192,98415,1,0,0:0:0:0:
256,192,98608,1,8,0:0:0:0:
256,192,98802,1,0,0:0:0:0:
256,192,98899,1,8,0:0:0:0:
256,192,99092,1,8,0:0:0:0:
256,192,99189,1,0,0:0:0:0:
256,192,99382,1,8,0:0:0:0:
256,192,99576,1,8,0:0:0:0:
256,192,99673,1,0,0:0:0:0:
256,192,99866,1,12,0:0:0:0:
256,192,100447,1,0,0:0:0:0:
256,192,100640,1,8,0:0:0:0:
256,192,100834,1,0,0:0:0:0:
256,192,101221,1,8,0:0:0:0:
256,192,101415,1,0,0:0:0:0:
256,192,101608,1,8,0:0:0:0:
256,192,101802,1,0,0:0:0:0:
256,192,101995,1,0,0:0:0:0:
256,192,102189,1,8,0:0:0:0:
256,192,102382,1,0,0:0:0:0:
256,192,102576,1,8,0:0:0:0:
256,192,102963,1,4,0:0:0:0:
256,192,103544,1,0,0:0:0:0:
256,192,103737,1,8,0:0:0:0:
256,192,103931,1,0,0:0:0:0:
256,192,104318,1,8,0:0:0:0:
256,192,104511,1,0,0:0:0:0:
256,192,104705,1,8,0:0:0:0:
256,192,104899,1,0,0:0:0:0:
256,192,105286,1,8,0:0:0:0:
256,192,105479,1,8,0:0:0:0:
256,192,105673,1,0,0:0:0:0:
256,192,106060,1,12,0:0:0:0:
256,192,106640,1,0,0:0:0:0:
256,192,106834,1,8,0:0:0:0:
256,192,107028,1,0,0:0:0:0:
256,192,107415,1,8,0:0:0:0:
256,192,107608,1,0,0:0:0:0:
256,192,107802,1,8,0:0:0:0:
256,192,107995,1,0,0:0:0:0:
256,192,108189,1,0,0:0:0:0:
256,192,108382,1,8,0:0:0:0:
256,192,108576,1,0,0:0:0:0:
256,192,108769,1,8,0:0:0:0:
256,192,109157,1,4,0:0:0:0:
256,192,109350,1,0,0:0:0:0:
256,192,109447,1,0,0:0:0:0:
256,192,109544,1,8,0:0:0:0:
256,192,109737,1,0,0:0:0:0:
256,192,109834,1,0,0:0:0:0:
256,192,109931,1,8,0:0:0:0:
256,192,110124,1,8,0:0:0:0:
256,192,110221,1,0,0:0:0:0:
256,192,110318,1,8,0:0:0:0:
256,192,110511,1,8,0:0:0:0:
256,192,110608,1,0,0:0:0:0:
256,192,110705,1,8,0:0:0:0:
256,192,110802,1,8,0:0:0:0:
256,192,110899,1,8,0:0:0:0:
256,192,111092,1,8,0:0:0:0:
256,192,111189,1,8,0:0:0:0:
256,192,111286,1,8,0:0:0:0:
256,192,111479,1,8,0:0:0:0:
256,192,111576,1,8,0:0:0:0:
256,192,111673,1,8,0:0:0:0:
256,192,111866,1,8,0:0:0:0:
256,192,111963,1,8,0:0:0:0:
256,192,112060,1,8,0:0:0:0:
256,192,112253,1,4,0:0:0:0:
256,192,112834,1,8,0:0:0:0:
256,192,113221,1,8,0:0:0:0:
256,192,113608,1,8,0:0:0:0:
256,192,113995,1,8,0:0:0:0:
256,192,114189,1,8,0:0:0:0:
256,192,114382,1,8,0:0:0:0:
256,192,114576,1,8,0:0:0:0:
256,192,114769,1,8,0:0:0:0:
256,192,115350,1,0,0:0:0:0:
256,192,115931,1,0,0:0:0:0:
256,192,116318,1,0,0:0:0:0:
256,192,116705,1,0,0:0:0:0:
256,192,117092,1,0,0:0:0:0:
256,192,117286,1,0,0:0:0:0:
256,192,117479,1,0,0:0:0:0:
256,192,117673,1,0,0:0:0:0:
256,192,117866,1,0,0:0:0:0:
256,192,118060,1,0,0:0:0:0:
256,192,118447,1,8,0:0:0:0:
256,192,119028,1,8,0:0:0:0:
256,192,119415,1,8,0:0:0:0:
256,192,119802,1,8,0:0:0:0:
256,192,120189,1,8,0:0:0:0:
256,192,120382,1,8,0:0:0:0:
256,192,120576,1,8,0:0:0:0:
256,192,120769,1,8,0:0:0:0:
256,192,120963,1,8,0:0:0:0:
256,192,121544,1,0,0:0:0:0:
256,192,122124,1,0,0:0:0:0:
256,192,122511,1,0,0:0:0:0:
256,192,122899,1,0,0:0:0:0:
256,192,123286,1,0,0:0:0:0:
256,192,123479,1,0,0:0:0:0:
256,192,123673,1,0,0:0:0:0:
256,192,123866,1,0,0:0:0:0:
256,192,124060,1,0,0:0:0:0:
256,192,124253,1,0,0:0:0:0:
256,192,124640,1,8,0:0:0:0:
256,192,125221,1,8,0:0:0:0:
256,192,125415,1,0,0:0:0:0:
256,192,125608,1,8,0:0:0:0:
256,192,125995,1,0,0:0:0:0:
256,192,126382,1,8,0:0:0:0:
256,192,126576,1,8,0:0:0:0:
256,192,126769,1,8,0:0:0:0:
256,192,126963,1,8,0:0:0:0:
256,192,127157,1,8,0:0:0:0:
256,192,127737,1,0,0:0:0:0:
256,192,128318,1,0,0:0:0:0:
256,192,128511,1,8,0:0:0:0:
256,192,128705,1,0,0:0:0:0:
256,192,129092,1,8,0:0:0:0:
256,192,129479,1,8,0:0:0:0:
256,192,129673,1,0,0:0:0:0:
256,192,129866,1,0,0:0:0:0:
256,192,130060,1,8,0:0:0:0:
256,192,130253,1,8,0:0:0:0:
256,192,130447,1,0,0:0:0:0:
256,192,130834,1,8,0:0:0:0:
256,192,131415,1,8,0:0:0:0:
256,192,131608,1,0,0:0:0:0:
256,192,131802,1,8,0:0:0:0:
256,192,131995,1,8,0:0:0:0:
256,192,132189,1,0,0:0:0:0:
256,192,132576,1,8,0:0:0:0:
256,192,132769,1,8,0:0:0:0:
256,192,132963,1,8,0:0:0:0:
256,192,133157,1,8,0:0:0:0:
256,192,133350,1,8,0:0:0:0:
256,192,133544,1,8,0:0:0:0:
256,192,133737,1,8,0:0:0:0:
256,192,133931,1,8,0:0:0:0:
256,192,134124,1,8,0:0:0:0:
256,192,134318,1,8,0:0:0:0:
256,192,134511,1,8,0:0:0:0:
256,192,134705,1,8,0:0:0:0:
256,192,134899,1,8,0:0:0:0:
256,192,135092,1,8,0:0:0:0:
256,192,135286,1,8,0:0:0:0:
256,192,135479,1,8,0:0:0:0:
256,192,135576,1,0,0:0:0:0:
256,192,135673,1,0,0:0:0:0:
256,192,135866,1,8,0:0:0:0:
256,192,136060,1,0,0:0:0:0:
256,192,136157,1,0,0:0:0:0:
256,192,136253,1,8,0:0:0:0:
256,192,136447,1,8,0:0:0:0:
256,192,136544,1,0,0:0:0:0:
256,192,136640,1,8,0:0:0:0:
256,192,136737,1,8,0:0:0:0:
256,192,136834,1,8,0:0:0:0:
256,192,137028,1,12,0:0:0:0:
256,192,137415,1,8,0:0:0:0:
256,192,137608,1,8,0:0:0:0:
256,192,137705,1,0,0:0:0:0:
256,192,137899,1,8,0:0:0:0:
256,192,137995,1,0,0:0:0:0:
256,192,138189,1,8,0:0:0:0:
256,192,138382,1,8,0:0:0:0:
256,192,138479,1,8,0:0:0:0:
256,192,138576,1,0,0:0:0:0:
256,192,138769,1,0,0:0:0:0:
256,192,138963,1,8,0:0:0:0:
256,192,139157,1,0,0:0:0:0:
256,192,139253,1,0,0:0:0:0:
256,192,139350,1,0,0:0:0:0:
256,192,139544,1,8,0:0:0:0:
256,192,139737,1,8,0:0:0:0:
256,192,140124,1,0,0:0:0:0:
256,192,140318,1,0,0:0:0:0:
256,192,140511,1,8,0:0:0:0:
256,192,140705,1,8,0:0:0:0:
256,192,140802,1,0,0:0:0:0:
256,192,140995,1,8,0:0:0:0:
256,192,141092,1,0,0:0:0:0:
256,192,141286,1,8,0:0:0:0:
256,192,141479,1,8,0:0:0:0:
256,192,141576,1,8,0:0:0:0:
256,192,141673,1,0,0:0:0:0:
256,192,141866,1,8,0:0:0:0:
256,192,142060,1,0,0:0:0:0:
256,192,142253,1,0,0:0:0:0:
256,192,142350,1,0,0:0:0:0:
256,192,142447,1,8,0:0:0:0:
256,192,142544,1,8,0:0:0:0:
256,192,142640,1,0,0:0:0:0:
256,192,142834,1,8,0:0:0:0:
256,192,143221,1,0,0:0:0:0:
256,192,143415,1,0,0:0:0:0:
256,192,143608,1,8,0:0:0:0:
256,192,143802,1,8,0:0:0:0:
256,192,143899,1,0,0:0:0:0:
256,192,144092,1,8,0:0:0:0:
256,192,144189,1,0,0:0:0:0:
256,192,144382,1,8,0:0:0:0:
256,192,144576,1,8,0:0:0:0:
256,192,144673,1,8,0:0:0:0:
256,192,144769,1,0,0:0:0:0:
256,192,144963,1,8,0:0:0:0:
256,192,145157,1,8,0:0:0:0:
256,192,145350,1,0,0:0:0:0:
256,192,145447,1,0,0:0:0:0:
256,192,145544,1,0,0:0:0:0:
256,192,145737,1,8,0:0:0:0:
256,192,145931,1,8,0:0:0:0:
256,192,146318,1,0,0:0:0:0:
256,192,146511,1,0,0:0:0:0:
256,192,146705,1,8,0:0:0:0:
256,192,146899,1,8,0:0:0:0:
256,192,146995,1,0,0:0:0:0:
256,192,147189,1,8,0:0:0:0:
256,192,147286,1,0,0:0:0:0:
256,192,147479,1,8,0:0:0:0:
256,192,147673,1,8,0:0:0:0:
256,192,147769,1,8,0:0:0:0:
256,192,147866,1,0,0:0:0:0:
256,192,148060,1,8,0:0:0:0:
256,192,148253,1,0,0:0:0:0:
256,192,148447,1,8,0:0:0:0:
256,192,148544,1,8,0:0:0:0:
256,192,148640,1,0,0:0:0:0:
256,192,148834,1,0,0:0:0:0:
256,192,149028,1,8,0:0:0:0:
256,192,149415,1,8,0:0:0:0:
256,192,149705,1,0,0:0:0:0:
256,192,149802,1,8,0:0:0:0:
256,192,149995,1,0,0:0:0:0:
256,192,150189,1,8,0:0:0:0:
256,192,150479,1,0,0:0:0:0:
256,192,150576,1,8,0:0:0:0:
256,192,150769,1,0,0:0:0:0:
256,192,150963,1,8,0:0:0:0:
256,192,151253,1,0,0:0:0:0:
256,192,151350,1,8,0:0:0:0:
256,192,151544,1,0,0:0:0:0:
256,192,151737,1,0,0:0:0:0:
256,192,151931,1,8,0:0:0:0:
256,192,152124,1,8,0:0:0:0:
256,192,152511,1,8,0:0:0:0:
256,192,152802,1,0,0:0:0:0:
256,192,152899,1,8,0:0:0:0:
256,192,153092,1,0,0:0:0:0:
256,192,153286,1,8,0:0:0:0:
256,192,153576,1,0,0:0:0:0:
256,192,153673,1,8,0:0:0:0:
256,192,153866,1,0,0:0:0:0:
256,192,154060,1,8,0:0:0:0:
256,192,154350,1,0,0:0:0:0:
256,192,154447,1,8,0:0:0:0:
256,192,154640,1,0,0:0:0:0:
256,192,154737,1,0,0:0:0:0:
256,192,154834,1,8,0:0:0:0:
256,192,154931,1,8,0:0:0:0:
256,192,155028,1,0,0:0:0:0:
256,192,155221,1,8,0:0:0:0:
256,192,155608,1,8,0:0:0:0:
256,192,155899,1,0,0:0:0:0:
256,192,155995,1,8,0:0:0:0:
256,192,156189,1,0,0:0:0:0:
256,192,156382,1,8,0:0:0:0:
256,192,156673,1,0,0:0:0:0:
256,192,156769,1,8,0:0:0:0:
256,192,156963,1,0,0:0:0:0:
256,192,157157,1,8,0:0:0:0:
256,192,157447,1,0,0:0:0:0:
256,192,157544,1,8,0:0:0:0:
256,192,157737,1,0,0:0:0:0:
256,192,157931,1,8,0:0:0:0:
256,192,158124,1,0,0:0:0:0:
256,192,158318,1,8,0:0:0:0:
256,192,158511,1,0,0:0:0:0:
256,192,158705,1,8,0:0:0:0:
256,192,158899,1,8,0:0:0:0:
256,192,159092,1,8,0:0:0:0:
256,192,159286,1,8,0:0:0:0:
256,192,159479,1,8,0:0:0:0:
256,192,159673,1,8,0:0:0:0:
256,192,159866,1,8,0:0:0:0:
256,192,160060,1,8,0:0:0:0:
256,192,160253,1,8,0:0:0:0:
256,192,160447,1,8,0:0:0:0:
256,192,160640,1,8,0:0:0:0:
256,192,160834,1,8,0:0:0:0:
256,192,161028,1,8,0:0:0:0:
256,192,161221,1,8,0:0:0:0:
256,192,161415,1,8,0:0:0:0:
256,192,161608,1,8,0:0:0:0:
256,192,161802,1,4,0:0:0:0:
256,192,162189,1,8,0:0:0:0:
256,192,162382,1,0,0:0:0:0:
256,192,162769,1,8,0:0:0:0:
256,192,163350,1,4,0:0:0:0:
256,192,163737,1,8,0:0:0:0:
256,192,163931,1,0,0:0:0:0:
256,192,164318,1,8,0:0:0:0:
256,192,164899,1,4,0:0:0:0:
256,192,165286,1,8,0:0:0:0:
256,192,165479,1,0,0:0:0:0:
256,192,165866,1,8,0:0:0:0:
256,192,166447,1,4,0:0:0:0:
256,192,166834,1,8,0:0:0:0:
256,192,167028,1,0,0:0:0:0:
256,192,167221,1,8,0:0:0:0:
256,192,167608,1,8,0:0:0:0:
256,192,167995,1,8,0:0:0:0:
256,192,168189,1,0,0:0:0:0:
256,192,168286,1,0,0:0:0:0:
256,192,168382,1,8,0:0:0:0:
256,192,168576,1,0,0:0:0:0:
256,192,168673,1,0,0:0:0:0:
256,192,168769,1,8,0:0:0:0:
256,192,168963,1,0,0:0:0:0:
256,192,169060,1,0,0:0:0:0:
256,192,169157,1,8,0:0:0:0:
256,192,169350,1,0,0:0:0:0:
256,192,169447,1,0,0:0:0:0:
256,192,169544,1,8,0:0:0:0:
256,192,169737,1,8,0:0:0:0:
256,192,169834,1,0,0:0:0:0:
256,192,169931,1,8,0:0:0:0:
256,192,170124,1,8,0:0:0:0:
256,192,170221,1,0,0:0:0:0:
256,192,170318,1,8,0:0:0:0:
256,192,170511,1,8,0:0:0:0:
256,192,170608,1,0,0:0:0:0:
256,192,170705,1,8,0:0:0:0:
256,192,170899,1,8,0:0:0:0:
256,192,170995,1,0,0:0:0:0:
256,192,171092,1,8,0:0:0:0:
256,192,171189,1,8,0:0:0:0:
256,192,171286,1,8,0:0:0:0:
256,192,171479,1,8,0:0:0:0:
256,192,171576,1,8,0:0:0:0:
256,192,171673,1,8,0:0:0:0:
256,192,171866,1,8,0:0:0:0:
256,192,171963,1,8,0:0:0:0:
256,192,172060,1,8,0:0:0:0:
256,192,172253,1,8,0:0:0:0:
256,192,172350,1,8,0:0:0:0:
256,192,172447,1,8,0:0:0:0:
256,192,172544,1,8,0:0:0:0:
256,192,172640,1,0,0:0:0:0:
256,192,174189,5,4,0:0:0:0:
256,192,174576,1,0,0:0:0:0:
256,192,174673,1,0,0:0:0:0:
256,192,174769,1,8,0:0:0:0:
256,192,174963,1,0,0:0:0:0:
256,192,175060,1,0,0:0:0:0:
256,192,175157,1,8,0:0:0:0:
256,192,175350,1,0,0:0:0:0:
256,192,175447,1,0,0:0:0:0:
256,192,175544,1,8,0:0:0:0:
256,192,175737,1,0,0:0:0:0:
256,192,175834,1,0,0:0:0:0:
256,192,175931,1,8,0:0:0:0:
256,192,176124,1,0,0:0:0:0:
256,192,176221,1,0,0:0:0:0:
256,192,176318,1,8,0:0:0:0:
256,192,176415,1,0,0:0:0:0:
256,192,176511,1,8,0:0:0:0:
256,192,176705,1,8,0:0:0:0:
256,192,176802,1,8,0:0:0:0:
256,192,176995,1,8,0:0:0:0:
256,192,177092,1,8,0:0:0:0:
256,192,177286,1,4,0:0:0:0:
256,192,177673,1,0,0:0:0:0:
256,192,177866,1,8,0:0:0:0:
256,192,177963,1,8,0:0:0:0:
256,192,178060,1,0,0:0:0:0:
256,192,178253,1,8,0:0:0:0:
256,192,178350,1,8,0:0:0:0:
256,192,178447,1,0,0:0:0:0:
256,192,178640,1,8,0:0:0:0:
256,192,178737,1,8,0:0:0:0:
256,192,178834,1,0,0:0:0:0:
256,192,179028,1,8,0:0:0:0:
256,192,179124,1,8,0:0:0:0:
256,192,179221,1,0,0:0:0:0:
256,192,179318,1,0,0:0:0:0:
256,192,179415,1,8,0:0:0:0:
256,192,179608,1,0,0:0:0:0:
256,192,179802,1,8,0:0:0:0:
256,192,179995,1,0,0:0:0:0:
256,192,180189,1,8,0:0:0:0:
256,192,180382,1,4,0:0:0:0:
256,192,180769,1,0,0:0:0:0:
256,192,180866,1,0,0:0:0:0:
256,192,180963,1,8,0:0:0:0:
256,192,181157,1,0,0:0:0:0:
256,192,181253,1,0,0:0:0:0:
256,192,181350,1,8,0:0:0:0:
256,192,181544,1,0,0:0:0:0:
256,192,181640,1,0,0:0:0:0:
256,192,181737,1,8,0:0:0:0:
256,192,181931,1,0,0:0:0:0:
256,192,182028,1,0,0:0:0:0:
256,192,182124,1,8,0:0:0:0:
256,192,182318,1,0,0:0:0:0:
256,192,182415,1,0,0:0:0:0:
256,192,182511,1,8,0:0:0:0:
256,192,182608,1,0,0:0:0:0:
256,192,182705,1,8,0:0:0:0:
256,192,182899,1,8,0:0:0:0:
256,192,182995,1,8,0:0:0:0:
256,192,183189,1,8,0:0:0:0:
256,192,183286,1,8,0:0:0:0:
256,192,183479,1,0,0:0:0:0:
256,192,183866,1,0,0:0:0:0:
256,192,183963,1,0,0:0:0:0:
256,192,184060,1,8,0:0:0:0:
256,192,184253,1,0,0:0:0:0:
256,192,184447,1,8,0:0:0:0:
256,192,184544,1,8,0:0:0:0:
256,192,184640,1,0,0:0:0:0:
256,192,184834,1,8,0:0:0:0:
256,192,185028,1,0,0:0:0:0:
256,192,185221,1,8,0:0:0:0:
256,192,185415,1,0,0:0:0:0:
256,192,185608,1,8,0:0:0:0:
256,192,185802,1,0,0:0:0:0:
256,192,186189,1,0,0:0:0:0:
256,192,186576,1,4,0:0:0:0:
256,192,186963,1,8,0:0:0:0:
256,192,187060,1,0,0:0:0:0:
256,192,187157,1,8,0:0:0:0:
256,192,187350,1,0,0:0:0:0:
256,192,187447,1,0,0:0:0:0:
256,192,187544,1,8,0:0:0:0:
256,192,187737,1,8,0:0:0:0:
256,192,187834,1,0,0:0:0:0:
256,192,187931,1,8,0:0:0:0:
256,192,188124,1,0,0:0:0:0:
256,192,188221,1,0,0:0:0:0:
256,192,188318,1,8,0:0:0:0:
256,192,188511,1,8,0:0:0:0:
256,192,188608,1,0,0:0:0:0:
256,192,188705,1,8,0:0:0:0:
256,192,188802,1,0,0:0:0:0:
256,192,188899,1,8,0:0:0:0:
256,192,189092,1,8,0:0:0:0:
256,192,189189,1,8,0:0:0:0:
256,192,189382,1,8,0:0:0:0:
256,192,189479,1,8,0:0:0:0:
256,192,189673,1,4,0:0:0:0:
256,192,190060,1,0,0:0:0:0:
256,192,190253,1,8,0:0:0:0:
256,192,190350,1,8,0:0:0:0:
256,192,190447,1,0,0:0:0:0:
256,192,190640,1,8,0:0:0:0:
256,192,190737,1,8,0:0:0:0:
256,192,190834,1,0,0:0:0:0:
256,192,191028,1,8,0:0:0:0:
256,192,191124,1,8,0:0:0:0:
256,192,191221,1,0,0:0:0:0:
256,192,191415,1,8,0:0:0:0:
256,192,191511,1,8,0:0:0:0:
256,192,191608,1,0,0:0:0:0:
256,192,191705,1,0,0:0:0:0:
256,192,191802,1,8,0:0:0:0:
256,192,191995,1,0,0:0:0:0:
256,192,192189,1,0,0:0:0:0:
256,192,192382,1,8,0:0:0:0:
256,192,192576,1,8,0:0:0:0:
256,192,192769,1,4,0:0:0:0:
256,192,192963,1,0,0:0:0:0:
256,192,193060,1,0,0:0:0:0:
256,192,193157,1,8,0:0:0:0:
256,192,193350,1,8,0:0:0:0:
256,192,193544,1,0,0:0:0:0:
256,192,193640,1,0,0:0:0:0:
256,192,193737,1,8,0:0:0:0:
256,192,193931,1,8,0:0:0:0:
256,192,194318,1,0,0:0:0:0:
256,192,194511,1,0,0:0:0:0:
256,192,194608,1,0,0:0:0:0:
256,192,194705,1,8,0:0:0:0:
256,192,194899,1,8,0:0:0:0:
256,192,195092,1,0,0:0:0:0:
256,192,195189,1,0,0:0:0:0:
256,192,195286,1,8,0:0:0:0:
256,192,195479,1,8,0:0:0:0:
256,192,195866,1,0,0:0:0:0:
256,192,196060,1,0,0:0:0:0:
256,192,196157,1,0,0:0:0:0:
256,192,196253,1,8,0:0:0:0:
256,192,196350,1,8,0:0:0:0:
256,192,196447,1,8,0:0:0:0:
256,192,196640,1,0,0:0:0:0:
256,192,196737,1,0,0:0:0:0:
256,192,196834,1,8,0:0:0:0:
256,192,196931,1,8,0:0:0:0:
256,192,197028,1,8,0:0:0:0:
256,192,197221,1,8,0:0:0:0:
256,192,197318,1,8,0:0:0:0:
256,192,197415,1,0,0:0:0:0:
256,192,197802,1,8,0:0:0:0:
256,192,197995,1,0,0:0:0:0:
256,192,198189,1,8,0:0:0:0:
256,192,198382,1,8,0:0:0:0:
256,192,198576,1,0,0:0:0:0:
256,192,198963,5,4,0:0:0:0:
256,192,199157,5,0,0:0:0:0:
256,192,199253,1,0,0:0:0:0:
256,192,199350,1,8,0:0:0:0:
256,192,199447,1,8,0:0:0:0:
256,192,199544,1,0,0:0:0:0:
256,192,199737,1,8,0:0:0:0:
256,192,199834,1,8,0:0:0:0:
256,192,199931,1,0,0:0:0:0:
256,192,200028,1,0,0:0:0:0:
256,192,200124,1,8,0:0:0:0:
256,192,200511,1,0,0:0:0:0:
256,192,200705,1,0,0:0:0:0:
256,192,200802,1,0,0:0:0:0:
256,192,200899,1,8,0:0:0:0:
256,192,201092,1,0,0:0:0:0:
256,192,201189,1,0,0:0:0:0:
256,192,201286,1,8,0:0:0:0:
256,192,201479,1,8,0:0:0:0:
256,192,201576,1,8,0:0:0:0:
256,192,201769,1,8,0:0:0:0:
256,192,201866,1,8,0:0:0:0:
256,192,202060,1,4,0:0:0:0:
256,192,202253,1,0,0:0:0:0:
256,192,202350,1,0,0:0:0:0:
256,192,202447,1,8,0:0:0:0:
256,192,202544,1,8,0:0:0:0:
256,192,202640,1,0,0:0:0:0:
256,192,202834,1,8,0:0:0:0:
256,192,202931,1,8,0:0:0:0:
256,192,203028,1,0,0:0:0:0:
256,192,203124,1,0,0:0:0:0:
256,192,203221,1,8,0:0:0:0:
256,192,203608,1,0,0:0:0:0:
256,192,203802,1,0,0:0:0:0:
256,192,203899,1,0,0:0:0:0:
256,192,203995,1,8,0:0:0:0:
256,192,204189,1,0,0:0:0:0:
256,192,204286,1,0,0:0:0:0:
256,192,204382,1,8,0:0:0:0:
256,192,204576,1,8,0:0:0:0:
256,192,204673,1,8,0:0:0:0:
256,192,204866,1,8,0:0:0:0:
256,192,204963,1,8,0:0:0:0:
256,192,205157,1,4,0:0:0:0:
256,192,205350,1,0,0:0:0:0:
256,192,205447,1,0,0:0:0:0:
256,192,205544,1,8,0:0:0:0:
256,192,205640,1,8,0:0:0:0:
256,192,205737,1,0,0:0:0:0:
256,192,205931,1,8,0:0:0:0:
256,192,206028,1,8,0:0:0:0:
256,192,206124,1,0,0:0:0:0:
256,192,206221,1,0,0:0:0:0:
256,192,206318,1,8,0:0:0:0:
256,192,206705,1,0,0:0:0:0:
256,192,206899,1,0,0:0:0:0:
256,192,206995,1,0,0:0:0:0:
256,192,207092,1,8,0:0:0:0:
256,192,207286,1,0,0:0:0:0:
256,192,207382,1,0,0:0:0:0:
256,192,207479,1,8,0:0:0:0:
256,192,207673,1,8,0:0:0:0:
256,192,207769,1,8,0:0:0:0:
256,192,207963,1,8,0:0:0:0:
256,192,208060,1,8,0:0:0:0:
256,192,208253,1,0,0:0:0:0:
256,192,208640,1,0,0:0:0:0:
256,192,208737,1,0,0:0:0:0:
256,192,208834,1,8,0:0:0:0:
256,192,209028,1,0,0:0:0:0:
256,192,209221,1,8,0:0:0:0:
256,192,209318,1,8,0:0:0:0:
256,192,209415,1,0,0:0:0:0:
256,192,209608,1,8,0:0:0:0:
256,192,209802,1,0,0:0:0:0:
256,192,209931,1,0,0:0:0:0:
256,192,210060,1,0,0:0:0:0:
256,192,210189,1,0,0:0:0:0:
256,192,210318,1,0,0:0:0:0:
256,192,210447,1,0,0:0:0:0:
256,192,210576,1,0,0:0:0:0:
256,192,211350,1,4,0:0:0:0:
256,192,211608,1,0,0:0:0:0:
256,192,211737,1,8,0:0:0:0:
256,192,211866,1,8,0:0:0:0:
256,192,211995,1,0,0:0:0:0:
256,192,212124,1,8,0:0:0:0:
256,192,212253,1,8,0:0:0:0:
256,192,212382,1,0,0:0:0:0:
256,192,212511,1,8,0:0:0:0:
256,192,212899,1,0,0:0:0:0:
256,192,213157,1,0,0:0:0:0:
256,192,213286,1,8,0:0:0:0:
256,192,213415,1,8,0:0:0:0:
256,192,213544,1,0,0:0:0:0:
256,192,213673,1,8,0:0:0:0:
256,192,213931,1,8,0:0:0:0:
256,192,214189,1,8,0:0:0:0:
256,192,214447,1,4,0:0:0:0:
256,192,214705,1,0,0:0:0:0:
256,192,214834,1,8,0:0:0:0:
256,192,214963,1,8,0:0:0:0:
256,192,215092,1,0,0:0:0:0:
256,192,215221,1,8,0:0:0:0:
256,192,215350,1,8,0:0:0:0:
256,192,215479,1,0,0:0:0:0:
256,192,215608,1,8,0:0:0:0:
256,192,215995,1,0,0:0:0:0:
256,192,216253,1,0,0:0:0:0:
256,192,216382,1,8,0:0:0:0:
256,192,216511,1,8,0:0:0:0:
256,192,216640,1,0,0:0:0:0:
256,192,216769,1,8,0:0:0:0:
256,192,216963,1,0,0:0:0:0:
256,192,217157,1,8,0:0:0:0:
256,192,217350,1,8,0:0:0:0:
256,192,217544,1,4,0:0:0:0:
256,192,217737,1,0,0:0:0:0:
256,192,217834,1,0,0:0:0:0:
256,192,217931,1,8,0:0:0:0:
256,192,218028,1,8,0:0:0:0:
256,192,218124,1,0,0:0:0:0:
256,192,218221,1,0,0:0:0:0:
256,192,218318,1,8,0:0:0:0:
256,192,218415,1,8,0:0:0:0:
256,192,218511,1,0,0:0:0:0:
256,192,218608,1,0,0:0:0:0:
256,192,218705,1,8,0:0:0:0:
256,192,219092,1,0,0:0:0:0:
256,192,219286,1,0,0:0:0:0:
256,192,219382,1,0,0:0:0:0:
256,192,219479,1,8,0:0:0:0:
256,192,219673,1,0,0:0:0:0:
256,192,219769,1,0,0:0:0:0:
256,192,219866,1,8,0:0:0:0:
256,192,220060,1,8,0:0:0:0:
256,192,220157,1,8,0:0:0:0:
256,192,220350,1,8,0:0:0:0:
256,192,220447,1,8,0:0:0:0:
256,192,220640,1,0,0:0:0:0:
256,192,220834,1,0,0:0:0:0:
256,192,220931,1,0,0:0:0:0:
256,192,221028,1,8,0:0:0:0:
256,192,221124,1,8,0:0:0:0:
256,192,221221,1,0,0:0:0:0:
256,192,221415,1,0,0:0:0:0:
256,192,221608,1,8,0:0:0:0:
256,192,221705,1,0,0:0:0:0:
256,192,221802,1,8,0:0:0:0:
256,192,221899,1,8,0:0:0:0:
256,192,221995,1,0,0:0:0:0:
256,192,222189,1,0,0:0:0:0:
256,192,222479,1,0,0:0:0:0:
256,192,222769,1,0,0:0:0:0:
256,192,223157,1,0,0:0:0:0:
256,192,223350,1,8,0:0:0:0:
256,192,223544,1,8,0:0:0:0:
256,192,223737,1,4,0:0:0:0:
256,192,223931,1,8,0:0:0:0:
256,192,224028,1,8,0:0:0:0:
256,192,224124,1,0,0:0:0:0:
256,192,224318,1,0,0:0:0:0:
256,192,224511,1,8,0:0:0:0:
256,192,224608,1,8,0:0:0:0:
256,192,224705,1,0,0:0:0:0:
256,192,224899,1,0,0:0:0:0:
256,192,224995,1,0,0:0:0:0:
256,192,225092,1,8,0:0:0:0:
256,192,225286,1,0,0:0:0:0:
256,192,225479,1,8,0:0:0:0:
256,192,225673,1,8,0:0:0:0:
256,192,225866,1,0,0:0:0:0:
256,192,226060,1,8,0:0:0:0:
256,192,226253,1,0,0:0:0:0:
256,192,226447,1,8,0:0:0:0:
256,192,226834,1,4,0:0:0:0:
256,192,227028,1,8,0:0:0:0:
256,192,227124,1,8,0:0:0:0:
256,192,227221,1,0,0:0:0:0:
256,192,227415,1,0,0:0:0:0:
256,192,227608,1,8,0:0:0:0:
256,192,227705,1,8,0:0:0:0:
256,192,227802,1,0,0:0:0:0:
256,192,227995,1,0,0:0:0:0:
256,192,228092,1,0,0:0:0:0:
256,192,228189,1,8,0:0:0:0:
256,192,228382,1,0,0:0:0:0:
256,192,228576,1,8,0:0:0:0:
256,192,228769,1,0,0:0:0:0:
256,192,228963,1,0,0:0:0:0:
256,192,229060,1,0,0:0:0:0:
256,192,229157,1,8,0:0:0:0:
256,192,229350,1,0,0:0:0:0:
256,192,229544,1,8,0:0:0:0:
256,192,229931,1,4,0:0:0:0:
256,192,230124,1,8,0:0:0:0:
256,192,230221,1,8,0:0:0:0:
256,192,230318,1,0,0:0:0:0:
256,192,230511,1,0,0:0:0:0:
256,192,230705,1,8,0:0:0:0:
256,192,230802,1,8,0:0:0:0:
256,192,230899,1,0,0:0:0:0:
256,192,231092,1,0,0:0:0:0:
256,192,231189,1,0,0:0:0:0:
256,192,231286,1,8,0:0:0:0:
256,192,231479,1,0,0:0:0:0:
256,192,231673,1,8,0:0:0:0:
256,192,231866,1,8,0:0:0:0:
256,192,232060,1,0,0:0:0:0:
256,192,232253,1,8,0:0:0:0:
256,192,232447,1,0,0:0:0:0:
256,192,232640,1,8,0:0:0:0:
256,192,233028,1,4,0:0:0:0:
256,192,233221,1,8,0:0:0:0:
256,192,233318,1,8,0:0:0:0:
256,192,233415,1,0,0:0:0:0:
256,192,233608,1,0,0:0:0:0:
256,192,233802,1,8,0:0:0:0:
256,192,233995,1,0,0:0:0:0:
256,192,234092,1,0,0:0:0:0:
256,192,234189,1,8,0:0:0:0:
256,192,234382,1,8,0:0:0:0:
256,192,234576,1,0,0:0:0:0:
256,192,234769,1,8,0:0:0:0:
256,192,234963,1,0,0:0:0:0:
256,192,235157,1,0,0:0:0:0:
256,192,235253,1,0,0:0:0:0:
256,192,235350,1,8,0:0:0:0:
256,192,235544,1,0,0:0:0:0:
256,192,235640,1,8,0:0:0:0:
256,192,235834,1,0,0:0:0:0:
256,192,235931,1,8,0:0:0:0:
256,192,236124,1,0,0:0:0:0:
256,192,236415,1,0,0:0:0:0:
256,192,236608,1,0,0:0:0:0:
256,192,236705,1,0,0:0:0:0:
256,192,236899,1,8,0:0:0:0:
256,192,236995,1,8,0:0:0:0:
256,192,237092,1,8,0:0:0:0:
256,192,237189,1,8,0:0:0:0:
256,192,237286,1,8,0:0:0:0:
256,192,237479,1,0,0:0:0:0:
256,192,237576,1,0,0:0:0:0:
256,192,237673,1,0,0:0:0:0:
256,192,237866,1,8,0:0:0:0:
256,192,238060,1,8,0:0:0:0:
256,192,238253,1,0,0:0:0:0:
256,192,238447,1,8,0:0:0:0:
256,192,238640,1,0,0:0:0:0:
256,192,238834,1,8,0:0:0:0:
256,192,239221,1,4,0:0:0:0:
256,192,239415,1,8,0:0:0:0:
256,192,239511,1,8,0:0:0:0:
256,192,239608,1,8,0:0:0:0:
256,192,239802,1,0,0:0:0:0:
256,192,239995,1,8,0:0:0:0:
256,192,240092,1,8,0:0:0:0:
256,192,240189,1,8,0:0:0:0:
256,192,240286,1,8,0:0:0:0:
256,192,240382,1,8,0:0:0:0:
256,192,240576,1,0,0:0:0:0:
256,192,240673,1,0,0:0:0:0:
256,192,240769,1,0,0:0:0:0:
256,192,240963,1,8,0:0:0:0:
256,192,241157,1,0,0:0:0:0:
256,192,241253,1,0,0:0:0:0:
256,192,241350,1,0,0:0:0:0:
256,192,241544,1,8,0:0:0:0:
256,192,241737,1,0,0:0:0:0:
256,192,241931,1,8,0:0:0:0:
256,192,242028,1,8,0:0:0:0:
256,192,242124,1,8,0:0:0:0:
256,192,242318,1,4,0:0:0:0:
256,192,242511,1,0,0:0:0:0:
256,192,242608,1,0,0:0:0:0:
256,192,242705,1,0,0:0:0:0:
256,192,242899,1,8,0:0:0:0:
256,192,243092,1,8,0:0:0:0:
256,192,243189,1,8,0:0:0:0:
256,192,243286,1,8,0:0:0:0:
256,192,243382,1,8,0:0:0:0:
256,192,243479,1,8,0:0:0:0:
256,192,243673,1,0,0:0:0:0:
256,192,243769,1,0,0:0:0:0:
256,192,243866,1,0,0:0:0:0:
256,192,244060,1,8,0:0:0:0:
256,192,244253,1,8,0:0:0:0:
256,192,244447,1,0,0:0:0:0:
256,192,244640,1,8,0:0:0:0:
256,192,244834,1,0,0:0:0:0:
256,192,245028,1,8,0:0:0:0:
256,192,245415,1,4,0:0:0:0:
256,192,245608,1,8,0:0:0:0:
256,192,245705,1,0,0:0:0:0:
256,192,245899,1,0,0:0:0:0:
256,192,245995,1,8,0:0:0:0:
256,192,246189,1,0,0:0:0:0:
256,192,246382,1,8,0:0:0:0:
256,192,246479,1,0,0:0:0:0:
256,192,246673,1,0,0:0:0:0:
256,192,246769,1,8,0:0:0:0:
256,192,246866,1,8,0:0:0:0:
256,192,246963,1,0,0:0:0:0:
256,192,247157,1,8,0:0:0:0:
256,192,247253,1,0,0:0:0:0:
256,192,247447,1,0,0:0:0:0:
256,192,247544,1,8,0:0:0:0:
256,192,247737,1,0,0:0:0:0:
256,192,247931,1,8,0:0:0:0:
256,192,248124,1,8,0:0:0:0:
256,192,248511,1,12,0:0:0:0:
256,192,249092,1,0,0:0:0:0:
256,192,249479,1,8,0:0:0:0:
256,192,249866,1,8,0:0:0:0:
256,192,250253,1,8,0:0:0:0:
256,192,250447,1,8,0:0:0:0:
256,192,250640,1,8,0:0:0:0:
256,192,250834,1,8,0:0:0:0:
256,192,251028,1,8,0:0:0:0:
256,192,251608,1,8,0:0:0:0:
256,192,252189,1,0,0:0:0:0:
256,192,252576,1,8,0:0:0:0:
256,192,252963,1,0,0:0:0:0:
256,192,253350,1,8,0:0:0:0:
256,192,253544,1,8,0:0:0:0:
256,192,253737,1,8,0:0:0:0:
256,192,253931,1,8,0:0:0:0:
256,192,254124,1,8,0:0:0:0:
256,192,254318,1,0,0:0:0:0:
256,192,254705,1,8,0:0:0:0:
256,192,255286,1,0,0:0:0:0:
256,192,255673,1,8,0:0:0:0:
256,192,256060,1,8,0:0:0:0:
256,192,256447,1,8,0:0:0:0:
256,192,256640,1,8,0:0:0:0:
256,192,256834,1,8,0:0:0:0:
256,192,257028,1,8,0:0:0:0:
256,192,257221,1,8,0:0:0:0:
256,192,257802,1,8,0:0:0:0:
256,192,258382,1,0,0:0:0:0:
256,192,258769,1,8,0:0:0:0:
256,192,259157,1,0,0:0:0:0:
256,192,259544,1,8,0:0:0:0:
256,192,259737,1,8,0:0:0:0:
256,192,259931,1,8,0:0:0:0:
256,192,260124,1,8,0:0:0:0:
256,192,260318,1,8,0:0:0:0:
256,192,260511,1,0,0:0:0:0:
256,192,260899,1,8,0:0:0:0:
256,192,261479,1,8,0:0:0:0:
256,192,261866,1,8,0:0:0:0:
256,192,262253,1,8,0:0:0:0:
256,192,262640,1,8,0:0:0:0:
256,192,262834,1,8,0:0:0:0:
256,192,263028,1,8,0:0:0:0:
256,192,263221,1,8,0:0:0:0:
256,192,263415,1,8,0:0:0:0:
256,192,263995,1,0,0:0:0:0:
256,192,264576,1,0,0:0:0:0:
256,192,264963,1,0,0:0:0:0:
256,192,265350,1,0,0:0:0:0:
256,192,265737,1,0,0:0:0:0:
256,192,265931,1,0,0:0:0:0:
256,192,266124,1,0,0:0:0:0:
256,192,266318,1,0,0:0:0:0:
256,192,266511,1,0,0:0:0:0:
256,192,266705,1,0,0:0:0:0:
256,192,267092,1,8,0:0:0:0:
256,192,267673,1,8,0:0:0:0:
256,192,268060,1,8,0:0:0:0:
256,192,268447,1,8,0:0:0:0:
256,192,268834,1,8,0:0:0:0:
256,192,269028,1,8,0:0:0:0:
256,192,269221,1,8,0:0:0:0:
256,192,269415,1,8,0:0:0:0:
256,192,269608,1,8,0:0:0:0:
256,192,270189,1,0,0:0:0:0:
256,192,270769,1,0,0:0:0:0:
256,192,271157,1,0,0:0:0:0:
256,192,271544,1,0,0:0:0:0:
256,192,271931,1,0,0:0:0:0:
256,192,272124,1,0,0:0:0:0:
256,192,272318,1,0,0:0:0:0:
256,192,272511,1,0,0:0:0:0:
256,192,272705,1,0,0:0:0:0:
256,192,272899,1,0,0:0:0:0:
256,192,273092,1,0,0:0:0:0:
256,192,273286,1,0,0:0:0:0:
256,192,273479,1,0,0:0:0:0:
256,192,273673,1,0,0:0:0:0:
256,192,273866,1,0,0:0:0:0:
256,192,274060,1,0,0:0:0:0:
256,192,274253,1,0,0:0:0:0:
256,192,274447,1,0,0:0:0:0:
256,192,274640,1,0,0:0:0:0:
256,192,274834,1,0,0:0:0:0:
256,192,275028,1,0,0:0:0:0:
256,192,275221,1,0,0:0:0:0:
256,192,275415,1,0,0:0:0:0:
256,192,275608,1,0,0:0:0:0:
256,192,275802,1,0,0:0:0:0:
256,192,275995,1,0,0:0:0:0:
256,192,276189,1,0,0:0:0:0:
256,192,276382,1,0,0:0:0:0:
