osu file format v14

[General]
AudioFilename: audio.mp3
AudioLeadIn: 0
PreviewTime: -1
Countdown: 0
SampleSet: None
StackLeniency: 0.7
Mode: 3
LetterboxInBreaks: 0
SpecialStyle: 0
WidescreenStoryboard: 1

[Editor]
DistanceSpacing: 0.5
BeatDivisor: 4
GridSize: 4
TimelineZoom: 1.9

[Metadata]
Title:senpai, notice me!
TitleUnicode:senpai, notice me!
Artist:Camellia feat. Nanahira
ArtistUnicode:かめりあ & ななひら
Creator:Slowless-
Version:severino, notice me!
Source:
Tags:camellia ft nanahira senpai notice me j-core hard sv thrill jack
BeatmapID:1868031
BeatmapSetID:893417

[Difficulty]
HPDrainRate:8
CircleSize:4
OverallDifficulty:1
ApproachRate:5
SliderMultiplier:1.4
SliderTickRate:1

[Events]
//Background and Video events
0,0,"4orce.png",0,0
//Break Periods
//Storyboard Layer 0 (Background)
//Storyboard Layer 1 (Fail)
//Storyboard Layer 2 (Pass)
//Storyboard Layer 3 (Foreground)
//Storyboard Sound Samples

[TimingPoints]
774,387.096774193548,4,2,1,10,1,0
774,-125,4,2,1,10,0,0
10064,-111.111111111111,4,2,1,10,0,0
11612,-100,4,2,1,10,0,0
12773,-416.667,4,2,0,5,0,0
12852.5,-22.4104,4,2,0,5,0,0
12870,-100,4,2,0,5,0,0
18967,-48.5437,4,2,0,5,0,0
19087,-190.924,4,2,0,5,0,0
19354,-100,4,2,0,5,0,0
22064,-48.5437,4,2,0,5,0,0
22184,-190.924,4,2,0,5,0,0
22451,-100,4,2,0,5,0,0
25161,-48.5437,4,2,0,5,0,0
25281,-190.924,4,2,0,5,0,0
25548,-48.5437,4,2,0,5,0,0
25637.9,-190.924,4,2,0,5,0,0
25838,-48.5437,4,2,0,5,0,0
25868.1,-190.924,4,2,0,5,0,0
25935,-48.5437,4,2,0,5,0,0
25994.8,-190.924,4,2,0,5,0,0
26128,-48.5437,4,2,0,5,0,0
26188.1,-190.924,4,2,0,5,0,0
26322,-48.5437,4,2,0,5,0,0
26411.9,-190.924,4,2,0,5,0,0
26612,-48.5437,4,2,0,5,0,0
26642.1,-190.924,4,2,0,5,0,0
26709,-48.5437,4,2,0,5,0,0
26769.1,-190.924,4,2,0,5,0,0
26903,-48.5437,4,2,0,5,0,0
26962.8,-190.924,4,2,0,5,0,0
27096,-48.5437,4,2,0,5,0,0
27156.1,-190.924,4,2,0,5,0,0
27290,-48.5437,4,2,0,5,0,0
27319.8,-190.924,4,2,0,5,0,0
27386,-48.5437,4,2,0,5,0,0
27416.1,-190.924,4,2,0,5,0,0
27483,-48.5437,4,2,0,5,0,0
27543.1,-190.924,4,2,0,5,0,0
27677,-48.5437,4,2,0,5,0,0
27736.8,-190.924,4,2,0,5,0,0
27870,-48.5437,4,2,0,5,0,0
27930.1,-190.924,4,2,0,5,0,0
28064,-48.5437,4,2,0,5,0,0
28094.1,-190.924,4,2,0,5,0,0
28161,-48.5437,4,2,0,5,0,0
28190.8,-190.924,4,2,0,5,0,0
28257,-48.5437,4,2,0,5,0,0
28317.1,-190.924,4,2,0,5,0,0
28451,-48.5437,4,2,0,5,0,0
28510.8,-190.924,4,2,0,5,0,0
28644,-48.5437,4,2,0,5,0,0
28734.2,-190.924,4,2,0,5,0,0
28935,-48.5437,4,2,0,5,0,0
28965.1,-190.924,4,2,0,5,0,0
29032,-48.5437,4,2,0,5,0,0
29091.8,-190.924,4,2,0,5,0,0
29225,-48.5437,4,2,0,5,0,0
29285.1,-190.924,4,2,0,5,0,0
29419,-48.5437,4,2,0,5,0,0
29508.9,-190.924,4,2,0,5,0,0
29709,-48.5437,4,2,0,5,0,0
29739.1,-190.924,4,2,0,5,0,0
29806,-48.5437,4,2,0,5,0,0
29865.8,-190.924,4,2,0,5,0,0
29999,-48.5437,4,2,0,5,0,0
30059.1,-190.924,4,2,0,5,0,0
30193,-48.5437,4,2,0,5,0,0
30252.8,-190.924,4,2,0,5,0,0
30386,-48.5437,4,2,0,5,0,0
30416.1,-190.924,4,2,0,5,0,0
30483,-48.5437,4,2,0,5,0,0
30513.1,-190.924,4,2,0,5,0,0
30580,-48.5437,4,2,0,5,0,0
30639.8,-190.924,4,2,0,5,0,0
30773,-48.5437,4,2,0,5,0,0
30833.1,-190.924,4,2,0,5,0,0
30967,-48.5437,4,2,0,5,0,0
31027.1,-190.924,4,2,0,5,0,0
31161,-48.5437,4,2,0,5,0,0
31190.8,-190.924,4,2,0,5,0,0
31257,-48.5437,4,2,0,5,0,0
31287.1,-190.924,4,2,0,5,0,0
31354,-48.5437,4,2,0,5,0,0
31384.1,-190.924,4,2,0,5,0,0
31451,-48.5437,4,2,0,5,0,0
31481.1,-190.924,4,2,0,5,0,0
31548,-48.5437,4,2,0,5,0,0
31577.8,-190.924,4,2,0,5,0,0
31644,-48.5437,4,2,0,5,0,0
31674.1,-190.924,4,2,0,5,0,0
31741,-48.5437,4,2,0,5,0,0
31801.1,-190.924,4,2,0,5,0,0
31935,-48.5437,4,2,0,5,0,0
31965.1,-190.924,4,2,0,5,0,0
32032,-48.5437,4,2,0,5,0,0
32061.8,-190.924,4,2,0,5,0,0
32128,-48.5437,4,2,0,5,0,0
32188.1,-190.924,4,2,0,5,0,0
32322,-48.5437,4,2,0,5,0,0
32352.1,-190.924,4,2,0,5,0,0
32419,-48.5437,4,2,0,5,0,0
32448.8,-190.924,4,2,0,5,0,0
32515,-48.5437,4,2,0,5,0,0
32575.1,-190.924,4,2,0,5,0,0
32709,-48.5437,4,2,0,5,0,0
32739.1,-190.924,4,2,0,5,0,0
32806,-48.5437,4,2,0,5,0,0
32836.1,-190.924,4,2,0,5,0,0
32903,-48.5437,4,2,0,5,0,0
32962.8,-190.924,4,2,0,5,0,0
33096,-48.5437,4,2,0,5,0,0
33126.1,-190.924,4,2,0,5,0,0
33193,-48.5437,4,2,0,5,0,0
33223.1,-190.924,4,2,0,5,0,0
33290,-48.5437,4,2,0,5,0,0
33349.8,-190.924,4,2,0,5,0,0
33483,-48.5437,4,2,0,5,0,0
33513.1,-190.924,4,2,0,5,0,0
33580,-48.5437,4,2,0,5,0,0
33610.1,-190.924,4,2,0,5,0,0
33677,-48.5437,4,2,0,5,0,0
33736.8,-190.924,4,2,0,5,0,0
33870,-48.5437,4,2,0,5,0,0
33900.1,-190.924,4,2,0,5,0,0
33967,-48.5437,4,2,0,5,0,0
33997.1,-190.924,4,2,0,5,0,0
34064,-48.5437,4,2,0,5,0,0
34123.8,-190.924,4,2,0,5,0,0
34257,-48.5437,4,2,0,5,0,0
34287.1,-190.924,4,2,0,5,0,0
34354,-48.5437,4,2,0,5,0,0
34384.1,-190.924,4,2,0,5,0,0
34451,-48.5437,4,2,0,5,0,0
34481.1,-190.924,4,2,0,5,0,0
34548,-48.5437,4,2,0,5,0,0
34577.8,-190.924,4,2,0,5,0,0
34644,-48.5437,4,2,0,5,0,0
34674.1,-190.924,4,2,0,5,0,0
34741,-100,4,2,0,5,0,0
34838,-18.8324,4,2,0,5,0,0
34853.5,-558.511,4,2,0,5,0,0
34935,-18.8324,4,2,0,5,0,0
34950.5,-558.511,4,2,0,5,0,0
35032,-18.8324,4,2,0,5,0,0
35047.4,-558.511,4,2,0,5,0,0
35128,-18.8324,4,2,0,5,0,0
35143.5,-558.511,4,2,0,5,0,0
35225,-18.8324,4,2,0,5,0,0
35240.5,-558.511,4,2,0,5,0,0
35322,-18.8324,4,2,0,5,0,0
35337.5,-558.511,4,2,0,5,0,0
35419,-18.8324,4,2,0,5,0,0
35434.4,-558.511,4,2,0,5,0,0
35515,-18.8324,4,2,0,5,0,0
35530.5,-558.511,4,2,0,5,0,0
35612,-18.8324,4,2,0,5,0,0
35627.5,-558.511,4,2,0,5,0,0
35709,-18.8324,4,2,0,5,0,0
35724.5,-558.511,4,2,0,5,0,0
35806,-18.8324,4,2,0,5,0,0
35821.5,-558.511,4,2,0,5,0,0
35903,-18.8324,4,2,0,5,0,0
35918.4,-558.511,4,2,0,5,0,0
35999,-18.8324,4,2,0,5,0,0
36006.8,-558.511,4,2,0,5,0,0
36048,-18.8324,4,2,0,5,0,0
36055.7,-558.511,4,2,0,5,0,0
36096,-18.8324,4,2,0,5,0,0
36103.7,-558.511,4,2,0,5,0,0
36144,-18.8324,4,2,0,5,0,0
36151.8,-558.511,4,2,0,5,0,0
36193,-18.8324,4,2,0,5,0,0
36200.7,-558.511,4,2,0,5,0,0
36241,-18.8324,4,2,0,5,0,0
36248.8,-558.511,4,2,0,5,0,0
36290,-18.8324,4,2,0,5,0,0
36297.7,-558.511,4,2,0,5,0,0
36338,-100,4,2,0,5,0,0
36386,-1000,4,2,0,5,0,0
36773,-34.2466,4,2,0,5,0,0
36788.5,-157.658,4,2,0,5,0,0
36870,-34.2466,4,2,0,5,0,0
36885.5,-157.658,4,2,0,5,0,0
36967,-34.2466,4,2,0,5,0,0
36974.7,-157.658,4,2,0,5,0,0
37015,-34.2466,4,2,0,5,0,0
37022.8,-157.658,4,2,0,5,0,0
37064,-34.2466,4,2,0,5,0,0
37071.7,-157.658,4,2,0,5,0,0
37112,-34.2466,4,2,0,5,0,0
37119.8,-157.658,4,2,0,5,0,0
37161,-34.2466,4,2,0,5,0,0
37168.7,-157.658,4,2,0,5,0,0
37209,-34.2466,4,2,0,5,0,0
37216.7,-157.658,4,2,0,5,0,0
37257,-34.2466,4,2,0,5,0,0
37288,-157.658,4,2,0,5,0,0
37451,-34.2466,4,2,0,5,0,0
37466.5,-157.658,4,2,0,5,0,0
37548,-34.2466,4,2,0,5,0,0
37563.4,-157.658,4,2,0,5,0,0
37644,-34.2466,4,2,0,5,0,0
37659.5,-157.658,4,2,0,5,0,0
37741,-34.2466,4,2,0,5,0,0
37756.5,-157.658,4,2,0,5,0,0
37838,-100,4,2,0,5,0,0
37935,-10.1215,4,2,0,5,0,0
37958.2,-158.73,4,2,0,5,0,0
38515,-100,4,2,0,5,0,0
38612,-10.6157,4,2,0,5,0,0
38615.9,-154.044,4,2,0,5,0,0
38709,-10.6157,4,2,0,5,0,0
38712.9,-154.044,4,2,0,5,0,0
38806,-10.6157,4,2,0,5,0,0
38809.9,-154.044,4,2,0,5,0,0
38903,-10.6157,4,2,0,5,0,0
38906.8,-154.044,4,2,0,5,0,0
38999,-10.6157,4,2,0,5,0,0
39002.9,-154.044,4,2,0,5,0,0
39096,-10.6157,4,2,0,5,0,0
39103.8,-154.044,4,2,0,5,0,0
39290,-10.6157,4,2,0,5,0,0
39291.9,-154.044,4,2,0,5,0,0
39338,-10.6157,4,2,0,5,0,0
39339.9,-154.044,4,2,0,5,0,0
39386,-10.6157,4,2,0,5,0,0
39388,-154.044,4,2,0,5,0,0
39435,-10.6157,4,2,0,5,0,0
39436.9,-154.044,4,2,0,5,0,0
39483,-10.6157,4,2,0,5,0,0
39486.9,-154.044,4,2,0,5,0,0
39580,-10.6157,4,2,0,5,0,0
39583.9,-154.044,4,2,0,5,0,0
39677,-10.6157,4,2,0,5,0,0
39680.8,-154.044,4,2,0,5,0,0
39773,-10.6157,4,2,0,5,0,0
39776.9,-154.044,4,2,0,5,0,0
39870,-10.6157,4,2,0,5,0,0
39877.8,-154.044,4,2,0,5,0,0
40064,-10.6157,4,2,0,5,0,0
40065.9,-154.044,4,2,0,5,0,0
40112,-10.6157,4,2,0,5,0,0
40114,-154.044,4,2,0,5,0,0
40161,-10.6157,4,2,0,5,0,0
40162.9,-154.044,4,2,0,5,0,0
40209,-10.6157,4,2,0,5,0,0
40210.9,-154.044,4,2,0,5,0,0
40257,-10.6157,4,2,0,5,0,0
40260.9,-154.044,4,2,0,5,0,0
40354,-10.6157,4,2,0,5,0,0
40357.9,-154.044,4,2,0,5,0,0
40451,-10.6157,4,2,0,5,0,0
40454.9,-154.044,4,2,0,5,0,0
40548,-100,4,2,0,5,0,0
40644,-28.7356,4,2,0,5,0,0
40666.3,-385.772,4,2,0,5,0,0
40741,-28.7356,4,2,0,5,0,0
40763.3,-385.772,4,2,0,5,0,0
40838,-28.7356,4,2,0,5,0,0
40860.3,-385.772,4,2,0,5,0,0
40935,-28.7356,4,2,0,5,0,0
40957.3,-385.772,4,2,0,5,0,0
41032,-28.7356,4,2,0,5,0,0
41054.1,-385.772,4,2,0,5,0,0
41128,-28.7356,4,2,0,5,0,0
41150.3,-385.772,4,2,0,5,0,0
41225,-28.7356,4,2,0,5,0,0
41247.3,-385.772,4,2,0,5,0,0
41322,-100,4,2,0,5,0,0
41419,-175.439,4,2,0,5,0,0
41558,-47.4898,4,2,0,5,0,0
41612,-175.439,4,2,0,5,0,0
41751.7,-47.4898,4,2,0,5,0,0
41806,-100,4,2,0,5,0,0
41999,-61.3497,4,2,0,5,0,0
42044.6,-226.593,4,2,0,5,0,0
42096,-61.3497,4,2,0,5,0,0
42141.6,-226.593,4,2,0,5,0,0
42193,-61.3497,4,2,0,5,0,0
42238.6,-226.593,4,2,0,5,0,0
42290,-61.3497,4,2,0,5,0,0
42380.7,-226.593,4,2,0,5,0,0
42483,-61.3497,4,2,0,5,0,0
42528.6,-226.593,4,2,0,5,0,0
42580,-61.3497,4,2,0,5,0,0
42670.7,-226.593,4,2,0,5,0,0
42773,-61.3497,4,2,0,5,0,0
42818.6,-226.593,4,2,0,5,0,0
42870,-61.3497,4,2,0,5,0,0
42915.6,-226.593,4,2,0,5,0,0
42967,-61.3497,4,2,0,5,0,0
43012.6,-226.593,4,2,0,5,0,0
43064,-61.3497,4,2,0,5,0,0
43109.6,-226.593,4,2,0,5,0,0
43161,-61.3497,4,2,0,5,0,0
43206.1,-226.593,4,2,0,5,0,0
43257,-100,4,2,0,5,0,0
43354,-51.8135,4,2,0,5,0,0
43421.9,-200.308,4,2,0,5,0,0
43548,-51.8135,4,2,0,5,0,0
43615.6,-200.308,4,2,0,5,0,0
43741,-51.8135,4,2,0,5,0,0
43808.9,-200.308,4,2,0,5,0,0
43935,-51.8135,4,2,0,5,0,0
44002.6,-200.308,4,2,0,5,0,0
44128,-51.8135,4,2,0,5,0,0
44263.4,-200.308,4,2,0,5,0,0
44515,-100,4,2,0,5,0,0
44709,-51.8135,4,2,0,5,0,0
44742.9,-200.308,4,2,0,5,0,0
44806,-51.8135,4,2,0,5,0,0
44839.9,-200.308,4,2,0,5,0,0
44903,-51.8135,4,2,0,5,0,0
44936.6,-200.308,4,2,0,5,0,0
44999,-51.8135,4,2,0,5,0,0
45032.9,-200.308,4,2,0,5,0,0
45096,-51.8135,4,2,0,5,0,0
45129.9,-200.308,4,2,0,5,0,0
45193,-51.8135,4,2,0,5,0,0
45226.9,-200.308,4,2,0,5,0,0
45290,-51.8135,4,2,0,5,0,0
45357.6,-200.308,4,2,0,5,0,0
45483,-51.8135,4,2,0,5,0,0
45500.2,-200.308,4,2,0,5,0,0
45532,-51.8135,4,2,0,5,0,0
45548.8,-200.308,4,2,0,5,0,0
45580,-51.8135,4,2,0,5,0,0
45596.8,-200.308,4,2,0,5,0,0
45628,-51.8135,4,2,0,5,0,0
45645.2,-200.308,4,2,0,5,0,0
45677,-51.8135,4,2,0,5,0,0
45710.6,-200.308,4,2,0,5,0,0
45773,-51.8135,4,2,0,5,0,0
45806.9,-200.308,4,2,0,5,0,0
45870,-51.8135,4,2,0,5,0,0
45903.9,-200.308,4,2,0,5,0,0
45967,-51.8135,4,2,0,5,0,0
46000.9,-200.308,4,2,0,5,0,0
46064,-51.8135,4,2,0,5,0,0
46131.6,-200.308,4,2,0,5,0,0
46257,-51.8135,4,2,0,5,0,0
46274.2,-200.308,4,2,0,5,0,0
46306,-51.8135,4,2,0,5,0,0
46322.8,-200.308,4,2,0,5,0,0
46354,-51.8135,4,2,0,5,0,0
46371.2,-200.308,4,2,0,5,0,0
46403,-51.8135,4,2,0,5,0,0
46419.8,-200.308,4,2,0,5,0,0
46451,-51.8135,4,2,0,5,0,0
46484.9,-200.308,4,2,0,5,0,0
46548,-51.8135,4,2,0,5,0,0
46581.6,-200.308,4,2,0,5,0,0
46644,-51.8135,4,2,0,5,0,0
46677.9,-200.308,4,2,0,5,0,0
46741,-100,4,2,0,5,0,0
46838,-22.6244,4,2,0,5,0,0
46854.5,-333.87,4,2,0,5,0,0
46935,-22.6244,4,2,0,5,0,0
46951.5,-333.87,4,2,0,5,0,0
47032,-22.6244,4,2,0,5,0,0
47048.3,-333.87,4,2,0,5,0,0
47128,-22.6244,4,2,0,5,0,0
47144.5,-333.87,4,2,0,5,0,0
47225,-22.6244,4,2,0,5,0,0
47241.5,-333.87,4,2,0,5,0,0
47322,-22.6244,4,2,0,5,0,0
47338.5,-333.87,4,2,0,5,0,0
47419,-22.6244,4,2,0,5,0,0
47435.3,-333.87,4,2,0,5,0,0
47515,-22.6244,4,2,0,5,0,0
47531.5,-333.87,4,2,0,5,0,0
47612,-22.6244,4,2,0,5,0,0
47628.5,-333.87,4,2,0,5,0,0
47709,-22.6244,4,2,0,5,0,0
47725.5,-333.87,4,2,0,5,0,0
47806,-22.6244,4,2,0,5,0,0
47838.8,-333.87,4,2,0,5,0,0
47999,-22.6244,4,2,0,5,0,0
48015.5,-333.87,4,2,0,5,0,0
48096,-22.6244,4,2,0,5,0,0
48112.5,-333.87,4,2,0,5,0,0
48193,-22.6244,4,2,0,5,0,0
48209.5,-333.87,4,2,0,5,0,0
48290,-22.6244,4,2,0,5,0,0
48306.3,-333.87,4,2,0,5,0,0
48386,-22.6244,4,2,0,5,0,0
48402.5,-333.87,4,2,0,5,0,0
48483,-22.6244,4,2,0,5,0,0
48499.5,-333.87,4,2,0,5,0,0
48580,-22.6244,4,2,0,5,0,0
48596.5,-333.87,4,2,0,5,0,0
48677,-22.6244,4,2,0,5,0,0
48693.3,-333.87,4,2,0,5,0,0
48773,-100,4,2,0,5,0,0
48967,-28.7356,4,2,0,5,0,0
49000,-203.232,4,2,0,5,0,0
49161,-28.7356,4,2,0,5,0,0
49193.8,-203.232,4,2,0,5,0,0
49354,-28.7356,4,2,0,5,0,0
49387,-203.232,4,2,0,5,0,0
49548,-28.7356,4,2,0,5,0,0
49556.2,-203.232,4,2,0,5,0,0
49596,-28.7356,4,2,0,5,0,0
49604.2,-203.232,4,2,0,5,0,0
49644,-28.7356,4,2,0,5,0,0
49652.3,-203.232,4,2,0,5,0,0
49693,-28.7356,4,2,0,5,0,0
49701.2,-203.232,4,2,0,5,0,0
49741,-28.7356,4,2,0,5,0,0
49749.3,-203.232,4,2,0,5,0,0
49790,-28.7356,4,2,0,5,0,0
49798.2,-203.232,4,2,0,5,0,0
49838,-28.7356,4,2,0,5,0,0
49846.2,-203.232,4,2,0,5,0,0
49886,-28.7356,4,2,0,5,0,0
49894.3,-203.232,4,2,0,5,0,0
49935,-28.7356,4,2,0,5,0,0
49943.2,-203.232,4,2,0,5,0,0
49983,-28.7356,4,2,0,5,0,0
49991.3,-203.232,4,2,0,5,0,0
50032,-28.7356,4,2,0,5,0,0
50040.2,-203.232,4,2,0,5,0,0
50080,-28.7356,4,2,0,5,0,0
50088.2,-203.232,4,2,0,5,0,0
50128,-28.7356,4,2,0,5,0,0
50136.3,-203.232,4,2,0,5,0,0
50177,-28.7356,4,2,0,5,0,0
50185.2,-203.232,4,2,0,5,0,0
50225,-28.7356,4,2,0,5,0,0
50233.2,-203.232,4,2,0,5,0,0
50273,-100,4,2,0,5,0,0
50322,-21.7391,4,2,0,5,0,0
50387.8,-380.734,4,2,0,5,0,0
50709,-21.7391,4,2,0,5,0,0
50742,-380.734,4,2,0,5,0,0
50903,-21.7391,4,2,0,5,0,0
50911.2,-380.734,4,2,0,5,0,0
50951,-21.7391,4,2,0,5,0,0
50959.2,-380.734,4,2,0,5,0,0
50999,-21.7391,4,2,0,5,0,0
51007.3,-380.734,4,2,0,5,0,0
51048,-21.7391,4,2,0,5,0,0
51056.2,-380.734,4,2,0,5,0,0
51096,-21.7391,4,2,0,5,0,0
51112.5,-380.734,4,2,0,5,0,0
51193,-21.7391,4,2,0,5,0,0
51201.2,-380.734,4,2,0,5,0,0
51241,-21.7391,4,2,0,5,0,0
51249.3,-380.734,4,2,0,5,0,0
51290,-21.7391,4,2,0,5,0,0
51298.2,-380.734,4,2,0,5,0,0
51338,-21.7391,4,2,0,5,0,0
51346.2,-380.734,4,2,0,5,0,0
51386,-21.7391,4,2,0,5,0,0
51394.3,-380.734,4,2,0,5,0,0
51435,-100,4,2,0,5,0,0
51483,-181.818,4,2,0,5,0,0
51667.3,-10.4712,4,2,0,5,0,0
51677,-100,4,2,0,5,0,0
51725,-17.5439,4,2,0,5,0,0
51731.7,-425.743,4,2,0,5,0,0
51773,-17.5439,4,2,0,5,0,0
51779.9,-425.743,4,2,0,5,0,0
51822,-17.5439,4,2,0,5,0,0
51828.7,-425.743,4,2,0,5,0,0
51870,-17.5439,4,2,0,5,0,0
51883.6,-425.743,4,2,0,5,0,0
51967,-17.5439,4,2,0,5,0,0
51973.7,-425.743,4,2,0,5,0,0
52015,-17.5439,4,2,0,5,0,0
52021.9,-425.743,4,2,0,5,0,0
52064,-17.5439,4,2,0,5,0,0
52070.7,-425.743,4,2,0,5,0,0
52112,-17.5439,4,2,0,5,0,0
52118.9,-425.743,4,2,0,5,0,0
52161,-17.5439,4,2,0,5,0,0
52167.7,-425.743,4,2,0,5,0,0
52209,-100,4,2,0,5,0,0
52257,-181.818,4,2,0,5,0,0
52441.3,-10.4712,4,2,0,5,0,0
52451,-100,4,2,0,5,0,0
52644,-33.4448,4,2,0,5,0,0
52671.2,-147.919,4,2,0,5,0,0
52838,-33.4448,4,2,0,5,0,0
52865.2,-147.919,4,2,0,5,0,0
53032,-33.4448,4,2,0,5,0,0
53059,-147.919,4,2,0,5,0,0
53225,-33.4448,4,2,0,5,0,0
53252.2,-147.919,4,2,0,5,0,0
53419,-33.4448,4,2,0,5,0,0
53473.2,-147.919,4,2,0,5,0,0
53806,-25.974,4,2,0,5,0,0
53833,-186.551,4,2,0,5,0,0
53999,-25.974,4,2,0,5,0,0
54012.6,-186.551,4,2,0,5,0,0
54096,-25.974,4,2,0,5,0,0
54109.6,-186.551,4,2,0,5,0,0
54193,-25.974,4,2,0,5,0,0
54206.6,-186.551,4,2,0,5,0,0
54290,-25.974,4,2,0,5,0,0
54303.4,-186.551,4,2,0,5,0,0
54386,-25.974,4,2,0,5,0,0
54392.9,-186.551,4,2,0,5,0,0
54435,-25.974,4,2,0,5,0,0
54441.7,-186.551,4,2,0,5,0,0
54483,-25.974,4,2,0,5,0,0
54489.9,-186.551,4,2,0,5,0,0
54532,-25.974,4,2,0,5,0,0
54538.7,-186.551,4,2,0,5,0,0
54580,-25.974,4,2,0,5,0,0
54607,-186.551,4,2,0,5,0,0
54773,-25.974,4,2,0,5,0,0
54779.9,-186.551,4,2,0,5,0,0
54822,-25.974,4,2,0,5,0,0
54828.7,-186.551,4,2,0,5,0,0
54870,-25.974,4,2,0,5,0,0
54876.9,-186.551,4,2,0,5,0,0
54919,-25.974,4,2,0,5,0,0
54925.7,-186.551,4,2,0,5,0,0
54967,-100,4,2,0,5,0,0
55064,-169.492,4,2,0,5,0,0
55133.8,-48.6787,4,2,0,5,0,0
55161,-169.492,4,2,0,5,0,0
55230.1,-48.6787,4,2,0,5,0,0
55257,-169.492,4,2,0,5,0,0
55326.8,-48.6787,4,2,0,5,0,0
55354,-169.492,4,2,0,5,0,0
55423.8,-48.6787,4,2,0,5,0,0
55451,-169.492,4,2,0,5,0,0
55520.8,-48.6787,4,2,0,5,0,0
55548,-169.492,4,2,0,5,0,0
55617.1,-48.6787,4,2,0,5,0,0
55644,-169.492,4,2,0,5,0,0
55713.8,-48.6787,4,2,0,5,0,0
55741,-169.492,4,2,0,5,0,0
55810.8,-48.6787,4,2,0,5,0,0
55838,-100,4,2,0,5,0,0
55935,-54.3478,4,2,0,5,0,0
56002.6,-182.584,4,2,0,5,0,0
56128,-54.3478,4,2,0,5,0,0
56195.9,-182.584,4,2,0,5,0,0
56322,-54.3478,4,2,0,5,0,0
56389.6,-182.584,4,2,0,5,0,0
56515,-100,4,2,0,5,0,0
56903,-526.316,4,2,0,5,0,0
57076.7,-12.0627,4,2,0,5,0,0
57096,-100,4,2,0,5,0,0
57144,-41.841,4,2,0,5,0,0
57161.2,-397.554,4,2,0,5,0,0
57193,-41.841,4,2,0,5,0,0
57226.9,-397.554,4,2,0,5,0,0
57290,-41.841,4,2,0,5,0,0
57357.6,-397.554,4,2,0,5,0,0
57483,-41.841,4,2,0,5,0,0
57500.2,-397.554,4,2,0,5,0,0
57532,-41.841,4,2,0,5,0,0
57548.8,-397.554,4,2,0,5,0,0
57580,-100,4,2,0,5,0,0
57677,-526.316,4,2,0,5,0,0
57850.7,-12.0627,4,2,0,5,0,0
57870,-100,4,2,0,5,0,0
57919,-41.841,4,2,0,5,0,0
57935.8,-397.554,4,2,0,5,0,0
57967,-41.841,4,2,0,5,0,0
58000.9,-397.554,4,2,0,5,0,0
58064,-41.841,4,2,0,5,0,0
58131.6,-397.554,4,2,0,5,0,0
58257,-41.841,4,2,0,5,0,0
58274.2,-397.554,4,2,0,5,0,0
58306,-41.841,4,2,0,5,0,0
58322.8,-397.554,4,2,0,5,0,0
58354,-100,4,2,0,5,0,0
58451,-526.316,4,2,0,5,0,0
58624.7,-12.0627,4,2,0,5,0,0
58644,-100,4,2,0,5,0,0
58838,-45.2489,4,2,0,5,0,0
58905.9,-286.976,4,2,0,5,0,0
59032,-45.2489,4,2,0,5,0,0
59099.6,-286.976,4,2,0,5,0,0
59225,-45.2489,4,2,0,5,0,0
59292.9,-286.976,4,2,0,5,0,0
59419,-45.2489,4,2,0,5,0,0
59486.6,-286.976,4,2,0,5,0,0
59612,-45.2489,4,2,0,5,0,0
59747.4,-286.976,4,2,0,5,0,0
59999,-45.2489,4,2,0,5,0,0
60066.9,-286.976,4,2,0,5,0,0
60193,-45.2489,4,2,0,5,0,0
60260.6,-286.976,4,2,0,5,0,0
60386,-100,4,2,0,5,0,0
60580,-29.8507,4,2,0,5,0,0
60590.6,-296.578,4,2,0,5,0,0
60628,-29.8507,4,2,0,5,0,0
60638.8,-296.578,4,2,0,5,0,0
60677,-29.8507,4,2,0,5,0,0
60698.1,-296.578,4,2,0,5,0,0
60773,-29.8507,4,2,0,5,0,0
60815.7,-296.578,4,2,0,5,0,0
60967,-29.8507,4,2,0,5,0,0
60977.6,-296.578,4,2,0,5,0,0
61015,-29.8507,4,2,0,5,0,0
61025.8,-296.578,4,2,0,5,0,0
61064,-29.8507,4,2,0,5,0,0
61074.6,-296.578,4,2,0,5,0,0
61112,-29.8507,4,2,0,5,0,0
61122.8,-296.578,4,2,0,5,0,0
61161,-29.8507,4,2,0,5,0,0
61182.1,-296.578,4,2,0,5,0,0
61257,-29.8507,4,2,0,5,0,0
61278.3,-296.578,4,2,0,5,0,0
61354,-29.8507,4,2,0,5,0,0
61375.3,-296.578,4,2,0,5,0,0
61451,-29.8507,4,2,0,5,0,0
61472.3,-296.578,4,2,0,5,0,0
61548,-29.8507,4,2,0,5,0,0
61569.1,-296.578,4,2,0,5,0,0
61644,-29.8507,4,2,0,5,0,0
61665.3,-296.578,4,2,0,5,0,0
61741,-29.8507,4,2,0,5,0,0
61762.3,-296.578,4,2,0,5,0,0
61838,-29.8507,4,2,0,5,0,0
61859.3,-296.578,4,2,0,5,0,0
61935,-29.8507,4,2,0,5,0,0
61977.5,-296.578,4,2,0,5,0,0
62128,-29.8507,4,2,0,5,0,0
62170.7,-296.578,4,2,0,5,0,0
62322,-29.8507,4,2,0,5,0,0
62407.1,-296.578,4,2,0,5,0,0
62709,-46.9484,4,2,0,5,0,0
62793.1,-185.718,4,2,0,5,0,0
62999,-46.9484,4,2,0,5,0,0
63027.1,-185.718,4,2,0,5,0,0
63096,-46.9484,4,2,0,5,0,0
63152.3,-185.718,4,2,0,5,0,0
63290,-46.9484,4,2,0,5,0,0
63346,-185.718,4,2,0,5,0,0
63483,-46.9484,4,2,0,5,0,0
63567.1,-185.718,4,2,0,5,0,0
63773,-46.9484,4,2,0,5,0,0
63801.1,-185.718,4,2,0,5,0,0
63870,-46.9484,4,2,0,5,0,0
63926.3,-185.718,4,2,0,5,0,0
64064,-46.9484,4,2,0,5,0,0
64120,-185.718,4,2,0,5,0,0
64257,-46.9484,4,2,0,5,0,0
64313.3,-185.718,4,2,0,5,0,0
64451,-46.9484,4,2,0,5,0,0
64479.1,-185.718,4,2,0,5,0,0
64548,-46.9484,4,2,0,5,0,0
64575.8,-185.718,4,2,0,5,0,0
64644,-46.9484,4,2,0,5,0,0
64700.3,-185.718,4,2,0,5,0,0
64838,-46.9484,4,2,0,5,0,0
64894.3,-185.718,4,2,0,5,0,0
65032,-46.9484,4,2,0,5,0,0
65088,-185.718,4,2,0,5,0,0
65225,-46.9484,4,2,0,5,0,0
65253.1,-185.718,4,2,0,5,0,0
65322,-46.9484,4,2,0,5,0,0
65350.1,-185.718,4,2,0,5,0,0
65419,-46.9484,4,2,0,5,0,0
65475,-185.718,4,2,0,5,0,0
65612,-46.9484,4,2,0,5,0,0
65668.3,-185.718,4,2,0,5,0,0
65806,-46.9484,4,2,0,5,0,0
65890.1,-185.718,4,2,0,5,0,0
66096,-46.9484,4,2,0,5,0,0
66124.1,-185.718,4,2,0,5,0,0
66193,-46.9484,4,2,0,5,0,0
66249,-185.718,4,2,0,5,0,0
66386,-46.9484,4,2,0,5,0,0
66442.3,-185.718,4,2,0,5,0,0
66580,-46.9484,4,2,0,5,0,0
66664.1,-185.718,4,2,0,5,0,0
66870,-46.9484,4,2,0,5,0,0
66898.1,-185.718,4,2,0,5,0,0
66967,-46.9484,4,2,0,5,0,0
67023.3,-185.718,4,2,0,5,0,0
67161,-46.9484,4,2,0,5,0,0
67217,-185.718,4,2,0,5,0,0
67354,-46.9484,4,2,0,5,0,0
67410.3,-185.718,4,2,0,5,0,0
67548,-46.9484,4,2,0,5,0,0
67575.8,-185.718,4,2,0,5,0,0
67644,-46.9484,4,2,0,5,0,0
67672.1,-185.718,4,2,0,5,0,0
67741,-46.9484,4,2,0,5,0,0
67797.3,-185.718,4,2,0,5,0,0
67935,-46.9484,4,2,0,5,0,0
67991,-185.718,4,2,0,5,0,0
68128,-46.9484,4,2,0,5,0,0
68184.3,-185.718,4,2,0,5,0,0
68322,-46.9484,4,2,0,5,0,0
68350.1,-185.718,4,2,0,5,0,0
68419,-46.9484,4,2,0,5,0,0
68446.8,-185.718,4,2,0,5,0,0
68515,-46.9484,4,2,0,5,0,0
68543.1,-185.718,4,2,0,5,0,0
68612,-46.9484,4,2,0,5,0,0
68640.1,-185.718,4,2,0,5,0,0
68709,-46.9484,4,2,0,5,0,0
68737.1,-185.718,4,2,0,5,0,0
68806,-46.9484,4,2,0,5,0,0
68834.1,-185.718,4,2,0,5,0,0
68903,-46.9484,4,2,0,5,0,0
68959,-185.718,4,2,0,5,0,0
69096,-46.9484,4,2,0,5,0,0
69124.1,-185.718,4,2,0,5,0,0
69193,-46.9484,4,2,0,5,0,0
69221.1,-185.718,4,2,0,5,0,0
69290,-46.9484,4,2,0,5,0,0
69346,-185.718,4,2,0,5,0,0
69483,-46.9484,4,2,0,5,0,0
69511.1,-185.718,4,2,0,5,0,0
69580,-46.9484,4,2,0,5,0,0
69608.1,-185.718,4,2,0,5,0,0
69677,-46.9484,4,2,0,5,0,0
69733,-185.718,4,2,0,5,0,0
69870,-46.9484,4,2,0,5,0,0
69898.1,-185.718,4,2,0,5,0,0
69967,-46.9484,4,2,0,5,0,0
69995.1,-185.718,4,2,0,5,0,0
70064,-46.9484,4,2,0,5,0,0
70120,-185.718,4,2,0,5,0,0
70257,-46.9484,4,2,0,5,0,0
70285.1,-185.718,4,2,0,5,0,0
70354,-46.9484,4,2,0,5,0,0
70382.1,-185.718,4,2,0,5,0,0
70451,-46.9484,4,2,0,5,0,0
70507,-185.718,4,2,0,5,0,0
70644,-46.9484,4,2,0,5,0,0
70672.1,-185.718,4,2,0,5,0,0
70741,-46.9484,4,2,0,5,0,0
70769.1,-185.718,4,2,0,5,0,0
70838,-46.9484,4,2,0,5,0,0
70894.3,-185.718,4,2,0,5,0,0
71032,-46.9484,4,2,0,5,0,0
71059.8,-185.718,4,2,0,5,0,0
71128,-46.9484,4,2,0,5,0,0
71156.1,-185.718,4,2,0,5,0,0
71225,-46.9484,4,2,0,5,0,0
71281.3,-185.718,4,2,0,5,0,0
71419,-46.9484,4,2,0,5,0,0
71446.8,-185.718,4,2,0,5,0,0
71515,-46.9484,4,2,0,5,0,0
71543.1,-185.718,4,2,0,5,0,0
71612,-46.9484,4,2,0,5,0,0
71640.1,-185.718,4,2,0,5,0,0
71709,-46.9484,4,2,0,5,0,0
71737.1,-185.718,4,2,0,5,0,0
71806,-46.9484,4,2,0,5,0,0
71834.1,-185.718,4,2,0,5,0,0
71903,-100,4,2,0,5,0,0
71999,-222.222,4,2,0,5,0,0
72062.1,-49.47,4,2,0,5,0,0
72096,-222.222,4,2,0,5,0,0
72159.1,-49.47,4,2,0,5,0,0
72193,-222.222,4,2,0,5,0,0
72256.1,-49.47,4,2,0,5,0,0
72290,-222.222,4,2,0,5,0,0
72352.4,-49.47,4,2,0,5,0,0
72386,-222.222,4,2,0,5,0,0
72449.1,-49.47,4,2,0,5,0,0
72483,-222.222,4,2,0,5,0,0
72546.1,-49.47,4,2,0,5,0,0
72580,-222.222,4,2,0,5,0,0
72643.1,-49.47,4,2,0,5,0,0
72677,-222.222,4,2,0,5,0,0
72739.4,-49.47,4,2,0,5,0,0
72773,-222.222,4,2,0,5,0,0
72836.1,-49.47,4,2,0,5,0,0
72870,-222.222,4,2,0,5,0,0
72933.1,-49.47,4,2,0,5,0,0
72967,-222.222,4,2,0,5,0,0
73030.1,-49.47,4,2,0,5,0,0
73064,-222.222,4,2,0,5,0,0
73127.1,-49.47,4,2,0,5,0,0
73161,-222.222,4,2,0,5,0,0
73192.2,-49.47,4,2,0,5,0,0
73209,-222.222,4,2,0,5,0,0
73240.2,-49.47,4,2,0,5,0,0
73257,-222.222,4,2,0,5,0,0
73288.9,-49.47,4,2,0,5,0,0
73306,-222.222,4,2,0,5,0,0
73337.2,-49.47,4,2,0,5,0,0
73354,-222.222,4,2,0,5,0,0
73385.9,-49.47,4,2,0,5,0,0
73403,-222.222,4,2,0,5,0,0
73434.2,-49.47,4,2,0,5,0,0
73451,-222.222,4,2,0,5,0,0
73482.2,-49.47,4,2,0,5,0,0
73499,-222.222,4,2,0,5,0,0
73530.9,-49.47,4,2,0,5,0,0
73548,-222.222,4,2,0,5,0,0
73799.6,-49.47,4,2,0,5,0,0
73935,-222.222,4,2,0,5,0,0
74060.4,-49.47,4,2,0,5,0,0
74128,-222.222,4,2,0,5,0,0
74159.9,-49.47,4,2,0,5,0,0
74177,-222.222,4,2,0,5,0,0
74208.2,-49.47,4,2,0,5,0,0
74225,-222.222,4,2,0,5,0,0
74256.2,-49.47,4,2,0,5,0,0
74273,-222.222,4,2,0,5,0,0
74304.9,-49.47,4,2,0,5,0,0
74322,-222.222,4,2,0,5,0,0
74353.2,-49.47,4,2,0,5,0,0
74370,-222.222,4,2,0,5,0,0
74401.9,-49.47,4,2,0,5,0,0
74419,-222.222,4,2,0,5,0,0
74544.4,-49.47,4,2,0,5,0,0
74612,-222.222,4,2,0,5,0,0
74675.1,-49.47,4,2,0,5,0,0
74709,-222.222,4,2,0,5,0,0
74772.1,-49.47,4,2,0,5,0,0
74806,-222.222,4,2,0,5,0,0
74869.1,-49.47,4,2,0,5,0,0
74903,-222.222,4,2,0,5,0,0
74965.4,-49.47,4,2,0,5,0,0
74999,-222.222,4,2,0,5,0,0
75062.1,-49.47,4,2,0,5,0,0
75096,-100,4,2,0,5,0,0
75161,-47.619,4,2,0,5,0,0
75182.8,-230.769,4,2,0,5,0,0
75225,-47.619,4,2,0,5,0,0
75247.1,-230.769,4,2,0,5,0,0
75290,-47.619,4,2,0,5,0,0
75311.8,-230.769,4,2,0,5,0,0
75354,-47.619,4,2,0,5,0,0
75376.1,-230.769,4,2,0,5,0,0
75419,-47.619,4,2,0,5,0,0
75440.8,-230.769,4,2,0,5,0,0
75483,-47.619,4,2,0,5,0,0
75505.1,-230.769,4,2,0,5,0,0
75548,-47.619,4,2,0,5,0,0
75569.8,-230.769,4,2,0,5,0,0
75612,-47.619,4,2,0,5,0,0
75634.1,-230.769,4,2,0,5,0,0
75677,-64.5161,4,2,0,5,0,0
75677,-100,4,2,0,5,0,0
75715.4,-157.895,4,2,0,5,0,0
75773,-64.5161,4,2,0,5,0,0
75811.8,-157.895,4,2,0,5,0,0
75870,-64.5161,4,2,0,5,0,0
75908.8,-157.895,4,2,0,5,0,0
75967,-64.5161,4,2,0,5,0,0
76005.8,-157.895,4,2,0,5,0,0
76064,-64.5161,4,2,0,5,0,0
76102.8,-157.895,4,2,0,5,0,0
76161,-64.5161,4,2,0,5,0,0
76199.4,-157.895,4,2,0,5,0,0
76257,-64.5161,4,2,0,5,0,0
76295.8,-157.895,4,2,0,5,0,0
76354,-64.5161,4,2,0,5,0,0
76392.8,-157.895,4,2,0,5,0,0
76451,-64.5161,4,2,0,5,0,0
76489.8,-157.895,4,2,0,5,0,0
76548,-64.5161,4,2,0,5,0,0
76586.4,-157.895,4,2,0,5,0,0
76644,-64.5161,4,2,0,5,0,0
76682.8,-157.895,4,2,0,5,0,0
76741,-64.5161,4,2,0,5,0,0
76779.8,-157.895,4,2,0,5,0,0
76838,-64.5161,4,2,0,5,0,0
76876.8,-157.895,4,2,0,5,0,0
76935,-64.5161,4,2,0,5,0,0
76973.8,-157.895,4,2,0,5,0,0
77032,-64.5161,4,2,0,5,0,0
77070.4,-157.895,4,2,0,5,0,0
77128,-64.5161,4,2,0,5,0,0
77166.8,-157.895,4,2,0,5,0,0
77225,-64.5161,4,2,0,5,0,0
77263.8,-157.895,4,2,0,5,0,0
77322,-100,4,2,0,5,0,0
77419,-47.619,4,2,0,5,0,0
77440.8,-230.769,4,2,0,5,0,0
77483,-47.619,4,2,0,5,0,0
77505.1,-230.769,4,2,0,5,0,0
77548,-47.619,4,2,0,5,0,0
77569.8,-230.769,4,2,0,5,0,0
77612,-47.619,4,2,0,5,0,0
77634.1,-230.769,4,2,0,5,0,0
77677,-47.619,4,2,0,5,0,0
77698.8,-230.769,4,2,0,5,0,0
77741,-47.619,4,2,0,5,0,0
77763.1,-230.769,4,2,0,5,0,0
77806,-47.619,4,2,0,5,0,0
77827.8,-230.769,4,2,0,5,0,0
77870,-47.619,4,2,0,5,0,0
77892.1,-230.769,4,2,0,5,0,0
77935,-47.619,4,2,0,5,0,0
77956.8,-230.769,4,2,0,5,0,0
77999,-47.619,4,2,0,5,0,0
78021.1,-230.769,4,2,0,5,0,0
78064,-47.619,4,2,0,5,0,0
78085.8,-230.769,4,2,0,5,0,0
78128,-47.619,4,2,0,5,0,0
78150.1,-230.769,4,2,0,5,0,0
78193,-47.619,4,2,0,5,0,0
78214.8,-230.769,4,2,0,5,0,0
78257,-47.619,4,2,0,5,0,0
78268.2,-230.769,4,2,0,5,0,0
78290,-47.619,4,2,0,5,0,0
78300.9,-230.769,4,2,0,5,0,0
78322,-47.619,4,2,0,5,0,0
78343.8,-230.769,4,2,0,5,0,0
78386,-47.619,4,2,0,5,0,0
78408.1,-230.769,4,2,0,5,0,0
78451,-47.619,4,2,0,5,0,0
78472.8,-230.769,4,2,0,5,0,0
78515,-47.619,4,2,0,5,0,0
78537.1,-230.769,4,2,0,5,0,0
78580,-100,4,2,0,5,0,0
78773,-60.241,4,2,0,5,0,0
78811.8,-178.571,4,2,0,5,0,0
78870,-60.241,4,2,0,5,0,0
78908.8,-178.571,4,2,0,5,0,0
78967,-60.241,4,2,0,5,0,0
79005.8,-178.571,4,2,0,5,0,0
79064,-60.241,4,2,0,5,0,0
79102.8,-178.571,4,2,0,5,0,0
79161,-60.241,4,2,0,5,0,0
79199.4,-178.571,4,2,0,5,0,0
79257,-60.241,4,2,0,5,0,0
79295.8,-178.571,4,2,0,5,0,0
79354,-60.241,4,2,0,5,0,0
79392.8,-178.571,4,2,0,5,0,0
79451,-60.241,4,2,0,5,0,0
79489.8,-178.571,4,2,0,5,0,0
79548,-60.241,4,2,0,5,0,0
79586.4,-178.571,4,2,0,5,0,0
79644,-60.241,4,2,0,5,0,0
79682.8,-178.571,4,2,0,5,0,0
79741,-60.241,4,2,0,5,0,0
79779.8,-178.571,4,2,0,5,0,0
79838,-60.241,4,2,0,5,0,0
79876.8,-178.571,4,2,0,5,0,0
79935,-60.241,4,2,0,5,0,0
79973.8,-178.571,4,2,0,5,0,0
80032,-60.241,4,2,0,5,0,0
80070.4,-178.571,4,2,0,5,0,0
80128,-60.241,4,2,0,5,0,0
80166.8,-178.571,4,2,0,5,0,0
80225,-60.241,4,2,0,5,0,0
80263.8,-178.571,4,2,0,5,0,0
80322,-60.241,4,2,0,5,0,0
80360.8,-178.571,4,2,0,5,0,0
80419,-100,4,2,0,5,0,0
80515,-47.619,4,2,0,5,0,0
80581,-230.769,4,2,0,5,0,0
80709,-47.619,4,2,0,5,0,0
80775,-230.769,4,2,0,5,0,0
80903,-100,4,2,0,5,0,0
80967,-60.241,4,2,0,5,0,0
80993,-178.571,4,2,0,5,0,0
81032,-60.241,4,2,0,5,0,0
81057.6,-178.571,4,2,0,5,0,0
81096,-60.241,4,2,0,5,0,0
81134.8,-178.571,4,2,0,5,0,0
81193,-100,4,2,0,5,0,0
81290,-47.619,4,2,0,5,0,0
81322.6,-230.769,4,2,0,5,0,0
81386,-47.619,4,2,0,5,0,0
81419,-230.769,4,2,0,5,0,0
81483,-47.619,4,2,0,5,0,0
81516,-230.769,4,2,0,5,0,0
81580,-47.619,4,2,0,5,0,0
81613,-230.769,4,2,0,5,0,0
81677,-47.619,4,2,0,5,0,0
81709.6,-230.769,4,2,0,5,0,0
81773,-47.619,4,2,0,5,0,0
81806,-230.769,4,2,0,5,0,0
81870,-100,4,2,0,5,0,0
82064,-60.241,4,2,0,5,0,0
82102.8,-178.571,4,2,0,5,0,0
82161,-60.241,4,2,0,5,0,0
82199.4,-178.571,4,2,0,5,0,0
82257,-60.241,4,2,0,5,0,0
82295.8,-178.571,4,2,0,5,0,0
82354,-60.241,4,2,0,5,0,0
82392.8,-178.571,4,2,0,5,0,0
82451,-60.241,4,2,0,5,0,0
82489.8,-178.571,4,2,0,5,0,0
82548,-60.241,4,2,0,5,0,0
82586.4,-178.571,4,2,0,5,0,0
82644,-60.241,4,2,0,5,0,0
82682.8,-178.571,4,2,0,5,0,0
82741,-60.241,4,2,0,5,0,0
82779.8,-178.571,4,2,0,5,0,0
82838,-60.241,4,2,0,5,0,0
82876.8,-178.571,4,2,0,5,0,0
82935,-60.241,4,2,0,5,0,0
82973.8,-178.571,4,2,0,5,0,0
83032,-60.241,4,2,0,5,0,0
83070.4,-178.571,4,2,0,5,0,0
83128,-60.241,4,2,0,5,0,0
83166.8,-178.571,4,2,0,5,0,0
83225,-60.241,4,2,0,5,0,0
83263.8,-178.571,4,2,0,5,0,0
83322,-60.241,4,2,0,5,0,0
83360.8,-178.571,4,2,0,5,0,0
83419,-60.241,4,2,0,5,0,0
83457.4,-178.571,4,2,0,5,0,0
83515,-60.241,4,2,0,5,0,0
83553.8,-178.571,4,2,0,5,0,0
83612,-60.241,4,2,0,5,0,0
83650.8,-178.571,4,2,0,5,0,0
83709,-100,4,2,0,5,0,0
83806,-47.619,4,2,0,5,0,0
83827.8,-230.769,4,2,0,5,0,0
83870,-47.619,4,2,0,5,0,0
83892.1,-230.769,4,2,0,5,0,0
83935,-47.619,4,2,0,5,0,0
83956.8,-230.769,4,2,0,5,0,0
83999,-47.619,4,2,0,5,0,0
84021.1,-230.769,4,2,0,5,0,0
84064,-47.619,4,2,0,5,0,0
84085.8,-230.769,4,2,0,5,0,0
84128,-47.619,4,2,0,5,0,0
84150.1,-230.769,4,2,0,5,0,0
84193,-47.619,4,2,0,5,0,0
84214.8,-230.769,4,2,0,5,0,0
84257,-47.619,4,2,0,5,0,0
84279.1,-230.769,4,2,0,5,0,0
84322,-47.619,4,2,0,5,0,0
84343.8,-230.769,4,2,0,5,0,0
84386,-47.619,4,2,0,5,0,0
84408.1,-230.769,4,2,0,5,0,0
84451,-47.619,4,2,0,5,0,0
84472.8,-230.769,4,2,0,5,0,0
84515,-47.619,4,2,0,5,0,0
84537.1,-230.769,4,2,0,5,0,0
84580,-47.619,4,2,0,5,0,0
84601.8,-230.769,4,2,0,5,0,0
84644,-47.619,4,2,0,5,0,0
84666.1,-230.769,4,2,0,5,0,0
84709,-47.619,4,2,0,5,0,0
84730.8,-230.769,4,2,0,5,0,0
84773,-47.619,4,2,0,5,0,0
84795.1,-230.769,4,2,0,5,0,0
84838,-47.619,4,2,0,5,0,0
84860.1,-230.769,4,2,0,5,0,0
84903,-47.619,4,2,0,5,0,0
84924.8,-230.769,4,2,0,5,0,0
84967,-47.619,4,2,0,5,0,0
84989.1,-230.769,4,2,0,5,0,0
85032,-47.619,4,2,0,5,0,0
85053.8,-230.769,4,2,0,5,0,0
85096,-47.619,4,2,0,5,0,0
85118.1,-230.769,4,2,0,5,0,0
85161,-47.619,4,2,0,5,0,0
85182.8,-230.769,4,2,0,5,0,0
85225,-47.619,4,2,0,5,0,0
85247.1,-230.769,4,2,0,5,0,0
85290,-47.619,4,2,0,5,0,0
85311.8,-230.769,4,2,0,5,0,0
85354,-47.619,4,2,0,5,0,0
85376.1,-230.769,4,2,0,5,0,0
85419,-47.619,4,2,0,5,0,0
85440.8,-230.769,4,2,0,5,0,0
85483,-47.619,4,2,0,5,0,0
85505.1,-230.769,4,2,0,5,0,0
85548,-47.619,4,2,0,5,0,0
85569.8,-230.769,4,2,0,5,0,0
85612,-47.619,4,2,0,5,0,0
85634.1,-230.769,4,2,0,5,0,0
85677,-47.619,4,2,0,5,0,0
85698.8,-230.769,4,2,0,5,0,0
85741,-47.619,4,2,0,5,0,0
85763.1,-230.769,4,2,0,5,0,0
85806,-47.619,4,2,0,5,0,0
85827.8,-230.769,4,2,0,5,0,0
85870,-47.619,4,2,0,5,0,0
85892.1,-230.769,4,2,0,5,0,0
85935,-47.619,4,2,0,5,0,0
85956.8,-230.769,4,2,0,5,0,0
85999,-47.619,4,2,0,5,0,0
86021.1,-230.769,4,2,0,5,0,0
86064,-47.619,4,2,0,5,0,0
86085.8,-230.769,4,2,0,5,0,0
86128,-47.619,4,2,0,5,0,0
86150.1,-230.769,4,2,0,5,0,0
86193,-47.619,4,2,0,5,0,0
86214.8,-230.769,4,2,0,5,0,0
86257,-47.619,4,2,0,5,0,0
86279.1,-230.769,4,2,0,5,0,0
86322,-100,4,2,0,5,0,0
86419,-41.3223,4,2,0,5,0,0
86444.9,-210.617,4,2,0,5,0,0
86515,-41.3223,4,2,0,5,0,0
86541.2,-210.617,4,2,0,5,0,0
86612,-41.3223,4,2,0,5,0,0
86638.2,-210.617,4,2,0,5,0,0
86709,-41.3223,4,2,0,5,0,0
86717.6,-210.617,4,2,0,5,0,0
86741,-41.3223,4,2,0,5,0,0
86749.6,-210.617,4,2,0,5,0,0
86773,-41.3223,4,2,0,5,0,0
86808.1,-210.617,4,2,0,5,0,0
86903,-41.3223,4,2,0,5,0,0
86911.6,-210.617,4,2,0,5,0,0
86935,-41.3223,4,2,0,5,0,0
86943.6,-210.617,4,2,0,5,0,0
86967,-41.3223,4,2,0,5,0,0
87001.8,-210.617,4,2,0,5,0,0
87096,-41.3223,4,2,0,5,0,0
87104.6,-210.617,4,2,0,5,0,0
87128,-41.3223,4,2,0,5,0,0
87136.9,-210.617,4,2,0,5,0,0
87161,-41.3223,4,2,0,5,0,0
87195.8,-210.617,4,2,0,5,0,0
87290,-41.3223,4,2,0,5,0,0
87298.6,-210.617,4,2,0,5,0,0
87322,-41.3223,4,2,0,5,0,0
87330.6,-210.617,4,2,0,5,0,0
87354,-41.3223,4,2,0,5,0,0
87388.8,-210.617,4,2,0,5,0,0
87483,-41.3223,4,2,0,5,0,0
87587.5,-210.617,4,2,0,5,0,0
87870,-100,4,2,0,5,0,0
88064,-60.241,4,2,0,5,0,0
88102.8,-178.571,4,2,0,5,0,0
88161,-60.241,4,2,0,5,0,0
88199.4,-178.571,4,2,0,5,0,0
88257,-60.241,4,2,0,5,0,0
88295.8,-178.571,4,2,0,5,0,0
88354,-60.241,4,2,0,5,0,0
88392.8,-178.571,4,2,0,5,0,0
88451,-60.241,4,2,0,5,0,0
88489.8,-178.571,4,2,0,5,0,0
88548,-60.241,4,2,0,5,0,0
88586.4,-178.571,4,2,0,5,0,0
88644,-60.241,4,2,0,5,0,0
88682.8,-178.571,4,2,0,5,0,0
88741,-60.241,4,2,0,5,0,0
88779.8,-178.571,4,2,0,5,0,0
88838,-60.241,4,2,0,5,0,0
88876.8,-178.571,4,2,0,5,0,0
88935,-60.241,4,2,0,5,0,0
88973.8,-178.571,4,2,0,5,0,0
89032,-60.241,4,2,0,5,0,0
89070.4,-178.571,4,2,0,5,0,0
89128,-60.241,4,2,0,5,0,0
89166.8,-178.571,4,2,0,5,0,0
89225,-60.241,4,2,0,5,0,0
89263.8,-178.571,4,2,0,5,0,0
89322,-60.241,4,2,0,5,0,0
89360.8,-178.571,4,2,0,5,0,0
89419,-60.241,4,2,0,5,0,0
89457.4,-178.571,4,2,0,5,0,0
89515,-60.241,4,2,0,5,0,0
89553.8,-178.571,4,2,0,5,0,0
89612,-60.241,4,2,0,5,0,0
89650.8,-178.571,4,2,0,5,0,0
89709,-100,4,2,0,5,0,0
89806,-70.922,4,2,0,5,0,0
89883.2,-137.615,4,2,0,5,0,0
89999,-70.922,4,2,0,5,0,0
90076.6,-137.615,4,2,0,5,0,0
90193,-70.922,4,2,0,5,0,0
90270.2,-137.615,4,2,0,5,0,0
90386,-100,4,2,0,5,0,0
90580,-41.3223,4,2,0,5,0,0
90606.2,-210.617,4,2,0,5,0,0
90677,-41.3223,4,2,0,5,0,0
90702.9,-210.617,4,2,0,5,0,0
90773,-41.3223,4,2,0,5,0,0
90799.2,-210.617,4,2,0,5,0,0
90870,-41.3223,4,2,0,5,0,0
90896.2,-210.617,4,2,0,5,0,0
90967,-41.3223,4,2,0,5,0,0
90967,-60.241,4,2,0,5,0,0
90993.2,-210.617,4,2,0,5,0,0
91044.6,-178.571,4,2,0,5,0,0
91064,-100,4,2,0,5,0,0
91161,-60.241,4,2,0,5,0,0
91199.4,-178.571,4,2,0,5,0,0
91257,-60.241,4,2,0,5,0,0
91295.8,-178.571,4,2,0,5,0,0
91354,-60.241,4,2,0,5,0,0
91392.8,-178.571,4,2,0,5,0,0
91451,-60.241,4,2,0,5,0,0
91489.8,-178.571,4,2,0,5,0,0
91548,-60.241,4,2,0,5,0,0
91586.4,-178.571,4,2,0,5,0,0
91644,-60.241,4,2,0,5,0,0
91682.8,-178.571,4,2,0,5,0,0
91741,-60.241,4,2,0,5,0,0
91779.8,-178.571,4,2,0,5,0,0
91838,-60.241,4,2,0,5,0,0
91876.8,-178.571,4,2,0,5,0,0
91935,-60.241,4,2,0,5,0,0
91973.8,-178.571,4,2,0,5,0,0
92032,-60.241,4,2,0,5,0,0
92070.4,-178.571,4,2,0,5,0,0
92128,-60.241,4,2,0,5,0,0
92166.8,-178.571,4,2,0,5,0,0
92225,-60.241,4,2,0,5,0,0
92263.8,-178.571,4,2,0,5,0,0
92322,-60.241,4,2,0,5,0,0
92360.8,-178.571,4,2,0,5,0,0
92419,-60.241,4,2,0,5,0,0
92457.4,-178.571,4,2,0,5,0,0
92515,-60.241,4,2,0,5,0,0
92553.8,-178.571,4,2,0,5,0,0
92612,-60.241,4,2,0,5,0,0
92650.8,-178.571,4,2,0,5,0,0
92709,-60.241,4,2,0,5,0,0
92747.8,-178.571,4,2,0,5,0,0
92806,-100,4,2,0,5,0,0
92903,-70.922,4,2,0,5,0,0
92980.2,-137.615,4,2,0,5,0,0
93096,-70.922,4,2,0,5,0,0
93173.6,-137.615,4,2,0,5,0,0
93290,-70.922,4,2,0,5,0,0
93315.6,-137.615,4,2,0,5,0,0
93354,-70.922,4,2,0,5,0,0
93380,-137.615,4,2,0,5,0,0
93419,-70.922,4,2,0,5,0,0
93444.6,-137.615,4,2,0,5,0,0
93483,-70.922,4,2,0,5,0,0
93521.8,-137.615,4,2,0,5,0,0
93580,-100,4,2,0,5,0,0

[HitObjects]
448,192,774,128,0,1161:0:0:0:0:
320,192,774,1,0,0:0:0:0:
320,192,967,1,0,0:0:0:0:
320,192,1161,1,0,0:0:0:0:
64,192,1354,128,0,1644:0:0:0:0:
192,192,1354,1,0,0:0:0:0:
192,192,1548,1,0,0:0:0:0:
320,192,1741,128,0,2032:0:0:0:0:
64,192,1741,1,0,0:0:0:0:
64,192,1935,1,0,0:0:0:0:
320,192,2128,128,0,2419:0:0:0:0:
64,192,2128,1,0,0:0:0:0:
64,192,2322,1,0,0:0:0:0:
320,192,2515,128,0,2612:0:0:0:0:
64,192,2515,128,0,2612:0:0:0:0:
320,192,2709,128,0,2806:0:0:0:0:
64,192,2709,128,0,2806:0:0:0:0:
320,192,2903,128,0,2999:0:0:0:0:
64,192,2903,128,0,2999:0:0:0:0:
320,192,3096,128,0,3193:0:0:0:0:
64,192,3096,128,0,3193:0:0:0:0:
320,192,3290,128,0,3386:0:0:0:0:
64,192,3290,128,0,3386:0:0:0:0:
64,192,3483,1,0,0:0:0:0:
64,192,3677,1,0,0:0:0:0:
192,192,3870,128,0,4257:0:0:0:0:
448,192,3870,1,0,0:0:0:0:
448,192,4064,1,0,0:0:0:0:
448,192,4257,1,0,0:0:0:0:
64,192,4451,128,0,4741:0:0:0:0:
320,192,4451,1,0,0:0:0:0:
320,192,4644,1,0,0:0:0:0:
448,192,4838,128,0,5128:0:0:0:0:
192,192,4838,1,0,0:0:0:0:
192,192,5032,1,0,0:0:0:0:
320,192,5225,128,0,5515:0:0:0:0:
64,192,5225,1,0,0:0:0:0:
64,192,5419,1,0,0:0:0:0:
320,192,5612,128,0,5709:0:0:0:0:
64,192,5612,128,0,5709:0:0:0:0:
320,192,5806,128,0,5903:0:0:0:0:
64,192,5806,128,0,5903:0:0:0:0:
320,192,5999,128,0,6096:0:0:0:0:
64,192,5999,128,0,6096:0:0:0:0:
320,192,6193,128,0,6290:0:0:0:0:
64,192,6193,128,0,6290:0:0:0:0:
320,192,6386,128,0,6483:0:0:0:0:
64,192,6386,128,0,6483:0:0:0:0:
192,192,6580,128,0,6870:0:0:0:0:
448,192,6580,1,0,0:0:0:0:
448,192,6773,1,0,0:0:0:0:
448,192,6967,128,0,7354:0:0:0:0:
320,192,6967,1,0,0:0:0:0:
320,192,7161,1,0,0:0:0:0:
320,192,7354,1,0,0:0:0:0:
64,192,7548,128,0,7838:0:0:0:0:
192,192,7548,1,0,0:0:0:0:
192,192,7741,1,0,0:0:0:0:
320,192,7935,128,0,8225:0:0:0:0:
64,192,7935,1,0,0:0:0:0:
64,192,8128,1,0,0:0:0:0:
320,192,8322,128,0,8612:0:0:0:0:
64,192,8322,1,0,0:0:0:0:
64,192,8515,1,0,0:0:0:0:
320,192,8709,128,0,8806:0:0:0:0:
64,192,8709,128,0,8806:0:0:0:0:
320,192,8903,128,0,8999:0:0:0:0:
64,192,8903,128,0,8999:0:0:0:0:
320,192,9096,128,0,9193:0:0:0:0:
64,192,9096,128,0,9193:0:0:0:0:
320,192,9290,128,0,9386:0:0:0:0:
64,192,9290,128,0,9386:0:0:0:0:
320,192,9483,128,0,9580:0:0:0:0:
64,192,9483,128,0,9580:0:0:0:0:
64,192,9677,1,0,0:0:0:0:
64,192,9870,1,0,0:0:0:0:
192,192,10064,128,0,10451:0:0:0:0:
320,192,10064,1,0,0:0:0:0:
320,192,10257,1,0,0:0:0:0:
320,192,10451,1,0,0:0:0:0:
64,192,10644,128,0,10935:0:0:0:0:
192,192,10644,1,0,0:0:0:0:
192,192,10838,1,0,0:0:0:0:
448,192,11032,128,0,11322:0:0:0:0:
64,192,11032,1,0,0:0:0:0:
64,192,11225,1,0,0:0:0:0:
320,192,11419,128,0,11709:0:0:0:0:
64,192,11419,1,0,0:0:0:0:
64,192,11612,1,0,0:0:0:0:
448,192,11612,1,0,0:0:0:0:
192,192,11709,1,0,0:0:0:0:
320,192,11806,128,0,11903:0:0:0:0:
448,192,11806,1,0,0:0:0:0:
64,192,11903,1,0,0:0:0:0:
192,192,11903,1,0,0:0:0:0:
320,192,11999,128,0,12096:0:0:0:0:
64,192,12193,1,0,0:0:0:0:
192,192,12241,1,0,0:0:0:0:
320,192,12290,1,0,0:0:0:0:
448,192,12338,1,0,0:0:0:0:
64,192,12386,1,0,0:0:0:0:
192,192,12386,1,0,0:0:0:0:
448,192,12580,1,0,0:0:0:0:
64,192,12677,1,0,0:0:0:0:
448,192,12773,1,0,0:0:0:0:
320,192,12773,1,0,0:0:0:0:
64,192,12870,1,0,0:0:0:0:
448,192,12967,1,0,0:0:0:0:
64,192,13064,1,0,0:0:0:0:
192,192,13161,1,0,0:0:0:0:
320,192,13161,1,0,0:0:0:0:
448,192,13161,1,0,0:0:0:0:
64,192,13548,1,0,0:0:0:0:
448,192,13548,1,0,0:0:0:0:
320,192,13741,128,0,14032:0:0:0:0:
320,192,14128,128,0,14419:0:0:0:0:
64,192,14322,1,0,0:0:0:0:
192,192,14322,1,0,0:0:0:0:
448,192,14322,1,0,0:0:0:0:
320,192,14515,128,0,14903:0:0:0:0:
64,192,14709,1,0,0:0:0:0:
192,192,14709,1,0,0:0:0:0:
448,192,14709,1,0,0:0:0:0:
64,192,14903,1,0,0:0:0:0:
448,192,14903,1,0,0:0:0:0:
192,192,15096,1,0,0:0:0:0:
448,192,15096,1,0,0:0:0:0:
320,192,15290,1,0,0:0:0:0:
64,192,15483,1,0,0:0:0:0:
192,192,15483,1,0,0:0:0:0:
320,192,15677,1,0,0:0:0:0:
448,192,15677,1,0,0:0:0:0:
64,192,15677,1,0,0:0:0:0:
64,192,15870,1,0,0:0:0:0:
192,192,15870,1,0,0:0:0:0:
320,192,15870,1,0,0:0:0:0:
448,192,15870,1,0,0:0:0:0:
192,192,16257,128,0,16741:0:0:0:0:
64,192,16451,1,0,0:0:0:0:
320,192,16644,1,0,0:0:0:0:
448,192,16644,1,0,0:0:0:0:
192,192,16838,128,0,17128:0:0:0:0:
64,192,16838,1,0,0:0:0:0:
320,192,17032,1,0,0:0:0:0:
448,192,17032,1,0,0:0:0:0:
192,192,17225,128,0,17515:0:0:0:0:
64,192,17225,1,0,0:0:0:0:
320,192,17419,1,0,0:0:0:0:
448,192,17419,1,0,0:0:0:0:
192,192,17612,128,0,18967:0:0:0:0:
64,192,17612,1,0,0:0:0:0:
320,192,17806,1,0,0:0:0:0:
448,192,17806,1,0,0:0:0:0:
64,192,17999,1,0,0:0:0:0:
320,192,18193,1,0,0:0:0:0:
448,192,18193,1,0,0:0:0:0:
64,192,18386,1,0,0:0:0:0:
320,192,18580,1,0,0:0:0:0:
448,192,18580,1,0,0:0:0:0:
64,192,18773,1,0,0:0:0:0:
320,192,18967,1,0,0:0:0:0:
448,192,18967,1,0,0:0:0:0:
64,192,18967,1,0,0:0:0:0:
320,192,19354,128,0,19838:0:0:0:0:
448,192,19548,1,0,0:0:0:0:
192,192,19741,1,0,0:0:0:0:
64,192,19741,1,0,0:0:0:0:
320,192,19935,128,0,20225:0:0:0:0:
192,192,20128,1,0,0:0:0:0:
64,192,20128,1,0,0:0:0:0:
320,192,20322,128,0,20612:0:0:0:0:
64,192,20515,1,0,0:0:0:0:
192,192,20515,1,0,0:0:0:0:
448,192,20515,1,0,0:0:0:0:
320,192,20709,128,0,21096:0:0:0:0:
64,192,20903,1,0,0:0:0:0:
192,192,20903,1,0,0:0:0:0:
448,192,20903,1,0,0:0:0:0:
64,192,21096,1,0,0:0:0:0:
448,192,21096,1,0,0:0:0:0:
192,192,21290,1,0,0:0:0:0:
448,192,21290,1,0,0:0:0:0:
320,192,21483,1,0,0:0:0:0:
64,192,21677,1,0,0:0:0:0:
192,192,21677,1,0,0:0:0:0:
320,192,21870,1,0,0:0:0:0:
448,192,21870,1,0,0:0:0:0:
64,192,21870,1,0,0:0:0:0:
64,192,22064,1,0,0:0:0:0:
192,192,22064,1,0,0:0:0:0:
320,192,22064,1,0,0:0:0:0:
448,192,22064,1,0,0:0:0:0:
192,192,22451,128,0,22935:0:0:0:0:
64,192,22644,1,0,0:0:0:0:
320,192,22838,1,0,0:0:0:0:
448,192,22838,1,0,0:0:0:0:
192,192,23032,128,0,23322:0:0:0:0:
64,192,23032,1,0,0:0:0:0:
320,192,23225,1,0,0:0:0:0:
448,192,23225,1,0,0:0:0:0:
192,192,23419,128,0,23709:0:0:0:0:
64,192,23419,1,0,0:0:0:0:
320,192,23612,1,0,0:0:0:0:
448,192,23612,1,0,0:0:0:0:
192,192,23806,128,0,25161:0:0:0:0:
64,192,23806,1,0,0:0:0:0:
320,192,23999,1,0,0:0:0:0:
448,192,23999,1,0,0:0:0:0:
64,192,24193,1,0,0:0:0:0:
320,192,24386,1,0,0:0:0:0:
448,192,24386,1,0,0:0:0:0:
64,192,24580,1,0,0:0:0:0:
320,192,24773,1,0,0:0:0:0:
448,192,24773,1,0,0:0:0:0:
64,192,24967,1,0,0:0:0:0:
320,192,25161,1,0,0:0:0:0:
448,192,25161,1,0,0:0:0:0:
64,192,25161,1,0,0:0:0:0:
64,192,25548,1,0,0:0:0:0:
320,192,25548,1,0,0:0:0:0:
448,192,25548,1,0,0:0:0:0:
64,192,25838,1,0,0:0:0:0:
192,192,25838,1,0,0:0:0:0:
64,192,25935,1,0,0:0:0:0:
320,192,25935,1,0,0:0:0:0:
448,192,25935,1,0,0:0:0:0:
64,192,26128,1,0,0:0:0:0:
448,192,26128,1,0,0:0:0:0:
192,192,26322,1,0,0:0:0:0:
320,192,26322,1,0,0:0:0:0:
448,192,26322,1,0,0:0:0:0:
64,192,26612,1,0,0:0:0:0:
192,192,26612,1,0,0:0:0:0:
192,192,26709,1,0,0:0:0:0:
320,192,26709,1,0,0:0:0:0:
448,192,26709,1,0,0:0:0:0:
64,192,26903,1,0,0:0:0:0:
448,192,26903,1,0,0:0:0:0:
64,192,27096,1,0,0:0:0:0:
192,192,27096,1,0,0:0:0:0:
320,192,27096,1,0,0:0:0:0:
448,192,27290,1,0,0:0:0:0:
64,192,27386,1,0,0:0:0:0:
320,192,27386,1,0,0:0:0:0:
64,192,27483,1,0,0:0:0:0:
320,192,27483,1,0,0:0:0:0:
448,192,27483,1,0,0:0:0:0:
64,192,27677,1,0,0:0:0:0:
192,192,27677,1,0,0:0:0:0:
64,192,27870,1,0,0:0:0:0:
320,192,27870,1,0,0:0:0:0:
448,192,27870,1,0,0:0:0:0:
448,192,28064,1,0,0:0:0:0:
192,192,28161,1,0,0:0:0:0:
320,192,28161,1,0,0:0:0:0:
448,192,28257,1,0,0:0:0:0:
64,192,28257,1,0,0:0:0:0:
192,192,28257,1,0,0:0:0:0:
192,192,28451,1,0,0:0:0:0:
320,192,28451,1,0,0:0:0:0:
64,192,28644,1,0,0:0:0:0:
192,192,28644,1,0,0:0:0:0:
320,192,28644,1,0,0:0:0:0:
320,192,28935,1,0,0:0:0:0:
448,192,28935,1,0,0:0:0:0:
320,192,29032,1,0,0:0:0:0:
192,192,29032,1,0,0:0:0:0:
64,192,29032,1,0,0:0:0:0:
192,192,29225,1,0,0:0:0:0:
448,192,29225,1,0,0:0:0:0:
64,192,29419,1,0,0:0:0:0:
320,192,29419,1,0,0:0:0:0:
448,192,29419,1,0,0:0:0:0:
64,192,29709,1,0,0:0:0:0:
448,192,29709,1,0,0:0:0:0:
192,192,29806,1,0,0:0:0:0:
64,192,29806,1,0,0:0:0:0:
320,192,29806,1,0,0:0:0:0:
320,192,29999,1,0,0:0:0:0:
448,192,29999,1,0,0:0:0:0:
64,192,30193,1,0,0:0:0:0:
192,192,30193,1,0,0:0:0:0:
448,192,30193,1,0,0:0:0:0:
320,192,30386,1,0,0:0:0:0:
192,192,30483,1,0,0:0:0:0:
64,192,30483,1,0,0:0:0:0:
192,192,30580,1,0,0:0:0:0:
320,192,30580,1,0,0:0:0:0:
448,192,30580,1,0,0:0:0:0:
64,192,30773,1,0,0:0:0:0:
320,192,30773,1,0,0:0:0:0:
64,192,30967,1,0,0:0:0:0:
320,192,30967,1,0,0:0:0:0:
448,192,30967,1,0,0:0:0:0:
320,192,31161,1,0,0:0:0:0:
448,192,31257,1,0,0:0:0:0:
64,192,31257,1,0,0:0:0:0:
64,192,31354,1,0,0:0:0:0:
192,192,31354,1,0,0:0:0:0:
448,192,31354,1,0,0:0:0:0:
320,192,31451,1,0,0:0:0:0:
192,192,31548,1,0,0:0:0:0:
64,192,31644,1,0,0:0:0:0:
192,192,31741,1,0,0:0:0:0:
320,192,31741,1,0,0:0:0:0:
448,192,31741,1,0,0:0:0:0:
64,192,31935,1,0,0:0:0:0:
192,192,31935,1,0,0:0:0:0:
448,192,31935,1,0,0:0:0:0:
192,192,32032,1,0,0:0:0:0:
64,192,32128,1,0,0:0:0:0:
320,192,32128,1,0,0:0:0:0:
448,192,32128,1,0,0:0:0:0:
64,192,32322,1,0,0:0:0:0:
320,192,32322,1,0,0:0:0:0:
448,192,32322,1,0,0:0:0:0:
448,192,32419,1,0,0:0:0:0:
64,192,32515,1,0,0:0:0:0:
192,192,32515,1,0,0:0:0:0:
320,192,32515,1,0,0:0:0:0:
64,192,32709,1,0,0:0:0:0:
192,192,32709,1,0,0:0:0:0:
320,192,32709,1,0,0:0:0:0:
320,192,32806,1,0,0:0:0:0:
192,192,32903,1,0,0:0:0:0:
448,192,32903,1,0,0:0:0:0:
64,192,32903,1,0,0:0:0:0:
192,192,33096,1,0,0:0:0:0:
320,192,33096,1,0,0:0:0:0:
448,192,33096,1,0,0:0:0:0:
192,192,33193,1,0,0:0:0:0:
64,192,33290,1,0,0:0:0:0:
320,192,33290,1,0,0:0:0:0:
448,192,33290,1,0,0:0:0:0:
64,192,33483,1,0,0:0:0:0:
320,192,33483,1,0,0:0:0:0:
448,192,33483,1,0,0:0:0:0:
448,192,33580,1,0,0:0:0:0:
320,192,33677,1,0,0:0:0:0:
192,192,33677,1,0,0:0:0:0:
64,192,33677,1,0,0:0:0:0:
192,192,33870,1,0,0:0:0:0:
64,192,33870,1,0,0:0:0:0:
320,192,33870,1,0,0:0:0:0:
192,192,33967,1,0,0:0:0:0:
64,192,34064,1,0,0:0:0:0:
320,192,34064,1,0,0:0:0:0:
448,192,34064,1,0,0:0:0:0:
64,192,34257,1,0,0:0:0:0:
320,192,34257,1,0,0:0:0:0:
448,192,34257,1,0,0:0:0:0:
448,192,34354,1,0,0:0:0:0:
320,192,34451,1,0,0:0:0:0:
192,192,34451,1,0,0:0:0:0:
64,192,34451,1,0,0:0:0:0:
192,192,34548,1,0,0:0:0:0:
64,192,34644,1,0,0:0:0:0:
320,192,34644,1,0,0:0:0:0:
448,192,34644,1,0,0:0:0:0:
320,192,34741,1,0,0:0:0:0:
64,192,34838,1,0,0:0:0:0:
192,192,34838,1,0,0:0:0:0:
320,192,34935,1,0,0:0:0:0:
448,192,34935,1,0,0:0:0:0:
64,192,35032,1,0,0:0:0:0:
192,192,35032,1,0,0:0:0:0:
320,192,35128,1,0,0:0:0:0:
448,192,35128,1,0,0:0:0:0:
64,192,35225,1,0,0:0:0:0:
192,192,35225,1,0,0:0:0:0:
320,192,35322,1,0,0:0:0:0:
448,192,35322,1,0,0:0:0:0:
192,192,35419,1,0,0:0:0:0:
64,192,35419,1,0,0:0:0:0:
320,192,35515,1,0,0:0:0:0:
448,192,35515,1,0,0:0:0:0:
192,192,35612,1,0,0:0:0:0:
64,192,35612,1,0,0:0:0:0:
320,192,35709,1,0,0:0:0:0:
448,192,35709,1,0,0:0:0:0:
192,192,35806,1,0,0:0:0:0:
64,192,35806,1,0,0:0:0:0:
320,192,35903,1,0,0:0:0:0:
448,192,35903,1,0,0:0:0:0:
192,192,35999,1,0,0:0:0:0:
64,192,35999,1,0,0:0:0:0:
320,192,36048,1,0,0:0:0:0:
448,192,36096,1,0,0:0:0:0:
192,192,36144,1,0,0:0:0:0:
64,192,36193,1,0,0:0:0:0:
448,192,36241,1,0,0:0:0:0:
320,192,36290,1,0,0:0:0:0:
192,192,36338,1,0,0:0:0:0:
64,192,36386,1,0,0:0:0:0:
448,192,36386,1,0,0:0:0:0:
448,192,36773,128,0,36870:0:0:0:0:
64,192,36773,128,0,36870:0:0:0:0:
64,192,36967,1,0,0:0:0:0:
192,192,37015,1,0,0:0:0:0:
320,192,37064,1,0,0:0:0:0:
448,192,37112,1,0,0:0:0:0:
64,192,37161,1,0,0:0:0:0:
192,192,37209,1,0,0:0:0:0:
320,192,37257,1,0,0:0:0:0:
448,192,37257,1,0,0:0:0:0:
64,192,37451,1,0,0:0:0:0:
192,192,37451,1,0,0:0:0:0:
192,192,37548,1,0,0:0:0:0:
448,192,37548,1,0,0:0:0:0:
64,192,37644,1,0,0:0:0:0:
320,192,37644,1,0,0:0:0:0:
320,192,37741,1,0,0:0:0:0:
448,192,37741,1,0,0:0:0:0:
64,192,37838,1,0,0:0:0:0:
448,192,37838,1,0,0:0:0:0:
448,192,37935,128,0,38322:0:0:0:0:
192,192,37935,128,0,38128:0:0:0:0:
64,192,37935,128,0,38128:0:0:0:0:
64,192,38515,128,0,38709:0:0:0:0:
192,192,38612,128,0,38709:0:0:0:0:
448,192,38709,128,0,39096:0:0:0:0:
320,192,38709,128,0,38806:0:0:0:0:
64,192,38806,128,0,38999:0:0:0:0:
192,192,38903,128,0,38999:0:0:0:0:
320,192,38999,128,0,39096:0:0:0:0:
64,192,39096,128,0,39290:0:0:0:0:
192,192,39096,128,0,39290:0:0:0:0:
448,192,39290,1,0,0:0:0:0:
320,192,39338,1,0,0:0:0:0:
64,192,39386,1,0,0:0:0:0:
192,192,39435,1,0,0:0:0:0:
320,192,39483,1,0,0:0:0:0:
448,192,39483,1,0,0:0:0:0:
64,192,39580,128,0,39773:0:0:0:0:
192,192,39677,128,0,39773:0:0:0:0:
448,192,39677,128,0,39870:0:0:0:0:
320,192,39773,128,0,39870:0:0:0:0:
64,192,39870,128,0,40064:0:0:0:0:
192,192,39870,128,0,40064:0:0:0:0:
448,192,40064,1,0,0:0:0:0:
320,192,40112,1,0,0:0:0:0:
192,192,40161,1,0,0:0:0:0:
64,192,40209,1,0,0:0:0:0:
320,192,40257,1,0,0:0:0:0:
448,192,40257,1,0,0:0:0:0:
64,192,40354,128,0,40451:0:0:0:0:
192,192,40354,128,0,40548:0:0:0:0:
320,192,40451,128,0,40644:0:0:0:0:
448,192,40548,128,0,40644:0:0:0:0:
192,192,40644,128,0,40935:0:0:0:0:
64,192,40644,128,0,40935:0:0:0:0:
320,192,40838,128,0,40935:0:0:0:0:
64,192,41032,128,0,41419:0:0:0:0:
448,192,41032,128,0,41225:0:0:0:0:
320,192,41032,128,0,41225:0:0:0:0:
448,192,41419,1,0,0:0:0:0:
320,192,41419,1,0,0:0:0:0:
192,192,41612,1,0,0:0:0:0:
320,192,41612,1,0,0:0:0:0:
64,192,41806,1,0,0:0:0:0:
192,192,41806,1,0,0:0:0:0:
448,192,41806,1,0,0:0:0:0:
64,192,41999,128,0,42096:0:0:0:0:
320,192,41999,128,0,42096:0:0:0:0:
448,192,42096,128,0,42193:0:0:0:0:
192,192,42096,128,0,42193:0:0:0:0:
64,192,42193,128,0,42290:0:0:0:0:
320,192,42193,128,0,42290:0:0:0:0:
448,192,42290,128,0,42483:0:0:0:0:
192,192,42290,128,0,42386:0:0:0:0:
192,192,42483,128,0,42580:0:0:0:0:
64,192,42483,128,0,42580:0:0:0:0:
320,192,42580,1,0,0:0:0:0:
448,192,42580,1,0,0:0:0:0:
64,192,42773,128,0,42870:0:0:0:0:
192,192,42773,128,0,42870:0:0:0:0:
320,192,42870,128,0,42967:0:0:0:0:
448,192,42870,128,0,42967:0:0:0:0:
64,192,42967,128,0,43064:0:0:0:0:
192,192,42967,128,0,43064:0:0:0:0:
448,192,43064,128,0,43257:0:0:0:0:
320,192,43064,128,0,43161:0:0:0:0:
192,192,43161,128,0,43257:0:0:0:0:
64,192,43257,128,0,43354:0:0:0:0:
320,192,43257,128,0,43354:0:0:0:0:
192,192,43354,1,0,0:0:0:0:
448,192,43354,1,0,0:0:0:0:
448,192,43548,128,0,43644:0:0:0:0:
320,192,43548,128,0,43644:0:0:0:0:
448,192,43741,128,0,43838:0:0:0:0:
320,192,43741,128,0,43838:0:0:0:0:
192,192,43935,128,0,44032:0:0:0:0:
64,192,43935,128,0,44032:0:0:0:0:
64,192,44128,128,0,44515:0:0:0:0:
320,192,44128,128,0,44322:0:0:0:0:
448,192,44128,128,0,44322:0:0:0:0:
192,192,44128,128,0,44419:0:0:0:0:
448,192,44515,1,0,0:0:0:0:
192,192,44709,128,0,44806:0:0:0:0:
64,192,44709,128,0,44903:0:0:0:0:
448,192,44806,128,0,44903:0:0:0:0:
320,192,44903,1,0,0:0:0:0:
192,192,44903,1,0,0:0:0:0:
448,192,44999,128,0,45096:0:0:0:0:
192,192,44999,128,0,45096:0:0:0:0:
320,192,45096,128,0,45193:0:0:0:0:
64,192,45096,128,0,45193:0:0:0:0:
192,192,45193,128,0,45290:0:0:0:0:
448,192,45193,128,0,45290:0:0:0:0:
64,192,45290,128,0,45386:0:0:0:0:
320,192,45290,128,0,45386:0:0:0:0:
448,192,45483,1,0,0:0:0:0:
320,192,45532,1,0,0:0:0:0:
192,192,45580,1,0,0:0:0:0:
64,192,45628,1,0,0:0:0:0:
320,192,45677,1,0,0:0:0:0:
448,192,45677,1,0,0:0:0:0:
64,192,45773,128,0,45870:0:0:0:0:
448,192,45870,128,0,46064:0:0:0:0:
320,192,45967,128,0,46161:0:0:0:0:
192,192,46064,128,0,46161:0:0:0:0:
64,192,46257,1,0,0:0:0:0:
192,192,46306,1,0,0:0:0:0:
320,192,46354,1,0,0:0:0:0:
448,192,46403,1,0,0:0:0:0:
64,192,46451,1,0,0:0:0:0:
192,192,46451,1,0,0:0:0:0:
448,192,46548,128,0,46644:0:0:0:0:
64,192,46644,128,0,46838:0:0:0:0:
320,192,46644,128,0,46741:0:0:0:0:
192,192,46741,128,0,46838:0:0:0:0:
320,192,46838,128,0,47128:0:0:0:0:
448,192,46838,128,0,47128:0:0:0:0:
192,192,47032,128,0,47128:0:0:0:0:
64,192,47225,128,0,47612:0:0:0:0:
192,192,47225,128,0,47612:0:0:0:0:
64,192,47806,1,0,0:0:0:0:
192,192,47806,1,0,0:0:0:0:
64,192,47999,1,0,0:0:0:0:
448,192,47999,128,0,48483:0:0:0:0:
320,192,47999,128,0,48677:0:0:0:0:
64,192,48193,128,0,48483:0:0:0:0:
64,192,48580,128,0,48677:0:0:0:0:
448,192,48580,128,0,48677:0:0:0:0:
64,192,48773,1,0,0:0:0:0:
192,192,48773,1,0,0:0:0:0:
320,192,48773,1,0,0:0:0:0:
448,192,48773,1,0,0:0:0:0:
192,192,48967,1,0,0:0:0:0:
448,192,48967,1,0,0:0:0:0:
64,192,49161,1,0,0:0:0:0:
192,192,49161,1,0,0:0:0:0:
320,192,49161,1,0,0:0:0:0:
448,192,49161,1,0,0:0:0:0:
64,192,49354,1,0,0:0:0:0:
320,192,49354,1,0,0:0:0:0:
64,192,49548,1,0,0:0:0:0:
320,192,49548,1,0,0:0:0:0:
448,192,49548,1,0,0:0:0:0:
192,192,49596,1,0,0:0:0:0:
320,192,49644,1,0,0:0:0:0:
448,192,49693,1,0,0:0:0:0:
192,192,49741,1,0,0:0:0:0:
64,192,49790,1,0,0:0:0:0:
448,192,49838,1,0,0:0:0:0:
320,192,49886,1,0,0:0:0:0:
192,192,49935,1,0,0:0:0:0:
64,192,49983,1,0,0:0:0:0:
320,192,50032,1,0,0:0:0:0:
448,192,50080,1,0,0:0:0:0:
64,192,50128,1,0,0:0:0:0:
192,192,50177,1,0,0:0:0:0:
320,192,50225,1,0,0:0:0:0:
448,192,50273,1,0,0:0:0:0:
64,192,50322,128,0,50709:0:0:0:0:
192,192,50322,128,0,50612:0:0:0:0:
320,192,50322,128,0,50515:0:0:0:0:
320,192,50709,128,0,50806:0:0:0:0:
448,192,50903,1,0,0:0:0:0:
320,192,50951,1,0,0:0:0:0:
192,192,50999,1,0,0:0:0:0:
64,192,51048,1,0,0:0:0:0:
320,192,51096,1,0,0:0:0:0:
448,192,51096,1,0,0:0:0:0:
192,192,51193,1,0,0:0:0:0:
64,192,51241,1,0,0:0:0:0:
320,192,51290,1,0,0:0:0:0:
448,192,51338,1,0,0:0:0:0:
192,192,51386,1,0,0:0:0:0:
64,192,51435,1,0,0:0:0:0:
448,192,51483,128,0,51677:0:0:0:0:
64,192,51677,1,0,0:0:0:0:
192,192,51725,1,0,0:0:0:0:
448,192,51773,1,0,0:0:0:0:
320,192,51822,1,0,0:0:0:0:
64,192,51870,1,0,0:0:0:0:
192,192,51870,1,0,0:0:0:0:
448,192,51967,1,0,0:0:0:0:
320,192,52015,1,0,0:0:0:0:
192,192,52064,1,0,0:0:0:0:
64,192,52112,1,0,0:0:0:0:
448,192,52161,1,0,0:0:0:0:
320,192,52209,1,0,0:0:0:0:
64,192,52257,128,0,52451:0:0:0:0:
192,192,52451,128,0,52548:0:0:0:0:
448,192,52451,128,0,52548:0:0:0:0:
64,192,52644,1,0,0:0:0:0:
192,192,52644,1,0,0:0:0:0:
320,192,52644,1,0,0:0:0:0:
448,192,52644,1,0,0:0:0:0:
64,192,52838,128,0,52935:0:0:0:0:
320,192,52838,128,0,52935:0:0:0:0:
320,192,53032,128,0,53128:0:0:0:0:
192,192,53032,128,0,53128:0:0:0:0:
192,192,53225,128,0,53322:0:0:0:0:
448,192,53225,128,0,53322:0:0:0:0:
64,192,53419,128,0,53612:0:0:0:0:
320,192,53419,128,0,53548:0:0:0:0:
448,192,53419,128,0,53515:0:0:0:0:
448,192,53806,128,0,53999:0:0:0:0:
64,192,53999,1,0,0:0:0:0:
192,192,53999,1,0,0:0:0:0:
320,192,54096,1,0,0:0:0:0:
448,192,54096,1,0,0:0:0:0:
64,192,54193,1,0,0:0:0:0:
448,192,54193,1,0,0:0:0:0:
192,192,54290,1,0,0:0:0:0:
320,192,54290,1,0,0:0:0:0:
448,192,54386,1,0,0:0:0:0:
320,192,54435,1,0,0:0:0:0:
64,192,54483,1,0,0:0:0:0:
192,192,54532,1,0,0:0:0:0:
448,192,54580,128,0,54773:0:0:0:0:
320,192,54580,128,0,54677:0:0:0:0:
64,192,54773,1,0,0:0:0:0:
192,192,54822,1,0,0:0:0:0:
320,192,54870,1,0,0:0:0:0:
448,192,54919,1,0,0:0:0:0:
64,192,54967,1,0,0:0:0:0:
192,192,54967,1,0,0:0:0:0:
64,192,55064,1,0,0:0:0:0:
448,192,55064,1,0,0:0:0:0:
192,192,55161,1,0,0:0:0:0:
320,192,55161,1,0,0:0:0:0:
320,192,55257,1,0,0:0:0:0:
448,192,55257,1,0,0:0:0:0:
64,192,55354,1,0,0:0:0:0:
192,192,55354,1,0,0:0:0:0:
320,192,55451,1,0,0:0:0:0:
448,192,55451,1,0,0:0:0:0:
64,192,55548,1,0,0:0:0:0:
448,192,55548,1,0,0:0:0:0:
192,192,55644,1,0,0:0:0:0:
320,192,55644,1,0,0:0:0:0:
64,192,55741,1,0,0:0:0:0:
192,192,55741,1,0,0:0:0:0:
448,192,55741,1,0,0:0:0:0:
320,192,55838,1,0,0:0:0:0:
448,192,55838,1,0,0:0:0:0:
192,192,55935,128,0,56032:0:0:0:0:
64,192,55935,128,0,56225:0:0:0:0:
320,192,55935,128,0,56032:0:0:0:0:
448,192,55935,128,0,56032:0:0:0:0:
320,192,56128,128,0,56225:0:0:0:0:
192,192,56128,128,0,56225:0:0:0:0:
448,192,56128,128,0,56419:0:0:0:0:
320,192,56322,128,0,56419:0:0:0:0:
192,192,56322,128,0,56806:0:0:0:0:
64,192,56322,128,0,56419:0:0:0:0:
64,192,56515,128,0,56806:0:0:0:0:
320,192,56515,128,0,56806:0:0:0:0:
448,192,56515,128,0,56806:0:0:0:0:
448,192,56903,128,0,57096:0:0:0:0:
64,192,57096,1,0,0:0:0:0:
192,192,57144,1,0,0:0:0:0:
320,192,57193,1,0,0:0:0:0:
64,192,57290,1,0,0:0:0:0:
192,192,57290,1,0,0:0:0:0:
448,192,57290,1,0,0:0:0:0:
64,192,57483,1,0,0:0:0:0:
192,192,57532,1,0,0:0:0:0:
320,192,57580,1,0,0:0:0:0:
192,192,57677,128,0,57773:0:0:0:0:
64,192,57677,128,0,57870:0:0:0:0:
448,192,57870,1,0,0:0:0:0:
320,192,57919,1,0,0:0:0:0:
192,192,57967,1,0,0:0:0:0:
320,192,58064,1,0,0:0:0:0:
448,192,58064,1,0,0:0:0:0:
64,192,58257,1,0,0:0:0:0:
192,192,58306,1,0,0:0:0:0:
320,192,58354,1,0,0:0:0:0:
448,192,58451,128,0,58644:0:0:0:0:
192,192,58644,128,0,58741:0:0:0:0:
320,192,58644,128,0,58741:0:0:0:0:
64,192,58644,128,0,58935:0:0:0:0:
448,192,58838,128,0,58935:0:0:0:0:
320,192,58838,1,0,0:0:0:0:
192,192,58838,128,0,59128:0:0:0:0:
320,192,59032,128,0,59128:0:0:0:0:
448,192,59032,128,0,59128:0:0:0:0:
64,192,59032,128,0,59322:0:0:0:0:
192,192,59225,128,0,59322:0:0:0:0:
320,192,59225,128,0,59322:0:0:0:0:
448,192,59225,128,0,59515:0:0:0:0:
192,192,59419,128,0,59515:0:0:0:0:
320,192,59419,128,0,59515:0:0:0:0:
64,192,59419,128,0,59515:0:0:0:0:
448,192,59612,128,0,59806:0:0:0:0:
64,192,59612,128,0,59709:0:0:0:0:
192,192,59612,128,0,59741:0:0:0:0:
64,192,59999,128,0,60290:0:0:0:0:
192,192,60193,128,0,60290:0:0:0:0:
320,192,60193,1,0,0:0:0:0:
448,192,60193,1,0,0:0:0:0:
64,192,60386,1,0,0:0:0:0:
192,192,60386,1,0,0:0:0:0:
320,192,60386,1,0,0:0:0:0:
448,192,60386,1,0,0:0:0:0:
64,192,60580,1,0,0:0:0:0:
192,192,60628,1,0,0:0:0:0:
320,192,60677,1,0,0:0:0:0:
64,192,60773,128,0,60967:0:0:0:0:
192,192,60773,128,0,60870:0:0:0:0:
448,192,60967,1,0,0:0:0:0:
320,192,61015,1,0,0:0:0:0:
192,192,61064,1,0,0:0:0:0:
64,192,61112,1,0,0:0:0:0:
448,192,61161,1,0,0:0:0:0:
320,192,61161,128,0,61257:0:0:0:0:
64,192,61257,1,0,0:0:0:0:
192,192,61257,128,0,61354:0:0:0:0:
448,192,61354,1,0,0:0:0:0:
320,192,61354,128,0,61451:0:0:0:0:
64,192,61451,1,0,0:0:0:0:
192,192,61451,128,0,61548:0:0:0:0:
448,192,61548,1,0,0:0:0:0:
320,192,61548,128,0,61644:0:0:0:0:
64,192,61644,1,0,0:0:0:0:
192,192,61644,128,0,61741:0:0:0:0:
448,192,61741,1,0,0:0:0:0:
320,192,61741,128,0,61838:0:0:0:0:
64,192,61838,1,0,0:0:0:0:
192,192,61838,128,0,61935:0:0:0:0:
320,192,61935,1,0,0:0:0:0:
448,192,61935,1,0,0:0:0:0:
64,192,62128,1,0,0:0:0:0:
192,192,62128,1,0,0:0:0:0:
320,192,62128,1,0,0:0:0:0:
448,192,62128,1,0,0:0:0:0:
64,192,62322,128,0,62612:0:0:0:0:
448,192,62322,128,0,62612:0:0:0:0:
192,192,62322,128,0,62612:0:0:0:0:
320,192,62322,128,0,62612:0:0:0:0:
448,192,62709,1,0,0:0:0:0:
192,192,62709,1,0,0:0:0:0:
64,192,62709,1,0,0:0:0:0:
320,192,62709,1,0,0:0:0:0:
448,192,62999,1,0,0:0:0:0:
320,192,62999,1,0,0:0:0:0:
448,192,63096,1,0,0:0:0:0:
192,192,63096,1,0,0:0:0:0:
64,192,63096,1,0,0:0:0:0:
448,192,63290,1,0,0:0:0:0:
64,192,63290,1,0,0:0:0:0:
320,192,63483,1,0,0:0:0:0:
192,192,63483,1,0,0:0:0:0:
64,192,63483,1,0,0:0:0:0:
448,192,63773,1,0,0:0:0:0:
320,192,63773,1,0,0:0:0:0:
320,192,63870,1,0,0:0:0:0:
192,192,63870,1,0,0:0:0:0:
64,192,63870,1,0,0:0:0:0:
448,192,64064,1,0,0:0:0:0:
64,192,64064,1,0,0:0:0:0:
448,192,64257,1,0,0:0:0:0:
320,192,64257,1,0,0:0:0:0:
192,192,64257,1,0,0:0:0:0:
64,192,64451,1,0,0:0:0:0:
448,192,64548,1,0,0:0:0:0:
192,192,64548,1,0,0:0:0:0:
448,192,64644,1,0,0:0:0:0:
192,192,64644,1,0,0:0:0:0:
64,192,64644,1,0,0:0:0:0:
448,192,64838,1,0,0:0:0:0:
320,192,64838,1,0,0:0:0:0:
448,192,65032,1,0,0:0:0:0:
192,192,65032,1,0,0:0:0:0:
64,192,65032,1,0,0:0:0:0:
64,192,65225,1,0,0:0:0:0:
320,192,65322,1,0,0:0:0:0:
192,192,65322,1,0,0:0:0:0:
64,192,65419,1,0,0:0:0:0:
448,192,65419,1,0,0:0:0:0:
320,192,65419,1,0,0:0:0:0:
320,192,65612,1,0,0:0:0:0:
192,192,65612,1,0,0:0:0:0:
448,192,65806,1,0,0:0:0:0:
320,192,65806,1,0,0:0:0:0:
192,192,65806,1,0,0:0:0:0:
192,192,66096,1,0,0:0:0:0:
64,192,66096,1,0,0:0:0:0:
192,192,66193,1,0,0:0:0:0:
320,192,66193,1,0,0:0:0:0:
448,192,66193,1,0,0:0:0:0:
320,192,66386,1,0,0:0:0:0:
64,192,66386,1,0,0:0:0:0:
448,192,66580,1,0,0:0:0:0:
192,192,66580,1,0,0:0:0:0:
64,192,66580,1,0,0:0:0:0:
448,192,66870,1,0,0:0:0:0:
64,192,66870,1,0,0:0:0:0:
320,192,66967,1,0,0:0:0:0:
448,192,66967,1,0,0:0:0:0:
192,192,66967,1,0,0:0:0:0:
192,192,67161,1,0,0:0:0:0:
64,192,67161,1,0,0:0:0:0:
448,192,67354,1,0,0:0:0:0:
320,192,67354,1,0,0:0:0:0:
64,192,67354,1,0,0:0:0:0:
192,192,67548,1,0,0:0:0:0:
320,192,67644,1,0,0:0:0:0:
448,192,67644,1,0,0:0:0:0:
320,192,67741,1,0,0:0:0:0:
192,192,67741,1,0,0:0:0:0:
64,192,67741,1,0,0:0:0:0:
448,192,67935,1,0,0:0:0:0:
192,192,67935,1,0,0:0:0:0:
448,192,68128,1,0,0:0:0:0:
192,192,68128,1,0,0:0:0:0:
64,192,68128,1,0,0:0:0:0:
192,192,68322,1,0,0:0:0:0:
64,192,68419,1,0,0:0:0:0:
448,192,68419,1,0,0:0:0:0:
448,192,68515,1,0,0:0:0:0:
320,192,68515,1,0,0:0:0:0:
64,192,68515,1,0,0:0:0:0:
192,192,68612,1,0,0:0:0:0:
320,192,68709,1,0,0:0:0:0:
448,192,68806,1,0,0:0:0:0:
320,192,68903,1,0,0:0:0:0:
192,192,68903,1,0,0:0:0:0:
64,192,68903,1,0,0:0:0:0:
448,192,69096,1,0,0:0:0:0:
320,192,69096,1,0,0:0:0:0:
64,192,69096,1,0,0:0:0:0:
320,192,69193,1,0,0:0:0:0:
448,192,69290,1,0,0:0:0:0:
192,192,69290,1,0,0:0:0:0:
64,192,69290,1,0,0:0:0:0:
448,192,69483,1,0,0:0:0:0:
192,192,69483,1,0,0:0:0:0:
64,192,69483,1,0,0:0:0:0:
64,192,69580,1,0,0:0:0:0:
448,192,69677,1,0,0:0:0:0:
320,192,69677,1,0,0:0:0:0:
192,192,69677,1,0,0:0:0:0:
448,192,69870,1,0,0:0:0:0:
320,192,69870,1,0,0:0:0:0:
192,192,69870,1,0,0:0:0:0:
192,192,69967,1,0,0:0:0:0:
320,192,70064,1,0,0:0:0:0:
64,192,70064,1,0,0:0:0:0:
448,192,70064,1,0,0:0:0:0:
320,192,70257,1,0,0:0:0:0:
192,192,70257,1,0,0:0:0:0:
64,192,70257,1,0,0:0:0:0:
320,192,70354,1,0,0:0:0:0:
448,192,70451,1,0,0:0:0:0:
192,192,70451,1,0,0:0:0:0:
64,192,70451,1,0,0:0:0:0:
448,192,70644,1,0,0:0:0:0:
192,192,70644,1,0,0:0:0:0:
64,192,70644,1,0,0:0:0:0:
64,192,70741,1,0,0:0:0:0:
192,192,70838,1,0,0:0:0:0:
320,192,70838,1,0,0:0:0:0:
448,192,70838,1,0,0:0:0:0:
320,192,71032,1,0,0:0:0:0:
448,192,71032,1,0,0:0:0:0:
192,192,71032,1,0,0:0:0:0:
320,192,71128,1,0,0:0:0:0:
448,192,71225,1,0,0:0:0:0:
192,192,71225,1,0,0:0:0:0:
64,192,71225,1,0,0:0:0:0:
448,192,71419,1,0,0:0:0:0:
192,192,71419,1,0,0:0:0:0:
64,192,71419,1,0,0:0:0:0:
64,192,71515,1,0,0:0:0:0:
192,192,71612,1,0,0:0:0:0:
320,192,71612,1,0,0:0:0:0:
448,192,71612,1,0,0:0:0:0:
320,192,71709,1,0,0:0:0:0:
448,192,71806,1,0,0:0:0:0:
192,192,71806,1,0,0:0:0:0:
64,192,71806,1,0,0:0:0:0:
192,192,71903,1,0,0:0:0:0:
448,192,71999,1,0,0:0:0:0:
320,192,71999,1,0,0:0:0:0:
192,192,72096,1,0,0:0:0:0:
64,192,72096,1,0,0:0:0:0:
448,192,72193,1,0,0:0:0:0:
320,192,72193,1,0,0:0:0:0:
192,192,72290,1,0,0:0:0:0:
64,192,72290,1,0,0:0:0:0:
448,192,72386,1,0,0:0:0:0:
320,192,72386,1,0,0:0:0:0:
192,192,72483,1,0,0:0:0:0:
64,192,72483,1,0,0:0:0:0:
320,192,72580,1,0,0:0:0:0:
448,192,72580,1,0,0:0:0:0:
192,192,72677,1,0,0:0:0:0:
64,192,72677,1,0,0:0:0:0:
320,192,72773,1,0,0:0:0:0:
448,192,72773,1,0,0:0:0:0:
192,192,72870,1,0,0:0:0:0:
64,192,72870,1,0,0:0:0:0:
320,192,72967,1,0,0:0:0:0:
448,192,72967,1,0,0:0:0:0:
192,192,73064,1,0,0:0:0:0:
64,192,73064,1,0,0:0:0:0:
320,192,73161,1,0,0:0:0:0:
448,192,73161,1,0,0:0:0:0:
192,192,73209,1,0,0:0:0:0:
64,192,73257,1,0,0:0:0:0:
320,192,73306,1,0,0:0:0:0:
448,192,73354,1,0,0:0:0:0:
64,192,73403,1,0,0:0:0:0:
192,192,73451,1,0,0:0:0:0:
320,192,73499,1,0,0:0:0:0:
448,192,73548,1,0,0:0:0:0:
64,192,73548,1,0,0:0:0:0:
64,192,73935,128,0,74032:0:0:0:0:
192,192,73935,128,0,74032:0:0:0:0:
448,192,74128,1,0,0:0:0:0:
320,192,74177,1,0,0:0:0:0:
192,192,74225,1,0,0:0:0:0:
64,192,74273,1,0,0:0:0:0:
448,192,74322,1,0,0:0:0:0:
320,192,74370,1,0,0:0:0:0:
192,192,74419,1,0,0:0:0:0:
64,192,74419,1,0,0:0:0:0:
448,192,74612,1,0,0:0:0:0:
320,192,74612,1,0,0:0:0:0:
320,192,74709,1,0,0:0:0:0:
64,192,74709,1,0,0:0:0:0:
448,192,74806,1,0,0:0:0:0:
192,192,74806,1,0,0:0:0:0:
192,192,74903,1,0,0:0:0:0:
64,192,74903,1,0,0:0:0:0:
448,192,74999,1,0,0:0:0:0:
64,192,74999,1,0,0:0:0:0:
64,192,75096,128,0,75483:0:0:0:0:
320,192,75096,128,0,75290:0:0:0:0:
448,192,75096,128,0,75290:0:0:0:0:
448,192,75483,128,0,75677:0:0:0:0:
64,192,75677,1,0,0:0:0:0:
192,192,75677,128,0,75773:0:0:0:0:
448,192,75773,1,0,0:0:0:0:
320,192,75773,128,0,75870:0:0:0:0:
64,192,75870,1,0,0:0:0:0:
192,192,75870,128,0,75967:0:0:0:0:
448,192,75967,1,0,0:0:0:0:
320,192,75967,128,0,76064:0:0:0:0:
64,192,76064,1,0,0:0:0:0:
192,192,76064,128,0,76161:0:0:0:0:
448,192,76161,1,0,0:0:0:0:
320,192,76161,128,0,76257:0:0:0:0:
64,192,76257,1,0,0:0:0:0:
192,192,76257,128,0,76354:0:0:0:0:
448,192,76354,1,0,0:0:0:0:
320,192,76354,128,0,76451:0:0:0:0:
64,192,76451,1,0,0:0:0:0:
192,192,76451,128,0,76548:0:0:0:0:
320,192,76548,128,0,76644:0:0:0:0:
448,192,76548,1,0,0:0:0:0:
192,192,76644,1,0,0:0:0:0:
64,192,76644,128,0,76741:0:0:0:0:
320,192,76741,1,0,0:0:0:0:
448,192,76741,128,0,76838:0:0:0:0:
192,192,76838,1,0,0:0:0:0:
64,192,76838,128,0,76935:0:0:0:0:
320,192,76935,1,0,0:0:0:0:
448,192,76935,128,0,77032:0:0:0:0:
192,192,77032,1,0,0:0:0:0:
64,192,77032,128,0,77128:0:0:0:0:
320,192,77128,1,0,0:0:0:0:
448,192,77128,128,0,77225:0:0:0:0:
192,192,77225,1,0,0:0:0:0:
64,192,77225,128,0,77322:0:0:0:0:
320,192,77322,1,0,0:0:0:0:
448,192,77322,128,0,77419:0:0:0:0:
192,192,77419,128,0,77515:0:0:0:0:
64,192,77419,128,0,77709:0:0:0:0:
192,192,77612,128,0,77903:0:0:0:0:
64,192,77806,128,0,78193:0:0:0:0:
320,192,77999,128,0,78193:0:0:0:0:
448,192,77999,128,0,78096:0:0:0:0:
192,192,78193,128,0,78580:0:0:0:0:
448,192,78193,128,0,78580:0:0:0:0:
64,192,78290,128,0,78580:0:0:0:0:
320,192,78580,1,0,0:0:0:0:
448,192,78773,128,0,78967:0:0:0:0:
64,192,78773,1,0,0:0:0:0:
192,192,78870,1,0,0:0:0:0:
64,192,78967,1,0,0:0:0:0:
320,192,78967,128,0,79064:0:0:0:0:
448,192,79064,1,0,0:0:0:0:
192,192,79064,128,0,79161:0:0:0:0:
64,192,79161,1,0,0:0:0:0:
320,192,79161,128,0,79257:0:0:0:0:
448,192,79257,1,0,0:0:0:0:
192,192,79257,128,0,79354:0:0:0:0:
64,192,79354,1,0,0:0:0:0:
320,192,79354,128,0,79451:0:0:0:0:
448,192,79451,1,0,0:0:0:0:
192,192,79451,128,0,79548:0:0:0:0:
64,192,79548,1,0,0:0:0:0:
320,192,79548,128,0,79644:0:0:0:0:
448,192,79644,1,0,0:0:0:0:
192,192,79644,128,0,79741:0:0:0:0:
320,192,79741,1,0,0:0:0:0:
64,192,79741,128,0,79838:0:0:0:0:
192,192,79838,1,0,0:0:0:0:
448,192,79838,128,0,79935:0:0:0:0:
320,192,79935,1,0,0:0:0:0:
64,192,79935,128,0,80032:0:0:0:0:
192,192,80032,1,0,0:0:0:0:
448,192,80032,128,0,80128:0:0:0:0:
320,192,80128,1,0,0:0:0:0:
64,192,80128,128,0,80225:0:0:0:0:
192,192,80225,1,0,0:0:0:0:
448,192,80225,128,0,80322:0:0:0:0:
320,192,80322,1,0,0:0:0:0:
64,192,80322,128,0,80419:0:0:0:0:
192,192,80419,1,0,0:0:0:0:
448,192,80419,128,0,80515:0:0:0:0:
64,192,80515,128,0,80903:0:0:0:0:
320,192,80515,128,0,80709:0:0:0:0:
192,192,80709,128,0,80903:0:0:0:0:
320,192,80903,1,0,0:0:0:0:
448,192,80903,1,0,0:0:0:0:
192,192,80967,1,0,0:0:0:0:
64,192,80967,1,0,0:0:0:0:
320,192,81032,1,0,0:0:0:0:
448,192,81032,1,0,0:0:0:0:
192,192,81096,1,0,0:0:0:0:
64,192,81096,1,0,0:0:0:0:
320,192,81193,1,0,0:0:0:0:
448,192,81193,1,0,0:0:0:0:
64,192,81290,128,0,81677:0:0:0:0:
192,192,81290,128,0,81483:0:0:0:0:
448,192,81290,128,0,81483:0:0:0:0:
320,192,81677,128,0,81870:0:0:0:0:
448,192,81870,1,0,0:0:0:0:
192,192,81870,1,0,0:0:0:0:
64,192,81870,1,0,0:0:0:0:
320,192,81967,1,0,0:0:0:0:
64,192,82064,1,0,0:0:0:0:
192,192,82064,128,0,82161:0:0:0:0:
448,192,82161,1,0,0:0:0:0:
320,192,82161,128,0,82257:0:0:0:0:
64,192,82257,1,0,0:0:0:0:
192,192,82257,128,0,82354:0:0:0:0:
448,192,82354,1,0,0:0:0:0:
320,192,82354,128,0,82451:0:0:0:0:
64,192,82451,1,0,0:0:0:0:
192,192,82451,128,0,82548:0:0:0:0:
448,192,82548,1,0,0:0:0:0:
320,192,82548,128,0,82644:0:0:0:0:
64,192,82644,1,0,0:0:0:0:
192,192,82644,128,0,82741:0:0:0:0:
448,192,82741,1,0,0:0:0:0:
320,192,82741,128,0,82838:0:0:0:0:
64,192,82838,1,0,0:0:0:0:
192,192,82838,128,0,82935:0:0:0:0:
320,192,82935,128,0,83032:0:0:0:0:
448,192,82935,1,0,0:0:0:0:
192,192,83032,1,0,0:0:0:0:
64,192,83032,128,0,83128:0:0:0:0:
320,192,83128,1,0,0:0:0:0:
448,192,83128,128,0,83225:0:0:0:0:
192,192,83225,1,0,0:0:0:0:
64,192,83225,128,0,83322:0:0:0:0:
320,192,83322,1,0,0:0:0:0:
448,192,83322,128,0,83419:0:0:0:0:
192,192,83419,1,0,0:0:0:0:
64,192,83419,128,0,83515:0:0:0:0:
320,192,83515,1,0,0:0:0:0:
448,192,83515,128,0,83612:0:0:0:0:
192,192,83612,1,0,0:0:0:0:
64,192,83612,128,0,83709:0:0:0:0:
320,192,83709,1,0,0:0:0:0:
448,192,83709,128,0,83806:0:0:0:0:
192,192,83806,128,0,84096:0:0:0:0:
64,192,83806,128,0,83903:0:0:0:0:
64,192,83999,128,0,84290:0:0:0:0:
192,192,84193,128,0,84386:0:0:0:0:
448,192,84386,128,0,84773:0:0:0:0:
320,192,84386,128,0,84677:0:0:0:0:
64,192,84386,128,0,84580:0:0:0:0:
64,192,84967,128,0,85354:0:0:0:0:
192,192,84967,128,0,85257:0:0:0:0:
320,192,84967,128,0,85161:0:0:0:0:
448,192,85161,1,0,0:0:0:0:
320,192,85354,1,0,0:0:0:0:
448,192,85354,1,0,0:0:0:0:
64,192,85548,1,0,0:0:0:0:
192,192,85548,1,0,0:0:0:0:
448,192,85741,128,0,86322:0:0:0:0:
320,192,85741,128,0,86225:0:0:0:0:
192,192,85741,128,0,86128:0:0:0:0:
64,192,85741,128,0,86032:0:0:0:0:
64,192,86322,1,0,0:0:0:0:
192,192,86322,1,0,0:0:0:0:
320,192,86419,1,0,0:0:0:0:
448,192,86515,1,0,0:0:0:0:
192,192,86515,1,0,0:0:0:0:
320,192,86612,1,0,0:0:0:0:
64,192,86709,1,0,0:0:0:0:
192,192,86741,1,0,0:0:0:0:
320,192,86773,1,0,0:0:0:0:
192,192,86903,1,0,0:0:0:0:
320,192,86935,1,0,0:0:0:0:
448,192,86967,1,0,0:0:0:0:
64,192,87096,1,0,0:0:0:0:
192,192,87128,1,0,0:0:0:0:
320,192,87161,1,0,0:0:0:0:
192,192,87290,1,0,0:0:0:0:
320,192,87322,1,0,0:0:0:0:
448,192,87354,1,0,0:0:0:0:
64,192,87483,128,0,87870:0:0:0:0:
192,192,87483,128,0,87870:0:0:0:0:
320,192,87483,128,0,87870:0:0:0:0:
448,192,87870,128,0,88064:0:0:0:0:
64,192,88064,1,0,0:0:0:0:
320,192,88064,128,0,88161:0:0:0:0:
448,192,88161,1,0,0:0:0:0:
192,192,88161,128,0,88257:0:0:0:0:
64,192,88257,1,0,0:0:0:0:
320,192,88257,128,0,88354:0:0:0:0:
448,192,88354,1,0,0:0:0:0:
192,192,88354,128,0,88451:0:0:0:0:
64,192,88451,1,0,0:0:0:0:
320,192,88451,128,0,88548:0:0:0:0:
448,192,88548,1,0,0:0:0:0:
192,192,88548,128,0,88644:0:0:0:0:
64,192,88644,1,0,0:0:0:0:
320,192,88644,128,0,88741:0:0:0:0:
448,192,88741,1,0,0:0:0:0:
192,192,88741,128,0,88838:0:0:0:0:
64,192,88838,1,0,0:0:0:0:
320,192,88838,128,0,88935:0:0:0:0:
448,192,88935,1,0,0:0:0:0:
192,192,88935,128,0,89032:0:0:0:0:
320,192,89032,1,0,0:0:0:0:
64,192,89032,128,0,89128:0:0:0:0:
192,192,89128,1,0,0:0:0:0:
448,192,89128,128,0,89225:0:0:0:0:
320,192,89225,1,0,0:0:0:0:
64,192,89225,128,0,89322:0:0:0:0:
192,192,89322,1,0,0:0:0:0:
448,192,89322,128,0,89419:0:0:0:0:
320,192,89419,1,0,0:0:0:0:
64,192,89419,128,0,89515:0:0:0:0:
192,192,89515,1,0,0:0:0:0:
448,192,89515,128,0,89612:0:0:0:0:
320,192,89612,1,0,0:0:0:0:
64,192,89612,128,0,89709:0:0:0:0:
192,192,89709,1,0,0:0:0:0:
448,192,89709,128,0,89806:0:0:0:0:
64,192,89806,128,0,90193:0:0:0:0:
320,192,89806,128,0,89999:0:0:0:0:
448,192,89999,128,0,90386:0:0:0:0:
192,192,90193,128,0,90580:0:0:0:0:
64,192,90386,128,0,90580:0:0:0:0:
448,192,90580,128,0,90967:0:0:0:0:
320,192,90580,128,0,90967:0:0:0:0:
192,192,90967,128,0,91161:0:0:0:0:
448,192,91161,128,0,91451:0:0:0:0:
320,192,91161,128,0,91257:0:0:0:0:
64,192,91161,1,0,0:0:0:0:
192,192,91257,1,0,0:0:0:0:
320,192,91354,128,0,91644:0:0:0:0:
64,192,91354,1,0,0:0:0:0:
192,192,91451,1,0,0:0:0:0:
448,192,91548,128,0,91838:0:0:0:0:
64,192,91548,1,0,0:0:0:0:
192,192,91644,1,0,0:0:0:0:
320,192,91741,128,0,92032:0:0:0:0:
64,192,91741,1,0,0:0:0:0:
192,192,91838,1,0,0:0:0:0:
448,192,91935,128,0,92225:0:0:0:0:
64,192,91935,1,0,0:0:0:0:
192,192,92032,1,0,0:0:0:0:
320,192,92128,128,0,92419:0:0:0:0:
64,192,92128,1,0,0:0:0:0:
192,192,92225,1,0,0:0:0:0:
448,192,92322,128,0,92612:0:0:0:0:
64,192,92322,1,0,0:0:0:0:
192,192,92419,1,0,0:0:0:0:
320,192,92515,128,0,92806:0:0:0:0:
64,192,92515,1,0,0:0:0:0:
192,192,92612,1,0,0:0:0:0:
448,192,92709,128,0,92903:0:0:0:0:
64,192,92709,1,0,0:0:0:0:
192,192,92806,1,0,0:0:0:0:
64,192,92903,128,0,93290:0:0:0:0:
192,192,92903,128,0,93193:0:0:0:0:
320,192,92903,128,0,93096:0:0:0:0:
448,192,93096,128,0,93290:0:0:0:0:
320,192,93290,1,0,0:0:0:0:
192,192,93354,1,0,0:0:0:0:
64,192,93354,1,0,0:0:0:0:
320,192,93419,1,0,0:0:0:0:
448,192,93419,1,0,0:0:0:0:
64,192,93483,1,0,0:0:0:0:
192,192,93483,1,0,0:0:0:0:
320,192,93580,1,0,0:0:0:0:
448,192,93580,1,0,0:0:0:0:
