osu file format v14

[General]
AudioFilename: audio.mp3
AudioLeadIn: 0
PreviewTime: 36658
Countdown: 0
SampleSet: Soft
StackLeniency: 0.2
Mode: 0
LetterboxInBreaks: 0
WidescreenStoryboard: 0

[Editor]
Bookmarks: 87271,115335,130238
DistanceSpacing: 0.4
BeatDivisor: 4
GridSize: 4
TimelineZoom: 2.699999

[Metadata]
Title:senpai, notice me!
TitleUnicode:senpai, notice me!
Artist:Camellia feat. Nanahira
ArtistUnicode:かめりあ feat. ななひら
Creator:GIDZ
Version:SENPAI NOTICED!!!
Source:
Tags:Dirty Farmer
BeatmapID:1906597
BeatmapSetID:912675

[Difficulty]
HPDrainRate:5
CircleSize:4
OverallDifficulty:8
ApproachRate:9.6
SliderMultiplier:2.5
SliderTickRate:1

[Events]
//Background and Video events
0,0,"senpai notice me bg.jpg",0,0
//Break Periods
//Storyboard Layer 0 (Background)
//Storyboard Layer 1 (Fail)
//Storyboard Layer 2 (Pass)
//Storyboard Layer 3 (Foreground)
//Storyboard Sound Samples

[TimingPoints]
755,387.096774193548,4,2,1,50,1,0
755,-166.666666666667,4,2,1,50,0,0
4819,-111.111111111111,4,2,1,50,0,0
5206,-166.666666666666,4,2,1,50,0,0
6561,-333.333333333331,4,2,1,50,0,0
6948,-166.666666666666,4,2,1,50,0,0
12367,-249.999999999999,4,2,1,50,0,0
12658,-166.666666666666,4,2,1,50,0,0
15658,-100,4,2,1,50,0,0
16238,-166.666666666667,4,2,1,50,0,0
18948,-90.909090909091,4,2,1,50,0,0
19335,-166.666666666667,4,2,1,50,0,0
21851,-100,4,2,1,50,0,0
22432,-166.666666666667,4,2,1,50,0,0
23787,-100,4,2,1,50,0,0
24948,-83.3333333333333,4,2,1,50,0,0
25529,-125,4,2,1,50,0,0
33851,-100,4,2,1,50,0,0
34238,-83.3333333333333,4,2,1,50,0,0
34819,-100,4,2,1,50,0,0
36754,-40,4,2,1,50,0,0
37142,-100,4,2,1,50,0,0
37916,-66.6666666666667,4,2,1,50,0,1
38303,-125,4,2,1,50,0,1
40625,-200,4,2,1,50,0,1
41013,-125,4,2,1,50,0,1
41400,-66.6666666666667,4,2,1,50,0,1
42271,-200,4,2,1,50,0,1
42561,-66.6666666666667,4,2,1,50,0,1
43045,-200,4,2,1,50,0,1
43335,-66.6666666666667,4,2,1,50,0,1
43529,-100,4,2,1,50,0,1
44109,-66.6666666666667,4,2,1,50,0,1
44496,-125,4,2,1,50,0,1
46819,-200,4,2,1,50,0,1
47206,-100,4,2,1,50,0,1
48754,-50,4,2,1,50,0,1
48948,-200,4,2,1,50,0,1
49142,-50,4,2,1,50,0,1
49335,-200,4,2,1,50,0,1
49529,-125,4,2,1,50,0,0
50303,-100,4,2,1,50,0,1
50690,-66.6666666666667,4,2,1,50,0,1
51464,-50,4,2,1,50,0,1
52432,-100,4,2,1,50,0,1
52625,-125,4,2,1,50,0,1
52819,-166.666666666667,4,2,1,50,0,1
53013,-250,4,2,1,50,0,1
53206,-500,4,2,1,50,0,1
53400,-100,4,2,1,50,0,1
53787,-66.6666666666667,4,2,1,50,0,1
55916,-50,4,2,1,50,0,1
56496,-66.6666666666667,4,2,1,50,0,1
58625,-125,4,2,1,50,0,0
58819,-166.666666666667,4,2,1,50,0,0
59013,-250.000000000001,4,2,1,50,0,0
59206,-500.000000000003,4,2,1,50,0,0
59593,-66.6666666666667,4,2,1,50,0,1
62109,-33.3333333333333,4,2,1,50,0,0
62690,-100,4,2,1,50,0,0
68884,-200,4,2,1,50,0,0
69658,-125,4,2,1,50,0,0
73142,-83.3333333333333,4,2,1,50,0,0
73916,-40,4,2,1,50,0,0
75077,-66.6666666666667,4,2,1,50,0,1
75464,-125,4,2,1,50,0,1
75851,-66.6666666666667,4,2,1,50,0,1
77206,-83.3333333333333,4,2,1,50,0,1
77787,-111.111111111111,4,2,1,50,0,1
77980,-166.666666666667,4,2,1,50,0,1
78174,-66.6666666666667,4,2,1,50,0,1
78561,-50,4,2,1,50,0,1
78948,-66.6666666666667,4,2,1,50,0,1
80496,-50,4,2,1,50,0,1
80690,-200,4,2,1,50,0,1
80884,-66.6666666666667,4,2,1,50,0,1
81658,-125,4,2,1,50,0,1
81948,-66.6666666666667,4,2,1,50,0,1
82238,-33.3333333333333,4,2,1,50,0,1
82432,-200,4,2,1,50,0,1
82625,-33.3333333333333,4,2,1,50,0,1
82819,-200,4,2,1,50,0,1
83013,-33.3333333333333,4,2,1,50,0,1
83206,-200,4,2,1,50,0,1
83400,-33.3333333333333,4,2,1,50,0,1
83787,-200,4,2,1,50,0,1
84367,-66.6666666666667,4,2,1,50,0,0
84754,-125,4,2,1,50,0,0
86690,-100,4,2,1,50,0,0
87464,-66.6666666666667,4,2,1,50,0,1
89980,-200,4,2,1,50,0,1
90561,-66.6666666666667,4,2,1,50,0,1
90948,-125,4,2,1,50,0,1
93077,-50,4,2,1,50,0,1
93271,-125,4,2,1,50,0,1
93658,-66.6666666666667,4,2,1,50,0,1
94045,-125,4,2,1,50,0,1
96754,-76.9230769230769,4,2,1,50,0,0
97529,-66.6666666666667,4,2,1,50,0,0
99851,-100,4,2,1,50,0,0
124625,-200,4,2,1,50,0,0
130819,-125,4,2,1,50,0,0
132754,-100,4,2,1,50,0,0
137400,-125,4,2,1,50,0,0
142819,-66.6666666666667,4,2,1,50,0,0
143206,-125,4,2,1,50,0,0
148819,-83.3333333333333,4,2,1,50,0,0
149400,-125,4,2,1,50,0,0
154819,-100,4,2,1,50,0,0
155206,-66.6666666666667,4,2,1,50,0,0
155593,-100,4,2,1,50,0,0
158690,-125,4,2,1,50,0,0
161787,-40,4,2,1,50,0,0
162561,-200,4,2,1,50,0,0
163335,-40,4,2,1,50,0,0
164109,-200,4,2,1,50,0,0
164884,-40,4,2,1,50,0,0
165658,-200,4,2,1,50,0,0
166432,-40,4,2,1,50,0,0
167206,-66.6666666666667,4,2,1,50,0,0
167593,-40,4,2,1,50,0,1
172625,-40,4,2,1,50,0,0
174174,-40,4,2,1,50,0,1
174561,-33.3333333333333,4,2,1,50,0,1
174754,-200,4,2,1,50,0,1
174948,-33.3333333333333,4,2,1,50,0,1
175142,-200,4,2,1,50,0,1
175335,-33.3333333333333,4,2,1,50,0,1
175529,-200,4,2,1,50,0,1
175722,-33.3333333333333,4,2,1,50,0,1
175916,-200,4,2,1,50,0,1
176109,-33.3333333333333,4,2,1,50,0,1
176303,-200,4,2,1,50,0,1
176496,-100,4,2,1,50,0,0
177271,-40,4,2,1,50,0,1
177851,-33.3333333333333,4,2,1,50,0,1
179787,-100,4,2,1,50,0,0
180367,-33.3333333333333,4,2,1,50,0,1
181142,-200,4,2,1,50,0,1
181335,-33.3333333333333,4,2,1,50,0,1
181722,-200,4,2,1,50,0,1
181916,-33.3333333333333,4,2,1,50,0,1
182109,-200,4,2,1,50,0,1
182303,-33.3333333333333,4,2,1,50,0,1
182690,-100,4,2,1,50,0,0
183464,-66.6666666666667,4,2,1,50,0,0
186561,-33.3333333333333,4,2,1,50,0,1
187142,-200,4,2,1,50,0,1
187335,-33.3333333333333,4,2,1,50,0,1
187529,-200,4,2,1,50,0,1
187722,-33.3333333333333,4,2,1,50,0,1
187916,-200,4,2,1,50,0,1
188109,-33.3333333333333,4,2,1,50,0,1
188884,-100,4,2,1,50,0,0
189658,-100,4,2,1,50,0,1
190432,-100,4,2,1,50,0,1
193142,-50,4,2,1,50,0,1
194690,-40,4,2,1,50,0,1
197787,-50,4,2,1,50,0,0
198174,-200,4,2,1,50,0,0
198948,-50,4,2,1,50,0,1
201271,-100,4,2,1,50,0,0
202045,-50,4,2,1,50,0,1
204367,-100,4,2,1,50,0,0
205142,-50,4,2,1,50,0,1
207464,-100,4,2,1,50,0,0
208238,-50,4,2,1,50,0,1
216948,-66.6666666666667,4,2,1,50,0,0
217529,-100,4,2,1,50,0,1
218690,-66.6666666666667,4,2,1,50,0,1
219077,-100,4,2,1,50,0,1
222948,-40,4,2,1,50,0,0
223335,-66.6666666666667,4,2,1,50,0,0
223722,-100,4,2,1,50,0,1
235335,-50,4,2,1,50,0,1
236109,-333.333333333333,4,2,1,50,0,0
236884,-50,4,2,1,50,0,1
237077,-100,4,2,1,50,0,0
245400,-40,4,2,1,50,0,1
245690,-200,4,2,1,50,0,0
245980,-33.3333333333333,4,2,1,50,0,1
246174,-40,4,2,1,50,0,0
246464,-200,4,2,1,50,0,1
246754,-33.3333333333333,4,2,1,50,0,0
246948,-40,4,2,1,50,0,1
247238,-33.3333333333333,4,2,1,50,0,1
247529,-200,4,2,1,50,0,0
259142,-200,4,2,1,30,0,0
272884,-333.333333333333,4,2,1,25,0,0
273658,-333.333333333333,4,2,1,20,0,0
274625,-333.333333333333,4,2,1,10,0,0
275593,-333.333333333333,4,2,1,5,0,0

[Colours]
Combo1 : 0,128,64
Combo2 : 255,128,0
Combo3 : 0,64,128
Combo4 : 128,0,0

[HitObjects]
86,64,755,6,0,B|143:50|169:119|169:119|128:157,1,149.999995422363
68,172,1335,2,0,P|51:206|61:247,1,74.9999977111817
182,285,1722,2,0,P|158:256|157:220,1,74.9999977111817
228,164,2109,2,0,P|248:195|289:207,1,74.9999977111817
351,109,2496,6,0,L|351:23,2,74.9999977111817
387,184,3077,1,0,0:0:0:0:
387,207,3271,1,0,0:0:0:0:
387,207,3851,6,0,B|434:217|446:256|446:256|417:280|427:322,1,149.999995422363
358,353,4432,2,0,P|325:339|285:348,1,74.9999977111817
200,249,4819,6,0,P|234:275|223:233,1,112.499996566773
64,323,5206,6,0,P|97:337|137:328,1,74.9999977111817
99,177,5593,6,0,L|104:251,2,74.9999977111817
94,81,6174,1,0,0:0:0:0:
92,57,6367,1,0,0:0:0:0:
177,149,6561,2,0,L|173:80,1,56.2499982833863
300,114,6948,6,0,P|232:136|169:80,1,149.999995422363
420,123,7529,2,0,P|442:159|431:201,1,74.9999977111817
333,274,7916,2,0,P|354:243|351:207,1,74.9999977111817
241,211,8303,2,0,P|220:248|178:259,1,74.9999977111817
90,190,8690,6,0,L|93:98,2,74.9999977111817
61,277,9271,1,0,0:0:0:0:
64,299,9464,1,0,0:0:0:0:
256,192,10045,12,0,11400,0:0:0:0:
336,211,11593,5,0,0:0:0:0:
353,207,11690,1,0,0:0:0:0:
370,202,11787,2,0,P|390:195|406:193,1,37.4999988555909
234,99,11980,2,0,P|227:79|226:51,1,37.4999988555909
257,329,12174,2,0,L|257:342,3,12.4999996185303
208,261,12367,6,0,L|148:257,1,50
7,247,12658,5,0,0:0:0:0:
47,187,12754,1,0,0:0:0:0:
87,248,12851,1,0,0:0:0:0:
4,221,12948,5,0,0:0:0:0:
67,181,13044,1,0,0:0:0:0:
79,256,13141,1,0,0:0:0:0:
258,193,13529,1,0,0:0:0:0:
466,76,13916,2,0,P|398:104|330:79,1,149.999995422363
218,104,14496,6,0,P|180:91|143:100,1,74.9999977111817
262,26,14884,1,0,0:0:0:0:
262,26,15077,1,0,0:0:0:0:
284,145,15271,1,0,0:0:0:0:
215,183,15464,1,0,0:0:0:0:
146,97,15658,6,0,B|131:128|131:128|148:161,1,62.5
283,279,15851,2,0,B|298:249|298:249|285:224,1,62.5
391,338,16045,1,0,0:0:0:0:
283,279,16238,6,0,P|211:304|154:257,2,149.999995422363
367,231,17206,2,0,L|457:231,1,74.9999977111817
368,128,17593,1,0,0:0:0:0:
283,279,17787,6,0,P|246:304|193:298,1,74.9999977111817
156,263,18174,1,0,0:0:0:0:
88,302,18367,1,0,0:0:0:0:
94,160,18561,6,0,P|146:175|194:148,1,112.499996566773
202,132,18948,6,0,P|250:104|217:148,1,137.500004196167
341,204,19335,6,0,P|379:214|416:206,1,74.9999977111817
457,135,19625,1,0,0:0:0:0:
447,115,19722,2,0,P|438:74|446:40,2,74.9999977111817
493,239,20303,1,0,0:0:0:0:
387,298,20496,1,0,0:0:0:0:
491,261,20690,2,0,L|477:347,1,74.9999977111817
298,300,21077,5,0,0:0:0:0:
298,300,21271,1,0,0:0:0:0:
413,207,21464,1,0,0:0:0:0:
363,135,21658,1,0,0:0:0:0:
220,277,21851,6,0,B|213:305|213:305|227:336,1,62.5
279,141,22045,2,0,B|286:113|286:113|272:82,1,62.5
295,220,22238,1,0,0:0:0:0:
179,166,22432,6,0,P|139:152|92:158,1,74.9999977111817
32,232,22722,1,0,0:0:0:0:
45,250,22819,2,0,P|85:264|132:258,1,74.9999977111817
226,249,23206,1,0,0:0:0:0:
148,333,23400,1,0,0:0:0:0:
226,249,23593,1,0,0:0:0:0:
374,154,23787,6,0,B|342:124|295:140|295:200|324:244|366:265,1,187.5
439,222,24174,2,0,B|471:192|518:208|518:268|489:312|447:333,1,187.5
374,348,24561,2,0,L|152:343,1,187.5
117,262,24948,2,0,P|133:234|131:193,1,74.9999977111817
92,66,25142,1,0,0:0:0:0:
92,66,25529,6,0,B|142:40|142:40|200:58,1,100
265,137,25819,1,0,0:0:0:0:
284,150,25916,2,0,L|347:145,1,50
459,87,26109,2,0,L|396:82,1,50
284,38,26303,5,0,0:0:0:0:
434,195,26496,2,0,P|445:220|440:244,1,50
195,124,26690,5,0,0:0:0:0:
318,305,26884,2,0,P|293:316|269:311,1,50
50,183,27077,6,0,L|50:50,1,100
129,258,27367,1,0,0:0:0:0:
129,235,27464,2,0,L|128:166,1,50
194,102,27658,2,0,L|193:33,1,50
284,244,27851,5,0,0:0:0:0:
460,87,28045,1,0,0:0:0:0:
460,87,28142,2,0,P|465:71|464:49,1,25
432,258,28238,5,0,0:0:0:0:
337,35,28432,2,0,P|312:24|288:29,1,50
311,118,28625,5,0,0:0:0:0:
314,123,28722,2,0,B|331:143|331:143|326:179,1,50
432,258,28916,1,0,0:0:0:0:
432,258,29013,2,0,L|494:258,1,50
261,209,29206,2,0,L|199:209,1,50
419,175,29400,5,0,0:0:0:0:
268,295,29593,1,0,0:0:0:0:
357,238,29787,1,0,0:0:0:0:
159,278,29980,1,0,0:0:0:0:
354,326,30174,5,0,0:0:0:0:
93,329,30367,1,0,0:0:0:0:
93,329,30464,2,0,P|70:287|91:230,1,100
28,159,30754,1,0,0:0:0:0:
116,91,30948,5,0,0:0:0:0:
155,93,31045,1,0,0:0:0:0:
184,119,31142,1,0,0:0:0:0:
187,158,31238,1,0,0:0:0:0:
163,202,31335,5,0,0:0:0:0:
217,157,31432,1,0,0:0:0:0:
286,147,31529,1,0,0:0:0:0:
351,171,31625,1,0,0:0:0:0:
358,249,31722,6,0,L|349:309,1,50
380,255,31916,2,0,L|371:315,1,50
280,68,32109,6,0,L|289:8,1,50
258,62,32303,2,0,L|267:2,1,50
267,258,32496,6,0,L|258:318,1,50
358,121,32690,2,0,L|349:181,1,50
170,152,32884,6,0,L|161:212,1,50
463,271,33078,2,0,L|454:331,1,50
78,268,33271,6,0,L|70:218,1,50
259,120,33464,1,0,0:0:0:0:
259,120,33561,1,0,0:0:0:0:
259,120,33658,2,0,L|266:169,1,50
170,250,33851,5,0,0:0:0:0:
170,250,33948,1,0,0:0:0:0:
170,250,34045,2,0,L|162:187,1,62.5
333,72,34238,5,0,0:0:0:0:
333,72,34335,1,0,0:0:0:0:
333,72,34432,2,0,L|347:160,1,74.9999977111817
92,282,34625,2,0,L|78:194,1,74.9999977111817
189,53,34819,5,0,0:0:0:0:
125,89,34916,1,0,0:0:0:0:
198,105,35013,5,0,0:0:0:0:
149,162,35110,1,0,0:0:0:0:
222,148,35206,5,0,0:0:0:0:
196,217,35303,1,0,0:0:0:0:
261,179,35400,5,0,0:0:0:0:
261,255,35497,1,0,0:0:0:0:
309,198,35593,5,0,0:0:0:0:
333,268,35690,1,0,0:0:0:0:
358,197,35787,5,0,0:0:0:0:
404,253,35884,1,0,0:0:0:0:
455,206,35980,6,0,L|457:238,1,31.25
469,185,36077,6,0,L|471:217,1,31.25
450,166,36174,6,0,L|452:198,1,31.25
473,143,36271,6,0,L|475:175,1,31.25
417,90,36367,5,0,0:0:0:0:
172,152,36754,6,0,P|229:123|174:80,1,156.25
107,90,36948,2,0,L|123:279,1,156.25
190,315,37142,6,0,L|258:304,3,62.5
314,237,37529,5,0,0:0:0:0:
330,338,37625,1,0,0:0:0:0:
314,237,37722,1,0,0:0:0:0:
330,338,37819,1,0,0:0:0:0:
314,237,37916,6,0,B|290:191|290:191|315:132|315:132|279:64,1,187.500007152558
189,116,38206,1,0,0:0:0:0:
163,105,38303,2,0,P|137:79|177:46,1,100
192,201,38593,5,0,0:0:0:0:
150,198,38690,1,0,0:0:0:0:
113,174,38787,1,0,0:0:0:0:
163,105,38884,5,0,0:0:0:0:
95,247,38980,1,0,0:0:0:0:
31,107,39077,1,0,0:0:0:0:
251,305,39271,2,0,L|249:338,2,25
296,248,39464,5,0,0:0:0:0:
355,292,39561,1,0,0:0:0:0:
409,242,39658,1,0,0:0:0:0:
470,283,39754,1,0,0:0:0:0:
512,223,39851,1,0,0:0:0:0:
379,27,40045,2,0,L|349:27,2,25
350,106,40238,5,0,0:0:0:0:
278,183,40335,1,0,0:0:0:0:
276,109,40432,1,0,0:0:0:0:
352,180,40529,1,0,0:0:0:0:
250,107,40625,6,0,B|222:99|222:99|202:116|202:116|182:101|160:117,1,93.75
72,198,41013,6,0,B|42:257|62:303|62:303|74:275|109:272,1,150
191,269,41400,6,0,B|220:256|220:256|255:271|255:271|296:256,1,93.7500035762788
444,316,41593,2,0,B|415:329|415:329|380:314|380:314|339:329,1,93.7500035762788
160,190,41787,1,0,0:0:0:0:
368,157,41980,5,0,0:0:0:0:
368,157,42077,1,0,0:0:0:0:
400,238,42174,1,0,0:0:0:0:
433,107,42271,2,0,P|439:88|432:65,1,31.25
291,110,42464,5,0,0:0:0:0:
221,59,42561,2,0,B|175:77|175:77|126:50,1,93.7500035762788
29,120,42754,5,0,0:0:0:0:
29,120,42851,1,0,0:0:0:0:
60,36,42948,1,0,0:0:0:0:
99,167,43045,2,0,P|105:186|98:209,1,31.25
155,338,43238,5,0,0:0:0:0:
219,278,43335,2,0,L|373:263,1,93.7500035762788
432,234,43529,6,0,P|421:266|435:304,1,62.5
265,177,43722,2,0,P|233:166|195:180,1,62.5
374,59,43916,2,0,P|385:27|371:-11,1,62.5
49,47,44109,6,0,B|91:67|127:35|127:35|165:62|165:62|183:36|235:45,1,187.500007152558
101,136,44400,1,0,0:0:0:0:
83,157,44496,2,0,P|65:208|101:237,1,100
219,278,44787,5,0,0:0:0:0:
236,315,44884,1,0,0:0:0:0:
222,356,44980,1,0,0:0:0:0:
155,318,45077,5,0,0:0:0:0:
304,274,45174,1,0,0:0:0:0:
170,197,45271,1,0,0:0:0:0:
446,318,45464,2,0,L|479:318,2,25
409,246,45658,5,0,0:0:0:0:
483,192,45754,1,0,0:0:0:0:
396,165,45851,1,0,0:0:0:0:
460,127,45948,1,0,0:0:0:0:
396,92,46045,1,0,0:0:0:0:
205,172,46238,2,0,L|170:172,2,33.3333333333333
274,202,46432,5,0,0:0:0:0:
271,112,46529,1,0,0:0:0:0:
189,76,46625,1,0,0:0:0:0:
107,114,46722,1,0,0:0:0:0:
107,204,46819,6,0,B|91:223|91:223|103:247|103:247|84:274|99:298,1,93.75
226,346,47206,6,0,P|264:294|326:297,1,125
356,330,47496,1,0,0:0:0:0:
356,330,47593,1,0,0:0:0:0:
274,202,47787,1,0,0:0:0:0:
447,115,47980,2,0,B|400:140|400:140|321:113,1,125
219,62,48367,1,0,0:0:0:0:
347,18,48561,1,0,0:0:0:0:
209,150,48754,6,0,L|76:145,1,125
14,133,48948,2,0,P|7:146|14:160,1,31.25
247,233,49142,6,0,L|380:238,1,125
441,222,49336,2,0,P|448:236|442:250,1,31.25
190,331,49529,6,0,L|165:331,2,25
220,62,49722,2,0,L|220:29,2,25
441,138,49916,2,0,L|466:138,2,25
340,314,50109,2,0,L|340:347,2,25
190,331,50303,6,0,P|124:336|130:278,1,125
165,173,50593,1,0,0:0:0:0:
200,188,50690,2,0,B|226:174|226:174|255:186|255:186|285:170,1,93.7500035762788
405,85,50884,5,0,0:0:0:0:
338,51,50980,1,0,0:0:0:0:
268,100,51077,5,0,0:0:0:0:
318,33,51174,1,0,0:0:0:0:
402,46,51271,1,0,0:0:0:0:
427,125,51367,1,0,0:0:0:0:
268,100,51464,6,0,B|209:88|209:88|226:58|213:26,1,125
124,55,51658,1,0,0:0:0:0:
124,55,51754,1,0,0:0:0:0:
43,80,51851,5,0,0:0:0:0:
73,161,51948,1,0,0:0:0:0:
155,134,52045,1,0,0:0:0:0:
124,55,52142,1,0,0:0:0:0:
27,233,52238,6,0,B|16:265|-15:277|-15:277|21:325,1,125
45,315,52432,6,0,P|78:304|105:323,1,62.5
193,294,52625,2,0,P|210:279|242:280,1,50
328,323,52819,2,0,L|389:329,1,37.4999988555909
314,190,53013,2,0,L|356:187,1,25
221,107,53206,2,0,L|241:101,1,12.5
419,72,53400,6,0,B|423:111|397:129|397:129|424:153|421:195,1,125
420,47,53690,1,0,0:0:0:0:
347,14,53787,2,0,B|307:-12|307:-12|257:14,1,93.7500035762788
150,58,53980,5,0,0:0:0:0:
150,58,54077,1,0,0:0:0:0:
63,34,54174,5,0,0:0:0:0:
82,115,54271,1,0,0:0:0:0:
162,139,54367,1,0,0:0:0:0:
233,91,54464,1,0,0:0:0:0:
125,210,54561,6,0,B|109:251|109:251|138:257|154:291,1,93.7500035762788
221,315,54754,2,0,L|222:253,1,46.8750017881394
298,323,54851,2,0,L|296:254,1,46.8750017881394
374,317,54948,5,0,0:0:0:0:
448,276,55045,1,0,0:0:0:0:
484,199,55142,1,0,0:0:0:0:
456,119,55238,1,0,0:0:0:0:
411,70,55335,5,0,0:0:0:0:
345,67,55432,1,0,0:0:0:0:
294,109,55529,1,0,0:0:0:0:
306,172,55625,1,0,0:0:0:0:
380,146,55722,5,0,0:0:0:0:
380,146,55819,1,0,0:0:0:0:
271,33,55916,6,0,P|210:20|148:29,1,125
55,247,56109,2,0,P|104:209|164:190,1,125
297,248,56303,2,0,P|284:309|293:371,1,125
459,222,56496,6,0,P|464:141|379:146,1,187.500007152558
370,224,56787,1,0,0:0:0:0:
306,172,56884,2,0,B|278:163|278:163|248:181|248:181|216:171,1,93.7500035762788
55,213,57077,6,0,L|-10:232,1,46.8750017881394
47,142,57174,2,0,L|-16:140,1,46.8750017881394
58,73,57271,1,0,0:0:0:0:
178,328,57464,6,0,L|127:372,1,46.8750017881394
140,267,57561,2,0,L|82:291,1,46.8750017881394
138,191,57658,2,0,P|203:148|206:235,1,187.500007152558
292,280,57948,2,0,L|292:339,1,46.8750017881394
452,209,58045,6,0,P|384:166|372:245,1,187.500007152558
452,209,58335,2,0,P|477:197|506:200,1,46.8750017881394
506,99,58432,2,0,B|502:-3,1,93.7500035762788
438,293,58625,6,0,L|440:342,1,50
55,247,58819,2,0,L|57:306,1,37.4999988555909
260,145,59013,2,0,L|263:170,1,25
151,198,59206,2,0,L|151:211,1,12.5
355,82,59400,2,0,L|356:94,1,12.5
17,70,59593,6,0,B|49:83|49:83|86:34|148:39|148:39|123:45|122:65,1,187.500007152558
189,104,59884,1,0,0:0:0:0:
219,28,59980,2,0,P|262:7|311:24,1,93.7500035762788
355,82,60174,1,0,0:0:0:0:
272,87,60367,5,0,0:0:0:0:
272,87,60464,1,0,0:0:0:0:
328,153,60561,2,0,P|355:161|379:153,1,46.8750017881394
289,218,60658,2,0,P|280:242|290:270,1,46.8750017881394
221,184,60754,6,0,B|146:205|119:143|119:143|130:204|82:213,1,187.500007152558
105,203,61045,1,0,0:0:0:0:
15,333,61142,5,0,0:0:0:0:
80,297,61238,1,0,0:0:0:0:
151,318,61335,1,0,0:0:0:0:
17,284,61432,5,0,0:0:0:0:
91,285,61528,1,0,0:0:0:0:
142,339,61625,1,0,0:0:0:0:
41,242,61722,5,0,0:0:0:0:
104,278,61818,1,0,0:0:0:0:
120,351,61915,1,0,0:0:0:0:
120,351,62109,6,0,L|334:322,1,187.500007152558
305,325,62303,2,0,L|91:354,1,187.500007152558
387,188,62690,6,0,P|434:139|409:79,1,125
299,177,62980,1,0,0:0:0:0:
300,252,63077,1,0,0:0:0:0:
487,213,63271,1,0,0:0:0:0:
347,52,63464,1,0,0:0:0:0:
281,91,63561,2,0,P|249:99|218:89,1,62.5
92,34,63754,1,0,0:0:0:0:
43,91,63851,2,0,L|49:246,1,125
221,291,64238,5,0,0:0:0:0:
157,196,64432,1,0,0:0:0:0:
57,294,64625,1,0,0:0:0:0:
221,90,64819,1,0,0:0:0:0:
221,291,65013,1,0,0:0:0:0:
295,295,65109,2,0,P|325:298|353:284,1,62.5
470,186,65304,1,0,0:0:0:0:
396,190,65400,2,0,P|365:193|337:179,1,62.5
405,67,65593,1,0,0:0:0:0:
195,74,65787,6,0,L|197:209,1,125
101,126,66077,1,0,0:0:0:0:
96,51,66174,1,0,0:0:0:0:
31,207,66367,1,0,0:0:0:0:
138,324,66561,1,0,0:0:0:0:
202,286,66658,2,0,P|230:274|263:280,1,62.5
363,355,66851,1,0,0:0:0:0:
409,295,66948,2,0,L|409:223,1,62.5
396,92,67142,1,0,0:0:0:0:
481,250,67335,5,0,0:0:0:0:
320,155,67529,1,0,0:0:0:0:
320,155,67625,1,0,0:0:0:0:
320,155,67722,1,0,0:0:0:0:
477,48,67916,1,0,0:0:0:0:
295,50,68109,5,0,0:0:0:0:
295,50,68206,1,0,0:0:0:0:
295,50,68303,1,0,0:0:0:0:
221,32,68400,1,0,0:0:0:0:
152,61,68496,1,0,0:0:0:0:
76,63,68593,1,0,0:0:0:0:
32,123,68690,1,0,0:0:0:0:
57,193,68787,1,0,0:0:0:0:
123,229,68884,6,0,L|123:265,1,31.25
320,155,69077,2,0,L|320:119,1,31.25
195,207,69271,2,0,L|195:243,1,31.25
392,133,69464,2,0,L|392:97,1,31.25
123,210,69658,6,0,L|122:267,1,50
364,33,69851,1,0,0:0:0:0:
364,33,69948,1,0,0:0:0:0:
364,33,70045,2,0,P|392:25|419:32,1,50
169,339,70238,5,0,0:0:0:0:
169,339,70335,1,0,0:0:0:0:
169,339,70432,2,0,P|141:347|114:340,1,50
399,109,70625,5,0,0:0:0:0:
399,109,70722,1,0,0:0:0:0:
399,109,70819,2,0,P|407:137|400:164,1,50
131,268,71013,5,0,0:0:0:0:
131,268,71110,1,0,0:0:0:0:
131,268,71207,2,0,P|123:240|130:213,1,50
324,145,71400,5,0,0:0:0:0:
324,145,71497,1,0,0:0:0:0:
324,145,71594,2,0,P|296:153|269:146,1,50
195,88,71787,1,0,0:0:0:0:
228,237,71980,5,0,0:0:0:0:
266,220,72077,5,0,0:0:0:0:
260,278,72174,5,0,0:0:0:0:
324,226,72271,5,0,0:0:0:0:
285,319,72367,5,0,0:0:0:0:
385,250,72464,5,0,0:0:0:0:
302,363,72561,5,0,0:0:0:0:
420,286,72658,5,0,0:0:0:0:
350,376,72754,5,0,0:0:0:0:
442,328,72851,5,0,0:0:0:0:
395,379,72948,5,0,0:0:0:0:
469,347,73045,5,0,0:0:0:0:
469,384,73142,6,0,L|469:329,1,37.4999988555909
469,346,73238,6,0,L|469:291,1,37.4999988555909
469,308,73335,6,0,L|469:253,1,37.4999988555909
469,270,73432,6,0,L|469:215,1,37.4999988555909
485,149,73529,5,0,0:0:0:0:
84,53,73916,6,0,B|61:53|61:53|39:78|77:90|84:125|68:154|68:154|47:139,1,156.25
205,80,74109,2,0,B|229:53|200:39|167:59|167:59|187:136,1,156.25
130,242,74303,5,0,0:0:0:0:
218,235,74400,1,0,0:0:0:0:
147,269,74496,5,0,0:0:0:0:
217,261,74593,1,0,0:0:0:0:
169,298,74690,5,0,0:0:0:0:
208,291,74787,1,0,0:0:0:0:
180,331,74884,5,0,0:0:0:0:
204,325,74981,1,0,0:0:0:0:
191,357,75077,6,0,B|238:368|271:326|271:326|312:361|370:344,1,187.500007152558
419,234,75367,1,0,0:0:0:0:
353,273,75464,2,0,P|312:263|328:200,1,100
419,234,75754,1,0,0:0:0:0:
488,265,75851,2,0,L|474:382,1,93.7500035762788
242,318,76045,5,0,0:0:0:0:
169,298,76142,1,0,0:0:0:0:
103,331,76238,2,0,P|90:286|94:226,1,93.7500035762788
247,146,76432,5,0,0:0:0:0:
320,126,76529,1,0,0:0:0:0:
386,159,76625,2,0,P|399:114|395:54,1,93.7500035762788
97,38,76819,5,0,0:0:0:0:
97,38,76916,1,0,0:0:0:0:
97,38,77012,2,0,P|84:83|88:143,1,93.7500035762788
372,343,77206,1,0,0:0:0:0:
372,343,77303,1,0,0:0:0:0:
372,343,77400,2,0,P|385:298|381:238,1,93.7500035762788
281,241,77593,6,0,P|266:279|230:308,1,74.9999977111817
118,231,77787,6,0,P|154:224|185:205,1,56.2499982833863
199,117,77980,6,0,B|182:111|182:111|156:122,1,37.4999988555909
295,152,78174,6,0,B|328:135|328:135|361:150|361:150|401:136|401:136|435:151|435:151|469:139,1,187.500007152558
306,59,78464,1,0,0:0:0:0:
225,32,78561,2,0,P|176:63|198:116,1,125
285,245,78754,1,0,0:0:0:0:
285,245,78851,1,0,0:0:0:0:
235,308,78948,5,0,0:0:0:0:
170,269,79045,1,0,0:0:0:0:
111,315,79142,1,0,0:0:0:0:
51,270,79238,1,0,0:0:0:0:
91,191,79335,5,0,0:0:0:0:
71,158,79432,1,0,0:0:0:0:
70,120,79529,1,0,0:0:0:0:
91,88,79625,1,0,0:0:0:0:
172,85,79722,5,0,0:0:0:0:
233,127,79819,1,0,0:0:0:0:
280,68,79916,1,0,0:0:0:0:
344,106,80013,1,0,0:0:0:0:
390,186,80109,5,0,0:0:0:0:
372,219,80206,1,0,0:0:0:0:
375,258,80303,1,0,0:0:0:0:
391,291,80400,1,0,0:0:0:0:
230,350,80496,6,0,B|254:293|254:293|313:330,1,125
230,350,80690,2,0,L|172:350,1,31.25
84,340,80884,6,0,L|33:341,1,46.8750017881394
120,275,80980,2,0,L|171:276,1,46.8750017881394
66,214,81077,1,0,0:0:0:0:
111,153,81174,1,0,0:0:0:0:
174,204,81271,6,0,B|193:169|232:173|232:173|169:134|188:71,1,187.500007152558
299,27,81561,1,0,0:0:0:0:
326,16,81658,2,0,P|369:39|357:96,1,100
271,173,81948,1,0,0:0:0:0:
258,98,82045,1,0,0:0:0:0:
351,251,82238,6,0,B|295:256|278:300|278:300|246:262|193:268,1,187.500007152558
202,341,82432,2,0,P|218:341|227:353,1,31.25
380,328,82625,6,0,P|433:257|389:178,1,187.500007152558
345,120,82819,2,0,P|361:108|375:109,1,31.25
271,173,83013,6,0,B|232:187|232:187|207:153|170:183|170:183|164:141|118:134,1,187.500007152558
54,156,83206,2,0,P|51:168|65:180,1,31.25
235,95,83400,6,0,B|205:59|205:59|240:38|285:69|285:69|301:43|343:46,1,187.500007152558
472,28,83593,1,0,0:0:0:0:
390,178,83787,6,0,P|396:195|389:211,1,31.25
408,326,83980,2,0,P|391:332|375:325,1,31.25
260,355,84174,2,0,P|254:338|261:322,1,31.25
271,173,84367,6,0,P|187:173|189:259,1,187.500007152558
73,292,84658,1,0,0:0:0:0:
109,227,84754,2,0,P|155:220|187:257,1,100
38,102,85142,6,0,L|139:90,1,100
242,65,85529,1,0,0:0:0:0:
370,140,85722,2,0,P|342:59|420:90,1,200
454,202,86303,1,0,0:0:0:0:
379,301,86496,1,0,0:0:0:0:
265,220,86690,6,0,L|264:183,2,31.25
140,312,86884,2,0,L|139:346,2,31.25
379,301,87077,2,0,L|421:301,2,31.25
129,181,87271,2,0,L|87:182,2,31.25
242,65,87464,6,0,B|276:40|276:40|341:80|390:41|390:41|366:28,1,187.500007152558
167,25,87754,1,0,0:0:0:0:
92,31,87851,2,0,B|60:73|60:73|87:123,1,93.7500035762788
265,220,88045,1,0,0:0:0:0:
265,220,88142,1,0,0:0:0:0:
265,220,88238,2,0,L|373:216,1,93.7500035762788
92,31,88432,5,0,0:0:0:0:
125,348,88625,1,0,0:0:0:0:
420,31,88819,5,0,0:0:0:0:
387,348,89012,1,0,0:0:0:0:
155,93,89206,5,0,0:0:0:0:
175,287,89399,1,0,0:0:0:0:
356,93,89593,5,0,0:0:0:0:
336,287,89786,1,0,0:0:0:0:
187,192,89980,6,0,P|167:194|144:186,1,31.25
256,123,90174,2,0,P|254:103|262:80,1,31.25
325,192,90367,2,0,P|345:190|368:198,1,31.25
209,321,90561,6,0,P|251:256|277:329,1,187.500007152558
98,357,90851,1,0,0:0:0:0:
83,339,90948,2,0,P|66:299|81:244,1,100
159,48,91335,5,0,0:0:0:0:
415,303,91529,1,0,0:0:0:0:
415,303,91625,1,0,0:0:0:0:
442,206,91722,1,0,0:0:0:0:
209,321,91916,5,0,0:0:0:0:
209,321,92013,1,0,0:0:0:0:
185,221,92109,1,0,0:0:0:0:
322,18,92303,5,0,0:0:0:0:
322,18,92400,1,0,0:0:0:0:
304,116,92496,1,0,0:0:0:0:
71,89,92690,5,0,0:0:0:0:
71,89,92787,1,0,0:0:0:0:
93,190,92884,1,0,0:0:0:0:
269,245,93077,6,0,B|296:242|296:242|300:225|300:225|308:233|308:233|339:230|339:230|345:226|345:226|335:224|335:224|380:230,1,125
337,116,93271,6,0,L|349:70,1,25
272,87,93367,2,0,L|275:41,1,25
198,89,93464,1,0,0:0:0:0:
142,135,93561,1,0,0:0:0:0:
93,190,93658,6,0,B|58:170|21:181|21:181|66:130|19:73,1,187.500007152558
51,251,93948,1,0,0:0:0:0:
51,251,94045,2,0,P|98:266|152:235,1,100
184,31,94432,5,0,0:0:0:0:
258,350,94625,1,0,0:0:0:0:
332,31,94819,1,0,0:0:0:0:
258,350,95012,1,0,0:0:0:0:
62,33,95206,5,0,0:0:0:0:
258,350,95399,1,0,0:0:0:0:
450,33,95593,1,0,0:0:0:0:
258,350,95786,1,0,0:0:0:0:
357,337,95980,5,0,0:0:0:0:
357,337,96077,1,0,0:0:0:0:
296,276,96174,1,0,0:0:0:0:
296,276,96271,1,0,0:0:0:0:
357,216,96367,1,0,0:0:0:0:
357,216,96464,1,0,0:0:0:0:
417,276,96561,1,0,0:0:0:0:
417,276,96658,1,0,0:0:0:0:
436,178,96754,6,0,L|266:177,1,162.499992561341
224,253,97045,1,0,0:0:0:0:
224,253,97142,2,0,P|252:203|232:254,1,162.499992561341
174,342,97432,1,0,0:0:0:0:
128,173,97529,6,0,P|130:151|153:126,2,46.8750017881394
94,323,97722,1,0,0:0:0:0:
21,143,97819,2,0,P|16:120|23:90,2,46.8750017881394
75,46,98013,1,0,0:0:0:0:
146,25,98109,1,0,0:0:0:0:
219,38,98206,1,0,0:0:0:0:
273,89,98303,6,0,P|291:102|314:105,2,46.8750017881394
395,10,98496,1,0,0:0:0:0:
420,188,98593,2,0,P|425:211|418:241,2,46.8750017881394
381,299,98787,1,0,0:0:0:0:
308,318,98884,1,0,0:0:0:0:
235,300,98980,1,0,0:0:0:0:
160,313,99077,6,0,P|158:335|135:360,2,46.8750017881394
128,173,99270,1,0,0:0:0:0:
303,217,99367,2,0,P|326:222|356:215,2,46.8750017881394
259,154,99561,1,0,0:0:0:0:
312,100,99658,1,0,0:0:0:0:
255,51,99754,1,0,0:0:0:0:
128,173,99851,6,0,P|85:130|116:78,1,125
160,313,100238,2,0,P|100:294|35:312,1,125
250,363,100625,1,0,0:0:0:0:
352,313,100819,2,0,P|412:294|477:312,1,125
250,363,101206,1,0,0:0:0:0:
370,172,101400,5,0,0:0:0:0:
112,80,101593,1,0,0:0:0:0:
200,235,101787,1,0,0:0:0:0:
276,16,101980,1,0,0:0:0:0:
31,183,102174,6,0,L|41:315,1,125
85,329,102464,1,0,0:0:0:0:
134,321,102561,1,0,0:0:0:0:
182,333,102658,1,0,0:0:0:0:
227,312,102754,1,0,0:0:0:0:
274,329,102851,1,0,0:0:0:0:
315,300,102948,6,0,P|363:264|412:296,1,125
260,186,103335,1,0,0:0:0:0:
431,123,103529,1,0,0:0:0:0:
263,35,103722,2,0,L|134:27,1,125
41,94,104109,1,0,0:0:0:0:
260,186,104303,1,0,0:0:0:0:
29,310,104496,5,0,0:0:0:0:
243,284,104690,2,0,B|197:337|197:337|171:292|171:292|129:334|129:334|100:263,1,250
304,342,105271,2,0,P|362:350|394:296,1,125
384,250,105561,1,0,0:0:0:0:
403,203,105658,1,0,0:0:0:0:
383,157,105754,1,0,0:0:0:0:
408,113,105851,1,0,0:0:0:0:
387,67,105948,1,0,0:0:0:0:
340,47,106045,6,0,P|282:62|231:26,1,125
94,162,106432,2,0,P|79:104|115:53,1,125
255,191,106819,1,0,0:0:0:0:
106,305,107013,2,0,B|233:297,1,125
384,250,107400,1,0,0:0:0:0:
300,352,107593,5,0,0:0:0:0:
179,222,107787,2,0,L|176:185,1,31.25
384,250,107980,2,0,L|381:213,1,31.25
176,190,108174,2,0,L|173:153,1,31.25
381,218,108367,2,0,L|378:181,1,31.25
173,158,108561,2,0,L|170:121,1,31.25
378,186,108754,2,0,L|375:149,1,31.25
170,126,108948,2,0,L|167:89,1,31.25
375,154,109141,6,0,L|372:117,1,31.25
193,137,109335,2,0,L|196:174,1,31.25
343,191,109528,2,0,L|340:154,1,31.25
216,168,109722,2,0,L|219:205,1,31.25
328,225,109915,2,0,L|325:188,1,31.25
242,197,110109,2,0,L|245:234,1,31.25
304,256,110302,2,0,L|301:219,1,31.25
265,271,110496,2,0,L|268:308,1,31.25
327,349,110690,5,0,0:0:0:0:
377,345,110787,1,0,0:0:0:0:
418,317,110884,1,0,0:0:0:0:
428,268,110980,1,0,0:0:0:0:
397,201,111077,5,0,0:0:0:0:
446,162,111174,1,0,0:0:0:0:
449,99,111271,1,0,0:0:0:0:
411,49,111367,1,0,0:0:0:0:
332,39,111464,5,0,0:0:0:0:
349,142,111561,1,0,0:0:0:0:
307,36,111658,5,0,0:0:0:0:
324,139,111755,1,0,0:0:0:0:
283,32,111851,5,0,0:0:0:0:
300,135,111948,1,0,0:0:0:0:
258,29,112045,5,0,0:0:0:0:
275,132,112142,1,0,0:0:0:0:
204,93,112238,5,0,0:0:0:0:
256,192,112335,12,0,124238,0:0:0:0:
108,279,124625,6,0,P|84:257|83:213,1,62.5
0,177,125013,2,0,P|22:153|66:152,1,62.5
140,168,125400,1,0,0:0:0:0:
202,270,125593,2,0,P|222:244|217:201,1,62.5
213,87,125980,6,0,P|271:62|333:85,1,125
372,144,126561,1,0,0:0:0:0:
374,156,126754,1,0,0:0:0:0:
374,170,126948,1,0,0:0:0:0:
373,181,127142,1,0,0:0:0:0:
261,337,127722,6,0,P|292:345|329:322,1,62.5
411,351,128109,2,0,P|419:319|396:282,1,62.5
327,244,128496,1,0,0:0:0:0:
263,172,128690,2,0,P|233:180|204:169,1,62.5
133,308,129077,6,0,P|100:254|119:193,1,125
24,128,129658,2,0,P|78:95|139:114,1,125
315,152,130238,2,0,P|255:137|204:169,1,125
261,337,130819,6,0,L|473:321,1,200
268,213,131400,2,0,L|56:197,1,200
68,197,131980,1,0,0:0:0:0:
325,21,132174,2,0,P|408:57|363:137,1,200
268,213,132754,6,0,L|288:278,1,62.5
369,224,132948,2,0,L|389:289,1,62.5
160,281,133142,6,0,L|140:346,1,62.5
59,292,133336,2,0,L|39:357,1,62.5
195,116,133529,6,0,L|175:51,1,62.5
387,283,133722,2,0,L|367:348,1,62.5
118,210,133916,6,0,L|53:190,1,62.5
306,80,134109,2,0,L|326:15,1,62.5
253,308,134303,6,0,L|273:373,1,62.5
368,135,134496,2,0,L|427:116,1,62.5
263,161,134690,6,0,L|243:226,1,62.5
466,229,134884,2,0,L|486:294,1,62.5
176,56,135077,6,0,L|156:121,1,62.5
59,292,135271,2,0,L|124:312,1,62.5
393,319,135464,5,0,0:0:0:0:
325,320,135561,1,0,0:0:0:0:
361,257,135658,2,0,L|361:225,6,31.25
395,152,136045,2,0,L|395:120,6,31.25
375,30,136432,5,0,0:0:0:0:
306,21,136529,1,0,0:0:0:0:
265,76,136625,1,0,0:0:0:0:
210,34,136722,1,0,0:0:0:0:
143,52,136819,1,0,0:0:0:0:
109,112,136916,1,0,0:0:0:0:
199,133,137013,5,0,0:0:0:0:
43,224,137400,2,0,P|90:199|143:215,1,100
177,316,137690,1,0,0:0:0:0:
200,338,137787,2,0,P|248:346|290:322,1,100
361,225,138174,1,0,0:0:0:0:
458,328,138367,1,0,0:0:0:0:
465,295,138464,1,0,0:0:0:0:
466,260,138561,6,0,L|465:151,1,100
394,73,138948,1,0,0:0:0:0:
311,156,139142,1,0,0:0:0:0:
276,175,139238,1,0,0:0:0:0:
235,177,139335,1,0,0:0:0:0:
195,168,139432,1,0,0:0:0:0:
166,139,139529,5,0,0:0:0:0:
465,160,139722,1,0,0:0:0:0:
198,60,139916,1,0,0:0:0:0:
198,60,140013,1,0,0:0:0:0:
198,60,140109,6,0,P|141:54|108:77,1,100
71,203,140400,1,0,0:0:0:0:
93,186,140496,2,0,P|128:225|116:284,1,100
31,359,140884,2,0,L|144:356,1,100
313,293,141174,1,0,0:0:0:0:
285,283,141271,2,0,P|235:277|201:311,1,100
392,356,141561,1,0,0:0:0:0:
399,325,141658,6,0,L|399:224,1,100
276,175,142045,1,0,0:0:0:0:
191,92,142238,1,0,0:0:0:0:
220,65,142335,1,0,0:0:0:0:
259,56,142432,1,0,0:0:0:0:
298,63,142529,1,0,0:0:0:0:
332,83,142625,1,0,0:0:0:0:
201,309,142819,6,0,P|130:365|35:328,1,187.500007152558
28,137,143206,6,0,P|73:106|122:115,1,100
289,234,143496,1,0,0:0:0:0:
260,246,143593,2,0,P|229:201|238:152,1,100
332,83,143980,1,0,0:0:0:0:
404,279,144174,1,0,0:0:0:0:
443,271,144271,1,0,0:0:0:0:
482,264,144367,1,0,0:0:0:0:
332,83,144561,1,0,0:0:0:0:
260,246,144754,6,0,L|147:230,1,100
28,207,145142,1,0,0:0:0:0:
139,151,145335,1,0,0:0:0:0:
171,127,145432,1,0,0:0:0:0:
152,91,145529,1,0,0:0:0:0:
112,94,145625,1,0,0:0:0:0:
103,133,145722,1,0,0:0:0:0:
455,54,145916,1,0,0:0:0:0:
340,244,146109,1,0,0:0:0:0:
340,244,146206,1,0,0:0:0:0:
340,244,146303,6,0,P|351:216|346:183,1,50
332,83,146496,2,0,P|304:72|268:82,1,50
171,127,146690,1,0,0:0:0:0:
417,283,146884,6,0,P|428:255|423:222,1,50
345,8,147077,2,0,P|317:-2|281:7,1,50
90,124,147271,1,0,0:0:0:0:
256,320,147464,5,0,0:0:0:0:
256,320,147561,1,0,0:0:0:0:
256,320,147658,6,0,B|182:263|211:198|261:240,1,150
335,240,148045,2,0,B|382:199|411:264|339:320,1,150
256,320,148432,2,0,L|90:309,1,150
52,246,148819,6,0,B|80:214|80:214|62:170,1,74.9999977111817
39,60,149013,1,0,0:0:0:0:
39,60,149400,6,0,B|84:84|84:84|144:67,1,100
240,39,149690,1,0,0:0:0:0:
262,60,149787,2,0,L|260:121,1,50
200,243,149980,1,0,0:0:0:0:
425,150,150174,6,0,B|484:141,1,50
339,319,150367,1,0,0:0:0:0:
160,171,150561,6,0,B|101:162,1,50
246,340,150754,1,0,0:0:0:0:
341,128,150948,5,0,0:0:0:0:
424,275,151142,1,0,0:0:0:0:
424,275,151238,1,0,0:0:0:0:
424,275,151335,2,0,L|479:263,1,50
208,181,151529,1,0,0:0:0:0:
208,181,151625,1,0,0:0:0:0:
208,181,151722,2,0,L|153:169,1,50
246,340,151916,5,0,0:0:0:0:
355,33,152109,1,0,0:0:0:0:
92,98,152303,1,0,0:0:0:0:
66,129,152400,1,0,0:0:0:0:
62,168,152496,6,0,P|59:195|64:218,1,50
282,229,152690,1,0,0:0:0:0:
320,216,152787,1,0,0:0:0:0:
358,206,152884,2,0,L|426:206,1,50
155,321,153077,6,0,P|152:294|157:271,1,50
256,103,153271,1,0,0:0:0:0:
342,295,153464,1,0,0:0:0:0:
342,295,153561,1,0,0:0:0:0:
342,295,153658,2,0,P|348:319|346:349,1,50
159,170,153851,1,0,0:0:0:0:
428,86,154045,6,0,L|439:31,1,50
246,74,154238,2,0,L|235:19,1,50
62,168,154432,2,0,L|14:138,1,50
418,147,154625,1,0,0:0:0:0:
418,147,154722,1,0,0:0:0:0:
418,147,154819,6,0,L|431:65,1,62.5
255,135,155013,2,0,L|242:53,1,62.5
149,354,155206,2,0,P|147:272|207:320,1,187.500007152558
262,362,155496,1,0,0:0:0:0:
319,312,155593,6,0,P|376:289|448:311,1,125
328,208,155884,1,0,0:0:0:0:
416,201,155980,2,0,B|443:121|443:121|415:72,1,125
160,39,156367,2,0,L|92:34,1,62.5
141,198,156561,1,0,0:0:0:0:
141,198,156658,1,0,0:0:0:0:
141,198,156754,2,0,L|209:193,1,62.5
342,45,156948,1,0,0:0:0:0:
342,45,157045,1,0,0:0:0:0:
342,45,157141,6,0,L|274:40,1,62.5
328,208,157335,1,0,0:0:0:0:
145,155,157529,6,0,L|213:150,1,62.5
162,291,157723,1,0,0:0:0:0:
410,214,157916,6,0,L|342:209,1,62.5
387,300,158110,1,0,0:0:0:0:
162,291,158303,6,0,L|224:286,1,62.5
162,291,158497,1,0,0:0:0:0:
303,353,158690,6,0,L|263:352,1,25
303,353,158884,6,0,L|263:352,1,25
303,353,159077,6,0,L|263:352,1,25
303,353,159271,6,0,L|263:352,1,25
339,349,159464,6,0,L|299:348,1,25
388,342,159658,6,0,L|348:341,1,25
439,332,159851,6,0,L|399:331,1,25
497,294,160045,6,0,L|498:270,1,25
402,201,160238,2,0,L|402:176,1,25
270,133,160432,2,0,L|271:109,1,25
140,63,160625,2,0,L|140:38,1,25
142,163,160819,5,0,0:0:0:0:
56,165,160916,1,0,0:0:0:0:
147,198,161013,5,0,0:0:0:0:
68,201,161110,1,0,0:0:0:0:
150,232,161206,5,0,0:0:0:0:
87,240,161303,1,0,0:0:0:0:
151,264,161400,5,0,0:0:0:0:
109,272,161496,1,0,0:0:0:0:
147,298,161593,5,0,0:0:0:0:
131,304,161690,1,0,0:0:0:0:
146,315,161787,6,0,B|212:337|237:289|237:289|291:346|371:334|403:292|408:259,1,312.5
474,96,162174,1,0,0:0:0:0:
317,219,162367,1,0,0:0:0:0:
404,38,162561,6,0,L|340:40,1,62.5
341,39,162948,2,0,L|278:40,1,62.5
102,54,163335,6,0,B|101:105|45:113|45:113|87:154|38:186|38:186|100:212|100:212|82:241|112:277,1,312.5
256,42,163722,1,0,0:0:0:0:
142,148,163916,1,0,0:0:0:0:
215,267,164109,6,0,L|279:265,1,62.5
278,266,164496,2,0,L|340:264,1,62.5
383,174,164884,6,0,B|518:203|518:203|444:228|444:228|423:332,1,312.5
230,175,165271,1,0,0:0:0:0:
254,354,165464,1,0,0:0:0:0:
170,270,165658,6,0,L|106:272,1,62.5
107,271,166045,2,0,L|45:273,1,62.5
99,76,166432,6,0,B|51:53|42:98|69:152|118:173|118:173|158:139|176:78|140:44|107:75,1,312.5
12,200,166819,1,0,0:0:0:0:
216,34,167013,1,0,0:0:0:0:
340,257,167206,6,0,B|354:252|388:275|388:275|369:246|374:220|374:220|359:205|359:205|372:189|372:189|381:150,1,187.500007152558
44,273,167593,6,0,P|105:159|250:227,1,312.5
288,353,167980,5,0,0:0:0:0:
453,134,168174,1,0,0:0:0:0:
468,89,168271,1,0,0:0:0:0:
422,98,168367,1,0,0:0:0:0:
458,164,168561,5,0,0:0:0:0:
488,78,168658,1,0,0:0:0:0:
401,101,168754,1,0,0:0:0:0:
505,145,168948,5,0,0:0:0:0:
436,66,169045,1,0,0:0:0:0:
404,166,169142,1,0,0:0:0:0:
146,198,169335,5,0,0:0:0:0:
215,119,169432,1,0,0:0:0:0:
247,219,169529,1,0,0:0:0:0:
114,187,169722,5,0,0:0:0:0:
240,104,169819,1,0,0:0:0:0:
241,252,169916,1,0,0:0:0:0:
502,280,170109,5,0,0:0:0:0:
376,197,170206,1,0,0:0:0:0:
375,345,170303,1,0,0:0:0:0:
504,316,170496,5,0,0:0:0:0:
388,172,170593,1,0,0:0:0:0:
354,353,170690,1,0,0:0:0:0:
121,340,170884,5,0,0:0:0:0:
121,340,170980,1,0,0:0:0:0:
198,319,171077,5,0,0:0:0:0:
56,294,171174,1,0,0:0:0:0:
198,319,171271,1,0,0:0:0:0:
56,294,171368,1,0,0:0:0:0:
198,319,171464,1,0,0:0:0:0:
56,294,171561,1,0,0:0:0:0:
198,319,171658,1,0,0:0:0:0:
56,294,171755,1,0,0:0:0:0:
176,264,171851,5,0,0:0:0:0:
101,257,171948,1,0,0:0:0:0:
162,209,172045,1,0,0:0:0:0:
121,209,172142,1,0,0:0:0:0:
132,176,172238,6,0,L|38:165,1,78.125
124,159,172335,2,0,L|218:170,1,78.125
144,143,172432,2,0,L|50:132,1,78.125
127,123,172529,2,0,L|221:134,1,78.125
124,34,172625,5,0,0:0:0:0:
333,98,173013,6,0,B|310:98|310:98|288:123|326:135|333:170|317:199|317:199|296:184,1,156.25
454,125,173206,2,0,B|478:98|449:84|416:104|416:104|436:181,1,156.25
347,279,173400,5,0,0:0:0:0:
451,266,173496,1,0,0:0:0:0:
377,303,173593,5,0,0:0:0:0:
432,295,173690,1,0,0:0:0:0:
398,337,173787,5,0,0:0:0:0:
417,334,173884,1,0,0:0:0:0:
419,364,173980,5,0,0:0:0:0:
419,364,174077,1,0,0:0:0:0:
419,364,174174,6,0,B|366:330|297:352|297:352|302:300|302:300|216:344|242:268|174:324,1,312.5
104,356,174464,1,0,0:0:0:0:
72,275,174561,6,0,P|55:197|128:222,1,187.500007152558
188,173,174754,2,0,P|173:153|154:146,1,31.25
124,70,174948,6,0,B|193:13|193:13|287:53,1,187.500007152558
365,51,175142,2,0,L|363:1,1,31.25
411,119,175335,6,0,B|397:153|419:181|419:181|394:206|394:206|431:238|408:290,1,187.500007152558
309,261,175529,2,0,P|324:256|338:263,1,31.25
296,344,175722,6,0,B|250:327|217:361|217:361|183:305|128:302,1,187.500007152558
72,275,175916,2,0,P|64:301|68:328,1,31.25
127,219,176109,6,0,B|115:164|171:127|171:127|114:137|70:107,1,187.500007152558
58,46,176303,2,0,P|82:41|105:43,1,31.25
329,152,176496,6,0,L|264:144,1,62.5
200,197,176690,1,0,0:0:0:0:
229,278,176787,2,0,P|263:290|294:286,1,62.5
261,38,176980,1,0,0:0:0:0:
180,67,177077,2,0,P|168:101|172:132,1,62.5
421,253,177271,6,0,B|423:229|423:229|445:216|445:216|433:186|451:162|451:162|428:145|428:145|434:113,1,156.25
97,268,177464,1,0,0:0:0:0:
97,268,177561,1,0,0:0:0:0:
97,268,177658,2,0,B|136:311|136:311|253:268,1,156.25
448,43,177851,6,0,B|253:37,1,187.500007152558
31,191,178045,1,0,0:0:0:0:
434,334,178238,1,0,0:0:0:0:
31,191,178432,1,0,0:0:0:0:
448,43,178625,1,0,0:0:0:0:
95,76,178819,5,0,0:0:0:0:
431,124,179013,1,0,0:0:0:0:
31,191,179206,1,0,0:0:0:0:
434,334,179400,1,0,0:0:0:0:
78,357,179593,1,0,0:0:0:0:
124,279,179787,6,0,P|136:250|162:234,1,62.5
154,149,179980,2,0,P|184:145|212:159,1,62.5
278,103,180174,2,0,P|296:127|297:158,1,62.5
271,249,180367,6,0,B|309:291|349:220|349:220|475:272|503:78|364:32,1,375.000014305115
193,300,180754,1,0,0:0:0:0:
49,219,180948,6,0,B|-2:203|4:170|4:170|43:179|43:179|67:159|67:159|107:167|127:193,1,187.500007152558
186,166,181142,2,0,P|200:147|201:126,1,31.25
141,65,181335,5,0,0:0:0:0:
198,14,181432,1,0,0:0:0:0:
268,45,181529,2,0,B|306:20|306:20|359:74|437:37,1,187.500007152558
454,114,181722,2,0,L|451:166,1,31.25
287,192,181916,6,0,P|373:184|368:266,1,187.500007152558
352,337,182109,2,0,P|374:342|397:335,1,31.25
263,285,182303,5,0,0:0:0:0:
187,268,182400,1,0,0:0:0:0:
118,301,182496,2,0,B|79:327|79:327|17:284|51:197,1,187.500007152558
141,65,182690,6,0,P|155:96|147:139,1,62.5
268,45,182884,1,0,0:0:0:0:
305,134,182980,2,0,P|301:167|273:201,1,62.5
428,128,183174,1,0,0:0:0:0:
415,223,183270,2,0,P|395:250|353:265,1,62.5
118,301,183464,6,0,B|501:290,2,375.000014305115
34,206,184432,2,0,P|-6:123|39:41,1,187.500007152558
152,211,184819,1,0,0:0:0:0:
287,184,185013,6,0,L|493:177,1,187.500007152558
464,34,185303,1,0,0:0:0:0:
464,34,185400,2,0,L|258:41,1,187.500007152558
137,110,185787,5,0,0:0:0:0:
139,126,186174,5,0,0:0:0:0:
99,192,186271,1,0,0:0:0:0:
149,237,186367,1,0,0:0:0:0:
134,271,186464,1,0,0:0:0:0:
135,284,186561,6,0,B|195:305|223:262|223:262|282:303|335:228|335:228|385:260|385:260|417:226|478:249,1,375.000014305115
438,315,186851,1,0,0:0:0:0:
349,346,186948,6,0,B|326:295|261:258|261:258|260:179,1,187.500007152558
297,127,187142,2,0,P|311:124|327:127,1,31.25
213,119,187335,6,0,B|176:108|174:51|174:51|131:105|112:33|67:81,1,187.500007152558
5,62,187529,2,0,P|0:46|0:31,1,31.25
56,145,187722,6,0,B|47:172|61:195|61:195|41:217|41:217|79:237|79:237|45:256|63:297,1,187.500007152558
135,284,187916,2,0,L|176:282,1,31.25
260,275,188109,5,0,0:0:0:0:
318,230,188206,1,0,0:0:0:0:
377,181,188303,2,0,B|417:153|425:104|425:104|462:130|456:195,1,187.500007152558
376,275,188496,5,0,0:0:0:0:
318,230,188593,1,0,0:0:0:0:
259,181,188690,2,0,B|219:153|211:104|211:104|174:130|180:195,1,187.500007152558
256,351,188884,6,0,P|286:353|313:329,1,62.5
316,127,189077,1,0,0:0:0:0:
316,127,189174,2,0,L|316:47,1,62.5
170,287,189367,1,0,0:0:0:0:
170,287,189464,2,0,L|90:287,1,62.5
64,61,189658,5,0,0:0:0:0:
260,275,189851,1,0,0:0:0:0:
448,61,190045,1,0,0:0:0:0:
260,275,190238,1,0,0:0:0:0:
68,65,190432,5,0,0:0:0:0:
68,65,190529,1,0,0:0:0:0:
35,141,190625,1,0,0:0:0:0:
170,287,190819,5,0,0:0:0:0:
170,287,190916,1,0,0:0:0:0:
170,204,191012,1,0,0:0:0:0:
342,97,191206,5,0,0:0:0:0:
342,97,191302,1,0,0:0:0:0:
342,180,191399,1,0,0:0:0:0:
444,319,191593,5,0,0:0:0:0:
444,319,191690,1,0,0:0:0:0:
477,243,191786,1,0,0:0:0:0:
257,43,191980,5,0,0:0:0:0:
147,77,192174,2,0,P|160:108|180:128,1,62.5
99,291,192367,2,0,P|130:278|150:258,1,62.5
355,349,192561,2,0,P|342:318|322:298,1,62.5
413,93,192754,5,0,0:0:0:0:
370,104,192851,1,0,0:0:0:0:
341,137,192948,1,0,0:0:0:0:
339,180,193045,1,0,0:0:0:0:
407,220,193142,6,0,L|431:343,1,125
105,164,193335,2,0,L|81:41,1,125
464,113,193529,2,0,L|341:137,1,125
48,271,193722,2,0,L|171:247,1,125
431,342,193916,2,0,L|308:366,1,125
81,41,194109,2,0,L|204:17,1,125
461,2,194303,5,0,0:0:0:0:
411,58,194400,1,0,0:0:0:0:
464,113,194496,1,0,0:0:0:0:
426,177,194593,1,0,0:0:0:0:
454,266,194690,6,0,B|375:326|375:326|316:290,1,156.25
58,118,194884,2,0,B|137:58|137:58|196:94,1,156.25
469,301,195077,6,0,B|390:361|390:361|331:325,1,156.25
73,153,195271,2,0,B|152:93|152:93|211:129,1,156.25
496,332,195464,6,0,B|417:392|417:392|358:356,1,156.25
100,184,195658,2,0,B|179:124|179:124|238:160,1,156.25
493,186,195851,5,0,0:0:0:0:
469,301,195948,1,0,0:0:0:0:
435,192,196045,5,0,0:0:0:0:
424,297,196142,1,0,0:0:0:0:
379,200,196238,5,0,0:0:0:0:
377,296,196335,1,0,0:0:0:0:
328,209,196432,5,0,0:0:0:0:
336,294,196529,1,0,0:0:0:0:
264,247,196625,5,0,0:0:0:0:
186,300,196722,1,0,0:0:0:0:
93,283,196819,1,0,0:0:0:0:
23,219,196916,1,0,0:0:0:0:
21,125,197013,6,0,L|21:40,1,78.125
21,46,197109,6,0,L|98:46,1,78.125
99,46,197206,6,0,L|184:46,1,78.125
177,46,197303,6,0,L|177:124,1,78.125
177,210,197400,5,0,0:0:0:0:
469,215,197787,6,0,P|495:165|483:97,1,125
401,72,197980,2,0,P|375:122|387:190,1,125
404,266,198174,6,0,B|400:281|400:281|405:295|405:295|402:308|402:308|408:317|408:317|405:332,2,62.5
404,266,198948,6,0,L|271:263,1,125
156,282,199142,1,0,0:0:0:0:
123,300,199238,1,0,0:0:0:0:
85,298,199335,1,0,0:0:0:0:
50,283,199432,1,0,0:0:0:0:
32,249,199529,1,0,0:0:0:0:
36,212,199625,1,0,0:0:0:0:
122,178,199722,5,0,0:0:0:0:
209,171,199819,1,0,0:0:0:0:
296,166,199916,1,0,0:0:0:0:
383,157,200013,1,0,0:0:0:0:
401,72,200109,5,0,0:0:0:0:
313,77,200206,1,0,0:0:0:0:
225,83,200303,1,0,0:0:0:0:
137,88,200400,1,0,0:0:0:0:
41,110,200496,5,0,0:0:0:0:
14,152,200593,1,0,0:0:0:0:
16,202,200690,1,0,0:0:0:0:
32,249,200787,1,0,0:0:0:0:
101,301,200884,5,0,0:0:0:0:
163,241,200980,1,0,0:0:0:0:
224,178,201077,1,0,0:0:0:0:
288,237,201174,1,0,0:0:0:0:
346,306,201271,6,0,L|427:284,1,62.5
475,92,201464,1,0,0:0:0:0:
401,72,201561,2,0,L|340:88,1,62.5
211,302,201754,1,0,0:0:0:0:
285,322,201851,2,0,L|345:305,1,62.5
251,107,202045,5,0,0:0:0:0:
223,65,202142,1,0,0:0:0:0:
176,47,202238,1,0,0:0:0:0:
128,63,202335,1,0,0:0:0:0:
90,142,202432,5,0,0:0:0:0:
150,205,202529,1,0,0:0:0:0:
233,180,202625,1,0,0:0:0:0:
305,228,202722,1,0,0:0:0:0:
375,175,202819,5,0,0:0:0:0:
444,227,202916,1,0,0:0:0:0:
423,312,203013,1,0,0:0:0:0:
336,316,203109,1,0,0:0:0:0:
253,286,203206,5,0,0:0:0:0:
207,265,203303,1,0,0:0:0:0:
158,277,203400,1,0,0:0:0:0:
136,321,203496,1,0,0:0:0:0:
58,359,203593,5,0,0:0:0:0:
6,288,203690,1,0,0:0:0:0:
6,200,203787,1,0,0:0:0:0:
58,129,203884,1,0,0:0:0:0:
118,192,203980,5,0,0:0:0:0:
182,132,204077,1,0,0:0:0:0:
269,129,204174,1,0,0:0:0:0:
342,177,204271,1,0,0:0:0:0:
379,254,204367,6,0,L|448:251,1,62.5
350,92,204561,1,0,0:0:0:0:
350,92,204658,2,0,L|347:23,1,62.5
253,286,204851,1,0,0:0:0:0:
253,286,204948,2,0,L|256:355,1,62.5
118,192,205142,5,0,0:0:0:0:
148,150,205238,1,0,0:0:0:0:
195,137,205335,1,0,0:0:0:0:
239,159,205432,1,0,0:0:0:0:
322,184,205529,5,0,0:0:0:0:
399,223,205625,1,0,0:0:0:0:
476,182,205722,1,0,0:0:0:0:
478,94,205819,1,0,0:0:0:0:
416,31,205916,5,0,0:0:0:0:
328,26,206013,1,0,0:0:0:0:
241,23,206109,1,0,0:0:0:0:
153,19,206206,1,0,0:0:0:0:
80,68,206303,5,0,0:0:0:0:
106,110,206400,1,0,0:0:0:0:
106,159,206496,1,0,0:0:0:0:
80,202,206593,1,0,0:0:0:0:
41,278,206690,5,0,0:0:0:0:
92,349,206787,1,0,0:0:0:0:
179,342,206884,1,0,0:0:0:0:
225,268,206980,1,0,0:0:0:0:
196,182,207077,5,0,0:0:0:0:
268,132,207174,1,0,0:0:0:0:
343,176,207271,1,0,0:0:0:0:
344,262,207367,1,0,0:0:0:0:
398,330,207464,6,0,L|475:323,1,62.5
114,54,207658,1,0,0:0:0:0:
114,54,207754,2,0,L|37:61,1,62.5
261,349,207948,1,0,0:0:0:0:
261,349,208044,2,0,L|338:342,1,62.5
426,219,208238,5,0,0:0:0:0:
451,175,208335,1,0,0:0:0:0:
439,126,208432,1,0,0:0:0:0:
396,99,208529,1,0,0:0:0:0:
313,126,208625,5,0,0:0:0:0:
269,151,208722,1,0,0:0:0:0:
220,139,208819,1,0,0:0:0:0:
193,96,208916,1,0,0:0:0:0:
108,76,209013,5,0,0:0:0:0:
68,105,209109,1,0,0:0:0:0:
49,151,209206,1,0,0:0:0:0:
66,198,209303,1,0,0:0:0:0:
123,266,209400,5,0,0:0:0:0:
164,238,209496,1,0,0:0:0:0:
213,244,209593,1,0,0:0:0:0:
257,267,209690,1,0,0:0:0:0:
344,323,209787,5,0,0:0:0:0:
425,264,209916,1,0,0:0:0:0:
333,225,210045,1,0,0:0:0:0:
344,323,210174,5,0,0:0:0:0:
425,264,210303,1,0,0:0:0:0:
333,225,210432,1,0,0:0:0:0:
469,154,210561,5,0,0:0:0:0:
467,131,210948,5,0,0:0:0:0:
421,82,211045,1,0,0:0:0:0:
455,40,211142,1,0,0:0:0:0:
422,15,211238,1,0,0:0:0:0:
389,17,211335,6,0,B|322:60|322:60|224:26,1,166.666666666667
239,31,211593,1,0,0:0:0:0:
179,232,211722,2,0,B|136:165|136:165|170:67,2,166.666666666667
256,312,212109,2,0,L|432:296,2,166.666666666667
256,312,212496,5,0,0:0:0:0:
232,154,212625,1,0,0:0:0:0:
161,318,212754,1,0,0:0:0:0:
30,250,212884,6,0,B|103:204|103:204|182:233,1,166.666666666667
178,231,213142,1,0,0:0:0:0:
310,204,213271,2,0,B|385:231|385:231|458:185,2,166.666666666667
310,204,213658,6,0,B|290:159|290:159|320:109|320:109|296:49,1,166.666666666667
310,204,213916,6,0,B|290:249|290:249|320:299|320:299|296:359,1,166.666666666667
310,204,214174,6,0,B|255:225|255:225|205:195|205:195|160:215,1,166.666666666667
66,26,214432,6,0,B|128:84|128:84|82:174,1,166.666666666667
90,156,214690,1,0,0:0:0:0:
91,316,214819,2,0,B|163:353|163:353|221:291,2,166.666666666667
310,204,215206,2,0,B|485:190,2,166.666666666667
310,204,215593,5,0,0:0:0:0:
293,27,215722,1,0,0:0:0:0:
128,85,215851,1,0,0:0:0:0:
310,292,215980,6,0,B|485:278,1,166.666666666667
476,278,216238,1,0,0:0:0:0:
202,204,216367,2,0,B|27:190,2,166.666666666667
381,113,216754,5,0,0:0:0:0:
293,27,216948,6,0,P|247:21|205:43,1,93.7500035762788
35,190,217142,2,0,P|81:184|123:206,1,93.7500035762788
293,357,217335,2,0,P|247:363|205:341,1,93.7500035762788
476,278,217529,5,0,0:0:0:0:
476,278,217625,2,0,L|487:212,1,62.5
381,113,217819,1,0,0:0:0:0:
381,113,217915,2,0,L|370:47,1,62.5
141,51,218109,1,0,0:0:0:0:
141,51,218205,2,0,L|131:113,1,62.5
36,278,218400,1,0,0:0:0:0:
36,278,218496,2,0,L|25:212,1,62.5
343,284,218690,6,0,P|256:192|171:289,1,281.250010728836
157,315,219077,6,0,P|127:327|90:318,1,62.5
357,308,219271,1,0,0:0:0:0:
357,308,219367,2,0,P|387:296|424:305,1,62.5
138,172,219561,1,0,0:0:0:0:
138,172,219658,2,0,P|126:142|135:105,1,62.5
323,83,219851,6,0,L|397:78,1,62.5
200,249,220045,1,0,0:0:0:0:
157,315,220142,2,0,L|82:319,1,62.5
323,83,220335,1,0,0:0:0:0:
366,17,220432,2,0,L|440:12,1,62.5
481,143,220625,6,0,P|492:177|484:204,1,62.5
424,247,220819,1,0,0:0:0:0:
376,188,220916,1,0,0:0:0:0:
309,152,221013,1,0,0:0:0:0:
235,142,221109,1,0,0:0:0:0:
164,169,221206,1,0,0:0:0:0:
126,234,221303,1,0,0:0:0:0:
100,304,221400,6,0,P|66:306|37:291,1,62.5
27,207,221593,1,0,0:0:0:0:
81,138,221690,1,0,0:0:0:0:
164,169,221787,1,0,0:0:0:0:
208,244,221884,1,0,0:0:0:0:
187,328,221980,1,0,0:0:0:0:
260,375,222077,1,0,0:0:0:0:
358,357,222174,5,0,0:0:0:0:
414,274,222271,1,0,0:0:0:0:
468,190,222367,1,0,0:0:0:0:
349,337,222464,5,0,0:0:0:0:
405,254,222561,1,0,0:0:0:0:
459,170,222657,1,0,0:0:0:0:
342,312,222754,5,0,0:0:0:0:
398,229,222851,1,0,0:0:0:0:
434,142,222948,6,0,B|411:142|411:142|389:167|427:179|434:214|418:243|418:243|397:228,1,156.25
314,157,223142,2,0,B|338:130|309:116|276:136|276:136|296:213,1,156.25
141,264,223335,6,0,P|108:299|108:347,1,93.7500035762788
160,87,223529,2,0,P|125:54|77:54,1,93.7500035762788
308,30,223722,5,0,0:0:0:0:
370,32,223819,1,0,0:0:0:0:
420,68,223916,1,0,0:0:0:0:
439,127,224013,1,0,0:0:0:0:
414,184,224109,1,0,0:0:0:0:
360,216,224206,1,0,0:0:0:0:
340,275,224303,1,0,0:0:0:0:
362,333,224400,1,0,0:0:0:0:
317,375,224496,5,0,0:0:0:0:
254,368,224593,1,0,0:0:0:0:
204,328,224690,1,0,0:0:0:0:
145,306,224787,1,0,0:0:0:0:
84,321,224884,1,0,0:0:0:0:
28,292,224980,1,0,0:0:0:0:
54,235,225077,1,0,0:0:0:0:
61,172,225174,1,0,0:0:0:0:
31,116,225271,5,0,0:0:0:0:
68,66,225367,1,0,0:0:0:0:
130,61,225464,1,0,0:0:0:0:
174,105,225561,1,0,0:0:0:0:
159,165,225658,1,0,0:0:0:0:
163,226,225754,1,0,0:0:0:0:
200,276,225851,1,0,0:0:0:0:
261,286,225948,1,0,0:0:0:0:
318,260,226045,5,0,0:0:0:0:
341,201,226142,1,0,0:0:0:0:
309,147,226238,1,0,0:0:0:0:
312,84,226335,1,0,0:0:0:0:
350,34,226432,2,0,P|379:22|412:19,1,62.5
479,214,226625,2,0,P|450:226|417:229,1,62.5
309,147,226819,5,0,0:0:0:0:
249,127,226916,1,0,0:0:0:0:
196,92,227013,1,0,0:0:0:0:
134,96,227109,1,0,0:0:0:0:
97,146,227206,1,0,0:0:0:0:
36,161,227303,1,0,0:0:0:0:
11,218,227400,1,0,0:0:0:0:
26,277,227496,1,0,0:0:0:0:
63,327,227593,5,0,0:0:0:0:
120,302,227690,1,0,0:0:0:0:
181,314,227787,1,0,0:0:0:0:
232,350,227884,1,0,0:0:0:0:
287,322,227980,1,0,0:0:0:0:
348,313,228077,1,0,0:0:0:0:
408,330,228174,1,0,0:0:0:0:
462,299,228271,1,0,0:0:0:0:
474,238,228367,5,0,0:0:0:0:
249,127,228561,2,0,L|244:63,1,62.5
71,212,228754,2,0,L|34:159,1,62.5
474,238,228948,5,0,0:0:0:0:
185,208,229142,2,0,L|148:155,1,62.5
363,123,229335,2,0,L|358:59,1,62.5
253,267,229529,2,0,P|207:303|139:282,1,125
51,98,229916,5,0,0:0:0:0:
104,64,230013,1,0,0:0:0:0:
165,56,230109,1,0,0:0:0:0:
221,84,230206,1,0,0:0:0:0:
254,136,230303,1,0,0:0:0:0:
261,198,230400,1,0,0:0:0:0:
251,259,230496,1,0,0:0:0:0:
211,307,230593,1,0,0:0:0:0:
247,357,230690,5,0,0:0:0:0:
307,373,230787,1,0,0:0:0:0:
365,349,230884,1,0,0:0:0:0:
397,296,230980,1,0,0:0:0:0:
387,234,231077,1,0,0:0:0:0:
335,199,231174,1,0,0:0:0:0:
277,223,231271,1,0,0:0:0:0:
215,216,231367,1,0,0:0:0:0:
169,172,231464,5,0,0:0:0:0:
124,215,231561,1,0,0:0:0:0:
124,277,231658,1,0,0:0:0:0:
99,333,231754,1,0,0:0:0:0:
36,333,231851,1,0,0:0:0:0:
14,274,231948,1,0,0:0:0:0:
25,212,232045,1,0,0:0:0:0:
65,164,232142,1,0,0:0:0:0:
24,116,232238,5,0,0:0:0:0:
55,61,232335,1,0,0:0:0:0:
116,52,232432,1,0,0:0:0:0:
159,97,232529,1,0,0:0:0:0:
217,118,232625,1,0,0:0:0:0:
269,83,232722,1,0,0:0:0:0:
329,66,232819,1,0,0:0:0:0:
390,76,232916,1,0,0:0:0:0:
444,106,233013,6,0,L|466:231,1,125
344,188,233303,1,0,0:0:0:0:
344,188,233400,2,0,L|366:313,1,125
223,253,233690,1,0,0:0:0:0:
223,253,233787,2,0,L|245:378,1,125
101,318,234174,6,0,P|70:322|43:310,1,62.5
84,239,234367,1,0,0:0:0:0:
114,184,234464,1,0,0:0:0:0:
98,123,234561,5,0,0:0:0:0:
127,67,234658,1,0,0:0:0:0:
187,52,234754,1,0,0:0:0:0:
243,78,234851,1,0,0:0:0:0:
261,137,234948,1,0,0:0:0:0:
314,169,235045,1,0,0:0:0:0:
376,162,235142,1,0,0:0:0:0:
420,204,235238,1,0,0:0:0:0:
466,184,235335,6,0,B|490:132|490:132|462:69,1,125
204,202,235529,1,0,0:0:0:0:
141,248,235625,2,0,B|117:300|117:300|145:363,2,125
314,262,235916,1,0,0:0:0:0:
314,262,236013,1,0,0:0:0:0:
314,262,236109,6,0,P|349:268|380:253,1,56.2499982833863
466,184,236593,1,0,0:0:0:0:
443,113,236690,1,0,0:0:0:0:
367,261,236884,6,0,L|226:263,1,125
116,252,237077,1,0,0:0:0:0:
57,228,237174,1,0,0:0:0:0:
14,273,237271,1,0,0:0:0:0:
40,328,237367,1,0,0:0:0:0:
102,322,237464,1,0,0:0:0:0:
159,296,237561,1,0,0:0:0:0:
242,262,237658,6,0,L|368:262,1,125
408,141,238045,1,0,0:0:0:0:
482,245,238238,1,0,0:0:0:0:
278,164,238432,2,0,P|252:112|279:53,1,125
239,22,238722,1,0,0:0:0:0:
194,44,238819,1,0,0:0:0:0:
147,24,238916,1,0,0:0:0:0:
103,48,239013,1,0,0:0:0:0:
59,24,239109,1,0,0:0:0:0:
21,55,239206,6,0,L|26:183,1,125
147,221,239593,1,0,0:0:0:0:
35,281,239787,1,0,0:0:0:0:
144,349,239980,2,0,P|196:315|260:330,1,125
298,352,240271,1,0,0:0:0:0:
344,371,240368,1,0,0:0:0:0:
390,347,240465,1,0,0:0:0:0:
435,368,240562,1,0,0:0:0:0:
478,341,240658,1,0,0:0:0:0:
483,291,240754,6,0,P|440:249|451:172,1,125
482,62,241142,1,0,0:0:0:0:
346,240,241335,1,0,0:0:0:0:
346,240,241432,1,0,0:0:0:0:
346,240,241529,2,0,L|214:237,1,125
88,222,241916,1,0,0:0:0:0:
58,181,242013,1,0,0:0:0:0:
56,131,242109,1,0,0:0:0:0:
76,85,242206,1,0,0:0:0:0:
112,50,242303,6,0,P|165:29|237:42,1,125
325,127,242690,1,0,0:0:0:0:
180,145,242884,1,0,0:0:0:0:
346,240,243077,2,0,L|214:237,1,125
170,239,243367,1,0,0:0:0:0:
123,219,243464,1,0,0:0:0:0:
81,247,243561,1,0,0:0:0:0:
71,296,243658,1,0,0:0:0:0:
101,335,243754,1,0,0:0:0:0:
151,333,243851,6,0,P|178:321|214:322,1,62.5
299,351,244045,2,0,P|330:351|358:339,1,62.5
325,127,244238,2,0,P|298:115|262:116,1,62.5
177,145,244432,2,0,P|145:145|117:133,1,62.5
415,47,244625,6,0,L|415:125,1,62.5
97,337,244819,2,0,L|97:259,1,62.5
406,191,245013,2,0,P|440:182|477:194,1,62.5
90,201,245206,2,0,P|63:213|21:201,1,62.5
165,69,245400,6,0,B|208:3|319:39|314:144|284:213|221:240,1,312.5
165,69,245690,2,0,P|148:61|130:39,1,31.25
90,201,245884,5,0,0:0:0:0:
165,69,245980,2,0,P|235:23|328:55,1,187.500007152558
361,204,246174,6,0,B|389:250|359:346|359:346|396:259|436:239|491:265,1,312.5
361,204,246464,2,0,P|329:196|291:230,1,62.5
327,54,246754,5,0,0:0:0:0:
361,204,246851,1,0,0:0:0:0:
213,137,246948,2,0,B|140:112|140:112|93:189,1,156.25
183,245,247142,1,0,0:0:0:0:
213,137,247238,6,0,B|161:18|161:18|50:66|50:66|107:197,1,375.000014305115
213,137,247529,6,0,P|200:108|206:75,1,62.5
280,47,247916,5,0,0:0:0:0:
342,98,248013,1,0,0:0:0:0:
398,41,248109,1,0,0:0:0:0:
453,100,248206,1,0,0:0:0:0:
507,40,248303,5,0,0:0:0:0:
453,100,248400,1,0,0:0:0:0:
398,41,248496,2,0,P|343:17|280:49,1,125
84,101,249077,2,0,P|139:77|202:109,1,125
309,335,249851,6,0,P|368:346|421:315,1,125
433,221,250432,1,0,0:0:0:0:
416,214,250625,1,0,0:0:0:0:
398,215,250819,1,0,0:0:0:0:
381,222,251013,1,0,0:0:0:0:
61,322,251593,6,0,L|56:176,1,125
56,87,252367,1,0,0:0:0:0:
56,87,252561,1,0,0:0:0:0:
264,139,252948,2,0,P|210:161|141:137,1,125
154,40,253529,1,0,0:0:0:0:
171,33,253722,1,0,0:0:0:0:
189,34,253916,1,0,0:0:0:0:
206,41,254110,1,0,0:0:0:0:
221,51,254303,2,0,L|325:51,1,93.75
347,51,254690,6,0,B|399:22|399:22|476:52,2,125
392,115,255658,2,0,P|411:149|406:192,1,62.5
379,245,256045,1,0,0:0:0:0:
329,346,256431,5,0,0:0:0:0:
311,345,256625,1,0,0:0:0:0:
294,338,256819,1,0,0:0:0:0:
279,326,257013,1,0,0:0:0:0:
271,308,257206,1,0,0:0:0:0:
190,295,257787,6,0,B|125:304|115:227|115:227|22:241|3:124|116:109,1,312.5
94,113,259142,1,0,0:0:0:0:
185,145,259529,5,0,0:0:0:0:
202,152,259722,1,0,0:0:0:0:
220,151,259916,1,0,0:0:0:0:
237,144,260110,1,0,0:0:0:0:
253,134,260303,1,0,0:0:0:0:
264,119,260496,2,0,P|290:92|354:82,1,93.75
366,87,260884,6,0,B|386:139|445:120|445:120|408:159|363:203|361:273|373:328|478:364|546:322|557:195|488:161|404:162|382:249|363:204|305:273|305:273|249:239|249:239|216:299|126:308|87:249,1,875
245,349,263980,6,0,B|289:268|239:221|239:221|257:190|257:190|211:177|180:123|199:56|288:37|341:82|311:148,1,437.5
98,177,265722,2,0,P|67:181|38:171,4,62.5
98,177,266690,1,0,0:0:0:0:
145,277,267077,6,0,P|238:310|98:190,1,750
28,275,270174,2,0,P|155:289|97:176,1,312.5
97,176,271529,1,0,0:0:0:0:
161,119,271916,5,0,0:0:0:0:
178,112,272109,1,0,0:0:0:0:
196,113,272303,1,0,0:0:0:0:
213,120,272497,1,0,0:0:0:0:
228,131,272690,1,0,0:0:0:0:
245,137,272884,6,0,L|291:136,1,37.4999988555909
301,209,273271,2,0,L|347:208,1,37.4999988555909
233,270,273658,6,0,L|195:270,14,37.4999988555909
