osu file format v14

[General]
AudioFilename: audio.mp3
AudioLeadIn: 0
PreviewTime: 223831
Countdown: 0
SampleSet: Soft
StackLeniency: 0.7
Mode: 2
LetterboxInBreaks: 0
WidescreenStoryboard: 0

[Editor]
Bookmarks: 37976,75186,99960,137122,149509,161896,174283,178251,272993
DistanceSpacing: 0.1
BeatDivisor: 8
GridSize: 32
TimelineZoom: 4.199999

[Metadata]
Title:senpai, notice me!
TitleUnicode:senpai, notice me!
Artist:Camellia feat. Nanahira
ArtistUnicode:かめりあ feat. ななひら
Creator:Benita
Version:s-senpai nowotice me~! >////<
Source:osu!
Tags:4orce! Force! female vocal dubstep drop english featured artist fa KamelCamellia cametek Electronic Instrumental Japanese Nelly Benny- BennyBananas Rocma
BeatmapID:2014479
BeatmapSetID:962092

[Difficulty]
HPDrainRate:6
CircleSize:4.4
OverallDifficulty:9.6
ApproachRate:9.6
SliderMultiplier:2
SliderTickRate:2

[Events]
//Background and Video events
0,0,"Senpai.png",0,0
//Break Periods
2,161992,162831
2,163540,164380
2,165089,165928
2,166637,167476
//Storyboard Layer 0 (Background)
//Storyboard Layer 1 (Fail)
//Storyboard Layer 2 (Pass)
//Storyboard Layer 3 (Foreground)
//Storyboard Layer 4 (Overlay)
//Storyboard Sound Samples

[TimingPoints]
760,387.096774193548,4,2,0,50,1,0
11598,-100,4,2,1,60,0,0
13147,-100,4,1,99,60,0,0
13340,-100,4,2,1,60,0,0
25534,-83.3333333333333,4,1,1,50,0,0
35211,-83.3333333333333,4,1,1,50,0,0
35598,-83.3333333333333,4,1,1,40,0,0
35985,-83.3333333333333,4,1,1,30,0,0
37921,-83.3333333333333,4,1,1,70,0,0
38695,-66.6666666666667,4,1,1,70,0,0
39276,-83.3333333333333,4,1,1,70,0,0
39469,-66.6666666666667,4,1,1,70,0,0
40050,-66.6666666666667,4,1,1,70,0,0
40243,-83.3333333333333,4,1,1,70,0,0
43534,-83.3333333333333,4,2,1,70,0,0
44114,-83.3333333333333,4,1,1,70,0,0
44888,-66.6666666666667,4,1,1,70,0,0
45469,-83.3333333333333,4,1,1,70,0,0
45663,-66.6666666666667,4,1,1,70,0,0
46243,-66.6666666666667,4,1,1,70,0,0
46436,-83.3333333333333,4,1,1,70,0,0
50695,-40,4,1,1,70,0,0
50889,-83.3333333333333,4,1,1,70,0,0
51469,-40,4,1,1,70,0,0
51663,-83.3333333333333,4,1,1,70,0,0
52243,-40,4,1,1,70,0,0
52437,-83.3333333333333,4,1,1,70,0,0
53066,-35.7142857142857,4,1,1,70,0,0
53211,-83.3333333333333,4,1,1,70,0,0
53792,-40,4,1,1,70,0,0
53985,-83.3333333333333,4,1,1,70,0,0
54566,-40,4,1,1,70,0,0
54759,-83.3333333333333,4,1,1,70,0,0
56889,-40,4,1,1,70,0,0
57082,-83.3333333333333,4,1,1,70,0,0
57663,-40,4,1,1,70,0,0
58050,-71.4285714285714,4,1,1,70,0,0
58437,-40,4,1,1,70,0,0
58630,-83.3333333333333,4,1,1,70,0,0
59259,-35.7142857142857,4,1,1,70,0,0
59405,-83.3333333333333,4,1,1,70,0,0
59985,-40,4,1,1,70,0,0
60179,-83.3333333333333,4,1,1,70,0,0
60759,-40,4,1,1,70,0,0
60953,-83.3333333333333,4,1,1,70,0,0
62695,-83.3333333333333,4,1,1,60,0,0
68889,-83.3333333333333,4,1,1,60,0,0
69663,-83.3333333333333,4,1,1,60,0,0
70437,-83.3333333333333,4,1,1,60,0,0
71985,-83.3333333333333,4,1,1,60,0,0
75082,-83.3333333333333,4,1,1,70,0,0
75469,-40,4,1,1,70,0,0
75856,-83.3333333333333,4,1,1,70,0,0
78566,-40,4,1,1,70,0,0
78953,-83.3333333333333,4,1,1,70,0,0
80889,-83.3333333333333,4,1,1,40,0,0
81276,-83.3333333333333,4,1,1,80,0,0
81663,-40,4,1,1,80,0,0
82050,-83.3333333333333,4,1,1,80,0,0
84372,-83.3333333333333,4,1,1,60,0,0
86695,-83.3333333333333,4,1,1,40,0,0
87469,-83.3333333333333,4,1,1,70,0,0
87856,-40,4,1,1,80,0,0
88243,-83.3333333333333,4,1,1,70,0,0
90953,-40,4,1,1,80,0,0
91340,-83.3333333333333,4,1,1,70,0,0
93276,-83.3333333333333,4,1,1,40,0,0
93663,-83.3333333333333,4,1,1,70,0,0
94050,-40,4,1,1,80,0,0
94437,-83.3333333333333,4,1,1,70,0,0
99856,-66.6666666666667,4,1,1,60,0,0
107598,-100,4,1,1,60,0,0
110308,-100,4,1,1,55,0,0
110502,-100,4,1,1,50,0,0
110695,-100,4,1,1,45,0,0
110889,-100,4,1,1,40,0,0
111082,-100,4,1,1,35,0,0
111276,-100,4,1,1,30,0,0
111856,-83.3333333333333,4,1,1,30,0,0
112243,-100,4,1,99,70,0,0
119985,-100,4,1,99,60,0,0
120372,-100,4,1,99,50,0,0
120759,-100,4,1,99,40,0,0
121146,-100,4,1,99,30,0,0
121534,-100,4,1,99,20,0,0
124243,-100,4,1,99,5,0,0
124630,-100,4,1,99,25,0,0
135276,-83.3333333333333,4,2,1,5,0,0
135469,-83.3333333333333,4,2,1,40,0,0
137018,-83.3333333333333,4,1,99,50,0,0
137211,-83.3333333333333,4,2,1,50,0,0
149405,-76.9230769230769,4,1,1,50,0,0
161598,-76.9230769230769,4,2,1,5,0,0
161792,-76.9230769230769,4,1,1,100,0,0
167985,-76.9230769230769,4,1,1,50,0,0
168759,-76.9230769230769,4,1,1,40,0,0
169534,-76.9230769230769,4,1,1,30,0,0
174179,-83.3333333333333,4,1,1,80,0,1
185792,-83.3333333333333,4,1,1,40,0,0
186566,-83.3333333333333,4,1,1,80,0,1
197405,-83.3333333333333,4,1,1,80,0,0
197792,-83.3333333333333,4,1,1,30,0,0
198953,-83.3333333333333,4,1,1,80,0,1
209792,-83.3333333333333,4,1,1,60,0,1
210566,-83.3333333333333,4,1,1,40,0,0
211340,-83.3333333333333,4,1,1,80,0,1
222953,-83.3333333333333,4,1,1,40,0,0
223147,-83.3333333333333,4,1,1,60,0,0
223727,-66.6666666666667,4,1,1,80,0,1
236114,-83.3333333333333,4,1,1,80,0,0
236889,-83.3333333333333,4,1,1,80,0,1
247727,-83.3333333333333,4,1,1,80,0,0
247921,-71.4285714285714,4,2,1,40,0,0
248501,-100,4,1,99,50,0,0
248889,-100,4,2,0,50,0,0
257792,-142.857142857143,4,2,0,40,0,0
268437,-142.857142857143,4,2,0,30,0,0
270179,-142.857142857143,4,2,0,20,0,0
275598,-142.857142857143,4,2,0,15,0,0
275985,-142.857142857143,4,2,0,10,0,0
276372,-142.857142857143,4,2,0,5,0,0

[Colours]
Combo1 : 141,202,252
Combo2 : 255,149,149
Combo3 : 241,252,167
Combo4 : 244,62,89

[HitObjects]
357,314,760,6,0,P|392:286|337:162,1,200,2|0,0:0|0:0,0:0:0:0:
191,167,1340,2,0,L|181:283,1,100,2|0,0:0|0:0,0:0:0:0:
337,257,1727,2,0,L|352:360,1,100,2|0,0:0|0:0,0:0:0:0:
205,357,2114,2,0,L|442:337,1,200,2|2,0:0|0:0,0:0:0:0:
326,322,2695,1,2,0:0:0:0:
256,254,2888,1,2,0:0:0:0:
270,159,3082,1,2,0:0:0:0:
355,114,3275,1,2,0:0:0:0:
96,210,3856,6,0,L|326:206,1,200,2|0,0:0|0:0,0:0:0:0:
147,194,4437,2,0,L|131:84,1,100,2|0,0:0|0:0,0:0:0:0:
310,97,4824,2,0,L|416:96,1,100,2|0,0:0|0:0,0:0:0:0:
233,134,5211,2,0,L|72:258,1,200,2|2,0:0|0:0,0:0:0:0:
176,227,5792,1,2,0:0:0:0:
252,168,5985,1,2,0:0:0:0:
246,72,6179,1,2,0:0:0:0:
163,24,6372,1,2,0:0:0:0:
320,84,6566,2,0,L|333:193,1,100,2|0,0:0|0:0,0:0:0:0:
169,247,6953,6,0,P|115:217|159:93,1,200,2|0,0:0|0:0,0:0:0:0:
299,97,7534,2,0,L|309:204,1,100,2|0,0:0|0:0,0:0:0:0:
158,205,7921,2,0,L|145:315,1,100,2|0,0:0|0:0,0:0:0:0:
366,216,8308,2,0,P|418:175|351:78,1,200,2|2,0:0|0:0,0:0:0:0:
275,79,8888,1,2,0:0:0:0:
207,140,9082,1,2,0:0:0:0:
222,248,9276,1,2,0:0:0:0:
325,301,9469,1,2,0:0:0:0:
96,210,10050,6,0,L|326:206,1,200,2|0,0:0|0:0,0:0:0:0:
147,194,10631,2,0,L|131:84,1,100,2|0,0:0|0:0,0:0:0:0:
317,98,11018,2,0,L|325:214,1,100,2|0,0:0|0:0,0:0:0:0:
153,219,11405,1,2,0:0:0:0:
405,147,11598,6,0,L|433:83,1,50,8|0,0:0|0:0,0:0:0:0:
227,95,11792,2,0,L|161:90,1,50
177,91,11985,2,0,L|227:95,1,50,8|0,0:0|0:0,0:0:0:0:
425,101,12179,1,2,0:1:0:0:
457,120,12227,1,2,0:1:0:0:
467,164,12276,1,2,0:1:0:0:
443,194,12324,1,2,0:1:0:0:
308,257,12372,6,0,L|247:256,1,50,8|0,0:1|0:0,0:0:0:0:
308,257,12566,2,0,L|363:257,1,50
177,160,12759,2,8,L|112:160,1,50,8|0,0:0|0:0,0:0:0:0:
340,156,12953,2,0,L|404:155,1,50,8|8,0:0|0:0,0:0:0:0:
36,88,13147,6,0,L|27:194,1,100,6|0,0:0|0:0,0:0:0:0:
208,197,13534,2,0,L|217:312,1,100,2|0,0:0|0:0,0:0:0:0:
25,334,13921,1,2,0:0:0:0:
214,328,14114,2,0,L|110:305,1,100,2|0,0:0|0:0,0:0:0:0:
302,268,14501,6,0,L|531:254,1,200,2|2,0:0|0:0,0:0:0:0:
393,190,15082,1,2,0:0:0:0:
393,190,15276,1,0,0:0:0:0:
501,255,15469,1,2,0:0:0:0:
244,262,15663,1,8,0:0:0:0:
501,255,15856,1,8,0:0:0:0:
219,227,16243,6,0,L|351:226,1,100,2|0,0:0|0:0,0:0:0:0:
499,185,16630,2,0,L|389:187,1,100,2|0,0:0|0:0,0:0:0:0:
210,174,17018,1,2,0:0:0:0:
399,186,17211,2,0,L|409:296,1,100,2|0,0:0|0:0,0:0:0:0:
214,298,17598,6,0,P|136:268|190:177,1,200,2|2,0:0|0:0,0:0:0:0:
364,180,18179,2,0,L|384:72,1,100,2|0,0:0|0:0,0:0:0:0:
197,64,18566,1,2,0:0:0:0:
386,46,18759,1,2,0:0:0:0:
44,197,18953,1,8,0:0:0:0:
295,146,19340,6,0,L|408:146,1,100,2|0,0:0|0:0,0:0:0:0:
208,226,19727,2,0,L|199:341,1,100,2|0,0:0|0:0,0:0:0:0:
389,331,20114,1,2,0:0:0:0:
200,325,20307,2,0,L|175:224,1,100,2|0,0:0|0:0,0:0:0:0:
357,207,20694,6,0,L|128:193,1,200,2|2,0:0|0:0,0:0:0:0:
245,149,21275,1,2,0:0:0:0:
245,149,21469,1,0,0:0:0:0:
157,194,21662,1,2,0:0:0:0:
414,201,21856,1,8,0:0:0:0:
157,194,22049,1,8,0:0:0:0:
271,146,22436,6,0,L|385:143,1,100,2|0,0:0|0:0,0:0:0:0:
191,154,22824,2,0,L|81:156,1,100,2|0,0:0|0:0,0:0:0:0:
285,106,23211,2,0,L|399:111,2,100,2|0|2,0:0|0:0|0:0,0:0:0:0:
473,190,23792,6,0,L|365:196,1,100,2|0,0:0|0:0,0:0:0:0:
192,176,24179,2,0,L|198:73,1,100,2|0,0:0|0:0,0:0:0:0:
374,108,24566,2,0,L|481:92,2,100,2|0|2,0:0|0:0|0:0,0:0:0:0:
115,246,25147,1,8,0:0:0:0:
434,236,25534,6,0,P|462:195|392:103,1,179.999994506836,8|0,0:0|0:0,0:0:0:0:
189,113,25921,2,0,L|313:115,1,119.999996337891,8|0,0:0|0:0,0:0:0:0:
26,182,26308,2,0,L|177:182,1,119.999996337891,8|0,0:0|0:0,0:0:0:0:
205,180,26598,1,0,0:0:0:0:
376,179,26695,2,0,L|503:173,1,119.999996337891,8|0,0:0|0:0,0:0:0:0:
79,275,27082,6,0,P|46:250|116:162,1,179.999994506836,8|0,0:0|0:0,0:0:0:0:
294,161,27469,2,0,L|153:158,1,119.999996337891,8|0,0:0|0:0,0:0:0:0:
465,208,27856,2,0,L|474:80,1,119.999996337891,8|8,0:0|0:0,0:0:0:0:
407,73,28147,1,8,0:0:0:0:
245,71,28243,2,0,L|112:70,1,119.999996337891,8|0,0:0|0:0,0:0:0:0:
445,239,28630,6,0,L|266:211,1,179.999994506836,8|0,0:0|0:0,0:0:0:0:
66,212,29018,2,0,L|40:93,1,119.999996337891,8|0,0:0|0:0,0:0:0:0:
361,110,29405,2,0,L|196:106,1,119.999996337891,8|0,0:0|0:0,0:0:0:0:
181,107,29695,1,0,0:0:0:0:
406,199,29792,2,0,P|456:216|484:284,1,119.999996337891,8|0,0:0|0:0,0:0:0:0:
204,284,30179,5,8,0:0:0:0:
126,178,30372,2,0,L|191:179,1,59.9999981689454
479,168,30566,2,0,L|333:153,1,119.999996337891,8|0,0:0|0:0,0:0:0:0:
104,153,30953,1,8,0:0:0:0:
246,112,31147,2,0,L|247:182,1,59.9999981689454
54,117,31340,2,0,P|21:156|52:228,1,119.999996337891,8|0,0:0|0:0,0:0:0:0:
315,245,31727,6,0,L|445:233,1,119.999996337891,8|8,0:0|0:0,0:0:0:0:
390,187,32018,1,8,0:0:0:0:
183,185,32114,2,0,L|61:176,1,119.999996337891,8|8,0:0|0:0,0:0:0:0:
97,127,32405,1,8,0:0:0:0:
306,152,32501,2,0,L|288:31,1,119.999996337891,8|8,0:0|0:0,0:0:0:0:
215,25,32792,1,8,0:0:0:0:
455,91,32889,2,0,L|460:217,1,119.999996337891,8|8,0:0|0:0,0:0:0:0:
388,225,33179,1,8,0:0:0:0:
189,231,33276,6,0,L|68:225,1,119.999996337891,8|8,0:0|0:0,0:0:0:0:
39,221,33566,1,8,0:0:0:0:
231,177,33663,2,0,L|352:171,1,119.999996337891,8|8,0:0|0:0,0:0:0:0:
381,167,33953,1,8,0:0:0:0:
122,152,34050,2,0,L|144:29,1,119.999996337891,8|8,0:0|0:0,0:0:0:0:
204,30,34340,1,8,0:0:0:0:
372,52,34437,2,0,L|496:72,1,119.999996337891,8|8,0:0|0:0,0:0:0:0:
436,118,34727,1,8,0:0:0:0:
232,163,34824,6,8,L|202:215,1,59.9999981689454
355,201,35018,2,8,L|382:262,1,59.9999981689454
218,137,35211,2,8,L|169:188,1,59.9999981689454
377,173,35405,2,8,L|430:229,1,59.9999981689454
216,105,35598,6,8,L|134:105,1,59.9999981689454
392,144,35792,2,8,L|470:143,1,59.9999981689454
232,165,35985,1,2,0:0:0:0:
205,151,36033,1,2,0:0:0:0:
188,127,36081,1,2,0:0:0:0:
183,97,36130,1,2,0:0:0:0:
192,69,36178,1,2,0:0:0:0:
213,48,36226,1,2,0:0:0:0:
241,38,36275,1,2,0:0:0:0:
470,42,36372,5,2,0:0:0:0:
470,42,36759,1,0,0:0:0:0:
310,95,36953,5,8,0:0:0:0:
346,94,37001,1,8,0:0:0:0:
383,96,37050,1,8,0:0:0:0:
419,97,37098,1,8,0:0:0:0:
456,100,37147,1,8,0:0:0:0:
214,195,37243,2,0,L|90:178,1,119.999996337891,2|2,0:0|0:0,0:0:0:0:
262,139,37534,2,0,L|327:136,1,59.9999981689454,2|0,0:0|0:0,0:0:0:0:
220,93,37727,2,0,L|291:88,1,59.9999981689454,2|0,0:0|0:0,0:0:0:0:
71,228,37921,6,0,P|63:173|213:71,1,239.999992675781,2|0,0:0|0:0,0:0:0:0:
351,178,38501,2,0,L|357:259,1,59.9999981689454
169,207,38695,2,0,L|80:207,3,75.0000028610231,8|0|0|0,0:0|0:0|0:0|0:0,0:0:0:0:
169,207,39082,2,0,L|267:207,1,75.0000028610231
73,166,39276,2,0,L|34:165,1,29.9999990844727
41,148,39372,2,0,L|74:149,1,29.9999990844727
252,117,39469,6,0,L|157:117,3,75.0000028610231,2|0|0|0,0:0|0:0|0:0|0:0,0:0:0:0:
252,117,39856,2,0,L|337:117,1,75.0000028610231
134,83,40050,2,0,L|79:83,1,37.5000014305115
134,83,40147,2,0,L|183:83,1,37.5000014305115
30,193,40243,6,0,L|29:132,1,59.9999981689454,8|0,0:0|0:0,0:0:0:0:
116,190,40437,2,0,L|118:262,1,59.9999981689454
366,312,40630,1,0,0:0:0:0:
393,300,40678,1,0,0:0:0:0:
414,279,40726,1,0,0:0:0:0:
426,252,40775,1,0,0:0:0:0:
428,222,40823,1,0,0:0:0:0:
418,194,40871,1,0,0:0:0:0:
399,171,40920,1,0,0:0:0:0:
182,157,41018,6,0,P|142:184|208:289,1,179.999994506836,2|0,0:0|0:0,0:0:0:0:
466,116,41405,2,0,L|327:106,1,119.999996337891,0|2,0:0|0:0,0:0:0:0:
57,184,41792,2,0,L|53:110,1,59.9999981689454,8|0,0:0|0:0,0:0:0:0:
215,117,41985,2,0,L|283:116,2,59.9999981689454
373,172,42276,2,0,L|512:172,1,119.999996337891
128,187,42566,5,2,0:0:0:0:
238,226,42759,2,0,L|159:225,2,59.9999981689454
74,206,43050,2,0,P|36:170|80:125,1,119.999996337891
335,137,43340,1,8,0:0:0:0:
54,108,43534,1,2,0:0:0:0:
245,117,43727,1,2,0:0:0:0:
54,108,43921,1,2,0:0:0:0:
441,228,44114,6,0,P|448:167|295:71,1,239.999992675781,2|0,0:0|0:0,0:0:0:0:
161,178,44695,2,0,L|79:194,1,59.9999981689454
277,246,44889,2,0,L|369:246,3,75.0000028610231,8|0|0|0,0:0|0:0|0:0|0:0,0:0:0:0:
426,246,45276,2,0,L|342:245,1,75.0000028610231
197,163,45469,2,0,L|158:162,1,29.9999990844727
165,145,45566,2,0,L|198:146,1,29.9999990844727
387,101,45663,6,0,L|477:100,2,75.0000028610231,2|0|0,0:0|0:0|0:0,0:0:0:0:
311,81,45953,2,0,L|402:82,2,75.0000028610231
138,42,46243,2,0,L|83:42,1,37.5000014305115
138,42,46340,2,0,L|187:42,1,37.5000014305115
32,133,46437,6,0,L|27:212,1,59.9999981689454,8|0,0:0|0:0,0:0:0:0:
125,227,46630,2,0,L|192:237,1,59.9999981689454
345,254,46823,1,0,0:0:0:0:
318,242,46872,1,0,0:0:0:0:
288,230,46921,1,0,0:0:0:0:
203,166,47018,1,0,0:0:0:0:
234,166,47066,1,0,0:0:0:0:
264,167,47113,1,0,0:0:0:0:
36,291,47211,6,0,L|302:273,1,239.999992675781,2|0,0:0|0:0,0:0:0:0:
144,118,47792,1,2,0:0:0:0:
445,143,47985,2,0,L|190:121,1,239.999992675781,8|0,0:0|0:0,0:0:0:0:
79,110,48566,1,0,0:0:0:0:
338,112,48759,5,8,0:0:0:0:
482,186,48953,1,2,0:0:0:0:
174,200,49147,1,8,0:0:0:0:
30,274,49341,1,2,0:0:0:0:
403,154,49534,1,8,0:0:0:0:
403,154,49582,1,0,0:0:0:0:
403,154,49630,1,0,0:0:0:0:
320,123,49727,1,2,0:0:0:0:
320,123,49776,1,0,0:0:0:0:
320,123,49824,1,0,0:0:0:0:
480,110,49921,1,2,0:0:0:0:
480,110,49969,1,0,0:0:0:0:
480,110,50018,1,0,0:0:0:0:
397,54,50114,1,2,0:0:0:0:
397,54,50163,1,0,0:0:0:0:
397,54,50211,1,0,0:0:0:0:
193,98,50308,6,0,P|165:141|249:219,1,179.999994506836,2|0,0:0|0:0,0:0:0:0:
336,224,50695,2,0,L|69:221,1,250,2|0,0:2|0:0,0:0:0:0:
81,206,50937,1,0,0:0:0:0:
73,191,50985,1,0,0:0:0:0:
290,184,51082,2,0,L|298:113,1,59.9999981689454,8|0,0:0|0:0,0:0:0:0:
203,116,51276,1,0,0:0:0:0:
233,95,51324,1,0,0:0:0:0:
263,76,51372,1,0,0:0:0:0:
96,67,51469,2,0,L|359:68,1,250,2|0,0:2|0:0,0:0:0:0:
297,40,51711,1,0,0:0:0:0:
250,39,51759,1,0,0:0:0:0:
414,146,51856,6,0,L|416:213,1,59.9999981689454,2|0,0:0|0:0,0:0:0:0:
237,108,52050,1,0,0:0:0:0:
207,108,52098,1,0,0:0:0:0:
177,108,52146,1,0,0:0:0:0:
362,91,52243,2,0,L|108:89,1,250,2|0,0:2|0:0,0:0:0:0:
112,89,52485,1,0,0:0:0:0:
487,63,52630,1,8,0:0:0:0:
323,123,52824,2,0,L|317:159,1,29.9999990844727
453,181,53018,1,0,0:0:0:0:
462,209,53066,2,0,L|228:206,1,209.999993591309,2|0,0:2|0:0,0:0:0:0:
246,178,53259,1,0,0:0:0:0:
24,258,53405,6,0,L|215:259,1,179.999994506836,2|0,0:0|0:0,0:0:0:0:
295,237,53792,2,0,L|38:233,1,250,2|0,0:2|0:0,0:0:0:0:
99,180,54082,1,0,0:0:0:0:
327,177,54179,2,0,L|334:115,1,59.9999981689454,8|0,0:0|0:0,0:0:0:0:
243,117,54372,1,0,0:0:0:0:
240,87,54420,1,0,0:0:0:0:
237,57,54468,1,0,0:0:0:0:
436,61,54566,2,0,L|171:61,1,250,2|0,0:2|0:0,0:0:0:0:
238,15,54808,1,0,0:0:0:0:
289,17,54856,1,0,0:0:0:0:
96,156,54953,6,0,L|29:158,1,59.9999981689454,2|0,0:0|0:0,0:0:0:0:
265,145,55147,2,0,L|347:140,1,59.9999981689454
257,143,55340,2,0,L|184:151,1,59.9999981689454,2|0,0:2|0:0,0:0:0:0:
188,90,55534,2,0,L|262:87,1,59.9999981689454
432,254,55727,2,0,L|353:257,1,59.9999981689454,8|0,0:0|0:0,0:0:0:0:
118,290,55921,1,2,0:2:0:0:
310,274,56114,1,2,0:2:0:0:
118,290,56308,1,2,0:2:0:0:
460,281,56501,6,0,P|496:246|422:149,1,179.999994506836,2|0,0:0|0:0,0:0:0:0:
356,147,56889,2,0,L|106:147,1,250,2|0,0:2|0:0,0:0:0:0:
145,99,57130,1,0,0:0:0:0:
175,99,57178,1,0,0:0:0:0:
334,181,57276,2,0,L|324:258,1,59.9999981689454,8|0,0:0|0:0,0:0:0:0:
237,256,57469,1,0,0:0:0:0:
240,285,57517,1,0,0:0:0:0:
244,315,57565,1,0,0:0:0:0:
440,321,57663,2,0,L|167:319,1,250,2|0,0:2|0:0,0:0:0:0:
147,319,57905,1,0,0:0:0:0:
103,319,57953,1,0,0:0:0:0:
327,298,58050,6,0,L|408:281,1,69.9999978637696,2|0,0:0|0:0,0:0:0:0:
323,277,58243,1,0,0:0:0:0:
357,269,58291,1,0,0:0:0:0:
391,262,58339,1,0,0:0:0:0:
196,158,58437,2,0,L|455:160,1,250,2|0,0:2|0:0,0:0:0:0:
441,115,58679,1,0,0:0:0:0:
111,207,58824,1,8,0:0:0:0:
275,188,59018,2,0,L|268:150,1,29.9999990844727
151,135,59211,1,0,0:0:0:0:
160,103,59259,2,0,L|379:103,1,209.999993591309,2|0,0:2|0:0,0:0:0:0:
378,73,59453,1,0,0:0:0:0:
114,114,59598,6,0,P|76:186|123:263,1,179.999994506836,2|0,0:0|0:0,0:0:0:0:
215,268,59985,2,0,L|464:271,1,250,2|0,0:2|0:0,0:0:0:0:
409,187,60276,1,0,0:0:0:0:
210,223,60372,2,0,L|197:288,1,59.9999981689454,8|0,0:0|0:0,0:0:0:0:
106,348,60566,1,0,0:0:0:0:
136,347,60614,1,0,0:0:0:0:
166,346,60662,1,0,0:0:0:0:
369,124,60759,2,0,L|107:126,1,250,2|0,0:2|0:0,0:0:0:0:
85,127,61001,1,0,0:0:0:0:
120,126,61050,1,0,0:0:0:0:
354,129,61147,6,0,L|441:135,2,59.9999981689454,2|0|0,0:0|0:0|0:0,0:0:0:0:
192,128,61437,1,2,0:0:0:0:
248,128,61534,1,2,0:2:0:0:
304,128,61630,1,0,0:0:0:0:
112,96,61727,2,0,L|33:97,1,59.9999981689454,2|0,0:0|0:0,0:0:0:0:
278,206,61921,1,8,0:0:0:0:
24,221,62114,1,8,0:2:0:0:
277,230,62308,2,0,P|312:194|255:96,1,179.999994506836,8|0,0:2|0:0,0:0:0:0:
68,97,62695,6,0,L|251:98,1,179.999994506836,8|0,0:0|0:0,0:0:0:0:
467,96,63082,2,0,L|333:96,1,119.999996337891,8|0,0:0|0:0,0:0:0:0:
82,96,63469,2,0,P|37:136|33:201,1,119.999996337891,8|0,0:0|0:0,0:0:0:0:
68,238,63759,1,0,0:0:0:0:
257,244,63856,2,0,L|115:238,1,119.999996337891,8|0,0:0|0:0,0:0:0:0:
461,214,64243,6,0,P|484:140|391:73,1,179.999994506836,8|0,0:0|0:0,0:0:0:0:
237,76,64630,2,0,L|97:79,1,119.999996337891,8|0,0:0|0:0,0:0:0:0:
444,138,65018,2,0,L|459:276,1,119.999996337891,8|0,0:0|0:0,0:0:0:0:
400,280,65308,1,0,0:0:0:0:
206,284,65405,2,0,L|78:284,1,119.999996337891,8|0,0:0|0:0,0:0:0:0:
345,214,65792,6,0,L|146:206,1,179.999994506836,8|0,0:0|0:0,0:0:0:0:
425,194,66179,2,0,P|468:170|450:107,1,119.999996337891,8|0,0:0|0:0,0:0:0:0:
145,116,66566,2,0,L|273:103,1,119.999996337891,8|0,0:0|0:0,0:0:0:0:
324,98,66856,1,0,0:0:0:0:
65,96,66953,2,0,P|31:151|46:221,1,119.999996337891,8|0,0:0|0:0,0:0:0:0:
343,228,67340,5,8,0:0:0:0:
187,177,67534,2,0,L|114:176,1,59.9999981689454
306,101,67727,2,0,L|437:103,1,119.999996337891,8|0,0:0|0:0,0:0:0:0:
56,140,68114,1,8,0:0:0:0:
213,159,68308,2,0,L|144:150,1,59.9999981689454
353,138,68501,2,0,L|484:138,1,119.999996337891,8|0,0:0|0:0,0:0:0:0:
197,245,68889,6,8,P|125:223|113:181,1,119.999996337891
125,140,69180,1,8,0:0:0:0:
331,176,69276,2,8,P|403:154|415:112,1,119.999996337891
403,71,69567,1,8,0:0:0:0:
210,102,69663,2,8,L|330:102,1,119.999996337891
268,34,69953,1,8,0:0:0:0:
455,91,70051,2,8,L|460:217,1,119.999996337891
388,225,70341,1,8,0:0:0:0:
189,231,70438,6,8,L|68:225,1,119.999996337891
39,221,70728,1,8,0:0:0:0:
231,177,70825,2,8,L|352:171,1,119.999996337891
381,167,71115,1,8,0:0:0:0:
122,152,71212,2,8,L|144:29,1,119.999996337891
204,30,71502,1,8,0:0:0:0:
372,52,71599,2,8,L|496:72,1,119.999996337891
436,118,71889,1,8,0:0:0:0:
232,163,71986,6,8,L|202:215,1,59.9999981689454
355,201,72180,2,8,L|382:262,1,59.9999981689454
218,137,72373,2,8,L|169:188,1,59.9999981689454
377,173,72567,2,8,L|430:229,1,59.9999981689454
216,105,72760,6,8,L|133:106,1,59.9999981689454
392,144,72954,2,8,L|471:144,1,59.9999981689454
232,165,73147,1,8,0:0:0:0:
205,151,73195,1,8,0:0:0:0:
188,127,73243,1,8,0:0:0:0:
183,97,73292,1,8,0:0:0:0:
192,69,73340,1,8,0:0:0:0:
213,48,73388,1,8,0:0:0:0:
241,38,73437,1,8,0:0:0:0:
470,42,73534,5,2,0:0:0:0:
470,42,73921,2,0,L|479:62,2,14.9999995422363
310,95,74115,5,2,0:0:0:0:
346,94,74163,1,2,0:0:0:0:
383,96,74212,1,2,0:0:0:0:
419,97,74260,1,2,0:0:0:0:
456,100,74309,1,2,0:0:0:0:
214,195,74405,2,0,L|90:178,1,119.999996337891,2|2,0:0|0:0,0:0:0:0:
262,139,74695,2,0,L|327:136,1,59.9999981689454,2|0,0:0|0:0,0:0:0:0:
220,93,74889,2,0,L|291:88,1,59.9999981689454,2|0,0:0|0:0,0:0:0:0:
34,61,75082,6,0,L|220:65,1,179.999994506836,2|0,0:0|0:0,0:0:0:0:
482,215,75469,2,0,L|191:213,1,250,2|0,0:2|0:0,0:0:0:0:
294,214,75759,1,0,0:0:0:0:
142,216,75856,2,0,L|136:154,1,59.9999981689454,8|0,0:0|0:0,0:0:0:0:
213,147,76050,2,0,L|219:83,1,59.9999981689454
67,184,76243,2,0,L|53:114,1,59.9999981689454,2|0,0:0|0:0,0:0:0:0:
141,107,76437,2,0,L|208:107,1,59.9999981689454
386,135,76630,6,0,L|378:72,1,59.9999981689454,2|0,0:0|0:0,0:0:0:0:
293,43,76824,2,0,L|375:41,1,59.9999981689454
133,153,77018,2,0,L|131:221,1,59.9999981689454,2|0,0:0|0:0,0:0:0:0:
216,223,77211,2,0,L|221:293,1,59.9999981689454
39,295,77405,2,0,L|29:333,1,29.9999990844727,8|0,0:0|0:0,0:0:0:0:
335,310,77598,2,0,L|347:267,1,29.9999990844727
123,234,77792,2,0,L|118:192,1,29.9999990844727
379,200,77985,2,0,L|386:164,1,29.9999990844727,8|0,0:2|0:0,0:0:0:0:
156,169,78179,6,0,P|131:88|236:54,1,179.999994506836,2|0,0:0|0:0,0:0:0:0:
381,106,78566,2,0,L|103:106,1,250,2|0,0:2|0:0,0:0:0:0:
204,57,78856,1,0,0:0:0:0:
471,115,78953,2,0,L|478:184,1,59.9999981689454,8|0,0:0|0:0,0:0:0:0:
325,219,79147,2,0,L|329:289,1,59.9999981689454
177,273,79340,2,0,L|181:343,1,59.9999981689454,2|0,0:0|0:0,0:0:0:0:
28,307,79534,2,0,L|34:242,1,59.9999981689454
185,251,79727,6,0,L|188:183,1,59.9999981689454,2|0,0:0|0:0,0:0:0:0:
340,190,79921,2,0,L|339:131,1,59.9999981689454
490,112,80114,2,0,L|480:49,1,59.9999981689454,2|0,0:0|0:0,0:0:0:0:
325,88,80308,2,0,L|322:161,1,59.9999981689454
486,118,80501,1,8,0:0:0:0:
296,164,80695,1,2,0:2:0:0:
477,120,80889,2,0,L|469:77,1,39.9999987792969,2|2,0:0|0:0,0:0:0:0:
446,69,81018,1,2,0:0:0:0:
249,71,81082,2,0,L|177:67,1,59.9999981689454,2|2,0:0|0:0,0:0:0:0:
391,67,81276,6,0,P|451:124|395:204,1,179.999994506836,2|0,0:0|0:0,0:0:0:0:
234,210,81663,2,0,L|516:209,1,250,2|0,0:2|0:0,0:0:0:0:
429,149,81953,1,0,0:0:0:0:
170,179,82050,2,0,L|165:263,1,59.9999981689454,8|0,0:0|0:0,0:0:0:0:
257,257,82243,2,0,L|183:258,1,59.9999981689454
357,218,82437,2,0,L|364:144,1,59.9999981689454,2|0,0:0|0:0,0:0:0:0:
272,145,82630,2,0,L|191:139,1,59.9999981689454
442,137,82824,6,0,L|455:208,1,59.9999981689454,2|0,0:0|0:0,0:0:0:0:
361,200,83018,2,0,L|353:276,1,59.9999981689454
146,211,83211,2,0,L|152:292,1,59.9999981689454,2|0,0:0|0:0,0:0:0:0:
242,332,83405,2,0,L|145:330,1,59.9999981689454
396,292,83598,1,8,0:0:0:0:
265,238,83792,1,0,0:0:0:0:
396,292,83985,1,0,0:0:0:0:
265,238,84179,2,0,L|255:170,1,59.9999981689454
450,179,84372,6,0,L|514:177,2,59.9999981689454,2|0|0,0:0|0:0|0:0,0:0:0:0:
162,229,84759,2,0,L|143:96,1,119.999996337891
469,130,85147,2,0,L|480:63,1,59.9999981689454,8|0,0:0|0:0,0:0:0:0:
279,66,85340,1,2,0:0:0:0:
197,67,85437,1,0,0:0:0:0:
279,66,85534,1,2,0:0:0:0:
29,163,85727,6,0,L|293:143,1,239.999992675781
139,134,86308,2,0,L|70:132,1,59.9999981689454,2|0,0:0|0:0,0:0:0:0:
79,132,86501,2,0,L|147:132,1,59.9999981689454
384,160,86695,6,0,L|394:102,2,29.9999990844727,8|0|0,0:2|0:0|0:0,0:0:0:0:
282,134,86889,2,0,L|280:96,2,29.9999990844727,8|0|0,0:2|0:0|0:0,0:0:0:0:
401,100,87082,2,0,L|406:58,2,29.9999990844727,8|0|0,0:2|0:0|0:0,0:0:0:0:
246,70,87276,2,0,L|247:22,2,29.9999990844727,8|0|0,0:2|0:0|0:0,0:0:0:0:
484,53,87469,6,0,L|269:54,1,179.999994506836,2|0,0:0|0:0,0:0:0:0:
146,146,87856,2,0,L|413:148,1,250,2|0,0:2|0:0,0:0:0:0:
334,149,88146,1,0,0:0:0:0:
152,275,88243,2,0,L|76:274,1,59.9999981689454,2|0,0:0|0:0,0:0:0:0:
184,237,88437,2,0,L|251:237,1,59.9999981689454
55,190,88630,2,0,L|49:128,1,59.9999981689454,2|0,0:0|0:0,0:0:0:0:
140,124,88824,2,0,L|146:60,1,59.9999981689454
381,170,89017,6,0,L|395:249,1,59.9999981689454,2|0,0:0|0:0,0:0:0:0:
302,241,89211,2,0,L|293:312,1,59.9999981689454
482,309,89405,2,0,L|462:235,1,59.9999981689454,2|0,0:0|0:0,0:0:0:0:
375,184,89598,2,0,L|455:185,1,59.9999981689454
142,274,89792,2,0,L|132:312,1,29.9999990844727,8|0,0:0|0:0,0:0:0:0:
408,316,89985,2,0,L|420:273,1,29.9999990844727
151,246,90179,2,0,L|146:204,1,29.9999990844727
429,215,90372,2,0,L|436:179,1,29.9999990844727,8|0,0:2|0:0,0:0:0:0:
84,173,90566,6,0,L|268:143,1,179.999994506836,2|0,0:0|0:0,0:0:0:0:
22,60,90953,2,0,L|287:56,1,250,2|0,0:2|0:0,0:0:0:0:
204,57,91243,1,0,0:0:0:0:
355,51,91340,2,0,L|421:50,1,59.9999981689454,2|0,0:0|0:0,0:0:0:0:
262,166,91534,2,0,L|266:236,1,59.9999981689454
114,236,91727,2,0,L|103:163,1,59.9999981689454,2|0,0:0|0:0,0:0:0:0:
258,315,91921,2,0,L|245:247,1,59.9999981689454
96,242,92114,6,0,L|19:236,1,59.9999981689454,2|0,0:0|0:0,0:0:0:0:
192,187,92308,2,0,L|190:127,1,59.9999981689454
342,130,92501,2,0,L|360:213,1,59.9999981689454,2|0,0:0|0:0,0:0:0:0:
198,221,92695,2,0,L|264:231,1,59.9999981689454
486,118,92888,1,8,0:0:0:0:
296,164,93082,1,2,0:2:0:0:
477,120,93276,2,0,L|499:73,2,39.9999987792969,2|2|2,0:0|0:0|0:0,0:0:0:0:
325,120,93469,2,0,L|253:116,1,59.9999981689454,2|2,0:0|0:0,0:0:0:0:
455,224,93663,6,0,L|229:222,1,179.999994506836,2|0,0:0|0:0,0:0:0:0:
38,150,94050,2,0,L|306:150,1,250,2|0,0:2|0:0,0:0:0:0:
217,148,94340,1,0,0:0:0:0:
456,155,94437,2,0,L|461:239,1,59.9999981689454,8|0,0:0|0:0,0:0:0:0:
369,237,94630,2,0,L|272:240,1,59.9999981689454
155,217,94824,2,0,L|148:143,1,59.9999981689454,2|0,0:0|0:0,0:0:0:0:
240,154,95017,2,0,L|321:148,1,59.9999981689454
147,92,95211,6,0,L|71:90,1,59.9999981689454,2|0,0:0|0:0,0:0:0:0:
179,170,95405,2,0,L|187:246,1,59.9999981689454
337,294,95598,2,0,L|424:291,1,59.9999981689454,2|0,0:0|0:0,0:0:0:0:
337,294,95792,2,0,L|278:295,1,59.9999981689454
478,302,95985,6,0,P|483:243|366:110,1,239.999992675781,8|2,0:0|0:2,0:0:0:0:
320,108,96469,1,2,0:2:0:0:
398,78,96566,1,2,0:2:0:0:
324,66,96663,1,0,0:2:0:0:
128,283,96759,6,0,P|96:208|121:163,1,119.999996337891,2|0,0:0|0:0,0:0:0:0:
358,175,97147,2,0,L|238:173,1,119.999996337891
299,114,97437,1,0,0:0:0:0:
121,116,97534,2,0,L|56:108,2,59.9999981689454,2|0|0,0:0|0:0|0:0,0:0:0:0:
323,234,97824,2,0,L|245:230,1,59.9999981689454,2|0,0:0|0:0,0:0:0:0:
204,228,98018,1,0,0:0:0:0:
354,170,98114,2,0,L|427:173,1,59.9999981689454,8|0,0:0|0:0,0:0:0:0:
218,147,98308,6,0,L|226:83,1,59.9999981689454,2|0,0:0|0:0,0:0:0:0:
297,78,98501,1,0,0:0:0:0:
97,164,98598,2,0,L|91:228,1,59.9999981689454,2|0,0:0|0:0,0:0:0:0:
164,243,98792,1,0,0:0:0:0:
374,227,98889,2,0,L|314:224,1,59.9999981689454,8|0,0:0|0:0,0:0:0:0:
160,181,99082,2,0,L|230:180,1,59.9999981689454,2|0,0:0|0:0,0:0:0:0:
279,180,99276,1,0,0:0:0:0:
454,183,99372,2,0,L|447:110,1,59.9999981689454,2|0,0:0|0:0,0:0:0:0:
373,106,99566,1,0,0:0:0:0:
203,113,99663,2,0,L|141:120,1,59.9999981689454,8|0,0:0|0:0,0:0:0:0:
345,249,99856,6,0,P|428:209|324:81,1,300.000011444092,2|0,0:0|0:0,0:0:0:0:
213,84,100437,1,0,0:0:0:0:
481,209,100630,1,8,0:0:0:0:
332,218,100824,2,0,P|277:197|345:28,1,300.000011444092
73,251,101405,6,0,B|287:197|287:197|55:254|55:254,1,450.000017166138,2|0,0:0|0:0,0:0:0:0:
361,348,102179,2,0,P|402:322|391:223,1,150.000005722046,8|0,0:0|0:0,0:0:0:0:
262,244,102566,2,0,L|249:146,1,75.0000028610231
350,170,102759,2,0,L|363:81,1,75.0000028610231
175,92,102953,6,0,L|487:49,1,300.000011444092,2|0,0:0|0:0,0:0:0:0:
182,190,103534,1,2,0:0:0:0:
462,200,103727,1,8,0:0:0:0:
331,198,103921,2,0,P|278:174|383:25,1,300.000011444092
40,136,104501,5,2,0:0:0:0:
184,137,104695,1,0,0:0:0:0:
40,136,104889,2,0,L|225:132,1,150.000005722046
465,141,105276,1,8,0:0:0:0:
321,140,105469,2,0,P|286:190|429:339,1,300.000011444092
113,340,106050,6,0,P|107:278|281:147,1,300.000011444092,2|0,0:0|0:0,0:0:0:0:
394,178,106630,1,0,0:0:0:0:
129,225,106824,1,8,0:0:0:0:
281,226,107018,2,0,P|373:221|469:42,1,300.000011444092
127,71,107598,6,0,L|113:178,1,100,2|0,0:0|0:0,0:0:0:0:
246,226,107985,2,0,L|137:238,1,100
429,214,108372,2,0,L|450:112,1,100,8|0,0:0|0:0,0:0:0:0:
314,112,108759,2,0,L|415:102,1,100
147,222,109147,5,2,0:0:0:0:
288,204,109340,2,0,L|314:149,2,50
34,189,109727,1,2,0:0:0:0:
308,240,109921,1,8,0:0:0:0:
214,212,110114,1,0,0:0:0:0:
228,153,110211,1,0,0:0:0:0:
262,121,110308,1,0,0:0:0:0:
318,121,110405,1,0,0:0:0:0:
156,98,110501,2,0,L|93:91,1,50,2|0,0:0|0:0,0:0:0:0:
335,39,110695,6,8,L|339:97,1,50,10|8,0:0|0:0,0:0:0:0:
269,93,110889,2,8,L|253:144,1,50
344,172,111082,2,8,L|359:229,1,50
246,217,111276,2,8,L|227:269,1,50
393,280,111469,2,8,L|452:309,1,50
204,291,111663,2,8,L|145:317,1,50
412,338,111856,2,8,L|493:338,1,59.9999981689454
190,360,112050,2,8,L|108:362,1,59.9999981689454
434,366,112243,5,6,0:0:0:0:
256,192,112437,12,0,124243,0:0:0:0:
220,271,124630,6,0,L|436:255,1,200
100,255,125405,2,0,L|88:138,1,100
286,93,125985,2,0,P|449:143|242:365,1,600
56,242,127727,6,0,L|273:228,1,200
66,143,128501,2,0,P|51:100|85:44,1,100
362,77,129082,2,0,P|418:99|391:222,1,200
245,281,129663,2,0,L|455:296,1,200
272,356,130243,5,0,0:0:0:0:
256,192,130824,12,0,135276,0:0:0:0:
371,306,135469,5,8,0:0:0:0:
424,283,135565,1,0,0:0:0:0:
444,229,135662,1,8,0:0:0:0:
415,178,135759,1,0,0:0:0:0:
358,165,135856,1,8,0:0:0:0:
161,177,136050,1,2,0:0:0:0:
161,177,136098,1,2,0:0:0:0:
161,177,136147,1,2,0:0:0:0:
242,128,136243,2,0,P|276:95|206:16,1,179.999994506836,8|0,0:0|0:0,0:0:0:0:
430,68,136630,2,0,L|434:132,1,59.9999981689454,8|8,0:0|0:0,0:0:0:0:
336,147,136824,2,0,L|326:230,1,59.9999981689454,8|8,0:0|0:0,0:0:0:0:
492,239,137018,5,6,0:0:0:0:
372,192,137211,1,0,0:0:0:0:
378,159,137308,1,0,0:0:0:0:
384,129,137405,1,8,0:0:0:0:
264,117,137598,2,0,L|188:113,1,59.9999981689454
277,157,137792,2,0,L|271:221,1,59.9999981689454
169,222,137985,2,0,L|48:222,1,119.999996337891,0|8,0:0|0:0,0:0:0:0:
169,147,138372,2,0,L|238:144,1,59.9999981689454
144,206,138566,6,0,L|130:340,1,119.999996337891
311,323,138953,1,8,0:0:0:0:
201,284,139147,1,0,0:0:0:0:
211,241,139243,1,0,0:0:0:0:
221,201,139340,1,0,0:0:0:0:
479,198,139534,1,8,0:0:0:0:
221,201,139727,1,8,0:0:0:0:
221,201,140114,6,0,L|213:69,1,119.999996337891
399,75,140501,2,0,L|416:207,1,119.999996337891,8|0,0:0|0:0,0:0:0:0:
364,212,140792,1,0,0:0:0:0:
262,190,140889,1,0,0:0:0:0:
382,142,141082,2,0,L|397:289,1,119.999996337891,0|8,0:0|0:0,0:0:0:0:
214,277,141469,5,0,0:0:0:0:
260,261,141566,1,0,0:0:0:0:
306,243,141663,1,0,0:0:0:0:
126,175,141856,1,0,0:0:0:0:
306,243,142050,1,8,0:0:0:0:
187,197,142243,2,0,L|107:197,1,59.9999981689454
227,156,142437,2,0,L|236:91,1,59.9999981689454
131,74,142630,1,0,0:0:0:0:
408,74,142824,1,8,0:0:0:0:
408,74,143211,5,0,0:0:0:0:
486,140,143404,1,0,0:0:0:0:
453,146,143501,1,0,0:0:0:0:
423,152,143598,1,8,0:0:0:0:
303,160,143792,2,0,L|227:156,1,59.9999981689454
316,200,143985,2,0,L|310:264,1,59.9999981689454
208,265,144179,2,0,L|195:138,1,119.999996337891,0|8,0:0|0:0,0:0:0:0:
316,132,144566,6,0,L|385:129,1,59.9999981689454
291,191,144759,2,0,L|277:325,1,119.999996337891
408,296,145146,1,8,0:0:0:0:
286,235,145340,1,0,0:0:0:0:
329,225,145436,1,0,0:0:0:0:
369,215,145533,1,0,0:0:0:0:
111,212,145727,1,8,0:0:0:0:
369,215,145920,1,8,0:0:0:0:
369,215,146307,6,0,L|243:212,1,119.999996337891
431,93,146695,2,0,L|256:84,1,119.999996337891,8|0,0:0|0:0,0:0:0:0:
260,81,146985,1,0,0:0:0:0:
361,54,147082,2,0,L|363:196,1,119.999996337891
298,181,147372,1,0,0:0:0:0:
238,182,147469,1,8,0:0:0:0:
421,252,147663,6,0,L|284:244,1,119.999996337891
491,244,148050,2,0,L|479:113,1,119.999996337891,0|8,0:0|0:0,0:0:0:0:
303,129,148437,2,0,L|220:127,1,59.9999981689454
243,127,148630,2,0,L|303:129,1,59.9999981689454
413,178,148823,1,0,0:0:0:0:
94,200,149017,1,8,0:0:0:0:
403,316,149405,6,0,P|428:252|388:207,1,129.999994049073,2|0,0:0|0:0,0:0:0:0:
309,207,149695,1,0,0:0:0:0:
113,213,149792,2,0,P|66:160|105:93,1,129.999994049073,2|0,0:0|0:0,0:0:0:0:
161,103,150082,1,0,0:0:0:0:
328,150,150179,2,0,L|351:241,1,64.9999970245363,2|0,0:0|0:0,0:0:0:0:
176,230,150372,2,0,L|178:314,1,64.9999970245363
268,317,150566,1,2,0:0:0:0:
112,319,150759,2,0,L|43:310,1,64.9999970245363
230,267,150953,6,0,L|374:260,1,129.999994049073,2|0,0:0|0:0,0:0:0:0:
317,225,151243,1,0,0:0:0:0:
88,253,151340,2,0,P|65:195|110:152,1,129.999994049073,2|0,0:0|0:0,0:0:0:0:
181,155,151630,1,0,0:0:0:0:
392,159,151727,2,0,L|410:241,1,64.9999970245363,2|0,0:0|0:0,0:0:0:0:
177,247,151921,2,0,L|93:251,1,64.9999970245363,8|0,0:0|0:0,0:0:0:0:
366,278,152114,2,0,L|443:286,1,64.9999970245363,10|0,0:0|0:0,0:0:0:0:
435,318,152308,2,0,L|362:308,1,64.9999970245363
126,295,152501,6,0,L|270:281,1,129.999994049073,2|0,0:0|0:0,0:0:0:0:
192,232,152792,1,0,0:0:0:0:
429,213,152888,2,0,P|452:160|397:100,1,129.999994049073,2|0,0:0|0:0,0:0:0:0:
333,101,153178,1,0,0:0:0:0:
167,150,153275,2,0,L|144:241,1,64.9999970245363,2|0,0:0|0:0,0:0:0:0:
314,247,153469,2,0,L|329:329,1,64.9999970245363
236,322,153663,1,2,0:0:0:0:
402,318,153856,2,0,L|408:240,1,64.9999970245363
226,259,154050,5,2,0:0:0:0:
393,241,154243,2,0,L|391:153,1,64.9999970245363
200,170,154437,2,0,L|61:158,1,129.999994049073,2|0,0:0|0:0,0:0:0:0:
128,104,154727,1,0,0:0:0:0:
319,143,154824,2,0,L|337:215,1,64.9999970245363,2|0,0:0|0:0,0:0:0:0:
168,243,155018,2,0,L|100:245,1,64.9999970245363
327,316,155211,2,0,P|374:261|296:173,1,194.999991073609,8|0,0:0|0:0,0:0:0:0:
109,316,155598,6,0,P|84:252|124:207,1,129.999994049073,2|0,0:0|0:0,0:0:0:0:
203,207,155888,1,0,0:0:0:0:
399,213,155985,2,0,P|446:160|407:93,1,129.999994049073,2|0,0:0|0:0,0:0:0:0:
351,103,156275,1,0,0:0:0:0:
184,150,156372,2,0,L|161:241,1,64.9999970245363,2|0,0:0|0:0,0:0:0:0:
336,230,156566,2,0,L|334:314,1,64.9999970245363
244,317,156759,1,2,0:0:0:0:
400,319,156953,2,0,L|469:310,1,64.9999970245363
224,266,157147,5,2,0:0:0:0:
360,244,157340,2,0,L|337:96,1,129.999994049073,0|2,0:0|0:0,0:0:0:0:
182,125,157727,2,0,L|193:-22,1,129.999994049073,0|2,0:0|0:0,0:0:0:0:
313,121,158114,2,0,L|306:268,1,129.999994049073,0|2,0:0|0:0,0:0:0:0:
205,226,158501,2,0,L|216:369,1,129.999994049073,0|2,0:0|0:0,0:0:0:0:
256,192,158889,12,0,161598,0:0:0:0:
64,320,161792,5,6,0:0:0:0:
192,320,163340,5,6,0:0:0:0:
320,320,164889,5,6,0:0:0:0:
448,320,166437,5,6,0:0:0:0:
128,320,167985,5,8,0:0:0:0:
29,256,168179,2,8,L|29:170,1,64.9999970245363
203,163,168372,1,8,0:0:0:0:
353,129,168566,2,8,L|356:61,1,64.9999970245363
200,26,168759,1,8,0:0:0:0:
337,137,168953,2,8,L|317:226,1,64.9999970245363
157,205,169147,1,8,0:0:0:0:
313,259,169340,2,8,L|291:341,1,64.9999970245363
104,330,169534,6,8,P|60:277|101:215,1,129.999994049073
167,206,169824,1,8,0:0:0:0:
347,210,169921,2,8,P|390:145|329:87,1,129.999994049073
278,81,170211,1,8,0:0:0:0:
118,84,170308,2,8,P|48:112|27:177,1,129.999994049073
97,218,170598,1,8,0:0:0:0:
293,229,170695,2,8,P|364:259|376:310,1,129.999994049073
266,327,170985,1,8,0:0:0:0:
87,328,171082,6,8,L|80:255,1,64.9999970245363
233,268,171276,2,8,L|313:262,1,64.9999970245363
116,209,171469,2,8,L|107:132,1,64.9999970245363
293,212,171663,2,8,L|367:206,1,64.9999970245363
162,131,171856,6,8,L|166:57,1,64.9999970245363
348,138,172050,2,8,L|429:136,1,64.9999970245363
145,117,172243,1,8,0:0:0:0:
115,129,172291,1,8,0:0:0:0:
91,151,172339,1,8,0:0:0:0:
78,180,172388,1,8,0:0:0:0:
77,213,172436,1,8,0:0:0:0:
88,243,172484,1,8,0:0:0:0:
110,267,172533,1,8,0:0:0:0:
334,286,172630,1,2,0:0:0:0:
334,286,173018,5,0,0:0:0:0:
334,286,173211,1,2,0:0:0:0:
301,286,173259,1,2,0:0:0:0:
269,286,173307,1,2,0:0:0:0:
236,286,173356,1,2,0:0:0:0:
204,286,173404,1,2,0:0:0:0:
428,264,173501,2,0,P|451:225|421:151,1,129.999994049073,2|2,0:0|0:0,0:0:0:0:
250,139,173792,2,0,L|223:78,1,64.9999970245363,2|0,0:0|0:0,0:0:0:0:
332,76,173985,2,0,L|347:2,1,64.9999970245363,2|0,0:0|0:0,0:0:0:0:
129,89,174179,6,0,P|79:128|132:223,1,179.999994506836,2|0,0:0|0:0,0:0:0:0:
286,229,174566,2,0,L|299:153,1,59.9999981689454,2|0,0:0|0:0,0:0:0:0:
192,168,174759,2,0,L|128:165,1,59.9999981689454
298,133,174953,2,0,L|366:134,1,59.9999981689454,2|0,0:0|0:0,0:0:0:0:
256,90,175147,2,0,L|178:85,1,59.9999981689454
402,100,175340,2,0,L|421:176,1,59.9999981689454,2|0,0:0|0:0,0:0:0:0:
320,186,175534,2,0,L|252:186,1,59.9999981689454
68,181,175727,6,0,L|139:182,1,59.9999981689454,2|0,0:0|0:0,0:0:0:0:
209,147,175921,2,0,L|123:149,1,59.9999981689454
333,134,176114,2,0,L|343:214,1,59.9999981689454,2|0,0:0|0:0,0:0:0:0:
258,224,176308,2,0,L|324:226,1,59.9999981689454
136,214,176501,6,0,L|52:195,1,59.9999981689454,2|0,0:0|0:0,0:0:0:0:
254,164,176695,1,0,0:0:0:0:
74,143,176792,2,0,L|72:72,1,59.9999981689454,0|2,0:0|0:0,0:0:0:0:
246,75,176985,1,0,0:0:0:0:
428,83,177082,2,0,L|432:145,1,59.9999981689454
142,224,177276,6,0,P|91:152|155:93,1,179.999994506836,2|0,0:0|0:0,0:0:0:0:
301,96,177663,2,0,L|302:157,1,59.9999981689454,2|0,0:0|0:0,0:0:0:0:
145,182,177856,2,0,L|240:182,1,59.9999981689454
47,247,178050,2,0,L|47:311,1,59.9999981689454,2|0,0:0|0:0,0:0:0:0:
204,327,178243,2,0,L|134:323,1,59.9999981689454,2|0,0:2|0:0,0:0:0:0:
303,284,178437,2,0,L|304:213,1,59.9999981689454,2|0,0:0|0:0,0:0:0:0:
148,219,178630,2,0,L|145:151,1,59.9999981689454,2|0,0:2|0:0,0:0:0:0:
302,162,178824,6,0,L|234:161,1,59.9999981689454,2|0,0:0|0:0,0:0:0:0:
397,133,179017,2,0,L|398:71,1,59.9999981689454,2|0,0:2|0:0,0:0:0:0:
239,73,179211,2,0,L|300:72,1,59.9999981689454,2|0,0:0|0:0,0:0:0:0:
139,116,179405,2,0,L|132:183,1,59.9999981689454,2|0,0:2|0:0,0:0:0:0:
392,324,179598,1,2,0:0:0:0:
198,207,179792,1,2,0:2:0:0:
482,152,179985,1,2,0:0:0:0:
349,88,180179,1,2,0:2:0:0:
66,129,180372,6,0,L|266:132,1,179.999994506836,2|0,0:0|0:0,0:0:0:0:
37,251,180759,2,0,L|41:190,1,59.9999981689454,2|0,0:0|0:0,0:0:0:0:
133,187,180953,2,0,L|201:190,1,59.9999981689454
394,119,181147,2,0,L|326:120,1,59.9999981689454,2|0,0:0|0:0,0:0:0:0:
256,90,181340,2,0,L|334:85,1,59.9999981689454
110,100,181533,2,0,L|91:176,1,59.9999981689454,2|0,0:0|0:0,0:0:0:0:
192,186,181727,2,0,L|260:186,1,59.9999981689454
444,181,181921,6,0,L|448:115,1,59.9999981689454,2|0,0:0|0:0,0:0:0:0:
356,98,182114,2,0,L|442:100,1,59.9999981689454
179,134,182308,2,0,L|169:214,1,59.9999981689454,2|0,0:0|0:0,0:0:0:0:
254,224,182501,2,0,L|188:226,1,59.9999981689454
372,222,182695,6,0,L|382:157,1,59.9999981689454,2|0,0:0|0:0,0:0:0:0:
216,158,182889,1,0,0:0:0:0:
381,162,182985,2,0,L|456:163,1,59.9999981689454,0|2,0:0|0:0,0:0:0:0:
273,103,183179,1,0,0:0:0:0:
460,100,183276,2,0,L|468:178,1,59.9999981689454
142,262,183469,5,2,0:0:0:0:
91,235,183565,1,0,0:0:0:0:
86,178,183662,1,0,0:0:0:0:
132,143,183759,1,0,0:0:0:0:
354,148,183856,1,2,0:0:0:0:
294,146,183952,1,0,0:0:0:0:
234,144,184049,1,0,0:0:0:0:
174,143,184146,1,0,0:0:0:0:
378,103,184243,6,0,L|445:105,1,59.9999981689454,2|0,0:0|0:0,0:0:0:0:
214,103,184437,1,0,0:0:0:0:
162,128,184533,1,0,0:0:0:0:
156,185,184630,1,2,0:0:0:0:
202,221,184727,1,0,0:0:0:0:
399,236,184824,1,0,0:0:0:0:
459,216,184920,1,0,0:0:0:0:
488,164,185017,5,2,0:0:0:0:
467,109,185114,1,0,0:0:0:0:
410,84,185211,1,0,0:0:0:0:
349,82,185308,1,0,0:0:0:0:
289,103,185404,1,2,0:0:0:0:
261,157,185501,1,0,0:0:0:0:
284,211,185598,1,0,0:0:0:0:
348,235,185695,1,0,0:0:0:0:
64,250,185792,6,0,P|32:234|83:126,1,179.999994506836,2|0,0:0|0:0,0:0:0:0:
306,121,186179,2,0,L|365:126,1,59.9999981689454,2|0,0:0|0:0,0:0:0:0:
285,185,186372,2,2,L|355:192,1,59.9999981689454
98,266,186566,6,0,P|73:246|143:137,1,179.999994506836,2|0,0:0|0:0,0:0:0:0:
186,137,186953,2,0,L|270:142,1,59.9999981689454,2|0,0:0|0:0,0:0:0:0:
55,88,187147,2,0,L|40:154,1,59.9999981689454
108,185,187340,2,0,L|180:197,1,59.9999981689454,2|0,0:0|0:0,0:0:0:0:
369,199,187534,2,0,L|431:197,1,59.9999981689454
369,199,187727,2,0,L|306:195,1,59.9999981689454,2|0,0:0|0:0,0:0:0:0:
302,135,187921,2,0,L|381:141,1,59.9999981689454
146,164,188114,6,0,L|134:260,1,59.9999981689454,2|0,0:0|0:0,0:0:0:0:
241,279,188308,2,0,L|325:282,1,59.9999981689454
108,274,188501,2,0,L|39:273,1,59.9999981689454,2|0,0:0|0:0,0:0:0:0:
150,223,188695,2,0,L|213:224,1,59.9999981689454
37,191,188889,6,0,L|27:122,1,59.9999981689454,2|0,0:0|0:0,0:0:0:0:
215,130,189082,1,0,0:0:0:0:
391,137,189179,2,0,L|386:214,1,59.9999981689454,0|2,0:0|0:0,0:0:0:0:
226,225,189372,1,0,0:0:0:0:
385,233,189469,2,0,L|377:308,1,59.9999981689454
156,169,189663,6,0,L|340:139,1,179.999994506836,2|0,0:0|0:0,0:0:0:0:
156,169,190050,2,0,P|132:113|175:73,1,119.999996337891,2|0,0:0|0:0,0:0:0:0:
231,68,190340,1,0,0:0:0:0:
386,58,190437,2,0,L|452:57,1,59.9999981689454,2|0,0:0|0:0,0:0:0:0:
281,167,190631,2,0,L|282:237,1,59.9999981689454,2|0,0:2|0:0,0:0:0:0:
124,228,190824,2,0,L|192:228,1,59.9999981689454,2|0,0:0|0:0,0:0:0:0:
25,225,191018,2,0,L|20:154,1,59.9999981689454,2|0,0:2|0:0,0:0:0:0:
176,307,191211,6,0,L|99:301,1,59.9999981689454,2|0,0:0|0:0,0:0:0:0:
273,281,191405,2,0,L|271:221,1,59.9999981689454,2|0,0:2|0:0,0:0:0:0:
111,216,191598,2,0,L|107:139,1,59.9999981689454,2|0,0:0|0:0,0:0:0:0:
271,146,191792,2,0,L|197:150,1,59.9999981689454,2|0,0:2|0:0,0:0:0:0:
35,222,191985,2,0,L|41:292,1,59.9999981689454,2|0,0:0|0:0,0:0:0:0:
296,164,192179,1,2,0:2:0:0:
116,128,192372,1,2,0:0:0:0:
419,180,192566,1,2,0:2:0:0:
99,262,192759,6,0,L|241:250,1,119.999996337891,2|0,0:0|0:0,0:0:0:0:
278,244,193050,1,0,0:0:0:0:
75,217,193147,2,0,L|63:150,1,59.9999981689454,2|0,0:0|0:0,0:0:0:0:
111,130,193340,2,0,L|181:121,1,59.9999981689454,2|0,0:0|0:0,0:0:0:0:
397,130,193534,2,0,L|457:135,1,59.9999981689454,2|0,0:0|0:0,0:0:0:0:
481,203,193727,2,0,L|410:196,1,59.9999981689454,2|0,0:0|0:0,0:0:0:0:
224,195,193921,2,0,L|147:186,1,59.9999981689454,2|0,0:0|0:0,0:0:0:0:
224,195,194114,2,0,L|310:205,1,59.9999981689454,2|0,0:0|0:0,0:0:0:0:
86,159,194308,6,0,L|20:150,1,59.9999981689454,2|0,0:0|0:0,0:0:0:0:
21,102,194501,2,0,L|83:113,1,59.9999981689454,2|0,0:0|0:0,0:0:0:0:
284,171,194695,2,0,L|286:244,1,59.9999981689454,2|0,0:0|0:0,0:0:0:0:
231,246,194889,2,0,L|160:247,1,59.9999981689454,2|0,0:0|0:0,0:0:0:0:
427,244,195082,2,0,L|429:317,1,59.9999981689454,2|0,0:0|0:0,0:0:0:0:
349,314,195276,1,2,0:0:0:0:
271,319,195372,1,0,0:0:0:0:
56,324,195469,2,0,L|56:259,1,59.9999981689454,2|0,0:0|0:0,0:0:0:0:
136,255,195663,1,2,0:0:0:0:
221,244,195759,1,0,0:0:0:0:
404,81,195856,6,0,L|471:82,1,59.9999981689454,2|2,0:0|0:0,0:0:0:0:
299,156,196050,2,0,L|371:155,1,59.9999981689454,2|2,0:0|0:0,0:0:0:0:
207,227,196243,2,0,L|270:228,1,59.9999981689454,2|2,0:0|0:0,0:0:0:0:
90,305,196437,2,0,L|153:302,1,59.9999981689454,2|2,0:0|0:0,0:0:0:0:
461,129,196630,6,0,L|391:123,1,59.9999981689454,2|2,0:0|0:0,0:0:0:0:
150,83,196824,2,0,L|216:83,1,59.9999981689454,2|2,0:0|0:0,0:0:0:0:
434,79,197018,2,0,L|446:39,3,29.9999990844727,2|2|2|0,0:0|0:0|0:0|0:0,0:0:0:0:
182,57,197211,2,0,L|167:12,3,29.9999990844727,2|2|2|0,0:0|0:0|0:0|0:0,0:0:0:0:
470,43,197405,1,2,0:0:0:0:
201,218,197792,6,0,L|189:84,1,119.999996337891
344,93,198179,2,0,L|358:119,2,29.9999990844727
171,93,198372,2,0,L|150:137,2,29.9999990844727
344,93,198566,1,0,0:0:0:0:
372,101,198614,1,0,0:0:0:0:
393,122,198662,1,0,0:0:0:0:
402,150,198711,1,0,0:0:0:0:
397,179,198759,1,0,0:0:0:0:
379,202,198807,1,0,0:0:0:0:
352,215,198856,1,0,0:0:0:0:
40,321,198953,6,0,L|219:304,1,179.999994506836,2|0,0:0|0:0,0:0:0:0:
462,277,199340,2,0,L|465:212,1,59.9999981689454,2|0,0:0|0:0,0:0:0:0:
350,206,199534,2,0,L|280:202,1,59.9999981689454
284,138,199727,2,0,L|364:140,1,59.9999981689454,2|0,0:0|0:0,0:0:0:0:
462,102,199921,2,0,L|389:97,1,59.9999981689454
173,94,200114,2,0,L|166:173,1,59.9999981689454,2|0,0:0|0:0,0:0:0:0:
280,186,200308,2,0,L|349:191,1,59.9999981689454
439,214,200501,6,0,L|440:290,1,59.9999981689454,2|0,0:0|0:0,0:0:0:0:
206,293,200695,2,0,L|138:285,1,59.9999981689454
340,248,200889,2,0,L|413:246,1,59.9999981689454,2|0,0:0|0:0,0:0:0:0:
398,194,201082,2,0,L|322:192,1,59.9999981689454
120,186,201276,6,0,L|112:105,1,59.9999981689454,2|0,0:0|0:0,0:0:0:0:
282,106,201469,1,0,0:0:0:0:
107,110,201566,2,0,L|88:189,1,59.9999981689454,0|2,0:0|0:0,0:0:0:0:
256,227,201759,1,0,0:0:0:0:
417,231,201856,2,0,L|434:161,1,59.9999981689454
113,323,202050,6,0,P|57:280|135:198,1,179.999994506836,2|0,0:0|0:0,0:0:0:0:
278,219,202437,2,0,L|199:215,1,59.9999981689454,2|0,0:0|0:0,0:0:0:0:
228,153,202631,2,0,L|287:156,1,59.9999981689454
388,232,202824,2,0,L|397:306,1,59.9999981689454,2|0,0:0|0:0,0:0:0:0:
301,314,203018,2,0,L|228:309,1,59.9999981689454
459,88,203211,2,0,L|452:167,1,59.9999981689454,2|0,0:0|0:0,0:0:0:0:
330,202,203405,2,0,L|399:207,1,59.9999981689454
385,261,203598,6,0,L|324:270,1,59.9999981689454,2|0,0:0|0:0,0:0:0:0:
142,282,203792,2,0,L|133:210,1,59.9999981689454
340,248,203986,2,0,L|343:178,1,59.9999981689454,2|0,0:0|0:0,0:0:0:0:
247,190,204179,2,0,L|245:266,1,59.9999981689454
422,192,204373,6,0,L|430:111,1,59.9999981689454,2|0,0:0|0:0,0:0:0:0:
230,106,204566,1,0,0:0:0:0:
405,110,204663,2,0,L|424:189,1,59.9999981689454,0|2,0:0|0:0,0:0:0:0:
256,227,204856,1,0,0:0:0:0:
95,231,204953,2,0,L|78:161,1,59.9999981689454
317,171,205147,6,0,L|138:154,1,179.999994506836,2|0,0:0|0:0,0:0:0:0:
347,293,205534,2,0,L|350:228,1,59.9999981689454,2|0,0:0|0:0,0:0:0:0:
258,230,205728,2,0,L|260:171,1,59.9999981689454
377,176,205921,2,0,L|297:178,1,59.9999981689454,2|0,0:0|0:0,0:0:0:0:
317,111,206115,2,0,L|377:116,1,59.9999981689454
173,94,206308,2,0,L|166:173,1,59.9999981689454,2|0,0:0|0:0,0:0:0:0:
260,170,206502,2,0,L|259:249,1,59.9999981689454
364,235,206695,6,0,L|365:311,1,59.9999981689454,2|0,0:0|0:0,0:0:0:0:
161,303,206889,2,0,L|93:295,1,59.9999981689454
275,289,207083,2,0,L|348:287,1,59.9999981689454,2|0,0:0|0:0,0:0:0:0:
275,289,207276,2,0,L|199:287,1,59.9999981689454
443,230,207470,6,0,L|435:149,1,59.9999981689454,2|0,0:0|0:0,0:0:0:0:
269,113,207663,1,0,0:0:0:0:
107,110,207760,2,0,L|88:189,1,59.9999981689454,0|2,0:0|0:0,0:0:0:0:
256,227,207953,1,0,0:0:0:0:
65,233,208050,2,0,L|82:163,1,59.9999981689454
368,275,208243,6,0,L|394:185,1,59.9999981689454,2|0,0:0|0:0,0:0:0:0:
294,182,208437,2,0,L|218:183,1,59.9999981689454
37,185,208630,2,0,L|20:100,1,59.9999981689454,2|0,0:0|0:0,0:0:0:0:
116,83,208824,2,0,L|202:84,1,59.9999981689454
392,135,209017,2,0,L|403:207,1,59.9999981689454,2|0,0:0|0:0,0:0:0:0:
241,256,209211,2,0,L|235:179,1,59.9999981689454
333,183,209405,2,0,L|335:103,1,59.9999981689454,2|0,0:0|0:0,0:0:0:0:
244,112,209598,2,0,L|163:113,1,59.9999981689454
430,251,209792,6,0,L|443:161,1,79.9999975585938,2|2,0:0|0:0,0:0:0:0:
353,163,210050,1,2,0:0:0:0:
146,175,210179,2,0,L|47:165,2,79.9999975585938,2|2|2,0:0|0:0|0:0,0:0:0:0:
365,204,210566,1,2,0:0:0:0:
365,204,210953,1,8,0:2:0:0:
416,176,211050,1,0,0:0:0:0:
420,133,211147,1,8,0:2:0:0:
372,96,211243,1,8,0:2:0:0:
200,94,211340,6,0,L|89:91,2,79.9999975585938,2|0|0,0:0|0:0|0:0,0:0:0:0:
423,166,211727,2,0,L|421:258,1,79.9999975585938,2|0,0:0|0:0,0:0:0:0:
332,264,211985,1,0,0:0:0:0:
190,266,212114,2,0,L|209:176,1,79.9999975585938,2|0,0:0|0:0,0:0:0:0:
309,180,212372,1,0,0:0:0:0:
463,177,212501,2,0,L|372:165,2,79.9999975585938,2|0|0,0:0|0:0|0:0,0:0:0:0:
168,247,212889,6,0,L|73:244,2,79.9999975585938,2|0|0,0:0|0:0|0:0,0:0:0:0:
401,185,213276,1,2,0:0:0:0:
320,185,213405,1,0,0:0:0:0:
239,187,213534,1,0,0:0:0:0:
481,147,213663,6,0,L|494:241,1,79.9999975585938,2|0,0:0|0:0,0:0:0:0:
226,147,213921,2,0,L|223:239,1,79.9999975585938,0|2,0:0|0:0,0:0:0:0:
482,248,214179,2,0,L|378:240,1,79.9999975585938
129,255,214437,6,0,L|95:162,1,79.9999975585938,2|0,0:0|0:0,0:0:0:0:
207,159,214695,1,0,0:0:0:0:
394,156,214824,2,0,L|481:152,2,79.9999975585938,2|0|0,0:0|0:0|0:0,0:0:0:0:
244,162,215211,2,0,L|239:262,1,79.9999975585938,2|0,0:0|0:0,0:0:0:0:
338,258,215469,1,0,0:0:0:0:
183,276,215598,2,0,L|85:268,2,79.9999975585938,2|0|0,0:0|0:0|0:0,0:0:0:0:
429,277,215985,6,0,L|447:173,1,79.9999975585938,2|0,0:0|0:0,0:0:0:0:
341,188,216243,1,0,0:0:0:0:
131,194,216372,2,0,L|36:187,2,79.9999975585938,2|0|0,0:0|0:0|0:0,0:0:0:0:
393,194,216759,5,8,0:0:0:0:
238,221,216953,2,0,L|247:354,1,119.999996337891,0|2,0:0|0:2,0:0:0:0:
413,351,217340,1,0,0:0:0:0:
101,353,217534,5,2,0:0:0:0:
70,303,217630,1,0,0:0:0:0:
84,246,217727,1,0,0:0:0:0:
264,234,217824,1,2,0:0:0:0:
323,230,217920,1,0,0:0:0:0:
383,226,218017,1,0,0:0:0:0:
170,172,218114,1,2,0:0:0:0:
142,120,218210,1,0,0:0:0:0:
159,64,218307,1,0,0:0:0:0:
338,74,218405,1,2,0:0:0:0:
278,67,218501,1,0,0:0:0:0:
218,61,218598,1,0,0:0:0:0:
403,44,218695,2,0,L|465:46,1,59.9999981689454,2|0,0:0|0:0,0:0:0:0:
463,45,218889,2,0,L|403:44,1,59.9999981689454
198,102,219082,5,2,0:0:0:0:
257,99,219178,1,0,0:0:0:0:
317,96,219275,1,0,0:0:0:0:
140,121,219372,1,2,0:0:0:0:
103,167,219468,1,0,0:0:0:0:
109,225,219565,1,0,0:0:0:0:
295,235,219663,1,2,0:0:0:0:
356,236,219759,1,0,0:0:0:0:
393,192,219856,5,0,0:0:0:0:
195,166,219953,2,0,L|115:166,2,59.9999981689454,2|0|0,0:0|0:0|0:0,0:0:0:0:
364,115,220243,2,0,L|429:108,1,59.9999981689454,2|0,0:0|0:0,0:0:0:0:
234,81,220437,2,0,L|162:81,1,59.9999981689454,2|0,0:0|0:0,0:0:0:0:
387,88,220630,5,2,0:0:0:0:
427,128,220726,1,0,0:0:0:0:
414,184,220823,1,0,0:0:0:0:
243,222,220921,1,2,0:0:0:0:
302,225,221017,1,0,0:0:0:0:
362,228,221114,1,0,0:0:0:0:
135,229,221211,2,0,L|75:188,1,59.9999981689454,2|0,0:0|0:0,0:0:0:0:
277,157,221405,1,2,0:0:0:0:
336,152,221501,1,0,0:0:0:0:
396,148,221598,1,0,0:0:0:0:
206,136,221695,1,2,0:0:0:0:
146,132,221791,1,0,0:0:0:0:
86,129,221888,1,0,0:0:0:0:
286,92,221985,2,0,L|353:88,1,59.9999981689454,2|0,0:0|0:0,0:0:0:0:
136,75,222179,6,0,L|67:77,2,59.9999981689454,2|0|0,0:0|0:0|0:0,0:0:0:0:
394,79,222469,2,0,L|458:75,2,59.9999981689454,2|0|0,0:0|0:0|0:0,0:0:0:0:
140,130,222759,2,0,L|135:210,1,59.9999981689454,2|0,0:0|0:0,0:0:0:0:
445,187,222953,1,2,0:2:0:0:
79,215,223147,1,2,0:2:0:0:
251,167,223340,1,2,0:2:0:0:
79,215,223534,1,2,0:2:0:0:
368,275,223727,6,0,P|388:232|394:185,1,75.0000028610231,2|0,0:0|0:0,0:0:0:0:
294,182,223921,2,0,L|206:183,1,75.0000028610231
37,185,224114,2,0,L|13:92,1,75.0000028610231,2|0,0:0|0:0,0:0:0:0:
116,83,224308,2,0,L|208:83,1,75.0000028610231
392,135,224501,2,0,L|404:213,1,75.0000028610231,2|0,0:0|0:0,0:0:0:0:
241,256,224695,2,0,L|235:179,1,75.0000028610231
333,183,224889,2,0,L|335:101,1,75.0000028610231,2|0,0:0|0:0,0:0:0:0:
127,180,225082,2,0,L|49:177,1,75.0000028610231
56,125,225276,6,0,L|136:121,1,75.0000028610231,2|0,0:0|0:0,0:0:0:0:
206,124,225469,2,0,L|116:120,1,75.0000028610231
311,132,225663,2,0,L|387:129,1,75.0000028610231,2|0,0:0|0:0,0:0:0:0:
386,129,225856,2,0,L|304:133,1,75.0000028610231
409,174,226050,2,0,L|415:251,1,75.0000028610231,2|0,0:0|0:0,0:0:0:0:
317,253,226243,2,0,L|312:329,1,75.0000028610231
487,336,226437,2,0,L|402:323,1,75.0000028610231,2|0,0:0|0:0,0:0:0:0:
413,324,226630,2,0,L|487:336,1,75.0000028610231
254,304,226824,6,0,L|174:304,1,75.0000028610231,2|0,0:0|0:0,0:0:0:0:
254,304,227018,2,0,L|336:303,1,75.0000028610231
121,242,227211,2,0,L|104:159,1,75.0000028610231,2|0,0:0|0:0,0:0:0:0:
192,165,227405,2,0,L|182:84,1,75.0000028610231
395,169,227598,2,0,L|404:246,1,75.0000028610231,2|0,0:0|0:0,0:0:0:0:
205,251,227792,2,0,L|190:167,1,75.0000028610231
291,177,227985,2,0,L|370:170,1,75.0000028610231,2|0,0:0|0:0,0:0:0:0:
161,164,228179,2,0,L|87:170,1,75.0000028610231
38,150,228372,6,0,L|30:72,1,75.0000028610231,2|0,0:0|0:0,0:0:0:0:
248,76,228566,2,0,L|322:74,1,75.0000028610231
103,184,228759,2,0,L|94:263,1,75.0000028610231,2|0,0:0|0:0,0:0:0:0:
120,299,228953,2,0,L|201:300,1,75.0000028610231
411,298,229147,2,0,L|324:298,1,75.0000028610231,2|0,0:0|0:0,0:0:0:0:
115,270,229340,2,0,L|101:195,1,75.0000028610231
198,193,229534,2,0,L|210:108,1,75.0000028610231,2|0,0:0|0:0,0:0:0:0:
96,82,229727,2,0,L|94:-2,1,75.0000028610231
359,171,229921,6,0,L|368:97,1,75.0000028610231,2|0,0:0|0:0,0:0:0:0:
272,101,230114,2,0,L|263:25,1,75.0000028610231
23,295,230308,2,0,L|35:207,1,75.0000028610231,2|0,0:0|0:0,0:0:0:0:
142,237,230501,2,0,L|152:152,1,75.0000028610231
359,182,230695,2,0,L|433:178,1,75.0000028610231,2|0,0:0|0:0,0:0:0:0:
241,131,230889,2,0,L|149:124,1,75.0000028610231
242,125,231082,2,0,L|330:130,1,75.0000028610231,2|0,0:0|0:0,0:0:0:0:
72,174,231276,2,0,L|64:252,1,75.0000028610231
179,256,231469,6,0,L|104:218,1,75.0000028610231,2|0,0:0|0:0,0:0:0:0:
114,219,231663,2,0,L|179:256,1,75.0000028610231
392,259,231856,2,0,L|400:342,1,75.0000028610231,2|0,0:0|0:0,0:0:0:0:
320,354,232050,2,0,L|234:351,1,75.0000028610231
471,327,232243,2,0,L|487:244,1,75.0000028610231,2|0,0:0|0:0,0:0:0:0:
395,249,232437,2,0,L|419:172,1,75.0000028610231
217,189,232630,2,0,L|109:191,1,75.0000028610231,2|0,0:0|0:0,0:0:0:0:
216,130,232824,2,0,L|127:136,1,75.0000028610231
405,122,233018,6,0,L|411:210,1,75.0000028610231,2|0,0:0|0:0,0:0:0:0:
323,231,233211,2,0,L|404:237,1,75.0000028610231
134,252,233405,2,0,L|134:173,1,75.0000028610231,2|0,0:0|0:0,0:0:0:0:
211,146,233598,2,0,L|124:142,1,75.0000028610231
389,133,233792,2,0,L|464:137,1,75.0000028610231,2|0,0:0|0:0,0:0:0:0:
389,133,233985,2,0,L|315:129,1,75.0000028610231
117,267,234179,2,0,L|103:190,1,75.0000028610231,2|0,0:0|0:0,0:0:0:0:
352,296,234372,2,0,L|452:290,1,75.0000028610231
337,242,234566,6,0,L|337:152,1,75.0000028610231,2|0,0:0|0:0,0:0:0:0:
126,155,234759,2,0,L|37:155,1,75.0000028610231
142,193,234953,2,0,L|140:278,1,75.0000028610231,2|0,0:0|0:0,0:0:0:0:
304,306,235147,1,2,0:0:0:0:
458,316,235243,1,2,0:0:0:0:
251,265,235340,5,8,0:0:0:0:
351,235,235437,2,0,L|352:153,1,75.0000028610231,2|2,0:0|0:0,0:0:0:0:
145,146,235630,1,8,0:0:0:0:
236,107,235727,2,0,L|237:25,1,75.0000028610231,0|2,0:0|0:0,0:0:0:0:
19,35,235921,2,0,L|110:43,1,75.0000028610231,8|2,0:0|0:0,0:0:0:0:
382,283,236114,5,2,0:0:0:0:
26,259,236405,1,2,0:0:0:0:
291,212,236598,1,2,0:0:0:0:
102,176,236695,1,2,0:0:0:0:
434,146,236889,6,0,L|440:215,1,59.9999981689454,8|0,0:0|0:0,0:0:0:0:
251,229,237082,2,0,L|122:218,1,119.999996337891
99,174,237372,1,0,0:0:0:0:
301,164,237469,2,0,L|392:158,1,59.9999981689454
141,80,237663,5,2,0:0:0:0:
76,110,237759,1,0,0:0:0:0:
74,167,237856,1,0,0:0:0:0:
130,189,237953,1,0,0:0:0:0:
194,206,238050,1,0,0:0:0:0:
251,229,238146,1,0,0:0:0:0:
253,286,238243,1,0,0:0:0:0:
194,314,238340,1,0,0:0:0:0:
26,317,238437,2,0,L|188:318,1,119.999996337891,8|0,0:0|0:0,0:0:0:0:
203,318,238727,1,0,0:0:0:0:
397,321,238824,2,0,L|461:314,1,59.9999981689454
392,263,239018,2,0,L|457:255,1,59.9999981689454
250,248,239211,6,0,L|116:221,1,119.999996337891,2|0,0:0|0:0,0:0:0:0:
189,143,239501,1,0,0:0:0:0:
454,158,239598,2,0,L|454:223,1,59.9999981689454
284,236,239792,2,0,L|216:237,1,59.9999981689454,2|0,0:0|0:0,0:0:0:0:
442,228,239985,2,0,L|448:159,1,59.9999981689454,8|0,0:0|0:0,0:0:0:0:
248,166,240179,2,0,L|103:168,1,119.999996337891
73,213,240469,1,0,0:0:0:0:
294,263,240566,2,0,L|380:250,1,59.9999981689454
131,227,240759,6,0,L|121:156,1,59.9999981689454,2|0,0:0|0:0,0:0:0:0:
296,160,240953,2,0,L|364:152,1,59.9999981689454
151,139,241147,2,0,L|74:138,1,59.9999981689454
86,90,241340,2,0,L|161:87,1,59.9999981689454
398,105,241534,2,0,L|465:98,1,59.9999981689454,8|0,0:0|0:0,0:0:0:0:
246,110,241727,1,0,0:0:0:0:
172,126,241823,1,0,0:0:0:0:
123,174,241920,1,0,0:0:0:0:
123,233,242017,1,0,0:0:0:0:
174,277,242114,1,0,0:0:0:0:
248,289,242210,1,0,0:0:0:0:
479,283,242308,6,0,L|333:269,1,119.999996337891,2|0,0:0|0:0,0:0:0:0:
413,212,242598,1,0,0:0:0:0:
183,218,242695,2,0,L|61:198,1,119.999996337891
96,137,242985,1,0,0:0:0:0:
352,135,243082,2,0,L|352:217,1,59.9999981689454,8|0,0:0|0:0,0:0:0:0:
177,198,243276,2,0,L|111:206,1,59.9999981689454
110,163,243469,2,0,L|178:152,1,59.9999981689454
451,137,243663,2,0,L|378:133,1,59.9999981689454
138,129,243856,5,2,0:0:0:0:
83,144,243952,1,0,0:0:0:0:
67,199,244049,1,0,0:0:0:0:
106,241,244146,1,0,0:0:0:0:
283,243,244243,1,0,0:0:0:0:
292,196,244339,1,0,0:0:0:0:
255,152,244436,1,0,0:0:0:0:
203,141,244533,1,0,0:0:0:0:
22,147,244630,2,0,L|157:137,1,119.999996337891,8|0,0:0|0:0,0:0:0:0:
98,78,244921,1,0,0:0:0:0:
316,93,245018,2,0,L|392:89,1,59.9999981689454
309,45,245211,2,0,L|381:40,1,59.9999981689454
100,125,245405,6,0,P|56:172|111:237,1,119.999996337891,2|0,0:0|0:0,0:0:0:0:
313,235,245695,2,0,L|148:234,1,119.999996337891,2|0,0:0|0:0,0:0:0:0:
409,182,245985,2,0,L|486:178,1,59.9999981689454,8|0,0:0|0:0,0:0:0:0:
201,174,246179,2,0,L|42:166,1,119.999996337891,2|0,0:0|0:0,0:0:0:0:
338,151,246469,2,0,L|463:150,1,119.999996337891,2|0,0:0|0:0,0:0:0:0:
292,131,246759,1,8,0:0:0:0:
457,150,246856,1,8,0:0:0:0:
220,81,246953,5,2,0:0:0:0:
144,128,247050,1,0,0:0:0:0:
148,211,247147,1,0,0:0:0:0:
340,244,247243,1,2,0:0:0:0:
243,180,247340,1,0,0:0:0:0:
161,113,247437,1,0,0:0:0:0:
415,120,247534,2,0,L|498:117,1,59.9999981689454,8|0,0:0|0:0,0:0:0:0:
112,278,247727,5,2,0:0:0:0:
267,296,247921,2,8,L|268:215,1,69.9999978637696
177,226,248114,2,8,L|76:224,3,69.9999978637696
359,273,248501,6,0,L|145:268,1,200,4|2,0:0|0:0,0:0:0:0:
246,231,249082,1,0,0:0:0:0:
350,215,249276,2,0,L|362:108,1,100,2|2,0:0|0:0,0:0:0:0:
139,139,249856,2,0,L|342:130,1,200,2|0,0:0|0:0,0:0:0:0:
261,196,250437,1,2,0:0:0:0:
227,273,250630,1,2,0:0:0:0:
275,331,250824,1,2,0:0:0:0:
370,345,251018,1,2,0:0:0:0:
140,341,251598,6,0,L|341:331,1,200,2|2,0:0|0:0,0:0:0:0:
245,284,252179,1,0,0:0:0:0:
130,270,252372,2,0,L|110:167,1,100,2|2,0:0|0:0,0:0:0:0:
354,196,252953,2,0,P|404:157|333:53,1,200,2|2,0:0|0:0,0:0:0:0:
202,63,253534,2,0,L|199:178,1,100
320,237,253921,1,0,0:0:0:0:
202,231,254114,2,0,L|201:334,1,100
63,215,254695,6,0,L|280:210,1,200,2|2,0:0|0:0,0:0:0:0:
366,208,255276,1,0,0:0:0:0:
256,180,255469,2,0,L|138:178,1,100,2|2,0:0|0:0,0:0:0:0:
401,197,256050,2,0,P|459:166|401:66,1,200,2|0,0:0|0:0,0:0:0:0:
302,61,256630,1,2,0:0:0:0:
225,113,256824,1,2,0:0:0:0:
202,198,257018,1,2,0:0:0:0:
258,279,257211,1,2,0:0:0:0:
479,284,257792,6,0,L|249:278,1,209.999993591309,2|0,0:0|0:0,0:0:0:0:
32,260,258759,1,2,0:0:0:0:
369,127,259147,2,0,L|229:121,1,139.999995727539,2|0,0:0|0:0,0:0:0:0:
323,149,259727,1,2,0:0:0:0:
362,219,259921,1,2,0:0:0:0:
334,285,260114,1,2,0:0:0:0:
252,329,260308,1,2,0:0:0:0:
400,338,260501,1,2,0:0:0:0:
206,341,260889,6,0,P|149:271|229:197,1,209.999993591309,2|0,0:0|0:0,0:0:0:0:
412,156,261856,1,2,0:0:0:0:
230,159,262243,2,0,L|389:145,1,139.999995727539,2|0,0:0|0:0,0:0:0:0:
289,104,262824,1,2,0:0:0:0:
207,89,263018,1,2,0:0:0:0:
128,99,263211,1,2,0:0:0:0:
49,143,263405,1,2,0:0:0:0:
292,233,263985,6,0,L|518:201,1,209.999993591309,2|0,0:0|0:0,0:0:0:0:
309,151,264953,1,2,0:0:0:0:
74,176,265340,2,0,L|232:174,1,139.999995727539,2|0,0:0|0:0,0:0:0:0:
306,204,265921,1,2,0:0:0:0:
353,284,266114,1,2,0:0:0:0:
307,354,266308,1,2,0:0:0:0:
218,363,266501,1,2,0:0:0:0:
347,360,266695,1,2,0:0:0:0:
152,361,267082,6,0,P|115:325|166:194,1,209.999993591309,2|0,0:0|0:0,0:0:0:0:
353,223,268050,1,2,0:0:0:0:
161,221,268437,2,0,P|124:181|155:87,1,139.999995727539,2|0,0:0|0:0,0:0:0:0:
231,69,269018,1,2,0:0:0:0:
324,74,269211,1,2,0:0:0:0:
386,141,269405,1,2,0:0:0:0:
369,230,269598,1,2,0:0:0:0:
187,252,270179,6,0,L|408:252,1,209.999993591309,2|0,0:0|0:0,0:0:0:0:
230,174,271147,1,2,0:0:0:0:
70,119,271534,1,2,0:0:0:0:
256,192,271921,12,0,276372,0:0:0:0:
