osu file format v14

[General]
AudioFilename: finorza.ogg
AudioLeadIn: 0
PreviewTime: 85473
Countdown: 0
SampleSet: Drum
StackLeniency: 0.7
Mode: 3
LetterboxInBreaks: 0
SpecialStyle: 0
WidescreenStoryboard: 0

[Editor]
Bookmarks: 64139,72939,130006,195606
DistanceSpacing: 1
BeatDivisor: 4
GridSize: 16
TimelineZoom: 2.4

[Metadata]
Title:finorza
TitleUnicode:⨍iиorzᾶ
Artist:Camellia feat. Nanahira
ArtistUnicode:かめりあ feat. ななひら
Creator:YuzakiTsukasa
Version:Questa e la fine
Source:
Tags:electronic vocal japanese xronial xero xroniàl xéro cametek ft. utaite かめるかめりあ KamelCamellia 大箭将也 speedcore hardcore bass hardstyle PCCA-04883 EDP
BeatmapID:3584398
BeatmapSetID:1751916

[Difficulty]
HPDrainRate:8
CircleSize:6
OverallDifficulty:8
ApproachRate:10
SliderMultiplier:1.4
SliderTickRate:1

[Events]
//Background and Video events
0,0,"BG.jpg",0,0
//Break Periods
//Storyboard Layer 0 (Background)
//Storyboard Layer 1 (Fail)
//Storyboard Layer 2 (Pass)
//Storyboard Layer 3 (Foreground)
//Storyboard Layer 4 (Overlay)
//Storyboard Sound Samples

[TimingPoints]
4135,266.666666666667,4,3,1,30,1,0
47868,-100,4,3,1,30,0,1
64935,-100,4,3,1,30,0,0
86268,-100,4,3,1,30,0,1
101201,-100,4,3,1,30,0,0
115068,-100,4,3,1,30,0,1
130001,-100,4,3,1,30,0,0
215335,-100,4,3,1,30,0,1
222801,-100,4,3,1,30,0,0
228401,-100,4,3,1,30,0,1
243068,-100,4,3,1,30,0,0
254801,-100,4,3,1,30,0,1
280801,-100,4,3,1,30,0,0

[HitObjects]
213,192,4135,5,0,0:0:0:0:
384,192,4135,128,0,4268:0:0:0:0:
469,192,4168,128,0,4401:0:0:0:0:
42,192,4668,128,0,7601:0:0:0:0:
128,192,5201,128,0,7601:0:0:0:0:
384,192,5735,128,0,7601:0:0:0:0:
298,192,6268,128,0,7601:0:0:0:0:
469,192,7868,128,0,8135:0:0:0:0:
42,192,8401,128,0,8668:0:0:0:0:
213,192,8935,128,0,11601:0:0:0:0:
384,192,9468,128,0,11601:0:0:0:0:
42,192,10001,128,0,11601:0:0:0:0:
469,192,10535,128,0,11601:0:0:0:0:
469,192,11779,128,0,11868:0:0:0:0:
298,192,11868,128,0,11957:0:0:0:0:
42,192,11957,128,0,12046:0:0:0:0:
384,192,12046,128,0,12135:0:0:0:0:
213,192,12068,128,0,12668:0:0:0:0:
298,192,12135,128,0,12223:0:0:0:0:
42,192,12223,128,0,12312:0:0:0:0:
469,192,12312,128,0,12379:0:0:0:0:
298,192,12401,128,0,12490:0:0:0:0:
128,192,12490,128,0,12579:0:0:0:0:
384,192,12579,128,0,12668:0:0:0:0:
469,192,12668,128,0,14268:0:0:0:0:
42,192,12668,1,0,0:0:0:0:
128,192,12801,1,0,0:0:0:0:
213,192,12935,1,0,0:0:0:0:
298,192,13068,1,0,0:0:0:0:
298,192,13735,1,0,0:0:0:0:
42,192,13868,1,0,0:0:0:0:
213,192,14001,1,0,0:0:0:0:
384,192,14135,1,0,0:0:0:0:
213,192,14535,128,0,14801:0:0:0:0:
42,192,14801,128,0,15068:0:0:0:0:
384,192,14801,1,0,0:0:0:0:
128,192,14935,1,0,0:0:0:0:
298,192,15068,128,0,15335:0:0:0:0:
213,192,15068,1,0,0:0:0:0:
469,192,15201,1,0,0:0:0:0:
128,192,15335,128,0,15601:0:0:0:0:
469,192,15601,128,0,15868:0:0:0:0:
384,192,15868,128,0,16268:0:0:0:0:
128,192,15868,1,0,0:0:0:0:
298,192,16001,1,0,0:0:0:0:
213,192,16135,1,0,0:0:0:0:
42,192,16268,128,0,16535:0:0:0:0:
469,192,16268,1,0,0:0:0:0:
469,192,16668,128,0,16935:0:0:0:0:
298,192,16935,128,0,18401:0:0:0:0:
42,192,16935,1,0,0:0:0:0:
213,192,17068,1,0,0:0:0:0:
128,192,17201,1,0,0:0:0:0:
469,192,17335,1,0,0:0:0:0:
42,192,18001,1,0,0:0:0:0:
213,192,18001,1,0,0:0:0:0:
469,192,18135,1,0,0:0:0:0:
213,192,18268,1,0,0:0:0:0:
42,192,18401,1,0,0:0:0:0:
213,192,18801,128,0,19068:0:0:0:0:
42,192,19068,128,0,19335:0:0:0:0:
128,192,19068,1,0,0:0:0:0:
384,192,19201,1,0,0:0:0:0:
213,192,19335,128,0,19601:0:0:0:0:
298,192,19335,1,0,0:0:0:0:
469,192,19468,1,0,0:0:0:0:
384,192,19601,128,0,19868:0:0:0:0:
469,192,19868,128,0,20135:0:0:0:0:
128,192,19868,1,0,0:0:0:0:
42,192,20135,128,0,20668:0:0:0:0:
213,192,20135,1,0,0:0:0:0:
469,192,20535,1,0,0:0:0:0:
298,192,20601,1,0,0:0:0:0:
213,192,20668,128,0,21201:0:0:0:0:
469,192,20668,128,0,20735:0:0:0:0:
384,192,20801,128,0,20890:0:0:0:0:
298,192,20935,128,0,21023:0:0:0:0:
42,192,21068,128,0,21157:0:0:0:0:
384,192,21201,128,0,22668:0:0:0:0:
128,192,21201,1,0,0:0:0:0:
298,192,21335,1,0,0:0:0:0:
213,192,21468,1,0,0:0:0:0:
469,192,21601,1,0,0:0:0:0:
42,192,22001,128,0,23068:0:0:0:0:
298,192,22268,1,0,0:0:0:0:
128,192,22401,1,0,0:0:0:0:
213,192,22535,1,0,0:0:0:0:
469,192,22668,1,0,0:0:0:0:
298,192,23068,128,0,23335:0:0:0:0:
42,192,23335,128,0,23601:0:0:0:0:
213,192,23335,1,0,0:0:0:0:
384,192,23468,1,0,0:0:0:0:
128,192,23601,128,0,23868:0:0:0:0:
298,192,23601,1,0,0:0:0:0:
469,192,23735,1,0,0:0:0:0:
213,192,23868,128,0,24135:0:0:0:0:
298,192,24135,128,0,24401:0:0:0:0:
42,192,24135,128,0,24401:0:0:0:0:
384,192,24401,128,0,24801:0:0:0:0:
469,192,24401,128,0,24935:0:0:0:0:
213,192,24401,1,0,0:0:0:0:
42,192,24535,1,0,0:0:0:0:
298,192,24668,1,0,0:0:0:0:
213,192,24801,128,0,25068:0:0:0:0:
128,192,24801,1,0,0:0:0:0:
42,192,24935,128,0,25468:0:0:0:0:
384,192,24935,1,0,0:0:0:0:
298,192,25068,1,0,0:0:0:0:
469,192,25201,128,0,25468:0:0:0:0:
213,192,25201,1,0,0:0:0:0:
128,192,25335,1,0,0:0:0:0:
213,192,25468,128,0,26668:0:0:0:0:
384,192,25468,128,0,25735:0:0:0:0:
42,192,25601,1,0,0:0:0:0:
298,192,25735,1,0,0:0:0:0:
469,192,25868,1,0,0:0:0:0:
469,192,26168,128,0,26535:0:0:0:0:
128,192,26535,1,0,0:0:0:0:
42,192,26535,128,0,27068:0:0:0:0:
384,192,26668,1,0,0:0:0:0:
298,192,26801,1,0,0:0:0:0:
469,192,26935,1,0,0:0:0:0:
384,192,27068,128,0,27468:0:0:0:0:
42,192,27335,1,0,0:0:0:0:
128,192,27401,1,0,0:0:0:0:
213,192,27468,1,0,0:0:0:0:
128,192,27535,1,0,0:0:0:0:
469,192,27601,128,0,27868:0:0:0:0:
298,192,27601,128,0,27801:0:0:0:0:
213,192,27601,128,0,27768:0:0:0:0:
42,192,27601,128,0,27735:0:0:0:0:
384,192,27601,128,0,27835:0:0:0:0:
42,192,28001,128,0,28268:0:0:0:0:
128,192,28001,128,0,28235:0:0:0:0:
213,192,28001,128,0,28201:0:0:0:0:
469,192,28001,128,0,28135:0:0:0:0:
298,192,28001,128,0,28168:0:0:0:0:
42,192,28535,128,0,30001:0:0:0:0:
128,192,28535,128,0,30068:0:0:0:0:
213,192,28535,128,0,30135:0:0:0:0:
298,192,28535,128,0,30201:0:0:0:0:
384,192,28535,128,0,30268:0:0:0:0:
469,192,28535,128,0,30335:0:0:0:0:
42,192,30135,128,0,30668:0:0:0:0:
128,192,30201,128,0,30601:0:0:0:0:
213,192,30268,128,0,30535:0:0:0:0:
298,192,30335,128,0,30468:0:0:0:0:
384,192,30401,1,0,0:0:0:0:
469,192,30468,128,0,30735:0:0:0:0:
384,192,30535,128,0,30735:0:0:0:0:
298,192,30601,128,0,30735:0:0:0:0:
213,192,30668,128,0,30735:0:0:0:0:
128,192,30735,1,0,0:0:0:0:
469,192,30801,1,0,0:0:0:0:
213,192,30801,1,0,0:0:0:0:
298,192,30801,1,0,0:0:0:0:
384,192,30801,1,0,0:0:0:0:
42,192,30801,1,0,0:0:0:0:
128,192,31068,1,0,0:0:0:0:
213,192,31135,1,0,0:0:0:0:
298,192,31201,1,0,0:0:0:0:
384,192,31268,1,0,0:0:0:0:
469,192,31335,1,0,0:0:0:0:
42,192,31335,1,0,0:0:0:0:
213,192,31468,1,0,0:0:0:0:
298,192,31535,1,0,0:0:0:0:
128,192,31601,1,0,0:0:0:0:
384,192,31735,1,0,0:0:0:0:
42,192,31735,1,0,0:0:0:0:
128,192,31868,1,0,0:0:0:0:
469,192,31868,1,0,0:0:0:0:
42,192,32001,1,0,0:0:0:0:
384,192,32001,1,0,0:0:0:0:
213,192,32135,1,0,0:0:0:0:
469,192,32135,1,0,0:0:0:0:
298,192,32268,1,0,0:0:0:0:
469,192,32401,1,0,0:0:0:0:
213,192,32401,1,0,0:0:0:0:
42,192,32401,1,0,0:0:0:0:
298,192,32535,1,0,0:0:0:0:
128,192,32535,1,0,0:0:0:0:
469,192,32668,1,0,0:0:0:0:
213,192,32668,1,0,0:0:0:0:
384,192,32735,1,0,0:0:0:0:
42,192,32801,1,0,0:0:0:0:
298,192,32801,1,0,0:0:0:0:
213,192,32935,1,0,0:0:0:0:
469,192,33068,1,0,0:0:0:0:
42,192,33201,1,0,0:0:0:0:
213,192,33201,1,0,0:0:0:0:
298,192,33468,1,0,0:0:0:0:
469,192,33468,1,0,0:0:0:0:
128,192,33468,1,0,0:0:0:0:
42,192,33601,1,0,0:0:0:0:
384,192,33735,1,0,0:0:0:0:
128,192,33868,1,0,0:0:0:0:
469,192,34001,1,0,0:0:0:0:
298,192,34135,1,0,0:0:0:0:
384,192,34268,1,0,0:0:0:0:
128,192,34401,1,0,0:0:0:0:
469,192,34535,1,0,0:0:0:0:
298,192,34535,1,0,0:0:0:0:
42,192,34535,1,0,0:0:0:0:
384,192,34668,1,0,0:0:0:0:
128,192,34668,1,0,0:0:0:0:
42,192,34801,1,0,0:0:0:0:
469,192,34801,1,0,0:0:0:0:
298,192,34868,1,0,0:0:0:0:
128,192,34935,1,0,0:0:0:0:
384,192,35001,1,0,0:0:0:0:
213,192,35068,128,0,35335:0:0:0:0:
469,192,35201,1,0,0:0:0:0:
42,192,35335,1,0,0:0:0:0:
298,192,35468,1,0,0:0:0:0:
42,192,35601,1,0,0:0:0:0:
469,192,35601,1,0,0:0:0:0:
213,192,35601,1,0,0:0:0:0:
298,192,35735,1,0,0:0:0:0:
42,192,35868,1,0,0:0:0:0:
469,192,35868,1,0,0:0:0:0:
213,192,36001,1,0,0:0:0:0:
384,192,36001,1,0,0:0:0:0:
128,192,36135,1,0,0:0:0:0:
298,192,36135,1,0,0:0:0:0:
42,192,36268,1,0,0:0:0:0:
384,192,36268,1,0,0:0:0:0:
128,192,36401,1,0,0:0:0:0:
469,192,36401,1,0,0:0:0:0:
213,192,36535,1,0,0:0:0:0:
384,192,36535,1,0,0:0:0:0:
128,192,36668,1,0,0:0:0:0:
298,192,36668,1,0,0:0:0:0:
469,192,36668,1,0,0:0:0:0:
298,192,36801,1,0,0:0:0:0:
42,192,36801,1,0,0:0:0:0:
469,192,36935,1,0,0:0:0:0:
213,192,36935,1,0,0:0:0:0:
298,192,37001,1,0,0:0:0:0:
384,192,37068,1,0,0:0:0:0:
42,192,37068,1,0,0:0:0:0:
128,192,37135,1,0,0:0:0:0:
298,192,37201,128,0,37468:0:0:0:0:
469,192,37335,1,0,0:0:0:0:
42,192,37468,1,0,0:0:0:0:
469,192,37735,1,0,0:0:0:0:
298,192,37735,1,0,0:0:0:0:
128,192,37735,1,0,0:0:0:0:
213,192,37868,1,0,0:0:0:0:
42,192,38001,1,0,0:0:0:0:
384,192,38135,1,0,0:0:0:0:
128,192,38268,1,0,0:0:0:0:
469,192,38401,1,0,0:0:0:0:
298,192,38401,1,0,0:0:0:0:
213,192,38535,1,0,0:0:0:0:
128,192,38601,1,0,0:0:0:0:
384,192,38668,1,0,0:0:0:0:
298,192,38735,1,0,0:0:0:0:
42,192,38801,128,0,38868:0:0:0:0:
213,192,38801,1,0,0:0:0:0:
469,192,38801,1,0,0:0:0:0:
128,192,38868,128,0,38935:0:0:0:0:
213,192,38935,128,0,39001:0:0:0:0:
298,192,39001,128,0,39068:0:0:0:0:
469,192,39068,128,0,39135:0:0:0:0:
384,192,39135,128,0,39201:0:0:0:0:
298,192,39201,128,0,39268:0:0:0:0:
213,192,39268,128,0,39335:0:0:0:0:
42,192,39335,1,0,0:0:0:0:
469,192,39335,1,0,0:0:0:0:
128,192,39335,1,0,0:0:0:0:
384,192,39335,1,0,0:0:0:0:
213,192,39401,1,0,0:0:0:0:
298,192,39401,1,0,0:0:0:0:
469,192,39468,1,0,0:0:0:0:
42,192,39468,1,0,0:0:0:0:
128,192,39468,1,0,0:0:0:0:
384,192,39468,1,0,0:0:0:0:
213,192,39535,1,0,0:0:0:0:
298,192,39535,1,0,0:0:0:0:
469,192,39735,1,0,0:0:0:0:
42,192,39735,1,0,0:0:0:0:
384,192,39735,1,0,0:0:0:0:
298,192,39735,1,0,0:0:0:0:
213,192,39801,1,0,0:0:0:0:
128,192,39801,1,0,0:0:0:0:
469,192,39868,1,0,0:0:0:0:
42,192,39868,1,0,0:0:0:0:
384,192,39868,1,0,0:0:0:0:
298,192,39868,1,0,0:0:0:0:
213,192,39935,1,0,0:0:0:0:
128,192,39935,1,0,0:0:0:0:
469,192,40135,1,0,0:0:0:0:
298,192,40135,1,0,0:0:0:0:
42,192,40268,1,0,0:0:0:0:
384,192,40401,1,0,0:0:0:0:
213,192,40401,1,0,0:0:0:0:
128,192,40535,1,0,0:0:0:0:
298,192,40668,1,0,0:0:0:0:
469,192,40668,1,0,0:0:0:0:
128,192,40801,1,0,0:0:0:0:
469,192,40868,1,0,0:0:0:0:
213,192,40868,1,0,0:0:0:0:
384,192,40935,1,0,0:0:0:0:
42,192,40935,1,0,0:0:0:0:
298,192,41068,1,0,0:0:0:0:
128,192,41068,1,0,0:0:0:0:
469,192,41201,1,0,0:0:0:0:
42,192,41201,1,0,0:0:0:0:
213,192,41335,1,0,0:0:0:0:
469,192,41468,1,0,0:0:0:0:
384,192,41468,1,0,0:0:0:0:
298,192,41468,1,0,0:0:0:0:
213,192,41468,1,0,0:0:0:0:
42,192,41535,1,0,0:0:0:0:
128,192,41535,1,0,0:0:0:0:
213,192,41601,1,0,0:0:0:0:
298,192,41601,1,0,0:0:0:0:
384,192,41601,1,0,0:0:0:0:
469,192,41601,1,0,0:0:0:0:
42,192,41668,1,0,0:0:0:0:
128,192,41668,1,0,0:0:0:0:
213,192,41868,1,0,0:0:0:0:
298,192,41868,1,0,0:0:0:0:
128,192,41868,1,0,0:0:0:0:
42,192,41868,1,0,0:0:0:0:
384,192,41935,1,0,0:0:0:0:
469,192,41935,1,0,0:0:0:0:
298,192,42001,1,0,0:0:0:0:
213,192,42001,1,0,0:0:0:0:
128,192,42001,1,0,0:0:0:0:
42,192,42001,1,0,0:0:0:0:
469,192,42068,1,0,0:0:0:0:
384,192,42068,1,0,0:0:0:0:
298,192,42268,128,0,42335:0:0:0:0:
469,192,42268,1,0,0:0:0:0:
128,192,42401,128,0,42468:0:0:0:0:
384,192,42535,128,0,42601:0:0:0:0:
42,192,42535,1,0,0:0:0:0:
213,192,42668,128,0,42735:0:0:0:0:
298,192,42668,1,0,0:0:0:0:
469,192,42735,1,0,0:0:0:0:
42,192,42801,128,0,42868:0:0:0:0:
384,192,42801,1,0,0:0:0:0:
128,192,42801,1,0,0:0:0:0:
298,192,42868,1,0,0:0:0:0:
469,192,42935,128,0,43001:0:0:0:0:
213,192,42935,1,0,0:0:0:0:
128,192,43001,1,0,0:0:0:0:
384,192,43001,1,0,0:0:0:0:
298,192,43068,128,0,43135:0:0:0:0:
42,192,43068,1,0,0:0:0:0:
469,192,43068,1,0,0:0:0:0:
213,192,43135,1,0,0:0:0:0:
469,192,43201,1,0,0:0:0:0:
384,192,43201,1,0,0:0:0:0:
128,192,43201,1,0,0:0:0:0:
42,192,43201,1,0,0:0:0:0:
42,192,43401,1,0,0:0:0:0:
213,192,43401,1,0,0:0:0:0:
469,192,43401,1,0,0:0:0:0:
298,192,43401,1,0,0:0:0:0:
469,192,43601,1,0,0:0:0:0:
42,192,43601,1,0,0:0:0:0:
128,192,43601,1,0,0:0:0:0:
384,192,43601,1,0,0:0:0:0:
213,192,43668,1,0,0:0:0:0:
298,192,43668,1,0,0:0:0:0:
42,192,43735,1,0,0:0:0:0:
128,192,43735,1,0,0:0:0:0:
384,192,43735,1,0,0:0:0:0:
469,192,43735,1,0,0:0:0:0:
213,192,43801,1,0,0:0:0:0:
298,192,43801,1,0,0:0:0:0:
42,192,44001,1,0,0:0:0:0:
128,192,44001,1,0,0:0:0:0:
384,192,44001,1,0,0:0:0:0:
469,192,44001,1,0,0:0:0:0:
298,192,44068,1,0,0:0:0:0:
213,192,44068,1,0,0:0:0:0:
128,192,44135,1,0,0:0:0:0:
42,192,44135,1,0,0:0:0:0:
469,192,44135,1,0,0:0:0:0:
384,192,44135,1,0,0:0:0:0:
298,192,44201,1,0,0:0:0:0:
213,192,44201,1,0,0:0:0:0:
384,192,44268,1,0,0:0:0:0:
469,192,44268,1,0,0:0:0:0:
42,192,44335,1,0,0:0:0:0:
128,192,44335,1,0,0:0:0:0:
213,192,44401,1,0,0:0:0:0:
298,192,44401,1,0,0:0:0:0:
384,192,44401,1,0,0:0:0:0:
469,192,44401,1,0,0:0:0:0:
42,192,44468,1,0,0:0:0:0:
128,192,44468,1,0,0:0:0:0:
213,192,44535,1,0,0:0:0:0:
298,192,44535,1,0,0:0:0:0:
384,192,44535,1,0,0:0:0:0:
469,192,44535,1,0,0:0:0:0:
128,192,44601,1,0,0:0:0:0:
42,192,44601,1,0,0:0:0:0:
213,192,44668,1,0,0:0:0:0:
298,192,44668,1,0,0:0:0:0:
384,192,44735,1,0,0:0:0:0:
469,192,44735,1,0,0:0:0:0:
213,192,44801,1,0,0:0:0:0:
298,192,44801,1,0,0:0:0:0:
128,192,44801,1,0,0:0:0:0:
42,192,44801,1,0,0:0:0:0:
384,192,44868,1,0,0:0:0:0:
469,192,44868,1,0,0:0:0:0:
213,192,44935,1,0,0:0:0:0:
298,192,44935,1,0,0:0:0:0:
128,192,44935,1,0,0:0:0:0:
42,192,44935,1,0,0:0:0:0:
469,192,45001,1,0,0:0:0:0:
384,192,45001,1,0,0:0:0:0:
298,192,45068,1,0,0:0:0:0:
42,192,45068,1,0,0:0:0:0:
128,192,45135,1,0,0:0:0:0:
213,192,45135,1,0,0:0:0:0:
42,192,45201,1,0,0:0:0:0:
469,192,45201,1,0,0:0:0:0:
298,192,45201,1,0,0:0:0:0:
384,192,45201,1,0,0:0:0:0:
384,192,45290,1,0,0:0:0:0:
469,192,45290,1,0,0:0:0:0:
128,192,45290,1,0,0:0:0:0:
384,192,45379,1,0,0:0:0:0:
469,192,45379,1,0,0:0:0:0:
213,192,45379,1,0,0:0:0:0:
298,192,45468,1,0,0:0:0:0:
42,192,45468,1,0,0:0:0:0:
128,192,45468,1,0,0:0:0:0:
42,192,45557,1,0,0:0:0:0:
128,192,45557,1,0,0:0:0:0:
384,192,45557,1,0,0:0:0:0:
469,192,45646,1,0,0:0:0:0:
128,192,45646,1,0,0:0:0:0:
42,192,45646,1,0,0:0:0:0:
213,192,45735,128,0,46801:0:0:0:0:
128,192,45735,128,0,46801:0:0:0:0:
42,192,45735,128,0,46801:0:0:0:0:
469,192,45868,128,0,46001:0:0:0:0:
384,192,46168,128,0,46301:0:0:0:0:
298,192,46468,128,0,46601:0:0:0:0:
469,192,46668,128,0,46801:0:0:0:0:
384,192,46801,128,0,46868:0:0:0:0:
128,192,46868,128,0,46935:0:0:0:0:
298,192,46935,128,0,47001:0:0:0:0:
213,192,47001,128,0,47068:0:0:0:0:
384,192,47068,128,0,47135:0:0:0:0:
128,192,47135,128,0,47201:0:0:0:0:
298,192,47201,128,0,47268:0:0:0:0:
213,192,47268,128,0,47335:0:0:0:0:
384,192,47335,128,0,47401:0:0:0:0:
128,192,47401,128,0,47468:0:0:0:0:
298,192,47468,128,0,47535:0:0:0:0:
213,192,47535,128,0,47601:0:0:0:0:
42,192,47601,1,0,0:0:0:0:
469,192,47601,1,0,0:0:0:0:
384,192,47601,1,0,0:0:0:0:
128,192,47601,1,0,0:0:0:0:
469,192,47868,1,0,0:0:0:0:
42,192,47868,1,0,0:0:0:0:
128,192,47868,1,0,0:0:0:0:
213,192,47868,1,0,0:0:0:0:
298,192,47935,1,0,0:0:0:0:
213,192,48001,1,0,0:0:0:0:
384,192,48001,1,0,0:0:0:0:
42,192,48001,1,0,0:0:0:0:
128,192,48068,1,0,0:0:0:0:
469,192,48135,1,0,0:0:0:0:
384,192,48135,1,0,0:0:0:0:
298,192,48135,1,0,0:0:0:0:
42,192,48135,1,0,0:0:0:0:
213,192,48201,1,0,0:0:0:0:
469,192,48268,1,0,0:0:0:0:
298,192,48268,1,0,0:0:0:0:
128,192,48268,1,0,0:0:0:0:
384,192,48335,1,0,0:0:0:0:
469,192,48401,1,0,0:0:0:0:
42,192,48401,1,0,0:0:0:0:
128,192,48401,1,0,0:0:0:0:
213,192,48401,1,0,0:0:0:0:
384,192,48468,1,0,0:0:0:0:
42,192,48535,1,0,0:0:0:0:
128,192,48535,1,0,0:0:0:0:
298,192,48535,1,0,0:0:0:0:
213,192,48601,1,0,0:0:0:0:
384,192,48668,1,0,0:0:0:0:
469,192,48668,128,0,48735:0:0:0:0:
42,192,48668,1,0,0:0:0:0:
298,192,48668,1,0,0:0:0:0:
128,192,48735,1,0,0:0:0:0:
42,192,48801,128,0,48868:0:0:0:0:
213,192,48801,1,0,0:0:0:0:
384,192,48801,1,0,0:0:0:0:
298,192,48868,1,0,0:0:0:0:
213,192,48935,128,0,49001:0:0:0:0:
469,192,48935,1,0,0:0:0:0:
128,192,48935,1,0,0:0:0:0:
384,192,48935,1,0,0:0:0:0:
42,192,49001,1,0,0:0:0:0:
384,192,49068,128,0,49135:0:0:0:0:
128,192,49068,1,0,0:0:0:0:
469,192,49068,1,0,0:0:0:0:
213,192,49135,1,0,0:0:0:0:
298,192,49201,1,0,0:0:0:0:
128,192,49201,1,0,0:0:0:0:
384,192,49201,1,0,0:0:0:0:
42,192,49201,128,0,49268:0:0:0:0:
213,192,49268,1,0,0:0:0:0:
42,192,49335,1,0,0:0:0:0:
469,192,49335,1,0,0:0:0:0:
298,192,49335,128,0,49401:0:0:0:0:
384,192,49401,1,0,0:0:0:0:
42,192,49468,1,0,0:0:0:0:
213,192,49468,1,0,0:0:0:0:
128,192,49468,1,0,0:0:0:0:
469,192,49468,128,0,49535:0:0:0:0:
298,192,49535,1,0,0:0:0:0:
213,192,49601,128,0,49668:0:0:0:0:
384,192,49601,1,0,0:0:0:0:
469,192,49601,1,0,0:0:0:0:
128,192,49668,1,0,0:0:0:0:
42,192,49735,1,0,0:0:0:0:
469,192,49735,1,0,0:0:0:0:
298,192,49735,1,0,0:0:0:0:
384,192,49735,128,0,49801:0:0:0:0:
298,192,49868,1,0,0:0:0:0:
384,192,49868,1,0,0:0:0:0:
213,192,49868,1,0,0:0:0:0:
128,192,49868,128,0,49935:0:0:0:0:
42,192,50001,1,0,0:0:0:0:
128,192,50001,1,0,0:0:0:0:
213,192,50001,1,0,0:0:0:0:
469,192,50001,1,0,0:0:0:0:
384,192,50068,1,0,0:0:0:0:
298,192,50135,1,0,0:0:0:0:
42,192,50135,1,0,0:0:0:0:
469,192,50135,1,0,0:0:0:0:
128,192,50201,1,0,0:0:0:0:
213,192,50268,1,0,0:0:0:0:
469,192,50268,1,0,0:0:0:0:
384,192,50268,1,0,0:0:0:0:
42,192,50268,1,0,0:0:0:0:
298,192,50335,1,0,0:0:0:0:
384,192,50401,1,0,0:0:0:0:
128,192,50401,1,0,0:0:0:0:
213,192,50401,1,0,0:0:0:0:
469,192,50468,1,0,0:0:0:0:
42,192,50535,1,0,0:0:0:0:
384,192,50535,1,0,0:0:0:0:
298,192,50535,1,0,0:0:0:0:
128,192,50535,1,0,0:0:0:0:
213,192,50601,1,0,0:0:0:0:
298,192,50668,1,0,0:0:0:0:
469,192,50668,1,0,0:0:0:0:
42,192,50668,1,0,0:0:0:0:
384,192,50735,1,0,0:0:0:0:
469,192,50801,1,0,0:0:0:0:
298,192,50801,1,0,0:0:0:0:
213,192,50801,1,0,0:0:0:0:
128,192,50801,1,0,0:0:0:0:
42,192,50868,1,0,0:0:0:0:
128,192,50935,1,0,0:0:0:0:
384,192,50935,1,0,0:0:0:0:
469,192,50935,1,0,0:0:0:0:
298,192,51001,1,0,0:0:0:0:
213,192,51068,1,0,0:0:0:0:
42,192,51068,1,0,0:0:0:0:
384,192,51068,1,0,0:0:0:0:
469,192,51068,1,0,0:0:0:0:
128,192,51135,1,0,0:0:0:0:
213,192,51201,1,0,0:0:0:0:
42,192,51201,1,0,0:0:0:0:
384,192,51201,1,0,0:0:0:0:
298,192,51268,1,0,0:0:0:0:
128,192,51335,1,0,0:0:0:0:
42,192,51335,1,0,0:0:0:0:
213,192,51335,1,0,0:0:0:0:
469,192,51335,1,0,0:0:0:0:
384,192,51401,1,0,0:0:0:0:
298,192,51468,1,0,0:0:0:0:
42,192,51468,1,0,0:0:0:0:
213,192,51535,1,0,0:0:0:0:
469,192,51535,1,0,0:0:0:0:
128,192,51535,1,0,0:0:0:0:
384,192,51601,1,0,0:0:0:0:
298,192,51601,1,0,0:0:0:0:
42,192,51601,1,0,0:0:0:0:
213,192,51735,1,0,0:0:0:0:
298,192,51735,1,0,0:0:0:0:
469,192,51735,1,0,0:0:0:0:
128,192,51735,1,0,0:0:0:0:
469,192,51868,1,0,0:0:0:0:
42,192,51868,128,0,52001:0:0:0:0:
128,192,51868,1,0,0:0:0:0:
384,192,51912,1,0,0:0:0:0:
298,192,51957,1,0,0:0:0:0:
213,192,52001,1,0,0:0:0:0:
469,192,52001,128,0,52135:0:0:0:0:
128,192,52046,1,0,0:0:0:0:
42,192,52090,1,0,0:0:0:0:
213,192,52135,1,0,0:0:0:0:
128,192,52135,1,0,0:0:0:0:
384,192,52135,1,0,0:0:0:0:
298,192,52135,1,0,0:0:0:0:
42,192,52268,1,0,0:0:0:0:
384,192,52268,1,0,0:0:0:0:
469,192,52268,1,0,0:0:0:0:
213,192,52268,1,0,0:0:0:0:
128,192,52401,1,0,0:0:0:0:
298,192,52401,1,0,0:0:0:0:
384,192,52401,1,0,0:0:0:0:
42,192,52401,1,0,0:0:0:0:
128,192,52535,1,0,0:0:0:0:
213,192,52535,1,0,0:0:0:0:
469,192,52535,1,0,0:0:0:0:
298,192,52535,1,0,0:0:0:0:
42,192,52668,1,0,0:0:0:0:
128,192,52668,1,0,0:0:0:0:
384,192,52668,1,0,0:0:0:0:
469,192,52668,1,0,0:0:0:0:
298,192,52735,1,0,0:0:0:0:
213,192,52801,1,0,0:0:0:0:
42,192,52801,1,0,0:0:0:0:
384,192,52801,1,0,0:0:0:0:
128,192,52868,1,0,0:0:0:0:
42,192,52935,1,0,0:0:0:0:
298,192,52935,1,0,0:0:0:0:
384,192,52935,1,0,0:0:0:0:
469,192,52935,128,0,53001:0:0:0:0:
213,192,53001,1,0,0:0:0:0:
384,192,53068,1,0,0:0:0:0:
128,192,53068,1,0,0:0:0:0:
42,192,53068,128,0,53135:0:0:0:0:
298,192,53135,1,0,0:0:0:0:
213,192,53135,1,0,0:0:0:0:
469,192,53135,1,0,0:0:0:0:
128,192,53201,1,0,0:0:0:0:
42,192,53201,1,0,0:0:0:0:
384,192,53201,128,0,53268:0:0:0:0:
298,192,53268,1,0,0:0:0:0:
469,192,53335,1,0,0:0:0:0:
128,192,53335,1,0,0:0:0:0:
213,192,53335,128,0,53401:0:0:0:0:
384,192,53401,1,0,0:0:0:0:
298,192,53468,1,0,0:0:0:0:
469,192,53468,1,0,0:0:0:0:
213,192,53468,1,0,0:0:0:0:
42,192,53468,128,0,53535:0:0:0:0:
128,192,53535,1,0,0:0:0:0:
42,192,53601,1,0,0:0:0:0:
298,192,53601,1,0,0:0:0:0:
384,192,53601,128,0,53668:0:0:0:0:
213,192,53668,1,0,0:0:0:0:
42,192,53735,1,0,0:0:0:0:
469,192,53735,1,0,0:0:0:0:
384,192,53735,1,0,0:0:0:0:
128,192,53735,1,0,0:0:0:0:
298,192,53801,1,0,0:0:0:0:
213,192,53801,1,0,0:0:0:0:
469,192,53868,1,0,0:0:0:0:
128,192,53935,1,0,0:0:0:0:
42,192,53935,1,0,0:0:0:0:
384,192,53935,1,0,0:0:0:0:
298,192,53935,1,0,0:0:0:0:
469,192,54001,1,0,0:0:0:0:
213,192,54001,1,0,0:0:0:0:
42,192,54135,1,0,0:0:0:0:
384,192,54135,1,0,0:0:0:0:
213,192,54135,1,0,0:0:0:0:
298,192,54268,1,0,0:0:0:0:
384,192,54268,1,0,0:0:0:0:
469,192,54268,1,0,0:0:0:0:
128,192,54268,1,0,0:0:0:0:
298,192,54401,1,0,0:0:0:0:
384,192,54401,1,0,0:0:0:0:
469,192,54401,1,0,0:0:0:0:
128,192,54401,1,0,0:0:0:0:
42,192,54535,128,0,54668:0:0:0:0:
213,192,54535,1,0,0:0:0:0:
469,192,54668,128,0,54801:0:0:0:0:
42,192,54801,1,0,0:0:0:0:
128,192,54801,1,0,0:0:0:0:
213,192,54801,1,0,0:0:0:0:
384,192,54801,1,0,0:0:0:0:
42,192,54935,1,0,0:0:0:0:
128,192,54935,1,0,0:0:0:0:
213,192,54935,1,0,0:0:0:0:
384,192,54935,1,0,0:0:0:0:
298,192,55068,128,0,55201:0:0:0:0:
469,192,55068,1,0,0:0:0:0:
128,192,55201,128,0,55335:0:0:0:0:
469,192,55335,1,0,0:0:0:0:
42,192,55335,128,0,55868:0:0:0:0:
384,192,55335,128,0,55535:0:0:0:0:
213,192,55335,128,0,55468:0:0:0:0:
298,192,55535,128,0,55668:0:0:0:0:
469,192,55601,128,0,55668:0:0:0:0:
213,192,55668,128,0,55801:0:0:0:0:
384,192,55701,128,0,55768:0:0:0:0:
469,192,55735,128,0,55801:0:0:0:0:
298,192,55801,128,0,55901:0:0:0:0:
128,192,55801,128,0,55935:0:0:0:0:
384,192,55835,128,0,55935:0:0:0:0:
469,192,55868,128,0,55968:0:0:0:0:
213,192,55935,128,0,56035:0:0:0:0:
42,192,55935,128,0,56068:0:0:0:0:
298,192,55968,128,0,56068:0:0:0:0:
384,192,56001,128,0,56101:0:0:0:0:
128,192,56068,128,0,56135:0:0:0:0:
469,192,56135,128,0,56268:0:0:0:0:
213,192,56135,128,0,56268:0:0:0:0:
384,192,56201,128,0,56335:0:0:0:0:
128,192,56201,128,0,56335:0:0:0:0:
42,192,56268,128,0,56335:0:0:0:0:
298,192,56268,128,0,56401:0:0:0:0:
213,192,56335,128,0,56401:0:0:0:0:
469,192,56335,128,0,56401:0:0:0:0:
42,192,56401,1,0,0:0:0:0:
128,192,56401,1,0,0:0:0:0:
384,192,56401,1,0,0:0:0:0:
213,192,56468,1,0,0:0:0:0:
298,192,56468,1,0,0:0:0:0:
42,192,56535,1,0,0:0:0:0:
128,192,56535,1,0,0:0:0:0:
384,192,56535,1,0,0:0:0:0:
469,192,56535,1,0,0:0:0:0:
298,192,56601,1,0,0:0:0:0:
213,192,56601,1,0,0:0:0:0:
42,192,56668,1,0,0:0:0:0:
128,192,56668,1,0,0:0:0:0:
384,192,56668,1,0,0:0:0:0:
469,192,56668,1,0,0:0:0:0:
213,192,56735,1,0,0:0:0:0:
298,192,56801,1,0,0:0:0:0:
469,192,56801,1,0,0:0:0:0:
128,192,56801,1,0,0:0:0:0:
384,192,56868,1,0,0:0:0:0:
128,192,56935,1,0,0:0:0:0:
42,192,56935,1,0,0:0:0:0:
469,192,56935,1,0,0:0:0:0:
213,192,56935,1,0,0:0:0:0:
128,192,57068,1,0,0:0:0:0:
213,192,57068,1,0,0:0:0:0:
298,192,57068,1,0,0:0:0:0:
384,192,57068,1,0,0:0:0:0:
298,192,57201,1,0,0:0:0:0:
384,192,57201,1,0,0:0:0:0:
42,192,57201,1,0,0:0:0:0:
469,192,57201,128,0,57268:0:0:0:0:
128,192,57268,1,0,0:0:0:0:
469,192,57335,1,0,0:0:0:0:
213,192,57335,1,0,0:0:0:0:
42,192,57335,128,0,57401:0:0:0:0:
298,192,57401,1,0,0:0:0:0:
42,192,57468,1,0,0:0:0:0:
469,192,57468,1,0,0:0:0:0:
213,192,57468,1,0,0:0:0:0:
384,192,57468,128,0,57535:0:0:0:0:
128,192,57535,1,0,0:0:0:0:
469,192,57601,1,0,0:0:0:0:
213,192,57601,128,0,57668:0:0:0:0:
384,192,57668,1,0,0:0:0:0:
42,192,57735,128,0,57801:0:0:0:0:
298,192,57735,1,0,0:0:0:0:
128,192,57735,1,0,0:0:0:0:
213,192,57735,1,0,0:0:0:0:
469,192,57801,1,0,0:0:0:0:
213,192,57868,1,0,0:0:0:0:
384,192,57868,1,0,0:0:0:0:
298,192,57868,128,0,57935:0:0:0:0:
42,192,57935,1,0,0:0:0:0:
384,192,58001,1,0,0:0:0:0:
469,192,58001,128,0,58068:0:0:0:0:
128,192,58001,1,0,0:0:0:0:
298,192,58001,1,0,0:0:0:0:
42,192,58068,1,0,0:0:0:0:
213,192,58135,128,0,58201:0:0:0:0:
469,192,58201,1,0,0:0:0:0:
128,192,58201,1,0,0:0:0:0:
384,192,58201,1,0,0:0:0:0:
42,192,58268,1,0,0:0:0:0:
213,192,58268,1,0,0:0:0:0:
298,192,58268,128,0,58335:0:0:0:0:
469,192,58401,1,0,0:0:0:0:
213,192,58401,1,0,0:0:0:0:
128,192,58401,128,0,58468:0:0:0:0:
42,192,58468,1,0,0:0:0:0:
384,192,58468,1,0,0:0:0:0:
298,192,58468,1,0,0:0:0:0:
469,192,58535,1,0,0:0:0:0:
128,192,58535,1,0,0:0:0:0:
213,192,58535,1,0,0:0:0:0:
469,192,58668,1,0,0:0:0:0:
42,192,58668,1,0,0:0:0:0:
384,192,58668,1,0,0:0:0:0:
128,192,58701,1,0,0:0:0:0:
213,192,58735,1,0,0:0:0:0:
298,192,58768,1,0,0:0:0:0:
469,192,58801,1,0,0:0:0:0:
42,192,58801,1,0,0:0:0:0:
128,192,58801,1,0,0:0:0:0:
384,192,58801,1,0,0:0:0:0:
42,192,58935,1,0,0:0:0:0:
128,192,58935,1,0,0:0:0:0:
298,192,58935,1,0,0:0:0:0:
213,192,59001,1,0,0:0:0:0:
384,192,59001,1,0,0:0:0:0:
469,192,59001,1,0,0:0:0:0:
128,192,59068,1,0,0:0:0:0:
42,192,59068,1,0,0:0:0:0:
298,192,59068,1,0,0:0:0:0:
469,192,59135,1,0,0:0:0:0:
213,192,59201,1,0,0:0:0:0:
384,192,59201,1,0,0:0:0:0:
128,192,59201,1,0,0:0:0:0:
298,192,59268,1,0,0:0:0:0:
213,192,59335,1,0,0:0:0:0:
469,192,59335,1,0,0:0:0:0:
384,192,59335,1,0,0:0:0:0:
42,192,59335,1,0,0:0:0:0:
128,192,59401,1,0,0:0:0:0:
298,192,59468,1,0,0:0:0:0:
469,192,59468,1,0,0:0:0:0:
213,192,59468,1,0,0:0:0:0:
128,192,59535,1,0,0:0:0:0:
384,192,59601,1,0,0:0:0:0:
298,192,59601,1,0,0:0:0:0:
42,192,59601,1,0,0:0:0:0:
469,192,59601,1,0,0:0:0:0:
213,192,59668,1,0,0:0:0:0:
128,192,59735,1,0,0:0:0:0:
469,192,59801,1,0,0:0:0:0:
384,192,59801,1,0,0:0:0:0:
298,192,59801,1,0,0:0:0:0:
42,192,59868,1,0,0:0:0:0:
128,192,59868,1,0,0:0:0:0:
213,192,59868,1,0,0:0:0:0:
384,192,59935,1,0,0:0:0:0:
469,192,59935,1,0,0:0:0:0:
298,192,59935,1,0,0:0:0:0:
42,192,60001,1,0,0:0:0:0:
128,192,60001,1,0,0:0:0:0:
213,192,60001,1,0,0:0:0:0:
384,192,60068,1,0,0:0:0:0:
213,192,60135,1,0,0:0:0:0:
42,192,60135,1,0,0:0:0:0:
128,192,60135,1,0,0:0:0:0:
42,192,60223,1,0,0:0:0:0:
128,192,60223,1,0,0:0:0:0:
213,192,60223,1,0,0:0:0:0:
298,192,60312,1,0,0:0:0:0:
384,192,60312,1,0,0:0:0:0:
469,192,60312,1,0,0:0:0:0:
384,192,60401,1,0,0:0:0:0:
298,192,60401,1,0,0:0:0:0:
469,192,60401,128,0,60535:0:0:0:0:
42,192,60401,1,0,0:0:0:0:
128,192,60446,1,0,0:0:0:0:
213,192,60490,1,0,0:0:0:0:
42,192,60535,128,0,60668:0:0:0:0:
298,192,60535,1,0,0:0:0:0:
384,192,60579,1,0,0:0:0:0:
469,192,60623,1,0,0:0:0:0:
128,192,60668,1,0,0:0:0:0:
298,192,60668,1,0,0:0:0:0:
213,192,60668,1,0,0:0:0:0:
384,192,60668,1,0,0:0:0:0:
213,192,60801,1,0,0:0:0:0:
298,192,60801,1,0,0:0:0:0:
469,192,60801,1,0,0:0:0:0:
384,192,60801,1,0,0:0:0:0:
42,192,60935,1,0,0:0:0:0:
128,192,60935,1,0,0:0:0:0:
213,192,60935,1,0,0:0:0:0:
298,192,60935,1,0,0:0:0:0:
469,192,61001,1,0,0:0:0:0:
384,192,61068,1,0,0:0:0:0:
128,192,61068,1,0,0:0:0:0:
42,192,61068,1,0,0:0:0:0:
298,192,61135,1,0,0:0:0:0:
213,192,61201,1,0,0:0:0:0:
42,192,61201,1,0,0:0:0:0:
469,192,61201,1,0,0:0:0:0:
384,192,61201,1,0,0:0:0:0:
128,192,61268,1,0,0:0:0:0:
213,192,61335,1,0,0:0:0:0:
42,192,61335,1,0,0:0:0:0:
469,192,61335,1,0,0:0:0:0:
384,192,61401,1,0,0:0:0:0:
128,192,61468,1,0,0:0:0:0:
213,192,61468,1,0,0:0:0:0:
469,192,61468,128,0,61535:0:0:0:0:
298,192,61468,1,0,0:0:0:0:
42,192,61535,1,0,0:0:0:0:
384,192,61601,1,0,0:0:0:0:
213,192,61601,1,0,0:0:0:0:
128,192,61601,128,0,61668:0:0:0:0:
298,192,61668,1,0,0:0:0:0:
42,192,61735,1,0,0:0:0:0:
128,192,61735,1,0,0:0:0:0:
213,192,61735,1,0,0:0:0:0:
469,192,61735,1,0,0:0:0:0:
384,192,61801,1,0,0:0:0:0:
298,192,61801,1,0,0:0:0:0:
42,192,61868,1,0,0:0:0:0:
469,192,61868,1,0,0:0:0:0:
128,192,61868,1,0,0:0:0:0:
298,192,61935,1,0,0:0:0:0:
213,192,61935,1,0,0:0:0:0:
384,192,62001,1,0,0:0:0:0:
469,192,62001,1,0,0:0:0:0:
42,192,62001,1,0,0:0:0:0:
128,192,62068,1,0,0:0:0:0:
213,192,62068,1,0,0:0:0:0:
384,192,62135,1,0,0:0:0:0:
469,192,62135,1,0,0:0:0:0:
298,192,62135,1,0,0:0:0:0:
42,192,62201,1,0,0:0:0:0:
213,192,62201,1,0,0:0:0:0:
128,192,62268,1,0,0:0:0:0:
469,192,62268,1,0,0:0:0:0:
469,192,62357,1,0,0:0:0:0:
298,192,62357,1,0,0:0:0:0:
298,192,62446,1,0,0:0:0:0:
128,192,62446,1,0,0:0:0:0:
384,192,62535,1,0,0:0:0:0:
42,192,62535,1,0,0:0:0:0:
213,192,62623,1,0,0:0:0:0:
42,192,62623,1,0,0:0:0:0:
213,192,62712,1,0,0:0:0:0:
384,192,62712,1,0,0:0:0:0:
42,192,62801,1,0,0:0:0:0:
469,192,62801,1,0,0:0:0:0:
298,192,62801,1,0,0:0:0:0:
128,192,62801,1,0,0:0:0:0:
384,192,62868,1,0,0:0:0:0:
42,192,62935,1,0,0:0:0:0:
213,192,62935,128,0,63001:0:0:0:0:
128,192,63001,1,0,0:0:0:0:
298,192,63001,128,0,63068:0:0:0:0:
213,192,63068,1,0,0:0:0:0:
384,192,63068,128,0,63135:0:0:0:0:
298,192,63135,1,0,0:0:0:0:
42,192,63201,1,0,0:0:0:0:
128,192,63201,1,0,0:0:0:0:
384,192,63201,1,0,0:0:0:0:
469,192,63201,1,0,0:0:0:0:
213,192,63268,1,0,0:0:0:0:
42,192,63335,128,0,63401:0:0:0:0:
298,192,63335,1,0,0:0:0:0:
128,192,63401,128,0,63468:0:0:0:0:
384,192,63401,1,0,0:0:0:0:
213,192,63468,128,0,63535:0:0:0:0:
469,192,63468,1,0,0:0:0:0:
298,192,63535,128,0,63601:0:0:0:0:
42,192,63601,1,0,0:0:0:0:
128,192,63601,1,0,0:0:0:0:
213,192,63601,1,0,0:0:0:0:
384,192,63601,1,0,0:0:0:0:
469,192,63668,1,0,0:0:0:0:
298,192,63735,1,0,0:0:0:0:
384,192,63735,128,0,63801:0:0:0:0:
42,192,63801,1,0,0:0:0:0:
128,192,63801,128,0,63868:0:0:0:0:
213,192,63868,1,0,0:0:0:0:
298,192,63868,128,0,63935:0:0:0:0:
384,192,63935,1,0,0:0:0:0:
469,192,63935,128,0,64001:0:0:0:0:
128,192,64001,1,0,0:0:0:0:
213,192,64001,128,0,64068:0:0:0:0:
298,192,64068,1,0,0:0:0:0:
384,192,64068,128,0,64135:0:0:0:0:
42,192,64135,1,0,0:0:0:0:
469,192,64135,128,0,64223:0:0:0:0:
213,192,64201,1,0,0:0:0:0:
298,192,64223,128,0,64312:0:0:0:0:
42,192,64268,1,0,0:0:0:0:
128,192,64312,128,0,64401:0:0:0:0:
469,192,64335,1,0,0:0:0:0:
384,192,64401,128,0,64490:0:0:0:0:
298,192,64401,1,0,0:0:0:0:
128,192,64468,1,0,0:0:0:0:
213,192,64490,128,0,64579:0:0:0:0:
469,192,64535,1,0,0:0:0:0:
42,192,64579,128,0,64668:0:0:0:0:
298,192,64601,1,0,0:0:0:0:
469,192,64668,128,0,64757:0:0:0:0:
128,192,64668,1,0,0:0:0:0:
42,192,64735,1,0,0:0:0:0:
298,192,64757,128,0,64846:0:0:0:0:
213,192,64801,1,0,0:0:0:0:
128,192,64846,128,0,64935:0:0:0:0:
384,192,64868,1,0,0:0:0:0:
42,192,64935,1,0,0:0:0:0:
213,192,64935,1,0,0:0:0:0:
469,192,64935,1,0,0:0:0:0:
298,192,65068,1,0,0:0:0:0:
384,192,65201,1,0,0:0:0:0:
42,192,65201,128,0,65468:0:0:0:0:
213,192,65335,1,0,0:0:0:0:
469,192,65468,128,0,65735:0:0:0:0:
298,192,65468,1,0,0:0:0:0:
213,192,65601,1,0,0:0:0:0:
42,192,65735,1,0,0:0:0:0:
128,192,65735,128,0,66001:0:0:0:0:
298,192,65868,1,0,0:0:0:0:
213,192,66001,1,0,0:0:0:0:
469,192,66001,128,0,66535:0:0:0:0:
384,192,66135,1,0,0:0:0:0:
128,192,66268,1,0,0:0:0:0:
213,192,66401,1,0,0:0:0:0:
42,192,66535,1,0,0:0:0:0:
298,192,66535,128,0,67068:0:0:0:0:
384,192,66535,1,0,0:0:0:0:
128,192,66668,1,0,0:0:0:0:
469,192,66801,1,0,0:0:0:0:
213,192,66935,1,0,0:0:0:0:
42,192,66935,1,0,0:0:0:0:
128,192,67068,128,0,67735:0:0:0:0:
469,192,67068,1,0,0:0:0:0:
298,192,67201,1,0,0:0:0:0:
384,192,67335,1,0,0:0:0:0:
213,192,67468,1,0,0:0:0:0:
469,192,67601,1,0,0:0:0:0:
42,192,67601,1,0,0:0:0:0:
384,192,67735,1,0,0:0:0:0:
298,192,67868,128,0,68135:0:0:0:0:
213,192,67868,1,0,0:0:0:0:
469,192,68001,1,0,0:0:0:0:
42,192,68135,128,0,68668:0:0:0:0:
128,192,68135,1,0,0:0:0:0:
469,192,68268,1,0,0:0:0:0:
213,192,68401,1,0,0:0:0:0:
384,192,68401,1,0,0:0:0:0:
298,192,68535,1,0,0:0:0:0:
469,192,68668,1,0,0:0:0:0:
213,192,68668,1,0,0:0:0:0:
42,192,68801,1,0,0:0:0:0:
298,192,68801,1,0,0:0:0:0:
128,192,68868,1,0,0:0:0:0:
213,192,68868,1,0,0:0:0:0:
469,192,68935,1,0,0:0:0:0:
42,192,68935,1,0,0:0:0:0:
384,192,69001,1,0,0:0:0:0:
298,192,69068,1,0,0:0:0:0:
213,192,69135,1,0,0:0:0:0:
469,192,69201,1,0,0:0:0:0:
384,192,69201,1,0,0:0:0:0:
42,192,69201,1,0,0:0:0:0:
128,192,69201,1,0,0:0:0:0:
298,192,69268,1,0,0:0:0:0:
213,192,69268,1,0,0:0:0:0:
384,192,69335,1,0,0:0:0:0:
469,192,69335,1,0,0:0:0:0:
42,192,69335,1,0,0:0:0:0:
128,192,69335,1,0,0:0:0:0:
298,192,69401,1,0,0:0:0:0:
213,192,69401,1,0,0:0:0:0:
42,192,69601,1,0,0:0:0:0:
128,192,69601,1,0,0:0:0:0:
213,192,69601,1,0,0:0:0:0:
469,192,69601,1,0,0:0:0:0:
298,192,69668,1,0,0:0:0:0:
384,192,69668,1,0,0:0:0:0:
469,192,69735,1,0,0:0:0:0:
213,192,69735,1,0,0:0:0:0:
42,192,69735,1,0,0:0:0:0:
128,192,69735,1,0,0:0:0:0:
298,192,69801,1,0,0:0:0:0:
384,192,69801,1,0,0:0:0:0:
42,192,70001,1,0,0:0:0:0:
128,192,70001,1,0,0:0:0:0:
213,192,70001,1,0,0:0:0:0:
298,192,70001,1,0,0:0:0:0:
469,192,70068,1,0,0:0:0:0:
384,192,70068,1,0,0:0:0:0:
298,192,70135,1,0,0:0:0:0:
213,192,70135,1,0,0:0:0:0:
128,192,70135,1,0,0:0:0:0:
42,192,70135,1,0,0:0:0:0:
384,192,70201,1,0,0:0:0:0:
469,192,70201,1,0,0:0:0:0:
213,192,70401,1,0,0:0:0:0:
298,192,70401,1,0,0:0:0:0:
384,192,70401,1,0,0:0:0:0:
469,192,70401,1,0,0:0:0:0:
128,192,70468,1,0,0:0:0:0:
42,192,70468,1,0,0:0:0:0:
213,192,70535,1,0,0:0:0:0:
298,192,70535,1,0,0:0:0:0:
384,192,70535,1,0,0:0:0:0:
469,192,70535,1,0,0:0:0:0:
128,192,70601,1,0,0:0:0:0:
42,192,70601,1,0,0:0:0:0:
213,192,70801,128,0,70868:0:0:0:0:
42,192,70801,128,0,70868:0:0:0:0:
469,192,70801,128,0,71001:0:0:0:0:
128,192,70801,128,0,70868:0:0:0:0:
384,192,70868,128,0,71068:0:0:0:0:
42,192,70935,128,0,71001:0:0:0:0:
298,192,70935,128,0,71135:0:0:0:0:
128,192,70935,128,0,71001:0:0:0:0:
213,192,71001,128,0,71201:0:0:0:0:
128,192,71068,128,0,71268:0:0:0:0:
469,192,71068,1,0,0:0:0:0:
384,192,71135,1,0,0:0:0:0:
42,192,71135,128,0,71335:0:0:0:0:
298,192,71201,1,0,0:0:0:0:
213,192,71268,1,0,0:0:0:0:
469,192,71335,1,0,0:0:0:0:
384,192,71335,1,0,0:0:0:0:
298,192,71335,1,0,0:0:0:0:
128,192,71335,1,0,0:0:0:0:
213,192,71401,1,0,0:0:0:0:
42,192,71401,1,0,0:0:0:0:
298,192,71468,1,0,0:0:0:0:
384,192,71468,1,0,0:0:0:0:
469,192,71468,1,0,0:0:0:0:
128,192,71468,1,0,0:0:0:0:
42,192,71535,1,0,0:0:0:0:
213,192,71535,1,0,0:0:0:0:
42,192,71735,1,0,0:0:0:0:
128,192,71735,1,0,0:0:0:0:
469,192,71735,1,0,0:0:0:0:
298,192,71735,1,0,0:0:0:0:
384,192,71801,1,0,0:0:0:0:
213,192,71801,1,0,0:0:0:0:
469,192,71868,1,0,0:0:0:0:
128,192,71868,1,0,0:0:0:0:
42,192,71868,1,0,0:0:0:0:
298,192,71868,1,0,0:0:0:0:
384,192,71935,1,0,0:0:0:0:
213,192,71935,1,0,0:0:0:0:
42,192,72135,1,0,0:0:0:0:
128,192,72135,1,0,0:0:0:0:
384,192,72135,1,0,0:0:0:0:
469,192,72135,1,0,0:0:0:0:
213,192,72201,1,0,0:0:0:0:
298,192,72201,1,0,0:0:0:0:
128,192,72268,1,0,0:0:0:0:
42,192,72268,1,0,0:0:0:0:
384,192,72268,1,0,0:0:0:0:
469,192,72268,1,0,0:0:0:0:
298,192,72335,1,0,0:0:0:0:
213,192,72335,1,0,0:0:0:0:
469,192,72535,1,0,0:0:0:0:
384,192,72535,1,0,0:0:0:0:
298,192,72535,1,0,0:0:0:0:
213,192,72535,1,0,0:0:0:0:
42,192,72601,1,0,0:0:0:0:
128,192,72601,1,0,0:0:0:0:
213,192,72668,1,0,0:0:0:0:
298,192,72668,1,0,0:0:0:0:
384,192,72668,1,0,0:0:0:0:
469,192,72668,1,0,0:0:0:0:
128,192,72735,1,0,0:0:0:0:
42,192,72735,1,0,0:0:0:0:
469,192,72801,128,0,72935:0:0:0:0:
42,192,72935,128,0,73379:0:0:0:0:
213,192,72935,128,0,73023:0:0:0:0:
128,192,73023,128,0,73290:0:0:0:0:
298,192,73023,128,0,73112:0:0:0:0:
213,192,73112,128,0,73201:0:0:0:0:
384,192,73112,128,0,73201:0:0:0:0:
469,192,73201,128,0,73379:0:0:0:0:
298,192,73201,128,0,73290:0:0:0:0:
384,192,73290,128,0,73379:0:0:0:0:
213,192,73290,128,0,73379:0:0:0:0:
298,192,73379,128,0,73468:0:0:0:0:
128,192,73379,128,0,73468:0:0:0:0:
384,192,73468,1,0,0:0:0:0:
469,192,73468,1,0,0:0:0:0:
213,192,73468,1,0,0:0:0:0:
42,192,73468,1,0,0:0:0:0:
298,192,73601,1,0,0:0:0:0:
213,192,73735,1,0,0:0:0:0:
42,192,73735,128,0,74001:0:0:0:0:
469,192,73868,1,0,0:0:0:0:
128,192,74001,1,0,0:0:0:0:
384,192,74001,128,0,74268:0:0:0:0:
298,192,74135,1,0,0:0:0:0:
213,192,74268,128,0,74535:0:0:0:0:
42,192,74401,1,0,0:0:0:0:
128,192,74535,1,0,0:0:0:0:
469,192,74535,128,0,75068:0:0:0:0:
298,192,74668,1,0,0:0:0:0:
213,192,74801,1,0,0:0:0:0:
384,192,74935,1,0,0:0:0:0:
42,192,75068,1,0,0:0:0:0:
298,192,75068,128,0,75601:0:0:0:0:
469,192,75201,1,0,0:0:0:0:
213,192,75335,1,0,0:0:0:0:
384,192,75468,1,0,0:0:0:0:
42,192,75468,1,0,0:0:0:0:
469,192,75601,1,0,0:0:0:0:
128,192,75601,128,0,76135:0:0:0:0:
298,192,75735,1,0,0:0:0:0:
213,192,75868,1,0,0:0:0:0:
469,192,76001,1,0,0:0:0:0:
42,192,76135,1,0,0:0:0:0:
384,192,76135,1,0,0:0:0:0:
298,192,76268,1,0,0:0:0:0:
384,192,76401,128,0,76668:0:0:0:0:
42,192,76401,1,0,0:0:0:0:
213,192,76535,1,0,0:0:0:0:
42,192,76668,128,0,76935:0:0:0:0:
469,192,76668,1,0,0:0:0:0:
384,192,76801,1,0,0:0:0:0:
213,192,76935,1,0,0:0:0:0:
42,192,77068,1,0,0:0:0:0:
298,192,77068,1,0,0:0:0:0:
469,192,77068,1,0,0:0:0:0:
213,192,77135,1,0,0:0:0:0:
128,192,77135,1,0,0:0:0:0:
42,192,77201,1,0,0:0:0:0:
384,192,77201,1,0,0:0:0:0:
469,192,77201,1,0,0:0:0:0:
298,192,77201,1,0,0:0:0:0:
384,192,77335,1,0,0:0:0:0:
213,192,77335,1,0,0:0:0:0:
298,192,77335,1,0,0:0:0:0:
42,192,77468,1,0,0:0:0:0:
213,192,77468,1,0,0:0:0:0:
128,192,77468,1,0,0:0:0:0:
298,192,77535,1,0,0:0:0:0:
384,192,77535,1,0,0:0:0:0:
469,192,77535,1,0,0:0:0:0:
213,192,77601,1,0,0:0:0:0:
128,192,77601,1,0,0:0:0:0:
42,192,77601,1,0,0:0:0:0:
384,192,77735,1,0,0:0:0:0:
469,192,77735,1,0,0:0:0:0:
42,192,77735,1,0,0:0:0:0:
298,192,77735,1,0,0:0:0:0:
128,192,77801,1,0,0:0:0:0:
213,192,77801,1,0,0:0:0:0:
298,192,77868,1,0,0:0:0:0:
384,192,77868,1,0,0:0:0:0:
469,192,77868,1,0,0:0:0:0:
42,192,77868,1,0,0:0:0:0:
128,192,77935,1,0,0:0:0:0:
213,192,77935,1,0,0:0:0:0:
42,192,78135,1,0,0:0:0:0:
128,192,78135,1,0,0:0:0:0:
213,192,78135,1,0,0:0:0:0:
469,192,78135,1,0,0:0:0:0:
384,192,78201,1,0,0:0:0:0:
298,192,78201,1,0,0:0:0:0:
469,192,78268,1,0,0:0:0:0:
213,192,78268,1,0,0:0:0:0:
128,192,78268,1,0,0:0:0:0:
42,192,78268,1,0,0:0:0:0:
298,192,78335,1,0,0:0:0:0:
384,192,78335,1,0,0:0:0:0:
42,192,78535,1,0,0:0:0:0:
128,192,78535,1,0,0:0:0:0:
469,192,78535,1,0,0:0:0:0:
298,192,78535,1,0,0:0:0:0:
213,192,78601,1,0,0:0:0:0:
384,192,78601,1,0,0:0:0:0:
469,192,78668,1,0,0:0:0:0:
128,192,78668,1,0,0:0:0:0:
42,192,78668,1,0,0:0:0:0:
298,192,78668,1,0,0:0:0:0:
213,192,78735,1,0,0:0:0:0:
384,192,78735,1,0,0:0:0:0:
469,192,78935,1,0,0:0:0:0:
384,192,78935,1,0,0:0:0:0:
42,192,78935,1,0,0:0:0:0:
213,192,78935,1,0,0:0:0:0:
298,192,79001,1,0,0:0:0:0:
128,192,79001,1,0,0:0:0:0:
213,192,79068,1,0,0:0:0:0:
384,192,79068,1,0,0:0:0:0:
469,192,79068,1,0,0:0:0:0:
42,192,79068,1,0,0:0:0:0:
298,192,79135,1,0,0:0:0:0:
128,192,79135,1,0,0:0:0:0:
384,192,79335,128,0,79535:0:0:0:0:
298,192,79401,128,0,79601:0:0:0:0:
213,192,79468,128,0,79601:0:0:0:0:
128,192,79535,128,0,79601:0:0:0:0:
42,192,79601,1,0,0:0:0:0:
384,192,79601,128,0,79690:0:0:0:0:
469,192,79601,128,0,79690:0:0:0:0:
213,192,79690,128,0,79779:0:0:0:0:
128,192,79690,128,0,79779:0:0:0:0:
384,192,79779,128,0,79868:0:0:0:0:
469,192,79779,128,0,79868:0:0:0:0:
128,192,79868,1,0,0:0:0:0:
42,192,79868,1,0,0:0:0:0:
213,192,79868,1,0,0:0:0:0:
298,192,79868,1,0,0:0:0:0:
384,192,79935,1,0,0:0:0:0:
469,192,79935,1,0,0:0:0:0:
128,192,80001,1,0,0:0:0:0:
42,192,80001,1,0,0:0:0:0:
298,192,80001,1,0,0:0:0:0:
213,192,80001,1,0,0:0:0:0:
384,192,80068,1,0,0:0:0:0:
469,192,80068,1,0,0:0:0:0:
42,192,80268,1,0,0:0:0:0:
128,192,80268,1,0,0:0:0:0:
469,192,80268,1,0,0:0:0:0:
213,192,80268,1,0,0:0:0:0:
384,192,80335,1,0,0:0:0:0:
298,192,80335,1,0,0:0:0:0:
469,192,80401,1,0,0:0:0:0:
213,192,80401,1,0,0:0:0:0:
128,192,80401,1,0,0:0:0:0:
42,192,80401,1,0,0:0:0:0:
298,192,80468,1,0,0:0:0:0:
384,192,80468,1,0,0:0:0:0:
42,192,80668,1,0,0:0:0:0:
298,192,80668,1,0,0:0:0:0:
384,192,80668,1,0,0:0:0:0:
469,192,80668,1,0,0:0:0:0:
128,192,80735,1,0,0:0:0:0:
213,192,80735,1,0,0:0:0:0:
42,192,80801,1,0,0:0:0:0:
298,192,80801,1,0,0:0:0:0:
384,192,80801,1,0,0:0:0:0:
469,192,80801,1,0,0:0:0:0:
128,192,80868,1,0,0:0:0:0:
213,192,80868,1,0,0:0:0:0:
469,192,81068,1,0,0:0:0:0:
384,192,81068,1,0,0:0:0:0:
298,192,81068,1,0,0:0:0:0:
213,192,81068,1,0,0:0:0:0:
128,192,81135,1,0,0:0:0:0:
42,192,81135,1,0,0:0:0:0:
213,192,81201,1,0,0:0:0:0:
298,192,81201,1,0,0:0:0:0:
384,192,81201,1,0,0:0:0:0:
469,192,81201,1,0,0:0:0:0:
42,192,81268,1,0,0:0:0:0:
128,192,81268,1,0,0:0:0:0:
42,192,81468,1,0,0:0:0:0:
128,192,81468,1,0,0:0:0:0:
384,192,81468,1,0,0:0:0:0:
469,192,81468,1,0,0:0:0:0:
213,192,81535,1,0,0:0:0:0:
298,192,81535,1,0,0:0:0:0:
384,192,81601,1,0,0:0:0:0:
469,192,81601,1,0,0:0:0:0:
128,192,81668,1,0,0:0:0:0:
42,192,81668,1,0,0:0:0:0:
469,192,81735,1,0,0:0:0:0:
384,192,81735,1,0,0:0:0:0:
298,192,81735,1,0,0:0:0:0:
213,192,81735,1,0,0:0:0:0:
128,192,81801,1,0,0:0:0:0:
42,192,81801,1,0,0:0:0:0:
213,192,81868,1,0,0:0:0:0:
298,192,81868,1,0,0:0:0:0:
469,192,81935,1,0,0:0:0:0:
384,192,81935,1,0,0:0:0:0:
298,192,82001,1,0,0:0:0:0:
213,192,82001,1,0,0:0:0:0:
128,192,82001,1,0,0:0:0:0:
42,192,82001,1,0,0:0:0:0:
384,192,82068,1,0,0:0:0:0:
469,192,82068,1,0,0:0:0:0:
42,192,82135,1,0,0:0:0:0:
128,192,82135,1,0,0:0:0:0:
213,192,82135,1,0,0:0:0:0:
298,192,82135,1,0,0:0:0:0:
384,192,82201,1,0,0:0:0:0:
469,192,82201,1,0,0:0:0:0:
213,192,82401,1,0,0:0:0:0:
384,192,82401,1,0,0:0:0:0:
298,192,82401,1,0,0:0:0:0:
469,192,82401,1,0,0:0:0:0:
128,192,82468,1,0,0:0:0:0:
42,192,82468,1,0,0:0:0:0:
213,192,82535,1,0,0:0:0:0:
298,192,82535,1,0,0:0:0:0:
384,192,82535,1,0,0:0:0:0:
469,192,82535,1,0,0:0:0:0:
128,192,82601,1,0,0:0:0:0:
42,192,82601,1,0,0:0:0:0:
42,192,82801,1,0,0:0:0:0:
128,192,82801,1,0,0:0:0:0:
469,192,82801,1,0,0:0:0:0:
384,192,82801,1,0,0:0:0:0:
298,192,82868,1,0,0:0:0:0:
213,192,82868,1,0,0:0:0:0:
469,192,82935,1,0,0:0:0:0:
384,192,82935,1,0,0:0:0:0:
128,192,82935,1,0,0:0:0:0:
42,192,82935,1,0,0:0:0:0:
213,192,83001,1,0,0:0:0:0:
298,192,83001,1,0,0:0:0:0:
42,192,83201,1,0,0:0:0:0:
213,192,83201,1,0,0:0:0:0:
128,192,83201,1,0,0:0:0:0:
298,192,83201,1,0,0:0:0:0:
384,192,83268,1,0,0:0:0:0:
469,192,83268,1,0,0:0:0:0:
42,192,83335,1,0,0:0:0:0:
128,192,83335,1,0,0:0:0:0:
213,192,83335,1,0,0:0:0:0:
298,192,83335,1,0,0:0:0:0:
384,192,83401,1,0,0:0:0:0:
469,192,83401,1,0,0:0:0:0:
42,192,83601,1,0,0:0:0:0:
469,192,83601,1,0,0:0:0:0:
384,192,83601,1,0,0:0:0:0:
213,192,83601,1,0,0:0:0:0:
384,192,83690,1,0,0:0:0:0:
469,192,83690,1,0,0:0:0:0:
128,192,83690,1,0,0:0:0:0:
469,192,83779,1,0,0:0:0:0:
384,192,83779,1,0,0:0:0:0:
213,192,83779,1,0,0:0:0:0:
128,192,83868,1,0,0:0:0:0:
42,192,83868,1,0,0:0:0:0:
298,192,83868,1,0,0:0:0:0:
42,192,83957,1,0,0:0:0:0:
128,192,83957,1,0,0:0:0:0:
384,192,83957,1,0,0:0:0:0:
128,192,84046,1,0,0:0:0:0:
42,192,84046,1,0,0:0:0:0:
469,192,84046,1,0,0:0:0:0:
42,192,84135,128,0,85201:0:0:0:0:
128,192,84135,128,0,85201:0:0:0:0:
384,192,84335,128,0,84535:0:0:0:0:
213,192,84468,128,0,84601:0:0:0:0:
298,192,84601,128,0,84668:0:0:0:0:
469,192,84768,128,0,85201:0:0:0:0:
384,192,85001,128,0,85201:0:0:0:0:
213,192,85201,128,0,85268:0:0:0:0:
298,192,85268,128,0,85335:0:0:0:0:
128,192,85335,128,0,85401:0:0:0:0:
384,192,85401,128,0,85468:0:0:0:0:
213,192,85468,128,0,85535:0:0:0:0:
298,192,85535,128,0,85601:0:0:0:0:
128,192,85601,128,0,85668:0:0:0:0:
384,192,85668,128,0,85735:0:0:0:0:
213,192,85735,128,0,85801:0:0:0:0:
298,192,85801,128,0,85868:0:0:0:0:
128,192,85868,128,0,85935:0:0:0:0:
384,192,85935,128,0,86001:0:0:0:0:
469,192,86001,1,0,0:0:0:0:
42,192,86001,1,0,0:0:0:0:
298,192,86001,1,0,0:0:0:0:
213,192,86001,1,0,0:0:0:0:
42,192,86268,1,0,0:0:0:0:
469,192,86268,1,0,0:0:0:0:
384,192,86268,1,0,0:0:0:0:
298,192,86268,1,0,0:0:0:0:
128,192,86335,1,0,0:0:0:0:
213,192,86401,1,0,0:0:0:0:
384,192,86401,1,0,0:0:0:0:
128,192,86468,1,0,0:0:0:0:
213,192,86535,1,0,0:0:0:0:
298,192,86535,1,0,0:0:0:0:
42,192,86535,1,0,0:0:0:0:
469,192,86535,1,0,0:0:0:0:
384,192,86601,1,0,0:0:0:0:
128,192,86668,1,0,0:0:0:0:
469,192,86668,1,0,0:0:0:0:
298,192,86735,1,0,0:0:0:0:
213,192,86801,1,0,0:0:0:0:
469,192,86801,1,0,0:0:0:0:
384,192,86801,1,0,0:0:0:0:
42,192,86801,1,0,0:0:0:0:
298,192,86868,1,0,0:0:0:0:
128,192,86868,1,0,0:0:0:0:
42,192,86935,1,0,0:0:0:0:
384,192,86935,1,0,0:0:0:0:
213,192,87001,1,0,0:0:0:0:
469,192,87001,1,0,0:0:0:0:
128,192,87068,1,0,0:0:0:0:
384,192,87068,1,0,0:0:0:0:
42,192,87068,1,0,0:0:0:0:
298,192,87068,1,0,0:0:0:0:
213,192,87135,1,0,0:0:0:0:
469,192,87135,1,0,0:0:0:0:
128,192,87201,1,0,0:0:0:0:
384,192,87201,1,0,0:0:0:0:
42,192,87268,1,0,0:0:0:0:
298,192,87268,1,0,0:0:0:0:
128,192,87335,1,0,0:0:0:0:
213,192,87335,1,0,0:0:0:0:
469,192,87335,1,0,0:0:0:0:
384,192,87335,1,0,0:0:0:0:
298,192,87401,1,0,0:0:0:0:
213,192,87468,1,0,0:0:0:0:
469,192,87468,1,0,0:0:0:0:
128,192,87535,1,0,0:0:0:0:
298,192,87601,1,0,0:0:0:0:
384,192,87601,1,0,0:0:0:0:
42,192,87601,1,0,0:0:0:0:
213,192,87601,1,0,0:0:0:0:
469,192,87668,1,0,0:0:0:0:
384,192,87735,1,0,0:0:0:0:
128,192,87735,1,0,0:0:0:0:
213,192,87801,1,0,0:0:0:0:
42,192,87868,1,0,0:0:0:0:
469,192,87868,1,0,0:0:0:0:
298,192,87868,1,0,0:0:0:0:
128,192,87868,1,0,0:0:0:0:
213,192,87935,1,0,0:0:0:0:
384,192,87935,1,0,0:0:0:0:
42,192,88001,1,0,0:0:0:0:
298,192,88001,1,0,0:0:0:0:
128,192,88068,1,0,0:0:0:0:
469,192,88068,1,0,0:0:0:0:
42,192,88135,1,0,0:0:0:0:
213,192,88135,1,0,0:0:0:0:
298,192,88135,1,0,0:0:0:0:
384,192,88135,1,0,0:0:0:0:
128,192,88201,1,0,0:0:0:0:
469,192,88201,1,0,0:0:0:0:
213,192,88268,1,0,0:0:0:0:
384,192,88268,1,0,0:0:0:0:
42,192,88335,1,0,0:0:0:0:
298,192,88335,1,0,0:0:0:0:
128,192,88401,1,0,0:0:0:0:
469,192,88401,1,0,0:0:0:0:
384,192,88401,1,0,0:0:0:0:
213,192,88401,1,0,0:0:0:0:
298,192,88468,1,0,0:0:0:0:
128,192,88535,1,0,0:0:0:0:
469,192,88535,1,0,0:0:0:0:
213,192,88601,1,0,0:0:0:0:
298,192,88668,1,0,0:0:0:0:
42,192,88668,1,0,0:0:0:0:
384,192,88668,1,0,0:0:0:0:
469,192,88668,1,0,0:0:0:0:
213,192,88735,1,0,0:0:0:0:
128,192,88801,1,0,0:0:0:0:
384,192,88801,1,0,0:0:0:0:
298,192,88868,1,0,0:0:0:0:
213,192,88935,1,0,0:0:0:0:
42,192,88935,1,0,0:0:0:0:
469,192,88935,1,0,0:0:0:0:
384,192,88935,1,0,0:0:0:0:
128,192,89001,1,0,0:0:0:0:
298,192,89001,1,0,0:0:0:0:
469,192,89068,1,0,0:0:0:0:
213,192,89068,1,0,0:0:0:0:
384,192,89135,1,0,0:0:0:0:
128,192,89135,1,0,0:0:0:0:
42,192,89201,1,0,0:0:0:0:
213,192,89201,1,0,0:0:0:0:
298,192,89201,1,0,0:0:0:0:
469,192,89201,1,0,0:0:0:0:
128,192,89268,1,0,0:0:0:0:
384,192,89268,1,0,0:0:0:0:
42,192,89335,1,0,0:0:0:0:
298,192,89335,1,0,0:0:0:0:
384,192,89401,1,0,0:0:0:0:
213,192,89401,1,0,0:0:0:0:
42,192,89468,1,0,0:0:0:0:
298,192,89468,1,0,0:0:0:0:
128,192,89468,1,0,0:0:0:0:
469,192,89468,1,0,0:0:0:0:
213,192,89535,1,0,0:0:0:0:
128,192,89601,1,0,0:0:0:0:
384,192,89601,1,0,0:0:0:0:
298,192,89668,1,0,0:0:0:0:
128,192,89735,1,0,0:0:0:0:
42,192,89735,1,0,0:0:0:0:
469,192,89735,1,0,0:0:0:0:
384,192,89735,1,0,0:0:0:0:
213,192,89801,1,0,0:0:0:0:
469,192,89868,1,0,0:0:0:0:
298,192,89868,1,0,0:0:0:0:
213,192,89935,1,0,0:0:0:0:
469,192,90001,1,0,0:0:0:0:
298,192,90001,1,0,0:0:0:0:
42,192,90001,1,0,0:0:0:0:
128,192,90001,1,0,0:0:0:0:
384,192,90068,1,0,0:0:0:0:
213,192,90068,1,0,0:0:0:0:
42,192,90135,1,0,0:0:0:0:
298,192,90135,1,0,0:0:0:0:
128,192,90201,1,0,0:0:0:0:
469,192,90201,1,0,0:0:0:0:
298,192,90268,1,0,0:0:0:0:
213,192,90268,1,0,0:0:0:0:
42,192,90268,1,0,0:0:0:0:
384,192,90268,1,0,0:0:0:0:
128,192,90335,1,0,0:0:0:0:
469,192,90335,1,0,0:0:0:0:
213,192,90401,1,0,0:0:0:0:
384,192,90401,1,0,0:0:0:0:
128,192,90468,1,0,0:0:0:0:
298,192,90468,1,0,0:0:0:0:
469,192,90535,1,0,0:0:0:0:
213,192,90535,1,0,0:0:0:0:
42,192,90535,1,0,0:0:0:0:
384,192,90535,1,0,0:0:0:0:
298,192,90601,1,0,0:0:0:0:
128,192,90668,1,0,0:0:0:0:
384,192,90668,1,0,0:0:0:0:
298,192,90735,1,0,0:0:0:0:
469,192,90801,1,0,0:0:0:0:
42,192,90801,1,0,0:0:0:0:
128,192,90801,1,0,0:0:0:0:
213,192,90801,1,0,0:0:0:0:
384,192,90868,1,0,0:0:0:0:
42,192,90935,1,0,0:0:0:0:
298,192,90935,1,0,0:0:0:0:
213,192,91001,1,0,0:0:0:0:
42,192,91068,1,0,0:0:0:0:
469,192,91068,1,0,0:0:0:0:
128,192,91068,1,0,0:0:0:0:
298,192,91068,1,0,0:0:0:0:
213,192,91135,1,0,0:0:0:0:
384,192,91135,1,0,0:0:0:0:
128,192,91201,1,0,0:0:0:0:
469,192,91201,1,0,0:0:0:0:
298,192,91268,1,0,0:0:0:0:
42,192,91268,1,0,0:0:0:0:
384,192,91335,1,0,0:0:0:0:
469,192,91335,1,0,0:0:0:0:
213,192,91335,1,0,0:0:0:0:
128,192,91335,1,0,0:0:0:0:
298,192,91401,1,0,0:0:0:0:
42,192,91401,1,0,0:0:0:0:
128,192,91468,1,0,0:0:0:0:
384,192,91468,1,0,0:0:0:0:
213,192,91535,1,0,0:0:0:0:
298,192,91535,1,0,0:0:0:0:
128,192,91601,1,0,0:0:0:0:
42,192,91601,1,0,0:0:0:0:
384,192,91601,1,0,0:0:0:0:
469,192,91601,1,0,0:0:0:0:
213,192,91668,1,0,0:0:0:0:
42,192,91735,1,0,0:0:0:0:
298,192,91735,1,0,0:0:0:0:
128,192,91801,1,0,0:0:0:0:
469,192,91868,1,0,0:0:0:0:
213,192,91868,1,0,0:0:0:0:
384,192,91868,1,0,0:0:0:0:
42,192,91868,1,0,0:0:0:0:
298,192,91935,1,0,0:0:0:0:
128,192,92001,1,0,0:0:0:0:
384,192,92001,1,0,0:0:0:0:
298,192,92068,1,0,0:0:0:0:
384,192,92135,1,0,0:0:0:0:
42,192,92135,1,0,0:0:0:0:
469,192,92135,1,0,0:0:0:0:
213,192,92135,1,0,0:0:0:0:
128,192,92201,1,0,0:0:0:0:
298,192,92201,1,0,0:0:0:0:
42,192,92268,1,0,0:0:0:0:
384,192,92268,1,0,0:0:0:0:
469,192,92335,1,0,0:0:0:0:
213,192,92335,1,0,0:0:0:0:
128,192,92401,1,0,0:0:0:0:
384,192,92401,1,0,0:0:0:0:
42,192,92401,1,0,0:0:0:0:
298,192,92468,1,0,0:0:0:0:
213,192,92535,1,0,0:0:0:0:
469,192,92535,1,0,0:0:0:0:
42,192,92535,1,0,0:0:0:0:
384,192,92601,1,0,0:0:0:0:
298,192,92601,1,0,0:0:0:0:
128,192,92601,1,0,0:0:0:0:
42,192,92668,1,0,0:0:0:0:
469,192,92668,1,0,0:0:0:0:
213,192,92668,1,0,0:0:0:0:
384,192,92735,1,0,0:0:0:0:
298,192,92801,1,0,0:0:0:0:
213,192,92801,1,0,0:0:0:0:
469,192,92868,1,0,0:0:0:0:
42,192,92935,1,0,0:0:0:0:
298,192,92935,1,0,0:0:0:0:
128,192,92935,1,0,0:0:0:0:
384,192,92935,1,0,0:0:0:0:
469,192,93001,1,0,0:0:0:0:
298,192,93068,1,0,0:0:0:0:
42,192,93068,1,0,0:0:0:0:
128,192,93135,1,0,0:0:0:0:
42,192,93201,1,0,0:0:0:0:
469,192,93201,1,0,0:0:0:0:
213,192,93201,1,0,0:0:0:0:
384,192,93201,1,0,0:0:0:0:
298,192,93268,1,0,0:0:0:0:
128,192,93268,1,0,0:0:0:0:
213,192,93335,1,0,0:0:0:0:
384,192,93335,1,0,0:0:0:0:
42,192,93401,1,0,0:0:0:0:
298,192,93401,1,0,0:0:0:0:
213,192,93468,1,0,0:0:0:0:
128,192,93468,1,0,0:0:0:0:
384,192,93468,1,0,0:0:0:0:
469,192,93468,1,0,0:0:0:0:
42,192,93535,1,0,0:0:0:0:
298,192,93535,1,0,0:0:0:0:
213,192,93601,1,0,0:0:0:0:
469,192,93601,1,0,0:0:0:0:
128,192,93668,1,0,0:0:0:0:
384,192,93668,1,0,0:0:0:0:
42,192,93735,128,0,93868:0:0:0:0:
213,192,93735,128,0,93868:0:0:0:0:
469,192,93735,128,0,93868:0:0:0:0:
298,192,93735,128,0,93868:0:0:0:0:
298,192,93935,128,0,94068:0:0:0:0:
42,192,93935,128,0,94068:0:0:0:0:
213,192,93935,128,0,94068:0:0:0:0:
469,192,93935,128,0,94068:0:0:0:0:
469,192,94135,128,0,94268:0:0:0:0:
384,192,94135,128,0,94268:0:0:0:0:
128,192,94135,128,0,94268:0:0:0:0:
42,192,94135,128,0,94268:0:0:0:0:
469,192,94335,128,0,94468:0:0:0:0:
384,192,94335,128,0,94468:0:0:0:0:
128,192,94335,128,0,94468:0:0:0:0:
42,192,94335,128,0,94468:0:0:0:0:
213,192,94535,128,0,94668:0:0:0:0:
469,192,94535,128,0,94668:0:0:0:0:
128,192,94601,128,0,94735:0:0:0:0:
384,192,94601,128,0,94735:0:0:0:0:
42,192,94668,128,0,94735:0:0:0:0:
298,192,94668,128,0,94735:0:0:0:0:
469,192,94735,128,0,94801:0:0:0:0:
213,192,94735,128,0,94801:0:0:0:0:
42,192,94801,1,0,0:0:0:0:
128,192,94801,1,0,0:0:0:0:
384,192,94801,1,0,0:0:0:0:
298,192,94801,1,0,0:0:0:0:
213,192,94868,1,0,0:0:0:0:
298,192,94935,1,0,0:0:0:0:
42,192,94935,1,0,0:0:0:0:
384,192,95001,1,0,0:0:0:0:
469,192,95068,1,0,0:0:0:0:
128,192,95068,1,0,0:0:0:0:
213,192,95068,1,0,0:0:0:0:
298,192,95068,1,0,0:0:0:0:
42,192,95135,1,0,0:0:0:0:
128,192,95201,1,0,0:0:0:0:
384,192,95201,1,0,0:0:0:0:
298,192,95268,1,0,0:0:0:0:
213,192,95335,1,0,0:0:0:0:
469,192,95335,1,0,0:0:0:0:
384,192,95335,1,0,0:0:0:0:
42,192,95335,1,0,0:0:0:0:
298,192,95401,1,0,0:0:0:0:
128,192,95401,1,0,0:0:0:0:
213,192,95468,1,0,0:0:0:0:
469,192,95468,1,0,0:0:0:0:
128,192,95535,1,0,0:0:0:0:
384,192,95535,1,0,0:0:0:0:
42,192,95601,1,0,0:0:0:0:
213,192,95601,1,0,0:0:0:0:
298,192,95601,1,0,0:0:0:0:
469,192,95601,1,0,0:0:0:0:
128,192,95668,1,0,0:0:0:0:
384,192,95668,1,0,0:0:0:0:
298,192,95735,1,0,0:0:0:0:
42,192,95735,1,0,0:0:0:0:
213,192,95801,1,0,0:0:0:0:
469,192,95801,1,0,0:0:0:0:
42,192,95868,1,0,0:0:0:0:
298,192,95868,1,0,0:0:0:0:
384,192,95868,1,0,0:0:0:0:
128,192,95868,1,0,0:0:0:0:
42,192,96001,1,0,0:0:0:0:
213,192,96001,1,0,0:0:0:0:
384,192,96001,1,0,0:0:0:0:
469,192,96001,1,0,0:0:0:0:
42,192,96268,1,0,0:0:0:0:
128,192,96268,1,0,0:0:0:0:
298,192,96268,1,0,0:0:0:0:
469,192,96268,1,0,0:0:0:0:
42,192,96535,1,0,0:0:0:0:
128,192,96535,1,0,0:0:0:0:
298,192,96535,1,0,0:0:0:0:
469,192,96535,1,0,0:0:0:0:
384,192,96801,1,0,0:0:0:0:
469,192,96801,1,0,0:0:0:0:
128,192,96801,1,0,0:0:0:0:
42,192,96801,1,0,0:0:0:0:
298,192,96868,1,0,0:0:0:0:
213,192,96868,1,0,0:0:0:0:
42,192,96935,1,0,0:0:0:0:
128,192,96935,1,0,0:0:0:0:
384,192,96935,1,0,0:0:0:0:
469,192,96935,1,0,0:0:0:0:
298,192,97001,1,0,0:0:0:0:
213,192,97068,1,0,0:0:0:0:
42,192,97068,1,0,0:0:0:0:
128,192,97135,1,0,0:0:0:0:
42,192,97201,1,0,0:0:0:0:
384,192,97201,1,0,0:0:0:0:
469,192,97201,1,0,0:0:0:0:
298,192,97201,1,0,0:0:0:0:
128,192,97268,1,0,0:0:0:0:
298,192,97335,1,0,0:0:0:0:
213,192,97335,1,0,0:0:0:0:
469,192,97401,1,0,0:0:0:0:
298,192,97468,1,0,0:0:0:0:
384,192,97468,1,0,0:0:0:0:
42,192,97468,1,0,0:0:0:0:
128,192,97468,1,0,0:0:0:0:
469,192,97535,1,0,0:0:0:0:
213,192,97535,1,0,0:0:0:0:
384,192,97601,1,0,0:0:0:0:
128,192,97601,1,0,0:0:0:0:
42,192,97668,1,0,0:0:0:0:
298,192,97668,1,0,0:0:0:0:
128,192,97735,1,0,0:0:0:0:
469,192,97735,1,0,0:0:0:0:
384,192,97735,1,0,0:0:0:0:
213,192,97735,1,0,0:0:0:0:
42,192,97801,1,0,0:0:0:0:
298,192,97801,1,0,0:0:0:0:
128,192,97868,1,0,0:0:0:0:
469,192,97868,1,0,0:0:0:0:
384,192,97935,1,0,0:0:0:0:
213,192,97935,1,0,0:0:0:0:
469,192,98001,1,0,0:0:0:0:
42,192,98001,1,0,0:0:0:0:
128,192,98001,1,0,0:0:0:0:
298,192,98001,128,0,98401:0:0:0:0:
42,192,98201,1,0,0:0:0:0:
469,192,98201,1,0,0:0:0:0:
384,192,98201,1,0,0:0:0:0:
213,192,98201,1,0,0:0:0:0:
42,192,98401,128,0,98668:0:0:0:0:
384,192,98401,1,0,0:0:0:0:
213,192,98401,1,0,0:0:0:0:
469,192,98401,1,0,0:0:0:0:
213,192,98668,128,0,98935:0:0:0:0:
469,192,98668,1,0,0:0:0:0:
128,192,98668,1,0,0:0:0:0:
298,192,98668,1,0,0:0:0:0:
42,192,98935,1,0,0:0:0:0:
128,192,98935,1,0,0:0:0:0:
384,192,98935,1,0,0:0:0:0:
469,192,98935,1,0,0:0:0:0:
213,192,99001,1,0,0:0:0:0:
298,192,99001,1,0,0:0:0:0:
469,192,99068,1,0,0:0:0:0:
384,192,99068,1,0,0:0:0:0:
128,192,99068,1,0,0:0:0:0:
42,192,99068,1,0,0:0:0:0:
213,192,99135,1,0,0:0:0:0:
298,192,99201,1,0,0:0:0:0:
42,192,99201,1,0,0:0:0:0:
384,192,99268,1,0,0:0:0:0:
469,192,99335,1,0,0:0:0:0:
213,192,99335,1,0,0:0:0:0:
128,192,99335,1,0,0:0:0:0:
298,192,99335,1,0,0:0:0:0:
42,192,99401,1,0,0:0:0:0:
128,192,99468,1,0,0:0:0:0:
384,192,99468,1,0,0:0:0:0:
298,192,99535,1,0,0:0:0:0:
213,192,99601,1,0,0:0:0:0:
42,192,99601,1,0,0:0:0:0:
469,192,99601,1,0,0:0:0:0:
384,192,99601,1,0,0:0:0:0:
128,192,99668,1,0,0:0:0:0:
213,192,99735,1,0,0:0:0:0:
469,192,99735,1,0,0:0:0:0:
298,192,99735,1,0,0:0:0:0:
384,192,99735,1,0,0:0:0:0:
42,192,99801,1,0,0:0:0:0:
384,192,99868,1,0,0:0:0:0:
128,192,99868,1,0,0:0:0:0:
213,192,99868,1,0,0:0:0:0:
298,192,99868,1,0,0:0:0:0:
469,192,99935,1,0,0:0:0:0:
42,192,100001,1,0,0:0:0:0:
298,192,100001,1,0,0:0:0:0:
128,192,100001,1,0,0:0:0:0:
213,192,100068,1,0,0:0:0:0:
469,192,100135,1,0,0:0:0:0:
384,192,100135,1,0,0:0:0:0:
298,192,100135,1,0,0:0:0:0:
42,192,100135,1,0,0:0:0:0:
213,192,100201,1,0,0:0:0:0:
128,192,100201,1,0,0:0:0:0:
469,192,100268,1,0,0:0:0:0:
384,192,100268,1,0,0:0:0:0:
42,192,100268,1,0,0:0:0:0:
298,192,100335,1,0,0:0:0:0:
213,192,100335,1,0,0:0:0:0:
42,192,100401,1,0,0:0:0:0:
469,192,100401,1,0,0:0:0:0:
384,192,100401,1,0,0:0:0:0:
128,192,100401,1,0,0:0:0:0:
213,192,100601,1,0,0:0:0:0:
42,192,100601,1,0,0:0:0:0:
469,192,100668,128,0,100935:0:0:0:0:
298,192,100668,1,0,0:0:0:0:
128,192,100668,1,0,0:0:0:0:
384,192,100668,1,0,0:0:0:0:
384,192,100935,1,0,0:0:0:0:
42,192,100935,1,0,0:0:0:0:
128,192,100935,1,0,0:0:0:0:
298,192,101001,1,0,0:0:0:0:
213,192,101001,1,0,0:0:0:0:
469,192,101068,1,0,0:0:0:0:
42,192,101068,1,0,0:0:0:0:
128,192,101068,1,0,0:0:0:0:
384,192,101101,1,0,0:0:0:0:
298,192,101135,1,0,0:0:0:0:
213,192,101168,1,0,0:0:0:0:
469,192,101201,128,0,101468:0:0:0:0:
384,192,101201,128,0,101423:0:0:0:0:
42,192,101201,128,0,101335:0:0:0:0:
128,192,101201,128,0,101379:0:0:0:0:
42,192,101468,1,0,0:0:0:0:
213,192,101468,1,0,0:0:0:0:
298,192,101468,1,0,0:0:0:0:
128,192,101468,1,0,0:0:0:0:
42,192,101601,128,0,101868:0:0:0:0:
128,192,101601,128,0,101823:0:0:0:0:
298,192,101601,128,0,101779:0:0:0:0:
469,192,101601,128,0,101735:0:0:0:0:
128,192,102001,1,0,0:0:0:0:
298,192,102001,1,0,0:0:0:0:
469,192,102001,128,0,102068:0:0:0:0:
384,192,102001,1,0,0:0:0:0:
384,192,102135,1,0,0:0:0:0:
213,192,102135,1,0,0:0:0:0:
128,192,102135,1,0,0:0:0:0:
42,192,102135,128,0,102201:0:0:0:0:
213,192,102268,128,0,102335:0:0:0:0:
298,192,102401,128,0,102468:0:0:0:0:
128,192,102401,1,0,0:0:0:0:
469,192,102401,1,0,0:0:0:0:
384,192,102401,1,0,0:0:0:0:
384,192,102535,1,0,0:0:0:0:
213,192,102535,1,0,0:0:0:0:
42,192,102535,128,0,102601:0:0:0:0:
128,192,102535,1,0,0:0:0:0:
469,192,102668,1,0,0:0:0:0:
213,192,102668,128,0,102735:0:0:0:0:
298,192,102668,1,0,0:0:0:0:
384,192,102735,1,0,0:0:0:0:
128,192,102735,1,0,0:0:0:0:
469,192,102801,128,0,103068:0:0:0:0:
298,192,102801,128,0,102868:0:0:0:0:
213,192,102801,1,0,0:0:0:0:
42,192,102801,1,0,0:0:0:0:
128,192,102935,128,0,103001:0:0:0:0:
384,192,102935,128,0,103068:0:0:0:0:
42,192,103068,128,0,103335:0:0:0:0:
213,192,103068,128,0,103135:0:0:0:0:
384,192,103201,128,0,103268:0:0:0:0:
128,192,103201,128,0,103335:0:0:0:0:
469,192,103335,128,0,103601:0:0:0:0:
213,192,103335,128,0,103468:0:0:0:0:
298,192,103335,128,0,103512:0:0:0:0:
384,192,103335,128,0,103557:0:0:0:0:
42,192,103512,1,0,0:0:0:0:
128,192,103557,1,0,0:0:0:0:
213,192,103601,1,0,0:0:0:0:
42,192,103735,128,0,104135:0:0:0:0:
213,192,103735,128,0,104090:0:0:0:0:
298,192,103735,128,0,104068:0:0:0:0:
384,192,103735,128,0,104046:0:0:0:0:
469,192,103735,128,0,104023:0:0:0:0:
128,192,104001,128,0,104112:0:0:0:0:
469,192,104135,1,0,0:0:0:0:
42,192,104268,1,0,0:0:0:0:
128,192,104268,1,0,0:0:0:0:
213,192,104268,1,0,0:0:0:0:
298,192,104335,1,0,0:0:0:0:
384,192,104335,1,0,0:0:0:0:
469,192,104335,1,0,0:0:0:0:
42,192,104401,1,0,0:0:0:0:
213,192,104401,1,0,0:0:0:0:
128,192,104401,1,0,0:0:0:0:
298,192,104468,1,0,0:0:0:0:
384,192,104468,1,0,0:0:0:0:
469,192,104468,1,0,0:0:0:0:
42,192,104535,1,0,0:0:0:0:
128,192,104535,1,0,0:0:0:0:
213,192,104535,1,0,0:0:0:0:
298,192,104601,1,0,0:0:0:0:
384,192,104601,1,0,0:0:0:0:
469,192,104601,1,0,0:0:0:0:
42,192,104668,1,0,0:0:0:0:
128,192,104668,1,0,0:0:0:0:
213,192,104668,1,0,0:0:0:0:
298,192,104735,1,0,0:0:0:0:
384,192,104735,1,0,0:0:0:0:
469,192,104735,1,0,0:0:0:0:
42,192,104801,1,0,0:0:0:0:
128,192,104801,1,0,0:0:0:0:
213,192,104801,1,0,0:0:0:0:
298,192,104868,1,0,0:0:0:0:
384,192,104868,1,0,0:0:0:0:
469,192,104868,1,0,0:0:0:0:
42,192,104935,1,0,0:0:0:0:
128,192,104935,1,0,0:0:0:0:
213,192,104935,1,0,0:0:0:0:
298,192,105001,1,0,0:0:0:0:
384,192,105001,1,0,0:0:0:0:
469,192,105001,1,0,0:0:0:0:
42,192,105068,1,0,0:0:0:0:
213,192,105068,1,0,0:0:0:0:
128,192,105068,1,0,0:0:0:0:
298,192,105135,1,0,0:0:0:0:
384,192,105135,1,0,0:0:0:0:
469,192,105135,1,0,0:0:0:0:
42,192,105201,1,0,0:0:0:0:
128,192,105201,1,0,0:0:0:0:
213,192,105201,1,0,0:0:0:0:
298,192,105268,1,0,0:0:0:0:
384,192,105268,1,0,0:0:0:0:
469,192,105268,1,0,0:0:0:0:
42,192,105335,1,0,0:0:0:0:
128,192,105335,1,0,0:0:0:0:
213,192,105335,1,0,0:0:0:0:
298,192,105401,1,0,0:0:0:0:
469,192,105401,1,0,0:0:0:0:
384,192,105401,1,0,0:0:0:0:
42,192,105468,1,0,0:0:0:0:
128,192,105468,1,0,0:0:0:0:
213,192,105468,1,0,0:0:0:0:
298,192,105535,1,0,0:0:0:0:
384,192,105535,1,0,0:0:0:0:
469,192,105535,1,0,0:0:0:0:
213,192,105601,1,0,0:0:0:0:
128,192,105601,1,0,0:0:0:0:
42,192,105601,1,0,0:0:0:0:
298,192,105668,1,0,0:0:0:0:
384,192,105668,1,0,0:0:0:0:
469,192,105668,1,0,0:0:0:0:
213,192,105735,1,0,0:0:0:0:
128,192,105735,1,0,0:0:0:0:
42,192,105735,1,0,0:0:0:0:
298,192,105801,1,0,0:0:0:0:
469,192,105801,1,0,0:0:0:0:
384,192,105801,1,0,0:0:0:0:
128,192,105868,1,0,0:0:0:0:
42,192,105868,1,0,0:0:0:0:
213,192,105868,1,0,0:0:0:0:
298,192,105935,1,0,0:0:0:0:
469,192,105935,1,0,0:0:0:0:
384,192,105935,1,0,0:0:0:0:
42,192,106001,1,0,0:0:0:0:
128,192,106001,1,0,0:0:0:0:
213,192,106035,1,0,0:0:0:0:
298,192,106068,1,0,0:0:0:0:
384,192,106068,1,0,0:0:0:0:
469,192,106101,1,0,0:0:0:0:
42,192,106135,1,0,0:0:0:0:
128,192,106168,1,0,0:0:0:0:
213,192,106168,1,0,0:0:0:0:
298,192,106201,1,0,0:0:0:0:
384,192,106235,1,0,0:0:0:0:
469,192,106235,1,0,0:0:0:0:
42,192,106268,1,0,0:0:0:0:
128,192,106290,1,0,0:0:0:0:
213,192,106312,1,0,0:0:0:0:
298,192,106335,1,0,0:0:0:0:
384,192,106357,1,0,0:0:0:0:
469,192,106379,1,0,0:0:0:0:
42,192,106401,1,0,0:0:0:0:
128,192,106423,1,0,0:0:0:0:
213,192,106446,1,0,0:0:0:0:
298,192,106468,1,0,0:0:0:0:
384,192,106490,1,0,0:0:0:0:
469,192,106512,1,0,0:0:0:0:
42,192,106535,1,0,0:0:0:0:
128,192,106535,1,0,0:0:0:0:
213,192,106535,128,0,108801:0:0:0:0:
42,192,110801,1,0,0:0:0:0:
384,192,110801,1,0,0:0:0:0:
469,192,110801,1,0,0:0:0:0:
298,192,110868,1,0,0:0:0:0:
42,192,110935,1,0,0:0:0:0:
213,192,111001,1,0,0:0:0:0:
42,192,111068,1,0,0:0:0:0:
469,192,111068,1,0,0:0:0:0:
213,192,111135,1,0,0:0:0:0:
42,192,111201,1,0,0:0:0:0:
298,192,111268,1,0,0:0:0:0:
213,192,111335,1,0,0:0:0:0:
42,192,111335,1,0,0:0:0:0:
384,192,111401,1,0,0:0:0:0:
213,192,111468,1,0,0:0:0:0:
469,192,111535,1,0,0:0:0:0:
213,192,111601,1,0,0:0:0:0:
42,192,111601,1,0,0:0:0:0:
469,192,111668,1,0,0:0:0:0:
298,192,111735,1,0,0:0:0:0:
128,192,111735,1,0,0:0:0:0:
384,192,111801,1,0,0:0:0:0:
42,192,111868,1,0,0:0:0:0:
128,192,111868,1,0,0:0:0:0:
213,192,111868,1,0,0:0:0:0:
298,192,111935,1,0,0:0:0:0:
469,192,111935,1,0,0:0:0:0:
42,192,112001,1,0,0:0:0:0:
128,192,112001,1,0,0:0:0:0:
298,192,112068,1,0,0:0:0:0:
469,192,112068,1,0,0:0:0:0:
42,192,112135,1,0,0:0:0:0:
128,192,112135,1,0,0:0:0:0:
384,192,112135,1,0,0:0:0:0:
298,192,112201,1,0,0:0:0:0:
469,192,112201,1,0,0:0:0:0:
42,192,112268,1,0,0:0:0:0:
128,192,112268,1,0,0:0:0:0:
298,192,112335,1,0,0:0:0:0:
469,192,112335,1,0,0:0:0:0:
42,192,112401,128,0,112468:0:0:0:0:
128,192,112401,128,0,112468:0:0:0:0:
213,192,112401,128,0,112468:0:0:0:0:
298,192,112468,128,0,112535:0:0:0:0:
384,192,112468,128,0,112535:0:0:0:0:
469,192,112468,128,0,112535:0:0:0:0:
42,192,112535,128,0,112601:0:0:0:0:
128,192,112535,128,0,112601:0:0:0:0:
213,192,112535,128,0,112601:0:0:0:0:
298,192,112601,128,0,112668:0:0:0:0:
384,192,112601,128,0,112668:0:0:0:0:
469,192,112601,128,0,112668:0:0:0:0:
213,192,112668,128,0,112735:0:0:0:0:
128,192,112668,128,0,112735:0:0:0:0:
42,192,112668,128,0,112735:0:0:0:0:
469,192,112735,128,0,112801:0:0:0:0:
384,192,112735,128,0,112801:0:0:0:0:
298,192,112735,128,0,112801:0:0:0:0:
42,192,112801,128,0,112868:0:0:0:0:
128,192,112801,128,0,112868:0:0:0:0:
213,192,112801,128,0,112868:0:0:0:0:
298,192,112868,128,0,112935:0:0:0:0:
384,192,112868,128,0,112935:0:0:0:0:
469,192,112868,128,0,112935:0:0:0:0:
213,192,112935,128,0,113001:0:0:0:0:
42,192,113068,128,0,113268:0:0:0:0:
298,192,113312,128,0,113379:0:0:0:0:
469,192,113335,128,0,113535:0:0:0:0:
298,192,113468,128,0,113601:0:0:0:0:
128,192,113557,128,0,113646:0:0:0:0:
384,192,113668,128,0,113935:0:0:0:0:
213,192,113735,128,0,113835:0:0:0:0:
42,192,113835,128,0,114001:0:0:0:0:
213,192,114001,128,0,114068:0:0:0:0:
298,192,114068,128,0,114135:0:0:0:0:
469,192,114068,128,0,114268:0:0:0:0:
213,192,114135,128,0,114201:0:0:0:0:
298,192,114201,128,0,114268:0:0:0:0:
213,192,114268,128,0,114335:0:0:0:0:
298,192,114335,128,0,114401:0:0:0:0:
42,192,114401,128,0,114535:0:0:0:0:
213,192,114401,128,0,114468:0:0:0:0:
298,192,114468,128,0,114535:0:0:0:0:
213,192,114535,128,0,114601:0:0:0:0:
298,192,114601,128,0,114668:0:0:0:0:
213,192,114668,128,0,114735:0:0:0:0:
298,192,114735,128,0,114801:0:0:0:0:
469,192,114801,128,0,115001:0:0:0:0:
42,192,114801,128,0,115001:0:0:0:0:
213,192,114801,128,0,115001:0:0:0:0:
384,192,114801,128,0,115001:0:0:0:0:
384,192,115068,128,0,115135:0:0:0:0:
42,192,115068,128,0,115135:0:0:0:0:
213,192,115068,128,0,115135:0:0:0:0:
128,192,115068,128,0,115335:0:0:0:0:
469,192,115068,128,0,115135:0:0:0:0:
384,192,115201,128,0,115268:0:0:0:0:
298,192,115201,128,0,115268:0:0:0:0:
42,192,115201,128,0,115268:0:0:0:0:
469,192,115335,128,0,115601:0:0:0:0:
384,192,115335,128,0,115401:0:0:0:0:
213,192,115335,128,0,115401:0:0:0:0:
42,192,115335,128,0,115401:0:0:0:0:
298,192,115468,128,0,115535:0:0:0:0:
128,192,115468,128,0,115535:0:0:0:0:
213,192,115468,128,0,115535:0:0:0:0:
42,192,115601,128,0,115868:0:0:0:0:
128,192,115601,128,0,115668:0:0:0:0:
384,192,115601,128,0,115668:0:0:0:0:
298,192,115601,128,0,115668:0:0:0:0:
469,192,115735,128,0,115801:0:0:0:0:
384,192,115735,128,0,115801:0:0:0:0:
213,192,115735,128,0,115801:0:0:0:0:
128,192,115868,128,0,116135:0:0:0:0:
298,192,115868,128,0,116001:0:0:0:0:
384,192,115868,128,0,116001:0:0:0:0:
469,192,115868,128,0,116001:0:0:0:0:
42,192,116135,128,0,116268:0:0:0:0:
469,192,116135,128,0,116268:0:0:0:0:
384,192,116135,128,0,116401:0:0:0:0:
213,192,116135,128,0,116201:0:0:0:0:
213,192,116268,128,0,116401:0:0:0:0:
42,192,116401,128,0,116535:0:0:0:0:
469,192,116401,128,0,116535:0:0:0:0:
128,192,116401,128,0,116668:0:0:0:0:
298,192,116401,128,0,116468:0:0:0:0:
298,192,116535,128,0,116668:0:0:0:0:
42,192,116668,128,0,116801:0:0:0:0:
384,192,116668,128,0,116935:0:0:0:0:
213,192,116668,128,0,116735:0:0:0:0:
469,192,116668,128,0,116801:0:0:0:0:
213,192,116801,128,0,116868:0:0:0:0:
298,192,116935,128,0,117001:0:0:0:0:
42,192,116935,128,0,117068:0:0:0:0:
128,192,116935,128,0,117046:0:0:0:0:
213,192,116935,128,0,117023:0:0:0:0:
469,192,117068,128,0,117135:0:0:0:0:
42,192,117201,128,0,117468:0:0:0:0:
298,192,117201,128,0,117335:0:0:0:0:
469,192,117201,128,0,117335:0:0:0:0:
128,192,117201,128,0,117268:0:0:0:0:
128,192,117335,128,0,117468:0:0:0:0:
469,192,117468,128,0,117735:0:0:0:0:
384,192,117468,128,0,117601:0:0:0:0:
213,192,117468,128,0,117601:0:0:0:0:
298,192,117468,128,0,117601:0:0:0:0:
42,192,117735,128,0,118001:0:0:0:0:
128,192,117735,128,0,117801:0:0:0:0:
298,192,117735,128,0,117801:0:0:0:0:
384,192,117735,128,0,117801:0:0:0:0:
384,192,117868,128,0,117935:0:0:0:0:
469,192,117868,128,0,117935:0:0:0:0:
213,192,117868,128,0,117935:0:0:0:0:
128,192,118001,128,0,118135:0:0:0:0:
213,192,118001,128,0,118135:0:0:0:0:
298,192,118001,128,0,118135:0:0:0:0:
469,192,118001,128,0,118135:0:0:0:0:
128,192,118201,1,0,0:0:0:0:
384,192,118201,1,0,0:0:0:0:
213,192,118268,128,0,118535:0:0:0:0:
42,192,118268,128,0,118401:0:0:0:0:
469,192,118268,128,0,118401:0:0:0:0:
298,192,118268,128,0,118335:0:0:0:0:
298,192,118401,128,0,118535:0:0:0:0:
469,192,118535,128,0,118668:0:0:0:0:
384,192,118535,128,0,118668:0:0:0:0:
128,192,118668,128,0,118801:0:0:0:0:
42,192,118668,128,0,118801:0:0:0:0:
213,192,118801,128,0,118868:0:0:0:0:
298,192,118801,128,0,118868:0:0:0:0:
384,192,118801,128,0,118868:0:0:0:0:
469,192,118801,128,0,118868:0:0:0:0:
384,192,118935,128,0,119001:0:0:0:0:
298,192,118935,128,0,119001:0:0:0:0:
213,192,118935,128,0,119001:0:0:0:0:
128,192,118935,128,0,119001:0:0:0:0:
469,192,119068,1,0,0:0:0:0:
42,192,119068,128,0,119201:0:0:0:0:
128,192,119068,128,0,119201:0:0:0:0:
213,192,119068,128,0,119201:0:0:0:0:
298,192,119068,128,0,119201:0:0:0:0:
469,192,119201,128,0,119335:0:0:0:0:
384,192,119201,128,0,119335:0:0:0:0:
213,192,119335,1,0,0:0:0:0:
42,192,119335,128,0,119601:0:0:0:0:
298,192,119468,128,0,119535:0:0:0:0:
384,192,119468,128,0,119535:0:0:0:0:
128,192,119468,128,0,119535:0:0:0:0:
469,192,119468,128,0,119535:0:0:0:0:
469,192,119601,128,0,119868:0:0:0:0:
128,192,119601,128,0,119735:0:0:0:0:
213,192,119601,128,0,119735:0:0:0:0:
384,192,119601,128,0,119735:0:0:0:0:
42,192,119868,128,0,120135:0:0:0:0:
384,192,119868,128,0,120001:0:0:0:0:
128,192,119868,128,0,120001:0:0:0:0:
298,192,119868,128,0,120135:0:0:0:0:
469,192,120135,128,0,120401:0:0:0:0:
128,192,120135,128,0,120268:0:0:0:0:
384,192,120135,128,0,120268:0:0:0:0:
213,192,120135,128,0,120401:0:0:0:0:
42,192,120401,128,0,120668:0:0:0:0:
128,192,120401,128,0,120535:0:0:0:0:
384,192,120401,128,0,120535:0:0:0:0:
298,192,120401,128,0,120468:0:0:0:0:
298,192,120535,128,0,120668:0:0:0:0:
469,192,120668,128,0,120935:0:0:0:0:
213,192,120668,128,0,120801:0:0:0:0:
384,192,120668,128,0,120801:0:0:0:0:
128,192,120668,128,0,120735:0:0:0:0:
128,192,120801,128,0,120868:0:0:0:0:
42,192,120935,128,0,121201:0:0:0:0:
298,192,120935,128,0,121068:0:0:0:0:
213,192,120935,128,0,121068:0:0:0:0:
384,192,120935,128,0,121001:0:0:0:0:
384,192,121068,128,0,121135:0:0:0:0:
384,192,121201,1,0,0:0:0:0:
469,192,121201,1,0,0:0:0:0:
213,192,121246,1,0,0:0:0:0:
298,192,121246,1,0,0:0:0:0:
128,192,121290,1,0,0:0:0:0:
42,192,121290,1,0,0:0:0:0:
469,192,121335,1,0,0:0:0:0:
384,192,121335,1,0,0:0:0:0:
298,192,121379,1,0,0:0:0:0:
213,192,121379,1,0,0:0:0:0:
128,192,121423,1,0,0:0:0:0:
42,192,121423,1,0,0:0:0:0:
298,192,121468,1,0,0:0:0:0:
384,192,121468,1,0,0:0:0:0:
469,192,121468,1,0,0:0:0:0:
213,192,121468,1,0,0:0:0:0:
42,192,121646,1,0,0:0:0:0:
128,192,121646,1,0,0:0:0:0:
213,192,121646,1,0,0:0:0:0:
384,192,121646,1,0,0:0:0:0:
298,192,121823,1,0,0:0:0:0:
384,192,121823,1,0,0:0:0:0:
469,192,121823,1,0,0:0:0:0:
128,192,121823,1,0,0:0:0:0:
298,192,122001,1,0,0:0:0:0:
42,192,122001,1,0,0:0:0:0:
213,192,122001,1,0,0:0:0:0:
384,192,122001,1,0,0:0:0:0:
469,192,122179,1,0,0:0:0:0:
298,192,122179,1,0,0:0:0:0:
384,192,122179,1,0,0:0:0:0:
298,192,122268,1,0,0:0:0:0:
384,192,122268,1,0,0:0:0:0:
42,192,122268,1,0,0:0:0:0:
213,192,122268,1,0,0:0:0:0:
42,192,122446,1,0,0:0:0:0:
469,192,122446,1,0,0:0:0:0:
213,192,122446,1,0,0:0:0:0:
298,192,122446,1,0,0:0:0:0:
384,192,122535,1,0,0:0:0:0:
128,192,122535,128,0,122668:0:0:0:0:
469,192,122601,1,0,0:0:0:0:
213,192,122601,128,0,122735:0:0:0:0:
42,192,122668,1,0,0:0:0:0:
298,192,122668,128,0,122801:0:0:0:0:
384,192,122735,1,0,0:0:0:0:
128,192,122735,1,0,0:0:0:0:
213,192,122801,1,0,0:0:0:0:
469,192,122801,128,0,122935:0:0:0:0:
128,192,122868,1,0,0:0:0:0:
384,192,122868,128,0,123001:0:0:0:0:
42,192,122935,1,0,0:0:0:0:
298,192,122935,128,0,123068:0:0:0:0:
469,192,123001,1,0,0:0:0:0:
213,192,123001,128,0,123135:0:0:0:0:
384,192,123068,1,0,0:0:0:0:
128,192,123068,128,0,123201:0:0:0:0:
298,192,123135,1,0,0:0:0:0:
42,192,123135,128,0,123268:0:0:0:0:
213,192,123201,1,0,0:0:0:0:
469,192,123201,128,0,123268:0:0:0:0:
128,192,123268,1,0,0:0:0:0:
384,192,123268,128,0,123335:0:0:0:0:
469,192,123335,1,0,0:0:0:0:
42,192,123335,1,0,0:0:0:0:
298,192,123335,1,0,0:0:0:0:
213,192,123335,1,0,0:0:0:0:
42,192,123601,1,0,0:0:0:0:
128,192,123601,1,0,0:0:0:0:
469,192,123601,1,0,0:0:0:0:
298,192,123601,1,0,0:0:0:0:
384,192,123735,1,0,0:0:0:0:
298,192,123735,1,0,0:0:0:0:
213,192,123735,1,0,0:0:0:0:
42,192,123868,1,0,0:0:0:0:
213,192,123868,1,0,0:0:0:0:
384,192,123868,128,0,124001:0:0:0:0:
469,192,123868,128,0,124001:0:0:0:0:
128,192,124001,1,0,0:0:0:0:
298,192,124001,128,0,124135:0:0:0:0:
213,192,124001,128,0,124135:0:0:0:0:
128,192,124135,1,0,0:0:0:0:
42,192,124135,1,0,0:0:0:0:
469,192,124135,1,0,0:0:0:0:
384,192,124135,1,0,0:0:0:0:
384,192,124268,1,0,0:0:0:0:
298,192,124268,1,0,0:0:0:0:
213,192,124268,1,0,0:0:0:0:
469,192,124401,128,0,124468:0:0:0:0:
42,192,124401,1,0,0:0:0:0:
128,192,124401,1,0,0:0:0:0:
298,192,124401,1,0,0:0:0:0:
384,192,124535,1,0,0:0:0:0:
213,192,124535,128,0,124601:0:0:0:0:
42,192,124535,1,0,0:0:0:0:
128,192,124668,1,0,0:0:0:0:
384,192,124668,1,0,0:0:0:0:
469,192,124668,1,0,0:0:0:0:
298,192,124668,128,0,124735:0:0:0:0:
42,192,124801,1,0,0:0:0:0:
213,192,124801,1,0,0:0:0:0:
128,192,124801,128,0,124868:0:0:0:0:
469,192,124935,1,0,0:0:0:0:
384,192,124935,1,0,0:0:0:0:
298,192,124935,1,0,0:0:0:0:
42,192,124935,128,0,125001:0:0:0:0:
298,192,125068,1,0,0:0:0:0:
469,192,125068,128,0,125135:0:0:0:0:
128,192,125068,1,0,0:0:0:0:
469,192,125201,1,0,0:0:0:0:
384,192,125201,1,0,0:0:0:0:
42,192,125201,1,0,0:0:0:0:
213,192,125201,128,0,125268:0:0:0:0:
384,192,125335,1,0,0:0:0:0:
298,192,125335,1,0,0:0:0:0:
128,192,125335,128,0,125401:0:0:0:0:
42,192,125468,1,0,0:0:0:0:
213,192,125468,1,0,0:0:0:0:
469,192,125468,1,0,0:0:0:0:
298,192,125468,128,0,125535:0:0:0:0:
469,192,125601,1,0,0:0:0:0:
213,192,125601,1,0,0:0:0:0:
384,192,125601,1,0,0:0:0:0:
128,192,125601,128,0,125668:0:0:0:0:
384,192,125735,1,0,0:0:0:0:
213,192,125735,1,0,0:0:0:0:
42,192,125735,1,0,0:0:0:0:
298,192,125735,1,0,0:0:0:0:
128,192,125868,1,0,0:0:0:0:
469,192,125868,1,0,0:0:0:0:
213,192,125868,1,0,0:0:0:0:
298,192,125935,1,0,0:0:0:0:
42,192,125935,1,0,0:0:0:0:
384,192,125935,1,0,0:0:0:0:
128,192,126001,1,0,0:0:0:0:
469,192,126001,1,0,0:0:0:0:
213,192,126001,1,0,0:0:0:0:
384,192,126068,1,0,0:0:0:0:
298,192,126135,1,0,0:0:0:0:
42,192,126135,1,0,0:0:0:0:
213,192,126201,1,0,0:0:0:0:
128,192,126268,1,0,0:0:0:0:
469,192,126268,1,0,0:0:0:0:
384,192,126268,1,0,0:0:0:0:
42,192,126268,1,0,0:0:0:0:
298,192,126335,1,0,0:0:0:0:
213,192,126401,1,0,0:0:0:0:
128,192,126401,1,0,0:0:0:0:
298,192,126468,1,0,0:0:0:0:
469,192,126535,1,0,0:0:0:0:
384,192,126535,1,0,0:0:0:0:
128,192,126535,128,0,126668:0:0:0:0:
42,192,126535,128,0,126668:0:0:0:0:
298,192,126668,128,0,126801:0:0:0:0:
213,192,126668,128,0,126801:0:0:0:0:
384,192,126668,1,0,0:0:0:0:
42,192,126801,1,0,0:0:0:0:
128,192,126801,1,0,0:0:0:0:
384,192,126801,1,0,0:0:0:0:
469,192,126801,1,0,0:0:0:0:
298,192,126935,1,0,0:0:0:0:
213,192,126935,1,0,0:0:0:0:
469,192,126935,1,0,0:0:0:0:
42,192,126935,1,0,0:0:0:0:
469,192,127068,128,0,127135:0:0:0:0:
384,192,127068,128,0,127135:0:0:0:0:
298,192,127068,128,0,127135:0:0:0:0:
128,192,127068,1,0,0:0:0:0:
42,192,127201,128,0,127268:0:0:0:0:
128,192,127201,128,0,127268:0:0:0:0:
213,192,127201,128,0,127268:0:0:0:0:
384,192,127201,1,0,0:0:0:0:
384,192,127335,128,0,127535:0:0:0:0:
298,192,127368,128,0,127535:0:0:0:0:
213,192,127401,128,0,127535:0:0:0:0:
128,192,127435,128,0,127535:0:0:0:0:
42,192,127468,128,0,127535:0:0:0:0:
469,192,127601,128,0,127801:0:0:0:0:
384,192,127601,128,0,127768:0:0:0:0:
298,192,127601,128,0,127735:0:0:0:0:
213,192,127601,128,0,127701:0:0:0:0:
128,192,127601,128,0,127668:0:0:0:0:
42,192,127868,1,0,0:0:0:0:
128,192,127868,1,0,0:0:0:0:
213,192,127868,1,0,0:0:0:0:
469,192,127868,1,0,0:0:0:0:
298,192,127935,1,0,0:0:0:0:
384,192,128001,1,0,0:0:0:0:
128,192,128001,1,0,0:0:0:0:
213,192,128068,1,0,0:0:0:0:
42,192,128135,1,0,0:0:0:0:
469,192,128135,1,0,0:0:0:0:
384,192,128135,1,0,0:0:0:0:
298,192,128135,1,0,0:0:0:0:
128,192,128201,1,0,0:0:0:0:
213,192,128268,1,0,0:0:0:0:
298,192,128268,1,0,0:0:0:0:
469,192,128335,1,0,0:0:0:0:
384,192,128335,1,0,0:0:0:0:
128,192,128335,1,0,0:0:0:0:
298,192,128401,1,0,0:0:0:0:
213,192,128401,1,0,0:0:0:0:
42,192,128401,1,0,0:0:0:0:
469,192,128468,1,0,0:0:0:0:
384,192,128535,1,0,0:0:0:0:
128,192,128535,1,0,0:0:0:0:
213,192,128601,1,0,0:0:0:0:
298,192,128668,1,0,0:0:0:0:
42,192,128668,1,0,0:0:0:0:
128,192,128668,1,0,0:0:0:0:
469,192,128668,128,0,128735:0:0:0:0:
384,192,128735,1,0,0:0:0:0:
128,192,128801,1,0,0:0:0:0:
298,192,128801,1,0,0:0:0:0:
42,192,128801,128,0,128868:0:0:0:0:
213,192,128868,1,0,0:0:0:0:
469,192,128868,1,0,0:0:0:0:
384,192,128868,1,0,0:0:0:0:
128,192,128935,1,0,0:0:0:0:
42,192,128935,1,0,0:0:0:0:
298,192,128935,128,0,129001:0:0:0:0:
469,192,129001,1,0,0:0:0:0:
384,192,129068,1,0,0:0:0:0:
213,192,129068,128,0,129135:0:0:0:0:
128,192,129135,1,0,0:0:0:0:
298,192,129201,1,0,0:0:0:0:
384,192,129201,1,0,0:0:0:0:
469,192,129201,1,0,0:0:0:0:
42,192,129201,128,0,129268:0:0:0:0:
128,192,129268,1,0,0:0:0:0:
213,192,129335,1,0,0:0:0:0:
469,192,129335,128,0,129401:0:0:0:0:
298,192,129401,1,0,0:0:0:0:
42,192,129468,1,0,0:0:0:0:
469,192,129468,1,0,0:0:0:0:
384,192,129468,1,0,0:0:0:0:
128,192,129468,128,0,129535:0:0:0:0:
213,192,129601,1,0,0:0:0:0:
298,192,129601,1,0,0:0:0:0:
128,192,129601,1,0,0:0:0:0:
384,192,129601,128,0,129668:0:0:0:0:
42,192,129735,1,0,0:0:0:0:
213,192,129735,1,0,0:0:0:0:
469,192,129735,1,0,0:0:0:0:
298,192,129735,128,0,129801:0:0:0:0:
42,192,129868,1,0,0:0:0:0:
384,192,129868,1,0,0:0:0:0:
469,192,129868,1,0,0:0:0:0:
128,192,129868,128,0,129935:0:0:0:0:
298,192,129935,1,0,0:0:0:0:
213,192,129935,1,0,0:0:0:0:
42,192,130001,128,0,130335:0:0:0:0:
128,192,130001,128,0,130335:0:0:0:0:
469,192,130001,128,0,130335:0:0:0:0:
384,192,130001,128,0,130335:0:0:0:0:
42,192,130401,128,0,130735:0:0:0:0:
469,192,130401,128,0,130735:0:0:0:0:
384,192,130401,128,0,130735:0:0:0:0:
298,192,130401,128,0,130735:0:0:0:0:
213,192,130401,128,0,130735:0:0:0:0:
42,192,130801,128,0,131068:0:0:0:0:
298,192,130801,128,0,131068:0:0:0:0:
213,192,130801,128,0,131068:0:0:0:0:
128,192,130801,128,0,131068:0:0:0:0:
384,192,131068,128,0,131135:0:0:0:0:
469,192,131068,128,0,131168:0:0:0:0:
42,192,131201,128,0,131335:0:0:0:0:
128,192,131201,128,0,131335:0:0:0:0:
213,192,131201,128,0,131335:0:0:0:0:
298,192,131201,128,0,131335:0:0:0:0:
469,192,131401,128,0,131535:0:0:0:0:
384,192,131401,128,0,131535:0:0:0:0:
298,192,131401,128,0,131535:0:0:0:0:
213,192,131401,128,0,131535:0:0:0:0:
42,192,131535,1,0,0:0:0:0:
469,192,131601,128,0,132001:0:0:0:0:
213,192,131601,128,0,131801:0:0:0:0:
298,192,131601,128,0,131868:0:0:0:0:
384,192,131601,128,0,131935:0:0:0:0:
128,192,131601,128,0,131735:0:0:0:0:
42,192,131868,128,0,132001:0:0:0:0:
128,192,131935,128,0,132001:0:0:0:0:
213,192,132001,128,0,132068:0:0:0:0:
42,192,132068,1,0,0:0:0:0:
128,192,132068,1,0,0:0:0:0:
469,192,132135,1,0,0:0:0:0:
384,192,132135,1,0,0:0:0:0:
298,192,132135,1,0,0:0:0:0:
42,192,132201,1,0,0:0:0:0:
128,192,132201,1,0,0:0:0:0:
213,192,132201,1,0,0:0:0:0:
298,192,132268,1,0,0:0:0:0:
384,192,132268,1,0,0:0:0:0:
469,192,132268,1,0,0:0:0:0:
213,192,132335,1,0,0:0:0:0:
128,192,132335,1,0,0:0:0:0:
42,192,132335,1,0,0:0:0:0:
298,192,132401,1,0,0:0:0:0:
384,192,132401,1,0,0:0:0:0:
469,192,132401,1,0,0:0:0:0:
213,192,132535,1,0,0:0:0:0:
42,192,132535,1,0,0:0:0:0:
384,192,132535,1,0,0:0:0:0:
298,192,132668,1,0,0:0:0:0:
384,192,132668,1,0,0:0:0:0:
469,192,132668,1,0,0:0:0:0:
42,192,132668,1,0,0:0:0:0:
128,192,132801,1,0,0:0:0:0:
298,192,132868,1,0,0:0:0:0:
469,192,132935,1,0,0:0:0:0:
384,192,132935,1,0,0:0:0:0:
42,192,132935,1,0,0:0:0:0:
213,192,132935,1,0,0:0:0:0:
128,192,133068,1,0,0:0:0:0:
384,192,133068,1,0,0:0:0:0:
469,192,133201,1,0,0:0:0:0:
42,192,133201,1,0,0:0:0:0:
298,192,133201,1,0,0:0:0:0:
213,192,133201,1,0,0:0:0:0:
384,192,133335,1,0,0:0:0:0:
42,192,133468,1,0,0:0:0:0:
128,192,133468,1,0,0:0:0:0:
213,192,133468,1,0,0:0:0:0:
469,192,133468,1,0,0:0:0:0:
298,192,133601,1,0,0:0:0:0:
42,192,133735,1,0,0:0:0:0:
128,192,133735,1,0,0:0:0:0:
384,192,133735,1,0,0:0:0:0:
469,192,133735,1,0,0:0:0:0:
213,192,133868,1,0,0:0:0:0:
42,192,134001,1,0,0:0:0:0:
298,192,134001,1,0,0:0:0:0:
384,192,134001,1,0,0:0:0:0:
469,192,134001,1,0,0:0:0:0:
213,192,134135,1,0,0:0:0:0:
128,192,134135,1,0,0:0:0:0:
42,192,134268,1,0,0:0:0:0:
384,192,134268,1,0,0:0:0:0:
469,192,134268,1,0,0:0:0:0:
128,192,134268,1,0,0:0:0:0:
298,192,134401,1,0,0:0:0:0:
42,192,134535,1,0,0:0:0:0:
384,192,134535,1,0,0:0:0:0:
469,192,134535,1,0,0:0:0:0:
213,192,134535,1,0,0:0:0:0:
128,192,134668,1,0,0:0:0:0:
298,192,134668,1,0,0:0:0:0:
298,192,134801,1,0,0:0:0:0:
384,192,134801,1,0,0:0:0:0:
469,192,134801,1,0,0:0:0:0:
42,192,134801,1,0,0:0:0:0:
213,192,134935,1,0,0:0:0:0:
469,192,135068,1,0,0:0:0:0:
384,192,135068,1,0,0:0:0:0:
42,192,135068,1,0,0:0:0:0:
128,192,135068,1,0,0:0:0:0:
213,192,135201,1,0,0:0:0:0:
298,192,135201,1,0,0:0:0:0:
213,192,135335,1,0,0:0:0:0:
42,192,135335,1,0,0:0:0:0:
469,192,135335,1,0,0:0:0:0:
384,192,135335,1,0,0:0:0:0:
298,192,135468,1,0,0:0:0:0:
469,192,135601,1,0,0:0:0:0:
128,192,135601,1,0,0:0:0:0:
42,192,135601,1,0,0:0:0:0:
213,192,135601,1,0,0:0:0:0:
384,192,135735,1,0,0:0:0:0:
128,192,135735,1,0,0:0:0:0:
42,192,135868,1,0,0:0:0:0:
469,192,135868,1,0,0:0:0:0:
298,192,135868,1,0,0:0:0:0:
213,192,135868,1,0,0:0:0:0:
42,192,136001,1,0,0:0:0:0:
213,192,136001,1,0,0:0:0:0:
298,192,136001,1,0,0:0:0:0:
469,192,136001,1,0,0:0:0:0:
42,192,136135,1,0,0:0:0:0:
213,192,136135,1,0,0:0:0:0:
298,192,136135,1,0,0:0:0:0:
469,192,136135,1,0,0:0:0:0:
128,192,136268,1,0,0:0:0:0:
384,192,136268,1,0,0:0:0:0:
213,192,136335,1,0,0:0:0:0:
298,192,136335,1,0,0:0:0:0:
128,192,136401,1,0,0:0:0:0:
384,192,136401,1,0,0:0:0:0:
469,192,136401,1,0,0:0:0:0:
42,192,136401,128,0,136668:0:0:0:0:
469,192,136668,128,0,136935:0:0:0:0:
298,192,136668,1,0,0:0:0:0:
384,192,136668,1,0,0:0:0:0:
213,192,136801,1,0,0:0:0:0:
42,192,136801,1,0,0:0:0:0:
128,192,136935,128,0,137201:0:0:0:0:
384,192,136935,1,0,0:0:0:0:
213,192,136935,1,0,0:0:0:0:
298,192,137068,1,0,0:0:0:0:
469,192,137068,1,0,0:0:0:0:
384,192,137201,128,0,137468:0:0:0:0:
42,192,137201,1,0,0:0:0:0:
213,192,137201,1,0,0:0:0:0:
213,192,137468,128,0,138135:0:0:0:0:
42,192,137468,1,0,0:0:0:0:
128,192,137468,1,0,0:0:0:0:
469,192,137735,1,0,0:0:0:0:
298,192,137735,1,0,0:0:0:0:
42,192,137868,1,0,0:0:0:0:
298,192,137868,1,0,0:0:0:0:
469,192,138135,1,0,0:0:0:0:
384,192,138135,1,0,0:0:0:0:
384,192,138268,1,0,0:0:0:0:
298,192,138268,1,0,0:0:0:0:
42,192,138268,128,0,138535:0:0:0:0:
213,192,138535,128,0,138801:0:0:0:0:
469,192,138535,1,0,0:0:0:0:
128,192,138535,1,0,0:0:0:0:
384,192,138668,1,0,0:0:0:0:
469,192,138801,128,0,139068:0:0:0:0:
298,192,138801,1,0,0:0:0:0:
42,192,138801,1,0,0:0:0:0:
298,192,138935,1,0,0:0:0:0:
213,192,138935,1,0,0:0:0:0:
128,192,139068,128,0,139335:0:0:0:0:
384,192,139068,1,0,0:0:0:0:
213,192,139068,1,0,0:0:0:0:
384,192,139201,1,0,0:0:0:0:
469,192,139335,128,0,139601:0:0:0:0:
298,192,139335,1,0,0:0:0:0:
42,192,139335,1,0,0:0:0:0:
128,192,139468,1,0,0:0:0:0:
213,192,139601,128,0,140135:0:0:0:0:
384,192,139601,1,0,0:0:0:0:
298,192,139601,1,0,0:0:0:0:
42,192,139735,1,0,0:0:0:0:
469,192,139868,1,0,0:0:0:0:
298,192,139868,1,0,0:0:0:0:
298,192,140001,1,0,0:0:0:0:
42,192,140001,1,0,0:0:0:0:
42,192,140135,128,0,140668:0:0:0:0:
469,192,140135,128,0,140668:0:0:0:0:
128,192,140268,1,0,0:0:0:0:
384,192,140268,1,0,0:0:0:0:
213,192,140401,1,0,0:0:0:0:
298,192,140401,1,0,0:0:0:0:
128,192,140668,1,0,0:0:0:0:
213,192,140668,1,0,0:0:0:0:
298,192,140668,1,0,0:0:0:0:
384,192,140668,1,0,0:0:0:0:
42,192,140801,1,0,0:0:0:0:
213,192,140801,1,0,0:0:0:0:
298,192,140801,1,0,0:0:0:0:
469,192,140801,1,0,0:0:0:0:
42,192,140935,1,0,0:0:0:0:
128,192,140935,1,0,0:0:0:0:
384,192,140935,1,0,0:0:0:0:
469,192,140935,1,0,0:0:0:0:
128,192,141068,1,0,0:0:0:0:
213,192,141068,1,0,0:0:0:0:
298,192,141068,1,0,0:0:0:0:
384,192,141068,1,0,0:0:0:0:
213,192,141201,1,0,0:0:0:0:
298,192,141201,1,0,0:0:0:0:
42,192,141201,1,0,0:0:0:0:
469,192,141201,1,0,0:0:0:0:
384,192,141335,1,0,0:0:0:0:
42,192,141468,1,0,0:0:0:0:
298,192,141468,1,0,0:0:0:0:
469,192,141468,1,0,0:0:0:0:
213,192,141468,1,0,0:0:0:0:
42,192,141601,1,0,0:0:0:0:
128,192,141601,1,0,0:0:0:0:
213,192,141601,1,0,0:0:0:0:
298,192,141668,1,0,0:0:0:0:
469,192,141668,1,0,0:0:0:0:
384,192,141668,1,0,0:0:0:0:
42,192,141735,1,0,0:0:0:0:
128,192,141735,1,0,0:0:0:0:
213,192,141735,1,0,0:0:0:0:
469,192,141868,1,0,0:0:0:0:
384,192,141868,1,0,0:0:0:0:
298,192,141868,1,0,0:0:0:0:
42,192,141935,1,0,0:0:0:0:
128,192,141935,1,0,0:0:0:0:
213,192,141935,1,0,0:0:0:0:
469,192,142001,1,0,0:0:0:0:
384,192,142001,1,0,0:0:0:0:
298,192,142001,1,0,0:0:0:0:
128,192,142135,1,0,0:0:0:0:
42,192,142268,1,0,0:0:0:0:
469,192,142268,1,0,0:0:0:0:
384,192,142268,1,0,0:0:0:0:
213,192,142268,1,0,0:0:0:0:
384,192,142401,1,0,0:0:0:0:
128,192,142401,1,0,0:0:0:0:
298,192,142535,1,0,0:0:0:0:
42,192,142535,1,0,0:0:0:0:
469,192,142535,1,0,0:0:0:0:
213,192,142535,1,0,0:0:0:0:
128,192,142668,1,0,0:0:0:0:
213,192,142668,1,0,0:0:0:0:
469,192,142801,1,0,0:0:0:0:
42,192,142801,1,0,0:0:0:0:
384,192,142801,1,0,0:0:0:0:
298,192,142801,1,0,0:0:0:0:
213,192,142935,1,0,0:0:0:0:
128,192,142935,1,0,0:0:0:0:
298,192,142935,1,0,0:0:0:0:
384,192,142935,1,0,0:0:0:0:
469,192,143068,1,0,0:0:0:0:
384,192,143068,1,0,0:0:0:0:
128,192,143068,1,0,0:0:0:0:
42,192,143068,1,0,0:0:0:0:
298,192,143201,1,0,0:0:0:0:
213,192,143201,1,0,0:0:0:0:
42,192,143335,1,0,0:0:0:0:
469,192,143335,1,0,0:0:0:0:
384,192,143335,1,0,0:0:0:0:
298,192,143335,1,0,0:0:0:0:
128,192,143468,1,0,0:0:0:0:
42,192,143601,1,0,0:0:0:0:
213,192,143601,1,0,0:0:0:0:
469,192,143601,1,0,0:0:0:0:
298,192,143601,1,0,0:0:0:0:
213,192,143735,1,0,0:0:0:0:
128,192,143735,1,0,0:0:0:0:
128,192,143868,1,0,0:0:0:0:
42,192,143868,1,0,0:0:0:0:
469,192,143868,1,0,0:0:0:0:
384,192,143868,1,0,0:0:0:0:
384,192,144001,1,0,0:0:0:0:
469,192,144001,1,0,0:0:0:0:
298,192,144135,1,0,0:0:0:0:
213,192,144135,1,0,0:0:0:0:
128,192,144135,1,0,0:0:0:0:
42,192,144135,1,0,0:0:0:0:
298,192,144268,128,0,144335:0:0:0:0:
384,192,144268,128,0,144335:0:0:0:0:
469,192,144268,128,0,144335:0:0:0:0:
469,192,144401,1,0,0:0:0:0:
213,192,144401,128,0,144468:0:0:0:0:
128,192,144401,128,0,144468:0:0:0:0:
42,192,144401,128,0,144468:0:0:0:0:
213,192,144535,128,0,144601:0:0:0:0:
298,192,144535,128,0,144601:0:0:0:0:
384,192,144535,128,0,144601:0:0:0:0:
384,192,144668,128,0,144835:0:0:0:0:
213,192,144668,128,0,144801:0:0:0:0:
128,192,144668,128,0,144768:0:0:0:0:
42,192,144668,128,0,144735:0:0:0:0:
469,192,144668,128,0,144868:0:0:0:0:
213,192,144935,1,0,0:0:0:0:
42,192,144935,1,0,0:0:0:0:
469,192,144935,1,0,0:0:0:0:
298,192,145001,1,0,0:0:0:0:
213,192,145068,1,0,0:0:0:0:
298,192,145135,1,0,0:0:0:0:
128,192,145201,1,0,0:0:0:0:
469,192,145201,1,0,0:0:0:0:
42,192,145335,1,0,0:0:0:0:
469,192,145335,1,0,0:0:0:0:
213,192,145335,1,0,0:0:0:0:
298,192,145468,1,0,0:0:0:0:
42,192,145468,1,0,0:0:0:0:
469,192,145601,1,0,0:0:0:0:
213,192,145601,1,0,0:0:0:0:
42,192,145735,1,0,0:0:0:0:
384,192,145735,1,0,0:0:0:0:
213,192,145735,1,0,0:0:0:0:
128,192,145868,1,0,0:0:0:0:
469,192,146001,1,0,0:0:0:0:
42,192,146001,128,0,146201:0:0:0:0:
298,192,146001,1,0,0:0:0:0:
213,192,146068,1,0,0:0:0:0:
298,192,146135,1,0,0:0:0:0:
469,192,146135,1,0,0:0:0:0:
213,192,146201,1,0,0:0:0:0:
128,192,146268,1,0,0:0:0:0:
384,192,146268,1,0,0:0:0:0:
42,192,146401,1,0,0:0:0:0:
213,192,146401,1,0,0:0:0:0:
384,192,146401,1,0,0:0:0:0:
469,192,146535,1,0,0:0:0:0:
128,192,146668,1,0,0:0:0:0:
298,192,146668,1,0,0:0:0:0:
469,192,146801,1,0,0:0:0:0:
42,192,146801,1,0,0:0:0:0:
298,192,146801,1,0,0:0:0:0:
384,192,146935,1,0,0:0:0:0:
128,192,147068,1,0,0:0:0:0:
213,192,147068,1,0,0:0:0:0:
42,192,147068,1,0,0:0:0:0:
384,192,147135,1,0,0:0:0:0:
128,192,147201,1,0,0:0:0:0:
213,192,147201,1,0,0:0:0:0:
469,192,147268,1,0,0:0:0:0:
298,192,147268,1,0,0:0:0:0:
42,192,147335,1,0,0:0:0:0:
213,192,147335,1,0,0:0:0:0:
298,192,147401,1,0,0:0:0:0:
469,192,147401,1,0,0:0:0:0:
128,192,147468,1,0,0:0:0:0:
42,192,147468,1,0,0:0:0:0:
213,192,147468,1,0,0:0:0:0:
384,192,147535,1,0,0:0:0:0:
213,192,147601,1,0,0:0:0:0:
128,192,147601,1,0,0:0:0:0:
298,192,147668,1,0,0:0:0:0:
469,192,147668,1,0,0:0:0:0:
42,192,147735,1,0,0:0:0:0:
128,192,147735,1,0,0:0:0:0:
384,192,147801,1,0,0:0:0:0:
469,192,147801,1,0,0:0:0:0:
42,192,147868,1,0,0:0:0:0:
298,192,147868,1,0,0:0:0:0:
213,192,147868,1,0,0:0:0:0:
384,192,147935,1,0,0:0:0:0:
469,192,147935,1,0,0:0:0:0:
213,192,148001,1,0,0:0:0:0:
128,192,148001,1,0,0:0:0:0:
298,192,148068,1,0,0:0:0:0:
384,192,148068,1,0,0:0:0:0:
469,192,148135,1,0,0:0:0:0:
42,192,148135,1,0,0:0:0:0:
128,192,148135,1,0,0:0:0:0:
384,192,148201,1,0,0:0:0:0:
42,192,148268,1,0,0:0:0:0:
128,192,148268,1,0,0:0:0:0:
298,192,148335,1,0,0:0:0:0:
213,192,148335,1,0,0:0:0:0:
384,192,148401,1,0,0:0:0:0:
469,192,148401,1,0,0:0:0:0:
128,192,148468,1,0,0:0:0:0:
213,192,148468,1,0,0:0:0:0:
298,192,148535,1,0,0:0:0:0:
384,192,148535,1,0,0:0:0:0:
42,192,148601,1,0,0:0:0:0:
128,192,148601,1,0,0:0:0:0:
213,192,148668,1,0,0:0:0:0:
298,192,148668,1,0,0:0:0:0:
384,192,148735,1,0,0:0:0:0:
469,192,148735,1,0,0:0:0:0:
128,192,148801,1,0,0:0:0:0:
213,192,148801,1,0,0:0:0:0:
298,192,148868,1,0,0:0:0:0:
384,192,148868,1,0,0:0:0:0:
469,192,148935,1,0,0:0:0:0:
42,192,148935,1,0,0:0:0:0:
213,192,149001,1,0,0:0:0:0:
298,192,149001,1,0,0:0:0:0:
128,192,149068,1,0,0:0:0:0:
42,192,149068,1,0,0:0:0:0:
384,192,149135,1,0,0:0:0:0:
469,192,149135,1,0,0:0:0:0:
298,192,149201,1,0,0:0:0:0:
213,192,149201,128,0,151068:0:0:0:0:
42,192,149268,1,0,0:0:0:0:
298,192,149468,1,0,0:0:0:0:
469,192,149735,1,0,0:0:0:0:
42,192,150135,1,0,0:0:0:0:
42,192,150801,128,0,151335:0:0:0:0:
469,192,151335,128,0,153468:0:0:0:0:
42,192,151735,1,0,0:0:0:0:
128,192,151868,1,0,0:0:0:0:
213,192,152001,1,0,0:0:0:0:
298,192,152135,1,0,0:0:0:0:
384,192,152268,1,0,0:0:0:0:
128,192,152468,1,0,0:0:0:0:
298,192,152668,1,0,0:0:0:0:
128,192,152935,128,0,153068:0:0:0:0:
42,192,153001,128,0,153468:0:0:0:0:
384,192,153201,1,0,0:0:0:0:
213,192,153468,128,0,153601:0:0:0:0:
298,192,153535,128,0,155335:0:0:0:0:
42,192,154001,1,0,0:0:0:0:
384,192,154401,1,0,0:0:0:0:
213,192,154801,1,0,0:0:0:0:
42,192,154935,128,0,155001:0:0:0:0:
128,192,155001,128,0,155601:0:0:0:0:
469,192,155068,1,0,0:0:0:0:
213,192,155201,1,0,0:0:0:0:
469,192,155335,1,0,0:0:0:0:
298,192,155468,1,0,0:0:0:0:
469,192,155601,128,0,157468:0:0:0:0:
42,192,155601,128,0,155868:0:0:0:0:
213,192,156135,128,0,156401:0:0:0:0:
384,192,156535,128,0,156801:0:0:0:0:
42,192,156668,1,0,0:0:0:0:
128,192,156757,1,0,0:0:0:0:
213,192,156846,1,0,0:0:0:0:
298,192,156935,1,0,0:0:0:0:
384,192,157023,1,0,0:0:0:0:
298,192,157112,1,0,0:0:0:0:
213,192,157201,1,0,0:0:0:0:
128,192,157290,1,0,0:0:0:0:
42,192,157379,1,0,0:0:0:0:
128,192,157468,1,0,0:0:0:0:
213,192,157557,1,0,0:0:0:0:
298,192,157646,1,0,0:0:0:0:
42,192,157735,1,0,0:0:0:0:
469,192,157735,1,0,0:0:0:0:
384,192,157735,1,0,0:0:0:0:
128,192,157735,1,0,0:0:0:0:
128,192,158001,1,0,0:0:0:0:
213,192,158068,1,0,0:0:0:0:
298,192,158135,1,0,0:0:0:0:
384,192,158201,1,0,0:0:0:0:
469,192,158268,1,0,0:0:0:0:
42,192,158268,1,0,0:0:0:0:
213,192,158401,1,0,0:0:0:0:
298,192,158468,1,0,0:0:0:0:
128,192,158535,1,0,0:0:0:0:
384,192,158668,1,0,0:0:0:0:
42,192,158668,1,0,0:0:0:0:
469,192,158801,1,0,0:0:0:0:
213,192,158801,1,0,0:0:0:0:
42,192,158935,1,0,0:0:0:0:
298,192,158935,1,0,0:0:0:0:
128,192,159068,1,0,0:0:0:0:
384,192,159068,1,0,0:0:0:0:
213,192,159201,1,0,0:0:0:0:
469,192,159201,1,0,0:0:0:0:
42,192,159335,1,0,0:0:0:0:
298,192,159335,1,0,0:0:0:0:
384,192,159335,1,0,0:0:0:0:
213,192,159468,1,0,0:0:0:0:
128,192,159468,1,0,0:0:0:0:
469,192,159601,1,0,0:0:0:0:
42,192,159601,1,0,0:0:0:0:
384,192,159668,1,0,0:0:0:0:
298,192,159735,1,0,0:0:0:0:
128,192,159735,1,0,0:0:0:0:
213,192,159868,1,0,0:0:0:0:
469,192,160001,1,0,0:0:0:0:
42,192,160135,1,0,0:0:0:0:
213,192,160135,1,0,0:0:0:0:
298,192,160401,1,0,0:0:0:0:
469,192,160401,1,0,0:0:0:0:
128,192,160401,1,0,0:0:0:0:
42,192,160535,1,0,0:0:0:0:
384,192,160668,1,0,0:0:0:0:
128,192,160801,1,0,0:0:0:0:
469,192,160935,1,0,0:0:0:0:
298,192,161068,1,0,0:0:0:0:
384,192,161201,1,0,0:0:0:0:
128,192,161335,1,0,0:0:0:0:
469,192,161468,1,0,0:0:0:0:
298,192,161468,1,0,0:0:0:0:
42,192,161468,1,0,0:0:0:0:
384,192,161601,1,0,0:0:0:0:
128,192,161601,1,0,0:0:0:0:
42,192,161735,1,0,0:0:0:0:
469,192,161735,1,0,0:0:0:0:
298,192,161801,1,0,0:0:0:0:
128,192,161868,1,0,0:0:0:0:
384,192,161935,1,0,0:0:0:0:
213,192,162001,128,0,162268:0:0:0:0:
469,192,162135,1,0,0:0:0:0:
42,192,162268,1,0,0:0:0:0:
298,192,162401,1,0,0:0:0:0:
42,192,162535,1,0,0:0:0:0:
469,192,162535,1,0,0:0:0:0:
213,192,162535,1,0,0:0:0:0:
298,192,162668,1,0,0:0:0:0:
42,192,162801,1,0,0:0:0:0:
469,192,162801,1,0,0:0:0:0:
213,192,162935,1,0,0:0:0:0:
384,192,162935,1,0,0:0:0:0:
128,192,163068,1,0,0:0:0:0:
298,192,163068,1,0,0:0:0:0:
42,192,163201,1,0,0:0:0:0:
384,192,163201,1,0,0:0:0:0:
128,192,163335,1,0,0:0:0:0:
469,192,163335,1,0,0:0:0:0:
213,192,163468,1,0,0:0:0:0:
384,192,163468,1,0,0:0:0:0:
128,192,163601,1,0,0:0:0:0:
298,192,163601,1,0,0:0:0:0:
469,192,163601,1,0,0:0:0:0:
298,192,163735,1,0,0:0:0:0:
42,192,163735,1,0,0:0:0:0:
469,192,163868,1,0,0:0:0:0:
213,192,163868,1,0,0:0:0:0:
298,192,163935,1,0,0:0:0:0:
384,192,164001,1,0,0:0:0:0:
42,192,164001,1,0,0:0:0:0:
128,192,164068,1,0,0:0:0:0:
298,192,164135,128,0,164401:0:0:0:0:
469,192,164268,1,0,0:0:0:0:
42,192,164401,1,0,0:0:0:0:
469,192,164668,1,0,0:0:0:0:
298,192,164668,1,0,0:0:0:0:
128,192,164668,1,0,0:0:0:0:
213,192,164801,1,0,0:0:0:0:
42,192,164935,1,0,0:0:0:0:
384,192,165068,1,0,0:0:0:0:
128,192,165201,1,0,0:0:0:0:
469,192,165335,1,0,0:0:0:0:
298,192,165335,1,0,0:0:0:0:
213,192,165468,1,0,0:0:0:0:
128,192,165535,1,0,0:0:0:0:
384,192,165601,1,0,0:0:0:0:
298,192,165668,1,0,0:0:0:0:
42,192,165735,128,0,165801:0:0:0:0:
213,192,165735,1,0,0:0:0:0:
469,192,165735,1,0,0:0:0:0:
128,192,165801,128,0,165868:0:0:0:0:
213,192,165868,128,0,165935:0:0:0:0:
298,192,165935,128,0,166001:0:0:0:0:
469,192,166001,128,0,166068:0:0:0:0:
384,192,166068,128,0,166135:0:0:0:0:
298,192,166135,128,0,166201:0:0:0:0:
213,192,166201,128,0,166268:0:0:0:0:
42,192,166268,1,0,0:0:0:0:
128,192,166268,1,0,0:0:0:0:
469,192,166268,1,0,0:0:0:0:
384,192,166268,1,0,0:0:0:0:
298,192,166335,1,0,0:0:0:0:
213,192,166335,1,0,0:0:0:0:
42,192,166401,1,0,0:0:0:0:
128,192,166401,1,0,0:0:0:0:
384,192,166401,1,0,0:0:0:0:
469,192,166401,1,0,0:0:0:0:
213,192,166468,1,0,0:0:0:0:
298,192,166468,1,0,0:0:0:0:
213,192,166668,1,0,0:0:0:0:
298,192,166668,1,0,0:0:0:0:
384,192,166668,1,0,0:0:0:0:
469,192,166668,1,0,0:0:0:0:
128,192,166735,1,0,0:0:0:0:
42,192,166735,1,0,0:0:0:0:
213,192,166801,1,0,0:0:0:0:
298,192,166801,1,0,0:0:0:0:
384,192,166801,1,0,0:0:0:0:
469,192,166801,1,0,0:0:0:0:
42,192,166868,1,0,0:0:0:0:
128,192,166868,1,0,0:0:0:0:
469,192,167068,1,0,0:0:0:0:
298,192,167068,1,0,0:0:0:0:
42,192,167201,1,0,0:0:0:0:
384,192,167335,1,0,0:0:0:0:
213,192,167335,1,0,0:0:0:0:
128,192,167468,1,0,0:0:0:0:
298,192,167601,1,0,0:0:0:0:
469,192,167601,1,0,0:0:0:0:
128,192,167735,1,0,0:0:0:0:
469,192,167801,1,0,0:0:0:0:
213,192,167801,1,0,0:0:0:0:
384,192,167868,1,0,0:0:0:0:
42,192,167868,1,0,0:0:0:0:
298,192,168001,1,0,0:0:0:0:
128,192,168001,1,0,0:0:0:0:
469,192,168135,1,0,0:0:0:0:
42,192,168135,1,0,0:0:0:0:
213,192,168268,1,0,0:0:0:0:
42,192,168401,1,0,0:0:0:0:
469,192,168401,1,0,0:0:0:0:
384,192,168401,1,0,0:0:0:0:
128,192,168401,1,0,0:0:0:0:
213,192,168468,1,0,0:0:0:0:
298,192,168468,1,0,0:0:0:0:
42,192,168535,1,0,0:0:0:0:
469,192,168535,1,0,0:0:0:0:
384,192,168535,1,0,0:0:0:0:
128,192,168535,1,0,0:0:0:0:
213,192,168601,1,0,0:0:0:0:
298,192,168601,1,0,0:0:0:0:
42,192,168801,1,0,0:0:0:0:
128,192,168801,1,0,0:0:0:0:
213,192,168801,1,0,0:0:0:0:
469,192,168801,1,0,0:0:0:0:
384,192,168868,1,0,0:0:0:0:
298,192,168868,1,0,0:0:0:0:
469,192,168935,1,0,0:0:0:0:
213,192,168935,1,0,0:0:0:0:
128,192,168935,1,0,0:0:0:0:
42,192,168935,1,0,0:0:0:0:
298,192,169001,1,0,0:0:0:0:
384,192,169001,1,0,0:0:0:0:
298,192,169201,128,0,169268:0:0:0:0:
469,192,169201,1,0,0:0:0:0:
128,192,169335,128,0,169401:0:0:0:0:
384,192,169468,128,0,169535:0:0:0:0:
42,192,169468,1,0,0:0:0:0:
213,192,169601,128,0,169668:0:0:0:0:
298,192,169601,1,0,0:0:0:0:
469,192,169668,1,0,0:0:0:0:
42,192,169735,128,0,169801:0:0:0:0:
384,192,169735,1,0,0:0:0:0:
128,192,169735,1,0,0:0:0:0:
298,192,169801,1,0,0:0:0:0:
469,192,169868,128,0,169935:0:0:0:0:
213,192,169868,1,0,0:0:0:0:
128,192,169935,1,0,0:0:0:0:
384,192,169935,1,0,0:0:0:0:
298,192,170001,128,0,170068:0:0:0:0:
42,192,170001,1,0,0:0:0:0:
469,192,170001,1,0,0:0:0:0:
213,192,170068,1,0,0:0:0:0:
128,192,170135,1,0,0:0:0:0:
469,192,170135,1,0,0:0:0:0:
384,192,170135,1,0,0:0:0:0:
42,192,170135,1,0,0:0:0:0:
42,192,170335,1,0,0:0:0:0:
128,192,170335,1,0,0:0:0:0:
469,192,170335,1,0,0:0:0:0:
298,192,170335,1,0,0:0:0:0:
42,192,170535,1,0,0:0:0:0:
384,192,170535,1,0,0:0:0:0:
469,192,170535,1,0,0:0:0:0:
213,192,170535,1,0,0:0:0:0:
298,192,170601,1,0,0:0:0:0:
128,192,170601,1,0,0:0:0:0:
42,192,170668,1,0,0:0:0:0:
213,192,170668,1,0,0:0:0:0:
384,192,170668,1,0,0:0:0:0:
469,192,170668,1,0,0:0:0:0:
298,192,170735,1,0,0:0:0:0:
128,192,170735,1,0,0:0:0:0:
128,192,170935,1,0,0:0:0:0:
42,192,170935,1,0,0:0:0:0:
469,192,170935,1,0,0:0:0:0:
298,192,170935,1,0,0:0:0:0:
213,192,171001,1,0,0:0:0:0:
384,192,171001,1,0,0:0:0:0:
128,192,171068,1,0,0:0:0:0:
42,192,171068,1,0,0:0:0:0:
469,192,171068,1,0,0:0:0:0:
298,192,171068,1,0,0:0:0:0:
384,192,171135,1,0,0:0:0:0:
213,192,171135,1,0,0:0:0:0:
128,192,171335,1,0,0:0:0:0:
298,192,171335,1,0,0:0:0:0:
384,192,171335,1,0,0:0:0:0:
469,192,171335,1,0,0:0:0:0:
42,192,171401,1,0,0:0:0:0:
213,192,171401,1,0,0:0:0:0:
128,192,171468,1,0,0:0:0:0:
298,192,171468,1,0,0:0:0:0:
469,192,171468,1,0,0:0:0:0:
384,192,171468,1,0,0:0:0:0:
42,192,171535,1,0,0:0:0:0:
213,192,171535,1,0,0:0:0:0:
128,192,171735,1,0,0:0:0:0:
42,192,171735,1,0,0:0:0:0:
213,192,171735,1,0,0:0:0:0:
384,192,171735,1,0,0:0:0:0:
298,192,171801,1,0,0:0:0:0:
469,192,171801,1,0,0:0:0:0:
384,192,171868,1,0,0:0:0:0:
213,192,171868,1,0,0:0:0:0:
128,192,171868,1,0,0:0:0:0:
42,192,171868,1,0,0:0:0:0:
298,192,171935,1,0,0:0:0:0:
469,192,171935,1,0,0:0:0:0:
469,192,172135,1,0,0:0:0:0:
128,192,172135,1,0,0:0:0:0:
298,192,172135,1,0,0:0:0:0:
384,192,172223,1,0,0:0:0:0:
42,192,172223,1,0,0:0:0:0:
213,192,172223,1,0,0:0:0:0:
298,192,172312,1,0,0:0:0:0:
213,192,172312,1,0,0:0:0:0:
469,192,172312,1,0,0:0:0:0:
213,192,172401,1,0,0:0:0:0:
128,192,172401,1,0,0:0:0:0:
42,192,172401,1,0,0:0:0:0:
384,192,172490,1,0,0:0:0:0:
298,192,172490,1,0,0:0:0:0:
469,192,172490,1,0,0:0:0:0:
128,192,172579,1,0,0:0:0:0:
213,192,172579,1,0,0:0:0:0:
298,192,172579,1,0,0:0:0:0:
42,192,172668,1,0,0:0:0:0:
384,192,172668,1,0,0:0:0:0:
469,192,172668,1,0,0:0:0:0:
128,192,172668,1,0,0:0:0:0:
213,192,172735,1,0,0:0:0:0:
298,192,172735,1,0,0:0:0:0:
469,192,172801,1,0,0:0:0:0:
384,192,172801,1,0,0:0:0:0:
128,192,172801,1,0,0:0:0:0:
42,192,172801,1,0,0:0:0:0:
213,192,172868,1,0,0:0:0:0:
298,192,172868,1,0,0:0:0:0:
42,192,173068,1,0,0:0:0:0:
469,192,173068,1,0,0:0:0:0:
128,192,173068,1,0,0:0:0:0:
384,192,173068,1,0,0:0:0:0:
298,192,173135,1,0,0:0:0:0:
213,192,173135,1,0,0:0:0:0:
42,192,173201,1,0,0:0:0:0:
128,192,173201,1,0,0:0:0:0:
384,192,173201,1,0,0:0:0:0:
469,192,173201,1,0,0:0:0:0:
298,192,173268,1,0,0:0:0:0:
213,192,173268,1,0,0:0:0:0:
42,192,173468,1,0,0:0:0:0:
128,192,173468,1,0,0:0:0:0:
469,192,173468,1,0,0:0:0:0:
213,192,173468,1,0,0:0:0:0:
384,192,173535,1,0,0:0:0:0:
298,192,173535,1,0,0:0:0:0:
469,192,173601,1,0,0:0:0:0:
213,192,173601,1,0,0:0:0:0:
128,192,173601,1,0,0:0:0:0:
42,192,173601,1,0,0:0:0:0:
298,192,173668,1,0,0:0:0:0:
384,192,173668,1,0,0:0:0:0:
42,192,173868,1,0,0:0:0:0:
128,192,173868,1,0,0:0:0:0:
213,192,173868,1,0,0:0:0:0:
469,192,173868,1,0,0:0:0:0:
298,192,173935,1,0,0:0:0:0:
384,192,173935,1,0,0:0:0:0:
469,192,174001,1,0,0:0:0:0:
213,192,174001,1,0,0:0:0:0:
42,192,174001,1,0,0:0:0:0:
128,192,174001,1,0,0:0:0:0:
298,192,174068,1,0,0:0:0:0:
384,192,174068,1,0,0:0:0:0:
298,192,174268,1,0,0:0:0:0:
384,192,174268,1,0,0:0:0:0:
469,192,174268,1,0,0:0:0:0:
298,192,174357,1,0,0:0:0:0:
469,192,174357,1,0,0:0:0:0:
384,192,174357,1,0,0:0:0:0:
469,192,174446,1,0,0:0:0:0:
384,192,174446,1,0,0:0:0:0:
298,192,174446,1,0,0:0:0:0:
213,192,174535,1,0,0:0:0:0:
128,192,174535,1,0,0:0:0:0:
42,192,174535,1,0,0:0:0:0:
42,192,174623,1,0,0:0:0:0:
213,192,174623,1,0,0:0:0:0:
128,192,174623,1,0,0:0:0:0:
213,192,174712,1,0,0:0:0:0:
128,192,174712,1,0,0:0:0:0:
42,192,174712,1,0,0:0:0:0:
42,192,174801,1,0,0:0:0:0:
384,192,174801,1,0,0:0:0:0:
469,192,174801,1,0,0:0:0:0:
298,192,174801,1,0,0:0:0:0:
128,192,174868,1,0,0:0:0:0:
213,192,174868,1,0,0:0:0:0:
42,192,174935,1,0,0:0:0:0:
298,192,174935,1,0,0:0:0:0:
469,192,174935,1,0,0:0:0:0:
384,192,174935,1,0,0:0:0:0:
128,192,175001,1,0,0:0:0:0:
213,192,175001,1,0,0:0:0:0:
298,192,175201,1,0,0:0:0:0:
469,192,175201,1,0,0:0:0:0:
384,192,175201,1,0,0:0:0:0:
42,192,175201,1,0,0:0:0:0:
128,192,175268,1,0,0:0:0:0:
213,192,175268,1,0,0:0:0:0:
42,192,175335,1,0,0:0:0:0:
298,192,175335,1,0,0:0:0:0:
384,192,175335,1,0,0:0:0:0:
469,192,175335,1,0,0:0:0:0:
213,192,175401,1,0,0:0:0:0:
128,192,175401,1,0,0:0:0:0:
42,192,175601,1,0,0:0:0:0:
128,192,175601,1,0,0:0:0:0:
213,192,175601,1,0,0:0:0:0:
384,192,175601,1,0,0:0:0:0:
469,192,175668,1,0,0:0:0:0:
298,192,175668,1,0,0:0:0:0:
213,192,175735,1,0,0:0:0:0:
42,192,175735,1,0,0:0:0:0:
128,192,175735,1,0,0:0:0:0:
384,192,175735,1,0,0:0:0:0:
469,192,175801,1,0,0:0:0:0:
298,192,175801,1,0,0:0:0:0:
298,192,176001,1,0,0:0:0:0:
384,192,176001,1,0,0:0:0:0:
469,192,176001,1,0,0:0:0:0:
128,192,176001,1,0,0:0:0:0:
213,192,176068,1,0,0:0:0:0:
42,192,176068,1,0,0:0:0:0:
128,192,176135,1,0,0:0:0:0:
298,192,176135,1,0,0:0:0:0:
384,192,176135,1,0,0:0:0:0:
469,192,176135,1,0,0:0:0:0:
213,192,176201,1,0,0:0:0:0:
42,192,176201,1,0,0:0:0:0:
469,192,176401,1,0,0:0:0:0:
42,192,176401,1,0,0:0:0:0:
128,192,176401,1,0,0:0:0:0:
128,192,176490,1,0,0:0:0:0:
384,192,176490,1,0,0:0:0:0:
42,192,176490,1,0,0:0:0:0:
128,192,176579,1,0,0:0:0:0:
42,192,176579,1,0,0:0:0:0:
298,192,176579,1,0,0:0:0:0:
384,192,176668,1,0,0:0:0:0:
469,192,176668,1,0,0:0:0:0:
213,192,176668,1,0,0:0:0:0:
128,192,176757,1,0,0:0:0:0:
384,192,176757,1,0,0:0:0:0:
469,192,176757,1,0,0:0:0:0:
42,192,176846,1,0,0:0:0:0:
384,192,176846,1,0,0:0:0:0:
469,192,176846,1,0,0:0:0:0:
213,192,176935,1,0,0:0:0:0:
128,192,176935,1,0,0:0:0:0:
298,192,176935,1,0,0:0:0:0:
42,192,176935,1,0,0:0:0:0:
128,192,177068,1,0,0:0:0:0:
213,192,177068,1,0,0:0:0:0:
298,192,177068,1,0,0:0:0:0:
42,192,177068,1,0,0:0:0:0:
384,192,178001,1,0,0:0:0:0:
469,192,178001,1,0,0:0:0:0:
42,192,178001,1,0,0:0:0:0:
213,192,178001,1,0,0:0:0:0:
469,192,178135,1,0,0:0:0:0:
384,192,178135,1,0,0:0:0:0:
42,192,178135,1,0,0:0:0:0:
213,192,178135,1,0,0:0:0:0:
42,192,179068,1,0,0:0:0:0:
128,192,179068,1,0,0:0:0:0:
298,192,179068,1,0,0:0:0:0:
469,192,179068,1,0,0:0:0:0:
469,192,179201,1,0,0:0:0:0:
298,192,179201,1,0,0:0:0:0:
128,192,179201,1,0,0:0:0:0:
42,192,179201,1,0,0:0:0:0:
42,192,180135,1,0,0:0:0:0:
128,192,180135,1,0,0:0:0:0:
384,192,180135,1,0,0:0:0:0:
469,192,180135,1,0,0:0:0:0:
469,192,180268,1,0,0:0:0:0:
384,192,180268,1,0,0:0:0:0:
128,192,180268,1,0,0:0:0:0:
42,192,180268,1,0,0:0:0:0:
42,192,180579,1,0,0:0:0:0:
469,192,180579,1,0,0:0:0:0:
128,192,180623,1,0,0:0:0:0:
384,192,180623,1,0,0:0:0:0:
298,192,180668,1,0,0:0:0:0:
213,192,180668,1,0,0:0:0:0:
469,192,180757,1,0,0:0:0:0:
298,192,180846,1,0,0:0:0:0:
128,192,180935,1,0,0:0:0:0:
384,192,181023,1,0,0:0:0:0:
213,192,181112,1,0,0:0:0:0:
128,192,181201,1,0,0:0:0:0:
298,192,181201,1,0,0:0:0:0:
384,192,181201,1,0,0:0:0:0:
469,192,181201,1,0,0:0:0:0:
42,192,181201,128,0,182268:0:0:0:0:
128,192,181468,1,0,0:0:0:0:
213,192,181735,1,0,0:0:0:0:
298,192,182001,1,0,0:0:0:0:
213,192,182268,1,0,0:0:0:0:
298,192,182535,1,0,0:0:0:0:
128,192,182668,1,0,0:0:0:0:
384,192,182801,1,0,0:0:0:0:
213,192,182801,128,0,183201:0:0:0:0:
469,192,183068,1,0,0:0:0:0:
42,192,183201,1,0,0:0:0:0:
384,192,183335,1,0,0:0:0:0:
128,192,183401,1,0,0:0:0:0:
298,192,183468,1,0,0:0:0:0:
213,192,183535,1,0,0:0:0:0:
384,192,183601,1,0,0:0:0:0:
128,192,183668,1,0,0:0:0:0:
298,192,183735,1,0,0:0:0:0:
213,192,183801,1,0,0:0:0:0:
384,192,183868,1,0,0:0:0:0:
128,192,183935,1,0,0:0:0:0:
298,192,184001,1,0,0:0:0:0:
213,192,184068,1,0,0:0:0:0:
384,192,184135,1,0,0:0:0:0:
128,192,184201,1,0,0:0:0:0:
298,192,184268,1,0,0:0:0:0:
213,192,184335,1,0,0:0:0:0:
469,192,184401,1,0,0:0:0:0:
384,192,184401,1,0,0:0:0:0:
128,192,184468,1,0,0:0:0:0:
42,192,184468,1,0,0:0:0:0:
384,192,184535,1,0,0:0:0:0:
298,192,184535,1,0,0:0:0:0:
213,192,184601,1,0,0:0:0:0:
128,192,184601,1,0,0:0:0:0:
469,192,184668,1,0,0:0:0:0:
384,192,184668,1,0,0:0:0:0:
128,192,184735,1,0,0:0:0:0:
42,192,184735,1,0,0:0:0:0:
384,192,184801,1,0,0:0:0:0:
298,192,184801,1,0,0:0:0:0:
128,192,184868,1,0,0:0:0:0:
42,192,184868,1,0,0:0:0:0:
469,192,184935,1,0,0:0:0:0:
213,192,184935,1,0,0:0:0:0:
384,192,185001,1,0,0:0:0:0:
128,192,185001,1,0,0:0:0:0:
298,192,185068,1,0,0:0:0:0:
42,192,185068,1,0,0:0:0:0:
213,192,185135,1,0,0:0:0:0:
469,192,185135,1,0,0:0:0:0:
128,192,185201,1,0,0:0:0:0:
384,192,185201,1,0,0:0:0:0:
213,192,185268,1,0,0:0:0:0:
469,192,185268,1,0,0:0:0:0:
298,192,185335,1,0,0:0:0:0:
42,192,185335,1,0,0:0:0:0:
384,192,185401,1,0,0:0:0:0:
128,192,185401,1,0,0:0:0:0:
469,192,185468,1,0,0:0:0:0:
213,192,185468,1,0,0:0:0:0:
298,192,185601,128,0,185735:0:0:0:0:
128,192,185668,128,0,185868:0:0:0:0:
469,192,185868,128,0,186001:0:0:0:0:
384,192,185901,128,0,186001:0:0:0:0:
42,192,186001,1,0,0:0:0:0:
42,192,186068,1,0,0:0:0:0:
298,192,186135,128,0,186268:0:0:0:0:
469,192,186168,128,0,186268:0:0:0:0:
42,192,186268,128,0,186401:0:0:0:0:
213,192,186401,128,0,186535:0:0:0:0:
298,192,186435,128,0,186535:0:0:0:0:
42,192,186535,1,0,0:0:0:0:
128,192,186535,1,0,0:0:0:0:
469,192,186535,1,0,0:0:0:0:
384,192,186535,1,0,0:0:0:0:
42,192,186668,1,0,0:0:0:0:
128,192,186668,1,0,0:0:0:0:
384,192,186668,1,0,0:0:0:0:
469,192,186668,1,0,0:0:0:0:
128,192,186935,1,0,0:0:0:0:
213,192,186935,1,0,0:0:0:0:
298,192,186935,1,0,0:0:0:0:
384,192,186935,1,0,0:0:0:0:
384,192,187068,1,0,0:0:0:0:
298,192,187068,1,0,0:0:0:0:
213,192,187068,1,0,0:0:0:0:
128,192,187068,1,0,0:0:0:0:
469,192,187335,1,0,0:0:0:0:
213,192,187335,1,0,0:0:0:0:
298,192,187335,1,0,0:0:0:0:
42,192,187335,128,0,187601:0:0:0:0:
469,192,187601,1,0,0:0:0:0:
384,192,187601,1,0,0:0:0:0:
213,192,187601,128,0,187868:0:0:0:0:
128,192,187735,1,0,0:0:0:0:
384,192,187868,1,0,0:0:0:0:
469,192,187868,1,0,0:0:0:0:
42,192,187868,128,0,188135:0:0:0:0:
213,192,188001,1,0,0:0:0:0:
469,192,188135,1,0,0:0:0:0:
384,192,188135,1,0,0:0:0:0:
298,192,188135,128,0,188401:0:0:0:0:
128,192,188268,1,0,0:0:0:0:
384,192,188401,1,0,0:0:0:0:
469,192,188401,1,0,0:0:0:0:
213,192,188401,128,0,188668:0:0:0:0:
298,192,188535,1,0,0:0:0:0:
42,192,188668,1,0,0:0:0:0:
128,192,188668,1,0,0:0:0:0:
469,192,188668,128,0,189068:0:0:0:0:
384,192,188801,1,0,0:0:0:0:
128,192,188935,1,0,0:0:0:0:
42,192,188935,1,0,0:0:0:0:
213,192,189068,1,0,0:0:0:0:
42,192,189201,1,0,0:0:0:0:
128,192,189201,1,0,0:0:0:0:
469,192,189201,1,0,0:0:0:0:
298,192,189201,128,0,189735:0:0:0:0:
384,192,189335,1,0,0:0:0:0:
128,192,189468,1,0,0:0:0:0:
42,192,189468,1,0,0:0:0:0:
213,192,189601,1,0,0:0:0:0:
384,192,189735,1,0,0:0:0:0:
469,192,189735,1,0,0:0:0:0:
128,192,189735,128,0,190268:0:0:0:0:
42,192,189868,1,0,0:0:0:0:
384,192,190001,1,0,0:0:0:0:
469,192,190001,1,0,0:0:0:0:
213,192,190135,1,0,0:0:0:0:
469,192,190268,1,0,0:0:0:0:
384,192,190268,1,0,0:0:0:0:
42,192,190401,1,0,0:0:0:0:
384,192,190535,1,0,0:0:0:0:
469,192,190535,1,0,0:0:0:0:
213,192,190535,128,0,190801:0:0:0:0:
298,192,190668,1,0,0:0:0:0:
128,192,190801,1,0,0:0:0:0:
42,192,190801,1,0,0:0:0:0:
384,192,190801,128,0,191201:0:0:0:0:
469,192,190935,1,0,0:0:0:0:
42,192,191068,1,0,0:0:0:0:
128,192,191068,1,0,0:0:0:0:
469,192,191201,128,0,191601:0:0:0:0:
298,192,191201,1,0,0:0:0:0:
128,192,191335,1,0,0:0:0:0:
42,192,191335,1,0,0:0:0:0:
213,192,191468,1,0,0:0:0:0:
128,192,191601,1,0,0:0:0:0:
42,192,191601,1,0,0:0:0:0:
298,192,191601,128,0,191868:0:0:0:0:
384,192,191735,1,0,0:0:0:0:
469,192,191735,1,0,0:0:0:0:
42,192,191868,1,0,0:0:0:0:
469,192,191868,1,0,0:0:0:0:
384,192,191868,1,0,0:0:0:0:
128,192,191868,1,0,0:0:0:0:
298,192,191935,1,0,0:0:0:0:
213,192,191935,1,0,0:0:0:0:
42,192,192001,1,0,0:0:0:0:
469,192,192001,1,0,0:0:0:0:
384,192,192001,1,0,0:0:0:0:
128,192,192001,1,0,0:0:0:0:
298,192,192068,1,0,0:0:0:0:
213,192,192068,1,0,0:0:0:0:
469,192,192268,1,0,0:0:0:0:
384,192,192268,1,0,0:0:0:0:
298,192,192268,1,0,0:0:0:0:
213,192,192268,1,0,0:0:0:0:
128,192,192335,1,0,0:0:0:0:
42,192,192335,1,0,0:0:0:0:
213,192,192401,1,0,0:0:0:0:
384,192,192401,1,0,0:0:0:0:
469,192,192401,1,0,0:0:0:0:
298,192,192401,1,0,0:0:0:0:
128,192,192468,1,0,0:0:0:0:
42,192,192468,1,0,0:0:0:0:
42,192,192668,1,0,0:0:0:0:
384,192,192668,1,0,0:0:0:0:
469,192,192668,1,0,0:0:0:0:
298,192,192668,1,0,0:0:0:0:
213,192,192735,1,0,0:0:0:0:
128,192,192735,1,0,0:0:0:0:
42,192,192801,1,0,0:0:0:0:
298,192,192801,1,0,0:0:0:0:
384,192,192801,1,0,0:0:0:0:
469,192,192801,1,0,0:0:0:0:
213,192,192868,1,0,0:0:0:0:
128,192,192868,1,0,0:0:0:0:
42,192,193068,1,0,0:0:0:0:
213,192,193068,1,0,0:0:0:0:
128,192,193068,1,0,0:0:0:0:
469,192,193068,1,0,0:0:0:0:
384,192,193135,1,0,0:0:0:0:
298,192,193135,1,0,0:0:0:0:
469,192,193201,1,0,0:0:0:0:
213,192,193201,1,0,0:0:0:0:
128,192,193201,1,0,0:0:0:0:
42,192,193201,1,0,0:0:0:0:
298,192,193268,1,0,0:0:0:0:
384,192,193268,1,0,0:0:0:0:
469,192,193468,128,0,193668:0:0:0:0:
42,192,193468,128,0,193535:0:0:0:0:
213,192,193468,128,0,193535:0:0:0:0:
128,192,193468,128,0,193535:0:0:0:0:
384,192,193535,128,0,193735:0:0:0:0:
298,192,193601,128,0,193801:0:0:0:0:
42,192,193601,128,0,193668:0:0:0:0:
128,192,193601,128,0,193668:0:0:0:0:
213,192,193668,128,0,193868:0:0:0:0:
128,192,193735,128,0,193935:0:0:0:0:
469,192,193735,1,0,0:0:0:0:
42,192,193801,128,0,194001:0:0:0:0:
384,192,193801,1,0,0:0:0:0:
298,192,193868,1,0,0:0:0:0:
213,192,193935,1,0,0:0:0:0:
469,192,194001,1,0,0:0:0:0:
384,192,194001,1,0,0:0:0:0:
298,192,194001,1,0,0:0:0:0:
128,192,194001,1,0,0:0:0:0:
42,192,194068,1,0,0:0:0:0:
213,192,194068,1,0,0:0:0:0:
128,192,194135,1,0,0:0:0:0:
298,192,194135,1,0,0:0:0:0:
384,192,194135,1,0,0:0:0:0:
469,192,194135,1,0,0:0:0:0:
42,192,194201,1,0,0:0:0:0:
213,192,194201,1,0,0:0:0:0:
42,192,194401,1,0,0:0:0:0:
213,192,194401,1,0,0:0:0:0:
128,192,194401,1,0,0:0:0:0:
384,192,194401,1,0,0:0:0:0:
298,192,194468,1,0,0:0:0:0:
469,192,194468,1,0,0:0:0:0:
384,192,194535,1,0,0:0:0:0:
213,192,194535,1,0,0:0:0:0:
128,192,194535,1,0,0:0:0:0:
42,192,194535,1,0,0:0:0:0:
298,192,194601,1,0,0:0:0:0:
469,192,194601,1,0,0:0:0:0:
42,192,194801,1,0,0:0:0:0:
128,192,194801,1,0,0:0:0:0:
384,192,194801,1,0,0:0:0:0:
469,192,194801,1,0,0:0:0:0:
298,192,194868,1,0,0:0:0:0:
213,192,194868,1,0,0:0:0:0:
128,192,194935,1,0,0:0:0:0:
42,192,194935,1,0,0:0:0:0:
384,192,194935,1,0,0:0:0:0:
469,192,194935,1,0,0:0:0:0:
298,192,195001,1,0,0:0:0:0:
213,192,195001,1,0,0:0:0:0:
469,192,195201,1,0,0:0:0:0:
42,192,195201,1,0,0:0:0:0:
128,192,195201,1,0,0:0:0:0:
213,192,195201,1,0,0:0:0:0:
384,192,195268,1,0,0:0:0:0:
298,192,195268,1,0,0:0:0:0:
469,192,195335,1,0,0:0:0:0:
213,192,195335,1,0,0:0:0:0:
42,192,195335,1,0,0:0:0:0:
128,192,195335,1,0,0:0:0:0:
384,192,195401,1,0,0:0:0:0:
298,192,195401,1,0,0:0:0:0:
42,192,195468,128,0,195601:0:0:0:0:
298,192,195601,128,0,195690:0:0:0:0:
469,192,195601,128,0,196046:0:0:0:0:
384,192,195690,128,0,195957:0:0:0:0:
213,192,195690,128,0,195779:0:0:0:0:
298,192,195779,128,0,195868:0:0:0:0:
128,192,195779,128,0,195868:0:0:0:0:
213,192,195868,128,0,195957:0:0:0:0:
42,192,195868,128,0,196046:0:0:0:0:
298,192,195957,128,0,196046:0:0:0:0:
128,192,195957,128,0,196046:0:0:0:0:
384,192,196046,128,0,196135:0:0:0:0:
213,192,196046,128,0,196135:0:0:0:0:
42,192,196135,1,0,0:0:0:0:
469,192,196135,1,0,0:0:0:0:
298,192,196135,1,0,0:0:0:0:
128,192,196135,1,0,0:0:0:0:
384,192,196268,1,0,0:0:0:0:
42,192,196401,1,0,0:0:0:0:
128,192,196401,1,0,0:0:0:0:
298,192,196401,128,0,196668:0:0:0:0:
213,192,196535,1,0,0:0:0:0:
42,192,196668,1,0,0:0:0:0:
128,192,196668,1,0,0:0:0:0:
469,192,196668,128,0,196935:0:0:0:0:
384,192,196801,1,0,0:0:0:0:
128,192,196935,1,0,0:0:0:0:
42,192,196935,1,0,0:0:0:0:
213,192,196935,128,0,197201:0:0:0:0:
298,192,197068,1,0,0:0:0:0:
384,192,197201,1,0,0:0:0:0:
469,192,197201,1,0,0:0:0:0:
42,192,197201,128,0,197735:0:0:0:0:
128,192,197335,1,0,0:0:0:0:
469,192,197468,1,0,0:0:0:0:
384,192,197468,1,0,0:0:0:0:
213,192,197601,1,0,0:0:0:0:
384,192,197735,1,0,0:0:0:0:
469,192,197735,1,0,0:0:0:0:
128,192,197735,1,0,0:0:0:0:
298,192,197735,128,0,198268:0:0:0:0:
42,192,197868,1,0,0:0:0:0:
384,192,198001,1,0,0:0:0:0:
469,192,198001,1,0,0:0:0:0:
213,192,198135,1,0,0:0:0:0:
128,192,198268,1,0,0:0:0:0:
42,192,198268,1,0,0:0:0:0:
384,192,198268,128,0,198801:0:0:0:0:
469,192,198401,1,0,0:0:0:0:
128,192,198535,1,0,0:0:0:0:
42,192,198535,1,0,0:0:0:0:
298,192,198668,1,0,0:0:0:0:
42,192,198801,1,0,0:0:0:0:
128,192,198801,1,0,0:0:0:0:
469,192,198935,1,0,0:0:0:0:
128,192,199068,1,0,0:0:0:0:
42,192,199068,1,0,0:0:0:0:
298,192,199068,128,0,199335:0:0:0:0:
213,192,199201,1,0,0:0:0:0:
469,192,199335,1,0,0:0:0:0:
384,192,199335,1,0,0:0:0:0:
42,192,199335,128,0,199735:0:0:0:0:
128,192,199468,1,0,0:0:0:0:
469,192,199601,1,0,0:0:0:0:
298,192,199601,1,0,0:0:0:0:
384,192,199735,1,0,0:0:0:0:
128,192,199735,1,0,0:0:0:0:
298,192,199801,1,0,0:0:0:0:
213,192,199801,1,0,0:0:0:0:
42,192,199868,1,0,0:0:0:0:
469,192,199868,1,0,0:0:0:0:
128,192,199868,1,0,0:0:0:0:
384,192,199868,1,0,0:0:0:0:
128,192,200001,1,0,0:0:0:0:
213,192,200001,1,0,0:0:0:0:
469,192,200001,1,0,0:0:0:0:
298,192,200001,1,0,0:0:0:0:
213,192,200135,1,0,0:0:0:0:
469,192,200135,1,0,0:0:0:0:
42,192,200135,1,0,0:0:0:0:
384,192,200135,1,0,0:0:0:0:
298,192,200268,1,0,0:0:0:0:
384,192,200268,1,0,0:0:0:0:
128,192,200268,1,0,0:0:0:0:
42,192,200268,1,0,0:0:0:0:
469,192,200401,1,0,0:0:0:0:
384,192,200401,1,0,0:0:0:0:
298,192,200401,1,0,0:0:0:0:
213,192,200401,1,0,0:0:0:0:
128,192,200468,1,0,0:0:0:0:
42,192,200468,1,0,0:0:0:0:
213,192,200535,1,0,0:0:0:0:
298,192,200535,1,0,0:0:0:0:
384,192,200535,1,0,0:0:0:0:
469,192,200535,1,0,0:0:0:0:
128,192,200601,1,0,0:0:0:0:
42,192,200601,1,0,0:0:0:0:
42,192,200801,1,0,0:0:0:0:
128,192,200801,1,0,0:0:0:0:
213,192,200801,1,0,0:0:0:0:
298,192,200801,1,0,0:0:0:0:
384,192,200868,1,0,0:0:0:0:
469,192,200868,1,0,0:0:0:0:
298,192,200935,1,0,0:0:0:0:
213,192,200935,1,0,0:0:0:0:
128,192,200935,1,0,0:0:0:0:
42,192,200935,1,0,0:0:0:0:
384,192,201001,1,0,0:0:0:0:
469,192,201001,1,0,0:0:0:0:
42,192,201201,1,0,0:0:0:0:
213,192,201201,1,0,0:0:0:0:
384,192,201201,1,0,0:0:0:0:
469,192,201201,1,0,0:0:0:0:
128,192,201268,1,0,0:0:0:0:
298,192,201268,1,0,0:0:0:0:
42,192,201335,1,0,0:0:0:0:
213,192,201335,1,0,0:0:0:0:
469,192,201335,1,0,0:0:0:0:
384,192,201335,1,0,0:0:0:0:
128,192,201401,1,0,0:0:0:0:
298,192,201401,1,0,0:0:0:0:
42,192,201601,1,0,0:0:0:0:
128,192,201601,1,0,0:0:0:0:
469,192,201601,1,0,0:0:0:0:
298,192,201601,1,0,0:0:0:0:
384,192,201668,1,0,0:0:0:0:
213,192,201668,1,0,0:0:0:0:
298,192,201735,1,0,0:0:0:0:
469,192,201735,1,0,0:0:0:0:
128,192,201735,1,0,0:0:0:0:
42,192,201735,1,0,0:0:0:0:
213,192,201801,1,0,0:0:0:0:
384,192,201801,1,0,0:0:0:0:
128,192,202001,128,0,202201:0:0:0:0:
213,192,202068,128,0,202268:0:0:0:0:
298,192,202135,128,0,202268:0:0:0:0:
384,192,202201,128,0,202268:0:0:0:0:
42,192,202268,128,0,202357:0:0:0:0:
128,192,202268,128,0,202357:0:0:0:0:
469,192,202268,1,0,0:0:0:0:
384,192,202357,128,0,202446:0:0:0:0:
298,192,202357,128,0,202446:0:0:0:0:
42,192,202446,128,0,202535:0:0:0:0:
128,192,202446,128,0,202535:0:0:0:0:
213,192,202535,1,0,0:0:0:0:
469,192,202535,1,0,0:0:0:0:
298,192,202535,1,0,0:0:0:0:
384,192,202535,1,0,0:0:0:0:
128,192,202601,1,0,0:0:0:0:
42,192,202601,1,0,0:0:0:0:
384,192,202668,1,0,0:0:0:0:
213,192,202668,1,0,0:0:0:0:
469,192,202668,1,0,0:0:0:0:
298,192,202668,1,0,0:0:0:0:
42,192,202735,1,0,0:0:0:0:
128,192,202735,1,0,0:0:0:0:
42,192,202935,1,0,0:0:0:0:
469,192,202935,1,0,0:0:0:0:
128,192,202935,1,0,0:0:0:0:
213,192,202935,1,0,0:0:0:0:
384,192,203001,1,0,0:0:0:0:
298,192,203001,1,0,0:0:0:0:
42,192,203068,1,0,0:0:0:0:
469,192,203068,1,0,0:0:0:0:
128,192,203068,1,0,0:0:0:0:
213,192,203068,1,0,0:0:0:0:
384,192,203135,1,0,0:0:0:0:
298,192,203135,1,0,0:0:0:0:
42,192,203335,1,0,0:0:0:0:
128,192,203335,1,0,0:0:0:0:
384,192,203335,1,0,0:0:0:0:
469,192,203335,1,0,0:0:0:0:
213,192,203401,1,0,0:0:0:0:
298,192,203401,1,0,0:0:0:0:
469,192,203468,1,0,0:0:0:0:
384,192,203468,1,0,0:0:0:0:
128,192,203468,1,0,0:0:0:0:
42,192,203468,1,0,0:0:0:0:
213,192,203535,1,0,0:0:0:0:
298,192,203535,1,0,0:0:0:0:
213,192,203735,1,0,0:0:0:0:
298,192,203735,1,0,0:0:0:0:
128,192,203735,1,0,0:0:0:0:
42,192,203735,1,0,0:0:0:0:
384,192,203801,1,0,0:0:0:0:
469,192,203801,1,0,0:0:0:0:
298,192,203868,1,0,0:0:0:0:
213,192,203868,1,0,0:0:0:0:
128,192,203868,1,0,0:0:0:0:
42,192,203868,1,0,0:0:0:0:
469,192,203935,1,0,0:0:0:0:
384,192,203935,1,0,0:0:0:0:
128,192,204135,1,0,0:0:0:0:
42,192,204135,1,0,0:0:0:0:
469,192,204135,1,0,0:0:0:0:
384,192,204135,1,0,0:0:0:0:
298,192,204201,1,0,0:0:0:0:
213,192,204201,1,0,0:0:0:0:
384,192,204268,1,0,0:0:0:0:
469,192,204268,1,0,0:0:0:0:
128,192,204335,1,0,0:0:0:0:
42,192,204335,1,0,0:0:0:0:
213,192,204401,1,0,0:0:0:0:
298,192,204401,1,0,0:0:0:0:
384,192,204401,1,0,0:0:0:0:
469,192,204401,1,0,0:0:0:0:
128,192,204468,1,0,0:0:0:0:
42,192,204468,1,0,0:0:0:0:
213,192,204535,1,0,0:0:0:0:
298,192,204535,1,0,0:0:0:0:
384,192,204601,1,0,0:0:0:0:
469,192,204601,1,0,0:0:0:0:
42,192,204668,1,0,0:0:0:0:
128,192,204668,1,0,0:0:0:0:
213,192,204668,1,0,0:0:0:0:
298,192,204668,1,0,0:0:0:0:
384,192,204735,1,0,0:0:0:0:
469,192,204735,1,0,0:0:0:0:
298,192,204801,1,0,0:0:0:0:
213,192,204801,1,0,0:0:0:0:
128,192,204801,1,0,0:0:0:0:
42,192,204801,1,0,0:0:0:0:
213,192,205068,1,0,0:0:0:0:
298,192,205068,1,0,0:0:0:0:
384,192,205068,1,0,0:0:0:0:
469,192,205068,1,0,0:0:0:0:
128,192,205135,1,0,0:0:0:0:
42,192,205135,1,0,0:0:0:0:
213,192,205201,1,0,0:0:0:0:
298,192,205201,1,0,0:0:0:0:
384,192,205201,1,0,0:0:0:0:
469,192,205201,1,0,0:0:0:0:
128,192,205268,1,0,0:0:0:0:
42,192,205268,1,0,0:0:0:0:
42,192,205468,1,0,0:0:0:0:
128,192,205468,1,0,0:0:0:0:
384,192,205468,1,0,0:0:0:0:
469,192,205468,1,0,0:0:0:0:
298,192,205535,1,0,0:0:0:0:
213,192,205535,1,0,0:0:0:0:
384,192,205601,1,0,0:0:0:0:
469,192,205601,1,0,0:0:0:0:
128,192,205601,1,0,0:0:0:0:
42,192,205601,1,0,0:0:0:0:
213,192,205668,1,0,0:0:0:0:
298,192,205668,1,0,0:0:0:0:
42,192,205868,1,0,0:0:0:0:
128,192,205868,1,0,0:0:0:0:
213,192,205868,1,0,0:0:0:0:
469,192,205868,1,0,0:0:0:0:
384,192,205935,1,0,0:0:0:0:
298,192,205935,1,0,0:0:0:0:
469,192,206001,1,0,0:0:0:0:
213,192,206001,1,0,0:0:0:0:
128,192,206001,1,0,0:0:0:0:
42,192,206001,1,0,0:0:0:0:
298,192,206068,1,0,0:0:0:0:
384,192,206068,1,0,0:0:0:0:
384,192,206268,1,0,0:0:0:0:
469,192,206268,1,0,0:0:0:0:
42,192,206268,1,0,0:0:0:0:
213,192,206268,1,0,0:0:0:0:
384,192,206357,1,0,0:0:0:0:
469,192,206357,1,0,0:0:0:0:
128,192,206357,1,0,0:0:0:0:
384,192,206446,1,0,0:0:0:0:
469,192,206446,1,0,0:0:0:0:
213,192,206446,1,0,0:0:0:0:
298,192,206535,1,0,0:0:0:0:
128,192,206535,1,0,0:0:0:0:
42,192,206535,1,0,0:0:0:0:
469,192,206623,1,0,0:0:0:0:
42,192,206623,1,0,0:0:0:0:
213,192,206623,1,0,0:0:0:0:
384,192,206712,1,0,0:0:0:0:
298,192,206712,1,0,0:0:0:0:
128,192,206712,1,0,0:0:0:0:
42,192,206801,1,0,0:0:0:0:
128,192,206801,1,0,0:0:0:0:
213,192,206801,1,0,0:0:0:0:
469,192,206801,1,0,0:0:0:0:
384,192,206868,1,0,0:0:0:0:
298,192,206868,1,0,0:0:0:0:
469,192,206935,1,0,0:0:0:0:
213,192,206935,1,0,0:0:0:0:
128,192,206935,1,0,0:0:0:0:
42,192,206935,1,0,0:0:0:0:
384,192,207001,1,0,0:0:0:0:
298,192,207001,1,0,0:0:0:0:
42,192,207201,1,0,0:0:0:0:
213,192,207201,1,0,0:0:0:0:
469,192,207201,1,0,0:0:0:0:
384,192,207201,1,0,0:0:0:0:
128,192,207268,1,0,0:0:0:0:
298,192,207268,1,0,0:0:0:0:
42,192,207335,1,0,0:0:0:0:
213,192,207335,1,0,0:0:0:0:
469,192,207335,1,0,0:0:0:0:
384,192,207335,1,0,0:0:0:0:
128,192,207401,1,0,0:0:0:0:
298,192,207401,1,0,0:0:0:0:
42,192,207601,1,0,0:0:0:0:
128,192,207601,1,0,0:0:0:0:
213,192,207601,1,0,0:0:0:0:
384,192,207601,1,0,0:0:0:0:
298,192,207668,1,0,0:0:0:0:
469,192,207668,1,0,0:0:0:0:
384,192,207735,1,0,0:0:0:0:
213,192,207735,1,0,0:0:0:0:
128,192,207735,1,0,0:0:0:0:
42,192,207735,1,0,0:0:0:0:
298,192,207801,1,0,0:0:0:0:
469,192,207801,1,0,0:0:0:0:
469,192,208001,1,0,0:0:0:0:
384,192,208001,1,0,0:0:0:0:
298,192,208001,1,0,0:0:0:0:
128,192,208001,1,0,0:0:0:0:
213,192,208068,1,0,0:0:0:0:
42,192,208068,1,0,0:0:0:0:
128,192,208135,1,0,0:0:0:0:
298,192,208135,1,0,0:0:0:0:
384,192,208135,1,0,0:0:0:0:
469,192,208135,1,0,0:0:0:0:
213,192,208201,1,0,0:0:0:0:
42,192,208201,1,0,0:0:0:0:
42,192,208401,1,0,0:0:0:0:
128,192,208401,1,0,0:0:0:0:
213,192,208401,1,0,0:0:0:0:
42,192,208490,1,0,0:0:0:0:
128,192,208490,1,0,0:0:0:0:
213,192,208490,1,0,0:0:0:0:
42,192,208579,1,0,0:0:0:0:
128,192,208579,1,0,0:0:0:0:
213,192,208579,1,0,0:0:0:0:
384,192,208668,1,0,0:0:0:0:
469,192,208668,1,0,0:0:0:0:
298,192,208668,1,0,0:0:0:0:
384,192,208757,1,0,0:0:0:0:
469,192,208757,1,0,0:0:0:0:
298,192,208757,1,0,0:0:0:0:
384,192,208846,1,0,0:0:0:0:
469,192,208846,1,0,0:0:0:0:
298,192,208846,1,0,0:0:0:0:
213,192,208935,128,0,209068:0:0:0:0:
298,192,209201,128,0,209335:0:0:0:0:
384,192,209268,128,0,209468:0:0:0:0:
42,192,209535,128,0,209735:0:0:0:0:
469,192,209735,128,0,210001:0:0:0:0:
298,192,209801,128,0,210001:0:0:0:0:
42,192,210001,128,0,211068:0:0:0:0:
213,192,210135,1,0,0:0:0:0:
298,192,210201,1,0,0:0:0:0:
469,192,210268,128,0,211068:0:0:0:0:
213,192,210268,1,0,0:0:0:0:
298,192,210335,1,0,0:0:0:0:
213,192,210401,1,0,0:0:0:0:
298,192,210468,1,0,0:0:0:0:
213,192,210535,128,0,210601:0:0:0:0:
128,192,210535,128,0,211068:0:0:0:0:
298,192,210601,128,0,210668:0:0:0:0:
213,192,210668,128,0,210735:0:0:0:0:
298,192,210735,128,0,210801:0:0:0:0:
213,192,210801,128,0,210868:0:0:0:0:
384,192,210801,128,0,211068:0:0:0:0:
298,192,210868,128,0,210935:0:0:0:0:
213,192,210935,128,0,211001:0:0:0:0:
298,192,211001,128,0,211068:0:0:0:0:
213,192,211068,128,0,212535:0:0:0:0:
42,192,212135,128,0,213201:0:0:0:0:
384,192,212935,128,0,213201:0:0:0:0:
469,192,213201,128,0,214268:0:0:0:0:
128,192,213201,128,0,213468:0:0:0:0:
213,192,213201,1,0,0:0:0:0:
298,192,213468,128,0,213735:0:0:0:0:
213,192,213735,128,0,214001:0:0:0:0:
384,192,214001,128,0,214268:0:0:0:0:
42,192,214268,128,0,214801:0:0:0:0:
298,192,214268,1,0,0:0:0:0:
213,192,214401,1,0,0:0:0:0:
298,192,214468,1,0,0:0:0:0:
213,192,214535,1,0,0:0:0:0:
469,192,214668,128,0,215001:0:0:0:0:
384,192,214735,128,0,215001:0:0:0:0:
298,192,214801,128,0,215001:0:0:0:0:
213,192,214868,128,0,215001:0:0:0:0:
128,192,214935,128,0,215068:0:0:0:0:
42,192,215001,128,0,215068:0:0:0:0:
469,192,215068,1,0,0:0:0:0:
384,192,215068,1,0,0:0:0:0:
298,192,215068,1,0,0:0:0:0:
213,192,215068,1,0,0:0:0:0:
42,192,215335,1,0,0:0:0:0:
469,192,215335,1,0,0:0:0:0:
384,192,215335,1,0,0:0:0:0:
213,192,215335,1,0,0:0:0:0:
42,192,215468,1,0,0:0:0:0:
469,192,215468,1,0,0:0:0:0:
128,192,215468,1,0,0:0:0:0:
298,192,215468,1,0,0:0:0:0:
42,192,215601,1,0,0:0:0:0:
469,192,215601,1,0,0:0:0:0:
384,192,215601,1,0,0:0:0:0:
213,192,215601,1,0,0:0:0:0:
298,192,215668,1,0,0:0:0:0:
213,192,215735,1,0,0:0:0:0:
128,192,215735,1,0,0:0:0:0:
42,192,215801,1,0,0:0:0:0:
298,192,215868,1,0,0:0:0:0:
213,192,215868,1,0,0:0:0:0:
469,192,215868,1,0,0:0:0:0:
384,192,215868,1,0,0:0:0:0:
128,192,215935,1,0,0:0:0:0:
213,192,216001,1,0,0:0:0:0:
469,192,216001,1,0,0:0:0:0:
298,192,216068,1,0,0:0:0:0:
42,192,216135,1,0,0:0:0:0:
128,192,216135,1,0,0:0:0:0:
384,192,216135,1,0,0:0:0:0:
213,192,216135,1,0,0:0:0:0:
469,192,216201,1,0,0:0:0:0:
298,192,216268,1,0,0:0:0:0:
42,192,216268,1,0,0:0:0:0:
213,192,216335,1,0,0:0:0:0:
128,192,216401,1,0,0:0:0:0:
384,192,216401,1,0,0:0:0:0:
469,192,216401,1,0,0:0:0:0:
298,192,216401,1,0,0:0:0:0:
42,192,216468,1,0,0:0:0:0:
213,192,216535,1,0,0:0:0:0:
384,192,216535,1,0,0:0:0:0:
298,192,216601,1,0,0:0:0:0:
128,192,216668,1,0,0:0:0:0:
42,192,216668,1,0,0:0:0:0:
384,192,216668,1,0,0:0:0:0:
469,192,216668,1,0,0:0:0:0:
298,192,216735,1,0,0:0:0:0:
213,192,216801,1,0,0:0:0:0:
469,192,216801,1,0,0:0:0:0:
128,192,216868,1,0,0:0:0:0:
42,192,216935,1,0,0:0:0:0:
298,192,216935,1,0,0:0:0:0:
384,192,216935,1,0,0:0:0:0:
213,192,216935,1,0,0:0:0:0:
128,192,217001,1,0,0:0:0:0:
213,192,217068,1,0,0:0:0:0:
469,192,217068,1,0,0:0:0:0:
298,192,217135,1,0,0:0:0:0:
384,192,217201,1,0,0:0:0:0:
42,192,217201,1,0,0:0:0:0:
128,192,217201,1,0,0:0:0:0:
213,192,217201,1,0,0:0:0:0:
469,192,217268,1,0,0:0:0:0:
298,192,217335,1,0,0:0:0:0:
42,192,217335,1,0,0:0:0:0:
213,192,217401,1,0,0:0:0:0:
128,192,217468,1,0,0:0:0:0:
384,192,217468,1,0,0:0:0:0:
469,192,217468,1,0,0:0:0:0:
42,192,217468,1,0,0:0:0:0:
213,192,217535,1,0,0:0:0:0:
298,192,217601,1,0,0:0:0:0:
128,192,217601,1,0,0:0:0:0:
384,192,217668,1,0,0:0:0:0:
469,192,217735,1,0,0:0:0:0:
128,192,217735,1,0,0:0:0:0:
42,192,217735,1,0,0:0:0:0:
298,192,217735,1,0,0:0:0:0:
213,192,217801,1,0,0:0:0:0:
384,192,217868,1,0,0:0:0:0:
42,192,217868,1,0,0:0:0:0:
298,192,217935,1,0,0:0:0:0:
128,192,218001,1,0,0:0:0:0:
469,192,218001,1,0,0:0:0:0:
384,192,218001,1,0,0:0:0:0:
213,192,218001,1,0,0:0:0:0:
42,192,218068,1,0,0:0:0:0:
298,192,218135,1,0,0:0:0:0:
128,192,218201,1,0,0:0:0:0:
42,192,218201,1,0,0:0:0:0:
469,192,218201,1,0,0:0:0:0:
213,192,218201,1,0,0:0:0:0:
384,192,218268,1,0,0:0:0:0:
42,192,218335,1,0,0:0:0:0:
384,192,218401,1,0,0:0:0:0:
469,192,218401,1,0,0:0:0:0:
128,192,218401,1,0,0:0:0:0:
298,192,218401,1,0,0:0:0:0:
213,192,218468,1,0,0:0:0:0:
42,192,218535,128,0,218668:0:0:0:0:
128,192,218535,128,0,218668:0:0:0:0:
469,192,218535,128,0,218668:0:0:0:0:
384,192,218535,128,0,218668:0:0:0:0:
469,192,218735,128,0,218868:0:0:0:0:
128,192,218735,128,0,218868:0:0:0:0:
42,192,218735,128,0,218868:0:0:0:0:
384,192,218735,128,0,218868:0:0:0:0:
213,192,218935,128,0,219068:0:0:0:0:
469,192,218935,128,0,219068:0:0:0:0:
42,192,218935,128,0,219068:0:0:0:0:
298,192,218935,128,0,219068:0:0:0:0:
213,192,219135,128,0,219268:0:0:0:0:
42,192,219135,128,0,219268:0:0:0:0:
469,192,219135,128,0,219268:0:0:0:0:
298,192,219135,128,0,219268:0:0:0:0:
213,192,219335,128,0,219468:0:0:0:0:
469,192,219335,128,0,219468:0:0:0:0:
384,192,219401,128,0,219535:0:0:0:0:
128,192,219401,128,0,219535:0:0:0:0:
42,192,219468,128,0,219535:0:0:0:0:
298,192,219468,128,0,219535:0:0:0:0:
469,192,219535,128,0,219601:0:0:0:0:
213,192,219535,128,0,219601:0:0:0:0:
128,192,219601,1,0,0:0:0:0:
42,192,219601,1,0,0:0:0:0:
384,192,219601,1,0,0:0:0:0:
298,192,219601,1,0,0:0:0:0:
213,192,219668,1,0,0:0:0:0:
298,192,219735,1,0,0:0:0:0:
469,192,219735,1,0,0:0:0:0:
384,192,219801,1,0,0:0:0:0:
42,192,219868,1,0,0:0:0:0:
128,192,219868,1,0,0:0:0:0:
213,192,219868,1,0,0:0:0:0:
469,192,219868,1,0,0:0:0:0:
298,192,219935,1,0,0:0:0:0:
128,192,220001,1,0,0:0:0:0:
384,192,220001,1,0,0:0:0:0:
213,192,220068,1,0,0:0:0:0:
42,192,220135,1,0,0:0:0:0:
298,192,220135,1,0,0:0:0:0:
469,192,220135,1,0,0:0:0:0:
384,192,220135,1,0,0:0:0:0:
213,192,220201,1,0,0:0:0:0:
128,192,220268,1,0,0:0:0:0:
469,192,220268,1,0,0:0:0:0:
384,192,220335,1,0,0:0:0:0:
298,192,220401,1,0,0:0:0:0:
42,192,220401,1,0,0:0:0:0:
213,192,220401,1,0,0:0:0:0:
128,192,220401,1,0,0:0:0:0:
384,192,220468,1,0,0:0:0:0:
469,192,220535,1,0,0:0:0:0:
42,192,220535,1,0,0:0:0:0:
128,192,220601,1,0,0:0:0:0:
213,192,220668,1,0,0:0:0:0:
298,192,220668,1,0,0:0:0:0:
42,192,220668,1,0,0:0:0:0:
469,192,220668,1,0,0:0:0:0:
128,192,220801,1,0,0:0:0:0:
213,192,220801,1,0,0:0:0:0:
298,192,220801,1,0,0:0:0:0:
384,192,220801,1,0,0:0:0:0:
384,192,221068,1,0,0:0:0:0:
469,192,221068,1,0,0:0:0:0:
42,192,221068,1,0,0:0:0:0:
213,192,221068,1,0,0:0:0:0:
42,192,221335,1,0,0:0:0:0:
213,192,221335,1,0,0:0:0:0:
469,192,221335,1,0,0:0:0:0:
384,192,221335,1,0,0:0:0:0:
42,192,221601,1,0,0:0:0:0:
128,192,221601,1,0,0:0:0:0:
469,192,221601,1,0,0:0:0:0:
384,192,221601,1,0,0:0:0:0:
298,192,221668,1,0,0:0:0:0:
213,192,221668,1,0,0:0:0:0:
384,192,221735,1,0,0:0:0:0:
42,192,221735,1,0,0:0:0:0:
128,192,221735,1,0,0:0:0:0:
469,192,221735,1,0,0:0:0:0:
298,192,221801,1,0,0:0:0:0:
213,192,221868,1,0,0:0:0:0:
42,192,221868,1,0,0:0:0:0:
469,192,221935,1,0,0:0:0:0:
384,192,222001,1,0,0:0:0:0:
128,192,222001,1,0,0:0:0:0:
298,192,222001,1,0,0:0:0:0:
213,192,222001,1,0,0:0:0:0:
42,192,222068,1,0,0:0:0:0:
128,192,222135,1,0,0:0:0:0:
469,192,222135,1,0,0:0:0:0:
384,192,222201,1,0,0:0:0:0:
298,192,222268,1,0,0:0:0:0:
213,192,222268,1,0,0:0:0:0:
42,192,222268,1,0,0:0:0:0:
469,192,222268,1,0,0:0:0:0:
128,192,222335,1,0,0:0:0:0:
213,192,222401,1,0,0:0:0:0:
384,192,222401,1,0,0:0:0:0:
298,192,222468,1,0,0:0:0:0:
384,192,222535,1,0,0:0:0:0:
42,192,222535,1,0,0:0:0:0:
128,192,222535,1,0,0:0:0:0:
469,192,222535,1,0,0:0:0:0:
298,192,222601,1,0,0:0:0:0:
213,192,222668,1,0,0:0:0:0:
42,192,222668,1,0,0:0:0:0:
128,192,222735,1,0,0:0:0:0:
42,192,222801,1,0,0:0:0:0:
469,192,222801,1,0,0:0:0:0:
384,192,222801,128,0,223201:0:0:0:0:
298,192,222801,1,0,0:0:0:0:
42,192,223001,1,0,0:0:0:0:
298,192,223001,1,0,0:0:0:0:
128,192,223001,1,0,0:0:0:0:
213,192,223001,1,0,0:0:0:0:
469,192,223201,1,0,0:0:0:0:
42,192,223201,128,0,223468:0:0:0:0:
298,192,223201,1,0,0:0:0:0:
213,192,223201,1,0,0:0:0:0:
384,192,223468,1,0,0:0:0:0:
298,192,223468,128,0,223735:0:0:0:0:
469,192,223468,1,0,0:0:0:0:
213,192,223468,1,0,0:0:0:0:
42,192,223735,1,0,0:0:0:0:
469,192,223735,1,0,0:0:0:0:
384,192,223735,1,0,0:0:0:0:
128,192,223735,1,0,0:0:0:0:
298,192,223801,1,0,0:0:0:0:
213,192,223801,1,0,0:0:0:0:
42,192,223868,1,0,0:0:0:0:
128,192,223868,1,0,0:0:0:0:
384,192,223868,1,0,0:0:0:0:
298,192,223935,1,0,0:0:0:0:
213,192,224001,1,0,0:0:0:0:
128,192,224001,1,0,0:0:0:0:
469,192,224001,1,0,0:0:0:0:
384,192,224068,1,0,0:0:0:0:
42,192,224135,1,0,0:0:0:0:
213,192,224135,1,0,0:0:0:0:
298,192,224135,1,0,0:0:0:0:
469,192,224135,1,0,0:0:0:0:
128,192,224201,1,0,0:0:0:0:
213,192,224268,1,0,0:0:0:0:
298,192,224268,1,0,0:0:0:0:
384,192,224268,1,0,0:0:0:0:
42,192,224335,1,0,0:0:0:0:
128,192,224401,1,0,0:0:0:0:
384,192,224401,1,0,0:0:0:0:
469,192,224401,1,0,0:0:0:0:
213,192,224468,1,0,0:0:0:0:
298,192,224535,1,0,0:0:0:0:
42,192,224535,1,0,0:0:0:0:
128,192,224535,1,0,0:0:0:0:
384,192,224601,1,0,0:0:0:0:
469,192,224668,1,0,0:0:0:0:
213,192,224668,1,0,0:0:0:0:
128,192,224668,1,0,0:0:0:0:
42,192,224668,1,0,0:0:0:0:
384,192,224735,1,0,0:0:0:0:
298,192,224801,1,0,0:0:0:0:
213,192,224801,1,0,0:0:0:0:
42,192,224801,1,0,0:0:0:0:
469,192,224868,1,0,0:0:0:0:
384,192,224935,1,0,0:0:0:0:
128,192,224935,1,0,0:0:0:0:
298,192,224935,1,0,0:0:0:0:
469,192,225001,1,0,0:0:0:0:
42,192,225068,1,0,0:0:0:0:
298,192,225068,1,0,0:0:0:0:
213,192,225068,1,0,0:0:0:0:
384,192,225135,1,0,0:0:0:0:
42,192,225201,1,0,0:0:0:0:
128,192,225201,1,0,0:0:0:0:
469,192,225201,1,0,0:0:0:0:
213,192,225201,1,0,0:0:0:0:
298,192,225268,1,0,0:0:0:0:
128,192,225335,1,0,0:0:0:0:
42,192,225335,1,0,0:0:0:0:
384,192,225335,1,0,0:0:0:0:
469,192,225335,1,0,0:0:0:0:
298,192,225401,1,0,0:0:0:0:
213,192,225401,1,0,0:0:0:0:
128,192,225468,1,0,0:0:0:0:
42,192,225468,1,0,0:0:0:0:
469,192,225468,1,0,0:0:0:0:
298,192,225535,1,0,0:0:0:0:
384,192,225535,1,0,0:0:0:0:
469,192,225601,1,0,0:0:0:0:
42,192,225601,1,0,0:0:0:0:
213,192,225601,1,0,0:0:0:0:
128,192,225601,1,0,0:0:0:0:
384,192,225668,1,0,0:0:0:0:
298,192,225668,1,0,0:0:0:0:
469,192,225735,1,0,0:0:0:0:
42,192,225735,1,0,0:0:0:0:
213,192,225735,1,0,0:0:0:0:
128,192,225735,1,0,0:0:0:0:
298,192,225868,1,0,0:0:0:0:
384,192,225868,1,0,0:0:0:0:
42,192,226001,1,0,0:0:0:0:
128,192,226001,1,0,0:0:0:0:
213,192,226001,1,0,0:0:0:0:
298,192,226068,1,0,0:0:0:0:
384,192,226068,1,0,0:0:0:0:
469,192,226068,1,0,0:0:0:0:
42,192,226135,1,0,0:0:0:0:
128,192,226135,1,0,0:0:0:0:
213,192,226135,1,0,0:0:0:0:
298,192,226201,1,0,0:0:0:0:
384,192,226201,1,0,0:0:0:0:
469,192,226201,1,0,0:0:0:0:
298,192,226401,1,0,0:0:0:0:
384,192,226401,1,0,0:0:0:0:
469,192,226401,1,0,0:0:0:0:
213,192,226468,1,0,0:0:0:0:
128,192,226468,1,0,0:0:0:0:
42,192,226468,1,0,0:0:0:0:
298,192,226535,1,0,0:0:0:0:
469,192,226535,1,0,0:0:0:0:
384,192,226535,1,0,0:0:0:0:
213,192,226601,1,0,0:0:0:0:
128,192,226601,1,0,0:0:0:0:
42,192,226601,1,0,0:0:0:0:
469,192,226801,1,0,0:0:0:0:
42,192,226801,1,0,0:0:0:0:
128,192,226801,1,0,0:0:0:0:
384,192,226868,1,0,0:0:0:0:
298,192,226868,1,0,0:0:0:0:
213,192,226868,1,0,0:0:0:0:
469,192,226935,1,0,0:0:0:0:
128,192,226935,1,0,0:0:0:0:
42,192,226935,1,0,0:0:0:0:
384,192,227001,1,0,0:0:0:0:
298,192,227001,1,0,0:0:0:0:
213,192,227001,1,0,0:0:0:0:
469,192,227201,5,0,0:0:0:0:
384,192,227201,1,0,0:0:0:0:
298,192,227201,1,0,0:0:0:0:
213,192,227268,1,0,0:0:0:0:
128,192,227268,1,0,0:0:0:0:
42,192,227268,1,0,0:0:0:0:
298,192,227335,1,0,0:0:0:0:
384,192,227335,1,0,0:0:0:0:
469,192,227335,1,0,0:0:0:0:
213,192,227401,1,0,0:0:0:0:
128,192,227401,1,0,0:0:0:0:
42,192,227401,1,0,0:0:0:0:
469,192,227468,128,0,227601:0:0:0:0:
384,192,227535,128,0,227668:0:0:0:0:
298,192,227601,128,0,227735:0:0:0:0:
213,192,227668,128,0,227801:0:0:0:0:
42,192,227735,128,0,227801:0:0:0:0:
128,192,227801,128,0,227868:0:0:0:0:
213,192,227868,128,0,227935:0:0:0:0:
298,192,227868,128,0,228001:0:0:0:0:
384,192,227868,128,0,228068:0:0:0:0:
469,192,227868,128,0,228135:0:0:0:0:
42,192,227868,128,0,227935:0:0:0:0:
128,192,227935,128,0,228001:0:0:0:0:
213,192,228001,128,0,228068:0:0:0:0:
298,192,228068,128,0,228135:0:0:0:0:
384,192,228135,128,0,228201:0:0:0:0:
42,192,228135,128,0,228535:0:0:0:0:
298,192,228201,128,0,228268:0:0:0:0:
213,192,228268,128,0,228335:0:0:0:0:
128,192,228335,128,0,228401:0:0:0:0:
469,192,228401,128,0,228535:0:0:0:0:
298,192,228401,128,0,228535:0:0:0:0:
384,192,228401,128,0,228535:0:0:0:0:
128,192,228468,128,0,228601:0:0:0:0:
213,192,228535,128,0,228668:0:0:0:0:
384,192,228601,128,0,228735:0:0:0:0:
42,192,228668,128,0,228801:0:0:0:0:
469,192,228668,128,0,228735:0:0:0:0:
298,192,228668,128,0,228801:0:0:0:0:
128,192,228735,128,0,228868:0:0:0:0:
213,192,228801,128,0,228935:0:0:0:0:
469,192,228868,128,0,229001:0:0:0:0:
384,192,228935,128,0,229068:0:0:0:0:
128,192,228935,128,0,229068:0:0:0:0:
298,192,228935,128,0,229135:0:0:0:0:
42,192,229001,128,0,229135:0:0:0:0:
213,192,229068,128,0,229201:0:0:0:0:
469,192,229135,128,0,229268:0:0:0:0:
42,192,229201,128,0,229335:0:0:0:0:
128,192,229201,128,0,229268:0:0:0:0:
384,192,229201,128,0,229335:0:0:0:0:
298,192,229268,128,0,229401:0:0:0:0:
213,192,229335,128,0,229468:0:0:0:0:
42,192,229401,128,0,229535:0:0:0:0:
384,192,229468,128,0,229535:0:0:0:0:
128,192,229468,128,0,229601:0:0:0:0:
469,192,229468,128,0,229601:0:0:0:0:
213,192,229535,128,0,229668:0:0:0:0:
298,192,229601,128,0,229735:0:0:0:0:
384,192,229668,128,0,229735:0:0:0:0:
469,192,229735,128,0,229935:0:0:0:0:
42,192,229735,128,0,229935:0:0:0:0:
128,192,229735,128,0,229868:0:0:0:0:
384,192,229801,128,0,230001:0:0:0:0:
298,192,229868,128,0,230068:0:0:0:0:
213,192,229935,128,0,230135:0:0:0:0:
469,192,230001,128,0,230201:0:0:0:0:
128,192,230001,128,0,230201:0:0:0:0:
384,192,230068,128,0,230201:0:0:0:0:
42,192,230068,128,0,230268:0:0:0:0:
298,192,230135,128,0,230201:0:0:0:0:
213,192,230201,128,0,230268:0:0:0:0:
384,192,230268,128,0,230401:0:0:0:0:
469,192,230268,128,0,230335:0:0:0:0:
128,192,230268,128,0,230401:0:0:0:0:
298,192,230335,128,0,230468:0:0:0:0:
213,192,230401,128,0,230535:0:0:0:0:
128,192,230468,128,0,230601:0:0:0:0:
384,192,230535,128,0,230735:0:0:0:0:
469,192,230535,128,0,230668:0:0:0:0:
42,192,230535,128,0,230668:0:0:0:0:
298,192,230601,128,0,230801:0:0:0:0:
213,192,230668,128,0,230868:0:0:0:0:
128,192,230735,128,0,230801:0:0:0:0:
42,192,230801,128,0,231001:0:0:0:0:
384,192,230801,128,0,230935:0:0:0:0:
469,192,230801,128,0,231001:0:0:0:0:
128,192,230868,128,0,231068:0:0:0:0:
213,192,230935,128,0,231135:0:0:0:0:
298,192,231001,128,0,231201:0:0:0:0:
384,192,231068,128,0,231268:0:0:0:0:
42,192,231068,128,0,231268:0:0:0:0:
469,192,231135,128,0,231335:0:0:0:0:
128,192,231135,128,0,231268:0:0:0:0:
213,192,231201,128,0,231268:0:0:0:0:
298,192,231268,128,0,231335:0:0:0:0:
42,192,231335,128,0,231468:0:0:0:0:
213,192,231335,128,0,231401:0:0:0:0:
384,192,231335,128,0,231468:0:0:0:0:
128,192,231401,128,0,231535:0:0:0:0:
298,192,231468,128,0,231601:0:0:0:0:
384,192,231535,128,0,231668:0:0:0:0:
469,192,231601,128,0,231735:0:0:0:0:
42,192,231601,128,0,231735:0:0:0:0:
213,192,231601,128,0,231735:0:0:0:0:
298,192,231668,128,0,231868:0:0:0:0:
128,192,231735,128,0,231868:0:0:0:0:
384,192,231735,128,0,231801:0:0:0:0:
469,192,231801,128,0,231935:0:0:0:0:
42,192,231868,128,0,232068:0:0:0:0:
384,192,231868,128,0,232001:0:0:0:0:
213,192,231868,128,0,231935:0:0:0:0:
128,192,231935,128,0,232001:0:0:0:0:
298,192,231935,128,0,232068:0:0:0:0:
469,192,232001,128,0,232135:0:0:0:0:
213,192,232001,128,0,232201:0:0:0:0:
384,192,232068,128,0,232201:0:0:0:0:
128,192,232068,128,0,232135:0:0:0:0:
298,192,232135,128,0,232268:0:0:0:0:
42,192,232135,128,0,232268:0:0:0:0:
469,192,232201,128,0,232335:0:0:0:0:
128,192,232201,128,0,232335:0:0:0:0:
384,192,232268,128,0,232335:0:0:0:0:
213,192,232268,128,0,232401:0:0:0:0:
298,192,232335,128,0,232401:0:0:0:0:
42,192,232335,128,0,232401:0:0:0:0:
128,192,232401,128,0,232535:0:0:0:0:
469,192,232401,128,0,232468:0:0:0:0:
384,192,232401,128,0,232668:0:0:0:0:
298,192,232468,128,0,232601:0:0:0:0:
213,192,232535,128,0,232668:0:0:0:0:
42,192,232535,128,0,232601:0:0:0:0:
469,192,232535,128,0,232601:0:0:0:0:
128,192,232601,128,0,232801:0:0:0:0:
469,192,232668,128,0,232801:0:0:0:0:
298,192,232668,128,0,232801:0:0:0:0:
42,192,232668,128,0,232801:0:0:0:0:
213,192,232735,128,0,232868:0:0:0:0:
384,192,232801,128,0,232935:0:0:0:0:
298,192,232868,128,0,233001:0:0:0:0:
42,192,232935,128,0,233068:0:0:0:0:
469,192,232935,128,0,233001:0:0:0:0:
213,192,232935,128,0,233001:0:0:0:0:
128,192,233001,128,0,233135:0:0:0:0:
384,192,233001,128,0,233135:0:0:0:0:
213,192,233068,128,0,233268:0:0:0:0:
469,192,233068,128,0,233268:0:0:0:0:
298,192,233135,128,0,233201:0:0:0:0:
42,192,233135,128,0,233201:0:0:0:0:
384,192,233201,128,0,233335:0:0:0:0:
128,192,233201,128,0,233335:0:0:0:0:
298,192,233268,128,0,233401:0:0:0:0:
42,192,233268,128,0,233401:0:0:0:0:
213,192,233335,128,0,233468:0:0:0:0:
469,192,233335,128,0,233401:0:0:0:0:
384,192,233401,128,0,233468:0:0:0:0:
128,192,233401,128,0,233468:0:0:0:0:
469,192,233468,128,0,233601:0:0:0:0:
42,192,233468,128,0,233601:0:0:0:0:
298,192,233468,128,0,233601:0:0:0:0:
128,192,233535,128,0,233668:0:0:0:0:
213,192,233601,128,0,233735:0:0:0:0:
42,192,233668,128,0,233735:0:0:0:0:
384,192,233668,128,0,233801:0:0:0:0:
469,192,233735,128,0,233868:0:0:0:0:
298,192,233735,128,0,233868:0:0:0:0:
128,192,233801,128,0,233935:0:0:0:0:
213,192,233868,128,0,234001:0:0:0:0:
42,192,233868,128,0,234001:0:0:0:0:
298,192,233935,128,0,234068:0:0:0:0:
469,192,234001,128,0,234135:0:0:0:0:
384,192,234001,128,0,234068:0:0:0:0:
128,192,234001,128,0,234201:0:0:0:0:
213,192,234068,128,0,234135:0:0:0:0:
42,192,234068,128,0,234268:0:0:0:0:
298,192,234135,128,0,234268:0:0:0:0:
384,192,234135,128,0,234201:0:0:0:0:
469,192,234201,128,0,234401:0:0:0:0:
213,192,234201,128,0,234401:0:0:0:0:
384,192,234268,128,0,234335:0:0:0:0:
128,192,234268,128,0,234335:0:0:0:0:
42,192,234335,128,0,234535:0:0:0:0:
298,192,234335,128,0,234468:0:0:0:0:
384,192,234401,128,0,234468:0:0:0:0:
128,192,234401,128,0,234468:0:0:0:0:
469,192,234468,128,0,234535:0:0:0:0:
213,192,234468,128,0,234601:0:0:0:0:
128,192,234535,128,0,234668:0:0:0:0:
298,192,234535,128,0,234668:0:0:0:0:
384,192,234535,128,0,234735:0:0:0:0:
42,192,234601,128,0,234668:0:0:0:0:
469,192,234668,128,0,234868:0:0:0:0:
213,192,234735,128,0,234868:0:0:0:0:
384,192,234801,128,0,234935:0:0:0:0:
42,192,234801,128,0,235001:0:0:0:0:
128,192,234801,128,0,234935:0:0:0:0:
298,192,234868,128,0,235001:0:0:0:0:
213,192,234935,128,0,235068:0:0:0:0:
128,192,235001,128,0,235135:0:0:0:0:
42,192,235068,128,0,235201:0:0:0:0:
469,192,235068,128,0,235201:0:0:0:0:
298,192,235068,128,0,235135:0:0:0:0:
384,192,235135,128,0,235268:0:0:0:0:
213,192,235201,128,0,235335:0:0:0:0:
298,192,235268,128,0,235401:0:0:0:0:
469,192,235335,128,0,235468:0:0:0:0:
42,192,235335,128,0,235468:0:0:0:0:
128,192,235335,128,0,235401:0:0:0:0:
384,192,235401,128,0,235535:0:0:0:0:
298,192,235468,128,0,235601:0:0:0:0:
213,192,235535,128,0,235601:0:0:0:0:
42,192,235601,128,0,235735:0:0:0:0:
128,192,235601,128,0,235701:0:0:0:0:
469,192,235601,128,0,235735:0:0:0:0:
384,192,235601,128,0,235668:0:0:0:0:
298,192,235668,128,0,235735:0:0:0:0:
213,192,235735,128,0,235801:0:0:0:0:
469,192,235801,128,0,235935:0:0:0:0:
384,192,235801,128,0,235901:0:0:0:0:
42,192,235801,128,0,235935:0:0:0:0:
128,192,235801,128,0,235868:0:0:0:0:
213,192,235868,128,0,235935:0:0:0:0:
298,192,235935,128,0,236001:0:0:0:0:
42,192,236001,128,0,236135:0:0:0:0:
128,192,236001,128,0,236101:0:0:0:0:
469,192,236001,128,0,236135:0:0:0:0:
384,192,236001,128,0,236068:0:0:0:0:
298,192,236068,128,0,236135:0:0:0:0:
213,192,236135,128,0,236201:0:0:0:0:
128,192,236201,128,0,236268:0:0:0:0:
384,192,236201,128,0,236301:0:0:0:0:
469,192,236201,128,0,236335:0:0:0:0:
42,192,236201,128,0,236401:0:0:0:0:
213,192,236268,128,0,236335:0:0:0:0:
298,192,236335,128,0,236468:0:0:0:0:
469,192,236401,128,0,236468:0:0:0:0:
213,192,236401,128,0,236535:0:0:0:0:
384,192,236468,128,0,236535:0:0:0:0:
128,192,236468,128,0,236601:0:0:0:0:
298,192,236535,128,0,236601:0:0:0:0:
42,192,236535,128,0,236668:0:0:0:0:
213,192,236601,128,0,236668:0:0:0:0:
469,192,236601,128,0,236668:0:0:0:0:
128,192,236668,128,0,236735:0:0:0:0:
384,192,236735,128,0,236801:0:0:0:0:
128,192,236801,128,0,236868:0:0:0:0:
384,192,236868,128,0,236935:0:0:0:0:
42,192,236935,1,0,0:0:0:0:
128,192,236935,1,0,0:0:0:0:
469,192,236935,1,0,0:0:0:0:
213,192,236935,1,0,0:0:0:0:
298,192,237068,1,0,0:0:0:0:
128,192,237135,1,0,0:0:0:0:
384,192,237201,1,0,0:0:0:0:
469,192,237201,1,0,0:0:0:0:
42,192,237201,1,0,0:0:0:0:
298,192,237268,1,0,0:0:0:0:
213,192,237268,1,0,0:0:0:0:
128,192,237335,1,0,0:0:0:0:
42,192,237335,1,0,0:0:0:0:
469,192,237335,1,0,0:0:0:0:
384,192,237401,1,0,0:0:0:0:
298,192,237401,1,0,0:0:0:0:
213,192,237468,1,0,0:0:0:0:
42,192,237468,1,0,0:0:0:0:
469,192,237468,1,0,0:0:0:0:
128,192,237601,1,0,0:0:0:0:
298,192,237601,1,0,0:0:0:0:
213,192,237735,1,0,0:0:0:0:
384,192,237735,1,0,0:0:0:0:
469,192,237735,1,0,0:0:0:0:
42,192,237735,1,0,0:0:0:0:
42,192,237868,1,0,0:0:0:0:
213,192,237868,1,0,0:0:0:0:
384,192,237868,1,0,0:0:0:0:
469,192,237868,1,0,0:0:0:0:
42,192,238135,1,0,0:0:0:0:
128,192,238135,1,0,0:0:0:0:
469,192,238135,1,0,0:0:0:0:
298,192,238135,1,0,0:0:0:0:
42,192,238401,1,0,0:0:0:0:
128,192,238401,1,0,0:0:0:0:
298,192,238401,1,0,0:0:0:0:
469,192,238401,1,0,0:0:0:0:
128,192,238668,1,0,0:0:0:0:
469,192,238668,1,0,0:0:0:0:
384,192,238668,1,0,0:0:0:0:
42,192,238668,1,0,0:0:0:0:
298,192,238735,1,0,0:0:0:0:
213,192,238735,1,0,0:0:0:0:
42,192,238801,1,0,0:0:0:0:
128,192,238801,1,0,0:0:0:0:
469,192,238801,128,0,239001:0:0:0:0:
469,192,239068,1,0,0:0:0:0:
384,192,239068,1,0,0:0:0:0:
42,192,239068,1,0,0:0:0:0:
213,192,239068,1,0,0:0:0:0:
128,192,239201,1,0,0:0:0:0:
42,192,239201,1,0,0:0:0:0:
469,192,239201,1,0,0:0:0:0:
384,192,239235,1,0,0:0:0:0:
298,192,239268,1,0,0:0:0:0:
213,192,239301,1,0,0:0:0:0:
42,192,239335,128,0,239468:0:0:0:0:
128,192,239335,128,0,239468:0:0:0:0:
384,192,239335,128,0,239468:0:0:0:0:
469,192,239335,128,0,239468:0:0:0:0:
42,192,239535,128,0,239668:0:0:0:0:
213,192,239535,128,0,239668:0:0:0:0:
298,192,239535,128,0,239668:0:0:0:0:
469,192,239535,128,0,239668:0:0:0:0:
128,192,239735,128,0,239801:0:0:0:0:
213,192,239735,128,0,239801:0:0:0:0:
298,192,239735,128,0,239801:0:0:0:0:
384,192,239735,128,0,239801:0:0:0:0:
469,192,239868,128,0,240001:0:0:0:0:
128,192,239868,128,0,239935:0:0:0:0:
213,192,239868,128,0,239951:0:0:0:0:
298,192,239868,128,0,239968:0:0:0:0:
384,192,239868,128,0,239985:0:0:0:0:
42,192,240068,128,0,240201:0:0:0:0:
128,192,240068,128,0,240185:0:0:0:0:
213,192,240068,128,0,240168:0:0:0:0:
298,192,240068,128,0,240151:0:0:0:0:
384,192,240068,128,0,240135:0:0:0:0:
128,192,240268,128,0,240335:0:0:0:0:
213,192,240268,128,0,240351:0:0:0:0:
298,192,240268,128,0,240368:0:0:0:0:
384,192,240268,128,0,240385:0:0:0:0:
469,192,240268,128,0,240401:0:0:0:0:
42,192,240535,128,0,240668:0:0:0:0:
469,192,240535,128,0,240668:0:0:0:0:
213,192,240535,128,0,240668:0:0:0:0:
298,192,240535,128,0,240668:0:0:0:0:
128,192,240668,128,0,240801:0:0:0:0:
384,192,240668,128,0,240801:0:0:0:0:
42,192,240801,1,0,0:0:0:0:
213,192,240801,1,0,0:0:0:0:
298,192,240801,1,0,0:0:0:0:
469,192,240801,1,0,0:0:0:0:
128,192,240868,1,0,0:0:0:0:
384,192,240868,1,0,0:0:0:0:
213,192,240935,1,0,0:0:0:0:
42,192,240935,1,0,0:0:0:0:
298,192,240968,1,0,0:0:0:0:
384,192,241001,1,0,0:0:0:0:
469,192,241035,1,0,0:0:0:0:
128,192,241068,1,0,0:0:0:0:
42,192,241068,1,0,0:0:0:0:
213,192,241101,1,0,0:0:0:0:
469,192,241135,1,0,0:0:0:0:
384,192,241168,1,0,0:0:0:0:
42,192,241201,1,0,0:0:0:0:
298,192,241201,1,0,0:0:0:0:
213,192,241235,1,0,0:0:0:0:
128,192,241268,1,0,0:0:0:0:
42,192,241301,1,0,0:0:0:0:
384,192,241335,1,0,0:0:0:0:
469,192,241335,1,0,0:0:0:0:
298,192,241368,1,0,0:0:0:0:
128,192,241401,1,0,0:0:0:0:
213,192,241435,1,0,0:0:0:0:
298,192,241468,1,0,0:0:0:0:
42,192,241468,1,0,0:0:0:0:
469,192,241468,1,0,0:0:0:0:
128,192,241535,1,0,0:0:0:0:
384,192,241535,1,0,0:0:0:0:
213,192,241601,1,0,0:0:0:0:
298,192,241601,1,0,0:0:0:0:
384,192,241635,1,0,0:0:0:0:
469,192,241668,1,0,0:0:0:0:
42,192,241701,1,0,0:0:0:0:
128,192,241735,1,0,0:0:0:0:
298,192,241735,1,0,0:0:0:0:
384,192,241735,1,0,0:0:0:0:
213,192,241801,1,0,0:0:0:0:
469,192,241801,1,0,0:0:0:0:
42,192,241868,1,0,0:0:0:0:
128,192,241868,1,0,0:0:0:0:
298,192,241868,1,0,0:0:0:0:
213,192,241935,1,0,0:0:0:0:
469,192,241935,1,0,0:0:0:0:
384,192,241935,1,0,0:0:0:0:
298,192,242001,1,0,0:0:0:0:
128,192,242001,1,0,0:0:0:0:
42,192,242001,1,0,0:0:0:0:
469,192,242068,1,0,0:0:0:0:
384,192,242068,1,0,0:0:0:0:
213,192,242135,1,0,0:0:0:0:
128,192,242135,1,0,0:0:0:0:
384,192,242201,1,0,0:0:0:0:
469,192,242201,1,0,0:0:0:0:
42,192,242268,1,0,0:0:0:0:
128,192,242268,1,0,0:0:0:0:
298,192,242335,1,0,0:0:0:0:
384,192,242335,1,0,0:0:0:0:
42,192,242401,1,0,0:0:0:0:
469,192,242401,1,0,0:0:0:0:
128,192,242435,1,0,0:0:0:0:
213,192,242468,1,0,0:0:0:0:
298,192,242501,1,0,0:0:0:0:
384,192,242535,1,0,0:0:0:0:
42,192,242535,1,0,0:0:0:0:
128,192,242535,1,0,0:0:0:0:
213,192,242601,1,0,0:0:0:0:
298,192,242601,1,0,0:0:0:0:
469,192,242668,1,0,0:0:0:0:
384,192,242668,1,0,0:0:0:0:
42,192,242668,1,0,0:0:0:0:
128,192,242735,1,0,0:0:0:0:
213,192,242735,1,0,0:0:0:0:
469,192,242801,1,0,0:0:0:0:
42,192,242801,1,0,0:0:0:0:
384,192,242835,1,0,0:0:0:0:
298,192,242868,1,0,0:0:0:0:
213,192,242901,1,0,0:0:0:0:
128,192,242935,1,0,0:0:0:0:
469,192,242935,1,0,0:0:0:0:
384,192,242968,1,0,0:0:0:0:
298,192,243001,1,0,0:0:0:0:
213,192,243035,1,0,0:0:0:0:
469,192,243068,1,0,0:0:0:0:
384,192,243068,1,0,0:0:0:0:
42,192,243068,1,0,0:0:0:0:
128,192,243068,1,0,0:0:0:0:
213,192,243335,1,0,0:0:0:0:
298,192,243335,1,0,0:0:0:0:
469,192,243335,1,0,0:0:0:0:
42,192,243335,1,0,0:0:0:0:
469,192,243468,128,0,243735:0:0:0:0:
384,192,243468,128,0,243690:0:0:0:0:
213,192,243468,128,0,243646:0:0:0:0:
42,192,243468,128,0,243601:0:0:0:0:
213,192,243868,1,0,0:0:0:0:
128,192,243868,1,0,0:0:0:0:
384,192,243868,1,0,0:0:0:0:
42,192,244001,1,0,0:0:0:0:
128,192,244001,1,0,0:0:0:0:
298,192,244001,128,0,244068:0:0:0:0:
469,192,244001,128,0,244068:0:0:0:0:
213,192,244135,1,0,0:0:0:0:
384,192,244135,1,0,0:0:0:0:
298,192,244268,1,0,0:0:0:0:
42,192,244268,1,0,0:0:0:0:
469,192,244268,1,0,0:0:0:0:
42,192,244401,128,0,244601:0:0:0:0:
469,192,244401,128,0,244601:0:0:0:0:
384,192,244401,128,0,244535:0:0:0:0:
213,192,244401,128,0,244468:0:0:0:0:
128,192,244468,128,0,244601:0:0:0:0:
213,192,244535,128,0,244601:0:0:0:0:
384,192,244601,1,0,0:0:0:0:
298,192,244601,1,0,0:0:0:0:
213,192,244668,128,0,244801:0:0:0:0:
469,192,244668,128,0,245135:0:0:0:0:
42,192,244668,128,0,245135:0:0:0:0:
128,192,244668,128,0,245135:0:0:0:0:
298,192,244801,128,0,245135:0:0:0:0:
384,192,245068,1,0,0:0:0:0:
42,192,245201,128,0,245335:0:0:0:0:
469,192,245201,128,0,245468:0:0:0:0:
384,192,245201,128,0,245423:0:0:0:0:
213,192,245201,128,0,245379:0:0:0:0:
213,192,245468,1,0,0:0:0:0:
42,192,245468,1,0,0:0:0:0:
298,192,245468,1,0,0:0:0:0:
128,192,245468,1,0,0:0:0:0:
42,192,245601,128,0,245868:0:0:0:0:
128,192,245601,128,0,245823:0:0:0:0:
298,192,245601,128,0,245779:0:0:0:0:
469,192,245601,128,0,245735:0:0:0:0:
42,192,246001,1,0,0:0:0:0:
213,192,246001,1,0,0:0:0:0:
469,192,246001,1,0,0:0:0:0:
469,192,246135,1,0,0:0:0:0:
384,192,246135,1,0,0:0:0:0:
298,192,246135,1,0,0:0:0:0:
42,192,246135,1,0,0:0:0:0:
213,192,246268,1,0,0:0:0:0:
384,192,246268,1,0,0:0:0:0:
469,192,246401,1,0,0:0:0:0:
298,192,246401,1,0,0:0:0:0:
42,192,246401,1,0,0:0:0:0:
128,192,246401,1,0,0:0:0:0:
213,192,246535,1,0,0:0:0:0:
298,192,246535,1,0,0:0:0:0:
384,192,246535,1,0,0:0:0:0:
42,192,246668,1,0,0:0:0:0:
469,192,246668,1,0,0:0:0:0:
384,192,246668,1,0,0:0:0:0:
128,192,246668,1,0,0:0:0:0:
298,192,246735,1,0,0:0:0:0:
213,192,246735,1,0,0:0:0:0:
42,192,246801,128,0,246935:0:0:0:0:
128,192,246801,128,0,246935:0:0:0:0:
384,192,246801,1,0,0:0:0:0:
469,192,246801,1,0,0:0:0:0:
469,192,247001,128,0,247135:0:0:0:0:
384,192,247001,128,0,247135:0:0:0:0:
128,192,247068,128,0,247135:0:0:0:0:
42,192,247068,128,0,247135:0:0:0:0:
128,192,247201,1,0,0:0:0:0:
384,192,247201,1,0,0:0:0:0:
469,192,247201,1,0,0:0:0:0:
42,192,247335,1,0,0:0:0:0:
128,192,247335,1,0,0:0:0:0:
298,192,247335,1,0,0:0:0:0:
469,192,247335,1,0,0:0:0:0:
384,192,247468,1,0,0:0:0:0:
213,192,247468,1,0,0:0:0:0:
298,192,247601,1,0,0:0:0:0:
469,192,247601,1,0,0:0:0:0:
128,192,247601,1,0,0:0:0:0:
42,192,247601,1,0,0:0:0:0:
42,192,247735,128,0,247868:0:0:0:0:
213,192,247735,128,0,247912:0:0:0:0:
384,192,247735,128,0,247957:0:0:0:0:
469,192,247735,128,0,248001:0:0:0:0:
469,192,248135,128,0,248201:0:0:0:0:
298,192,248135,1,0,0:0:0:0:
128,192,248135,1,0,0:0:0:0:
213,192,248268,1,0,0:0:0:0:
128,192,248268,1,0,0:0:0:0:
384,192,248268,1,0,0:0:0:0:
42,192,248268,128,0,248335:0:0:0:0:
298,192,248401,128,0,248468:0:0:0:0:
213,192,248401,1,0,0:0:0:0:
384,192,248535,128,0,248601:0:0:0:0:
469,192,248535,1,0,0:0:0:0:
128,192,248535,1,0,0:0:0:0:
213,192,248668,128,0,248735:0:0:0:0:
42,192,248668,1,0,0:0:0:0:
298,192,248668,1,0,0:0:0:0:
469,192,248668,1,0,0:0:0:0:
384,192,248801,1,0,0:0:0:0:
298,192,248801,1,0,0:0:0:0:
42,192,248801,1,0,0:0:0:0:
213,192,248868,1,0,0:0:0:0:
469,192,248868,1,0,0:0:0:0:
128,192,248868,1,0,0:0:0:0:
384,192,248935,1,0,0:0:0:0:
298,192,248935,1,0,0:0:0:0:
42,192,248935,128,0,249068:0:0:0:0:
384,192,249068,128,0,249201:0:0:0:0:
213,192,249201,128,0,249335:0:0:0:0:
469,192,249201,128,0,249268:0:0:0:0:
298,192,249335,128,0,249468:0:0:0:0:
42,192,249335,128,0,249401:0:0:0:0:
469,192,249335,1,0,0:0:0:0:
42,192,249468,128,0,249735:0:0:0:0:
128,192,249468,128,0,249701:0:0:0:0:
213,192,249468,128,0,249668:0:0:0:0:
384,192,249468,128,0,249635:0:0:0:0:
469,192,249468,128,0,249601:0:0:0:0:
42,192,249868,128,0,250001:0:0:0:0:
128,192,249868,128,0,250035:0:0:0:0:
298,192,249868,128,0,250068:0:0:0:0:
384,192,249868,128,0,250101:0:0:0:0:
469,192,249868,128,0,250135:0:0:0:0:
42,192,250135,1,0,0:0:0:0:
213,192,250201,1,0,0:0:0:0:
384,192,250268,1,0,0:0:0:0:
42,192,250401,1,0,0:0:0:0:
128,192,250401,1,0,0:0:0:0:
213,192,250401,1,0,0:0:0:0:
298,192,250468,1,0,0:0:0:0:
384,192,250468,1,0,0:0:0:0:
469,192,250468,1,0,0:0:0:0:
42,192,250535,1,0,0:0:0:0:
213,192,250535,1,0,0:0:0:0:
128,192,250535,1,0,0:0:0:0:
298,192,250601,1,0,0:0:0:0:
384,192,250601,1,0,0:0:0:0:
469,192,250601,1,0,0:0:0:0:
42,192,250668,1,0,0:0:0:0:
128,192,250668,1,0,0:0:0:0:
213,192,250668,1,0,0:0:0:0:
298,192,250735,1,0,0:0:0:0:
384,192,250735,1,0,0:0:0:0:
469,192,250735,1,0,0:0:0:0:
42,192,250801,1,0,0:0:0:0:
128,192,250801,1,0,0:0:0:0:
213,192,250801,1,0,0:0:0:0:
298,192,250868,1,0,0:0:0:0:
384,192,250868,1,0,0:0:0:0:
469,192,250868,1,0,0:0:0:0:
42,192,250935,1,0,0:0:0:0:
128,192,250935,1,0,0:0:0:0:
213,192,250935,1,0,0:0:0:0:
298,192,251001,1,0,0:0:0:0:
384,192,251001,1,0,0:0:0:0:
469,192,251001,1,0,0:0:0:0:
42,192,251068,1,0,0:0:0:0:
128,192,251068,1,0,0:0:0:0:
213,192,251068,1,0,0:0:0:0:
298,192,251135,1,0,0:0:0:0:
384,192,251135,1,0,0:0:0:0:
469,192,251135,1,0,0:0:0:0:
42,192,251201,1,0,0:0:0:0:
213,192,251201,1,0,0:0:0:0:
128,192,251201,1,0,0:0:0:0:
298,192,251268,1,0,0:0:0:0:
384,192,251268,1,0,0:0:0:0:
469,192,251268,1,0,0:0:0:0:
42,192,251335,1,0,0:0:0:0:
128,192,251335,1,0,0:0:0:0:
213,192,251335,1,0,0:0:0:0:
298,192,251401,1,0,0:0:0:0:
384,192,251401,1,0,0:0:0:0:
469,192,251401,1,0,0:0:0:0:
42,192,251468,1,0,0:0:0:0:
128,192,251468,1,0,0:0:0:0:
213,192,251468,1,0,0:0:0:0:
298,192,251535,1,0,0:0:0:0:
469,192,251535,1,0,0:0:0:0:
384,192,251535,1,0,0:0:0:0:
42,192,251601,1,0,0:0:0:0:
128,192,251601,1,0,0:0:0:0:
213,192,251601,1,0,0:0:0:0:
298,192,251668,1,0,0:0:0:0:
384,192,251668,1,0,0:0:0:0:
469,192,251668,1,0,0:0:0:0:
213,192,251735,1,0,0:0:0:0:
128,192,251735,1,0,0:0:0:0:
42,192,251735,1,0,0:0:0:0:
298,192,251801,1,0,0:0:0:0:
384,192,251801,1,0,0:0:0:0:
469,192,251801,1,0,0:0:0:0:
213,192,251868,1,0,0:0:0:0:
128,192,251868,1,0,0:0:0:0:
42,192,251868,1,0,0:0:0:0:
298,192,251935,1,0,0:0:0:0:
469,192,251935,1,0,0:0:0:0:
384,192,251935,1,0,0:0:0:0:
128,192,252001,1,0,0:0:0:0:
42,192,252001,1,0,0:0:0:0:
213,192,252001,1,0,0:0:0:0:
298,192,252068,1,0,0:0:0:0:
469,192,252068,1,0,0:0:0:0:
384,192,252068,1,0,0:0:0:0:
42,192,252135,1,0,0:0:0:0:
128,192,252135,1,0,0:0:0:0:
213,192,252168,1,0,0:0:0:0:
298,192,252201,1,0,0:0:0:0:
384,192,252201,1,0,0:0:0:0:
469,192,252235,1,0,0:0:0:0:
42,192,252268,1,0,0:0:0:0:
128,192,252301,1,0,0:0:0:0:
213,192,252301,1,0,0:0:0:0:
298,192,252335,1,0,0:0:0:0:
384,192,252368,1,0,0:0:0:0:
469,192,252368,1,0,0:0:0:0:
42,192,252401,1,0,0:0:0:0:
128,192,252423,1,0,0:0:0:0:
213,192,252446,1,0,0:0:0:0:
298,192,252468,1,0,0:0:0:0:
384,192,252490,1,0,0:0:0:0:
469,192,252512,1,0,0:0:0:0:
42,192,252535,1,0,0:0:0:0:
128,192,252557,1,0,0:0:0:0:
213,192,252579,1,0,0:0:0:0:
298,192,252601,1,0,0:0:0:0:
384,192,252623,1,0,0:0:0:0:
469,192,252646,1,0,0:0:0:0:
42,192,252668,128,0,254268:0:0:0:0:
128,192,253201,128,0,253335:0:0:0:0:
384,192,253335,128,0,253468:0:0:0:0:
298,192,253401,128,0,253601:0:0:0:0:
469,192,253601,128,0,253735:0:0:0:0:
213,192,253735,128,0,253801:0:0:0:0:
298,192,253801,128,0,253868:0:0:0:0:
213,192,253868,128,0,253935:0:0:0:0:
469,192,253868,128,0,254468:0:0:0:0:
298,192,253935,128,0,254001:0:0:0:0:
213,192,254001,128,0,254068:0:0:0:0:
298,192,254068,128,0,254135:0:0:0:0:
213,192,254135,128,0,254201:0:0:0:0:
298,192,254201,128,0,254268:0:0:0:0:
213,192,254268,128,0,254335:0:0:0:0:
298,192,254335,128,0,254401:0:0:0:0:
213,192,254401,128,0,254468:0:0:0:0:
298,192,254468,128,0,254535:0:0:0:0:
42,192,254535,128,0,254735:0:0:0:0:
128,192,254535,128,0,254735:0:0:0:0:
469,192,254535,128,0,254735:0:0:0:0:
384,192,254535,128,0,254735:0:0:0:0:
213,192,254535,128,0,254735:0:0:0:0:
42,192,254801,128,0,255068:0:0:0:0:
469,192,254801,128,0,254868:0:0:0:0:
384,192,254801,128,0,254868:0:0:0:0:
298,192,254801,128,0,254868:0:0:0:0:
213,192,254801,128,0,254868:0:0:0:0:
384,192,254935,128,0,255001:0:0:0:0:
128,192,254935,128,0,255001:0:0:0:0:
213,192,254935,128,0,255001:0:0:0:0:
469,192,255068,128,0,255335:0:0:0:0:
128,192,255068,128,0,255135:0:0:0:0:
384,192,255068,128,0,255135:0:0:0:0:
213,192,255068,128,0,255135:0:0:0:0:
298,192,255068,128,0,255135:0:0:0:0:
42,192,255201,128,0,255268:0:0:0:0:
128,192,255201,128,0,255268:0:0:0:0:
298,192,255201,128,0,255268:0:0:0:0:
213,192,255335,128,0,255401:0:0:0:0:
298,192,255335,128,0,255468:0:0:0:0:
384,192,255335,128,0,255535:0:0:0:0:
42,192,255335,128,0,255601:0:0:0:0:
128,192,255401,128,0,255535:0:0:0:0:
213,192,255468,128,0,255535:0:0:0:0:
469,192,255535,128,0,255601:0:0:0:0:
128,192,255601,128,0,255668:0:0:0:0:
298,192,255601,128,0,255668:0:0:0:0:
384,192,255601,128,0,255668:0:0:0:0:
213,192,255601,128,0,255868:0:0:0:0:
42,192,255735,128,0,255801:0:0:0:0:
469,192,255735,128,0,255801:0:0:0:0:
298,192,255735,128,0,255801:0:0:0:0:
469,192,255868,128,0,255935:0:0:0:0:
42,192,255868,128,0,255935:0:0:0:0:
128,192,255868,128,0,255935:0:0:0:0:
298,192,255868,128,0,255935:0:0:0:0:
298,192,256001,128,0,256068:0:0:0:0:
384,192,256001,128,0,256068:0:0:0:0:
42,192,256001,128,0,256068:0:0:0:0:
213,192,256001,128,0,256068:0:0:0:0:
469,192,256135,128,0,256335:0:0:0:0:
128,192,256135,1,0,0:0:0:0:
42,192,256135,1,0,0:0:0:0:
384,192,256168,128,0,256335:0:0:0:0:
298,192,256201,128,0,256335:0:0:0:0:
213,192,256235,128,0,256335:0:0:0:0:
128,192,256268,128,0,256335:0:0:0:0:
42,192,256401,128,0,256668:0:0:0:0:
128,192,256401,128,0,256468:0:0:0:0:
384,192,256401,128,0,256468:0:0:0:0:
213,192,256401,128,0,256468:0:0:0:0:
469,192,256535,128,0,256668:0:0:0:0:
384,192,256535,128,0,256668:0:0:0:0:
298,192,256535,128,0,256601:0:0:0:0:
128,192,256535,1,0,0:0:0:0:
213,192,256668,128,0,256868:0:0:0:0:
298,192,256735,128,0,256868:0:0:0:0:
469,192,256801,128,0,256935:0:0:0:0:
384,192,256801,128,0,256935:0:0:0:0:
42,192,256935,1,0,0:0:0:0:
128,192,256935,1,0,0:0:0:0:
298,192,256935,1,0,0:0:0:0:
42,192,257001,128,0,257135:0:0:0:0:
128,192,257001,128,0,257135:0:0:0:0:
298,192,257001,128,0,257135:0:0:0:0:
213,192,257135,1,0,0:0:0:0:
384,192,257135,1,0,0:0:0:0:
469,192,257135,1,0,0:0:0:0:
213,192,257201,128,0,257335:0:0:0:0:
384,192,257201,128,0,257335:0:0:0:0:
469,192,257201,128,0,257335:0:0:0:0:
128,192,257335,128,0,257468:0:0:0:0:
469,192,257468,128,0,257735:0:0:0:0:
384,192,257468,128,0,257535:0:0:0:0:
298,192,257468,128,0,257535:0:0:0:0:
213,192,257468,128,0,257535:0:0:0:0:
42,192,257468,128,0,257535:0:0:0:0:
42,192,257601,128,0,257668:0:0:0:0:
298,192,257601,128,0,257668:0:0:0:0:
128,192,257601,128,0,257668:0:0:0:0:
42,192,257735,128,0,258001:0:0:0:0:
128,192,257735,128,0,257801:0:0:0:0:
384,192,257735,128,0,257801:0:0:0:0:
213,192,257735,128,0,257801:0:0:0:0:
298,192,257735,1,0,0:0:0:0:
213,192,257868,128,0,257935:0:0:0:0:
469,192,257868,128,0,257935:0:0:0:0:
298,192,257868,128,0,257935:0:0:0:0:
384,192,257868,1,0,0:0:0:0:
469,192,258001,128,0,258135:0:0:0:0:
384,192,258001,128,0,258135:0:0:0:0:
298,192,258001,128,0,258135:0:0:0:0:
128,192,258001,128,0,258135:0:0:0:0:
384,192,258201,128,0,258335:0:0:0:0:
298,192,258201,128,0,258335:0:0:0:0:
213,192,258201,128,0,258335:0:0:0:0:
42,192,258201,128,0,258335:0:0:0:0:
128,192,258401,128,0,258535:0:0:0:0:
213,192,258401,128,0,258535:0:0:0:0:
298,192,258401,128,0,258535:0:0:0:0:
469,192,258401,128,0,258535:0:0:0:0:
384,192,258401,128,0,258535:0:0:0:0:
42,192,258601,128,0,258735:0:0:0:0:
128,192,258601,128,0,258735:0:0:0:0:
213,192,258601,128,0,258735:0:0:0:0:
469,192,258601,128,0,258735:0:0:0:0:
298,192,258601,128,0,258735:0:0:0:0:
42,192,258801,128,0,258868:0:0:0:0:
469,192,258801,128,0,258868:0:0:0:0:
213,192,258801,1,0,0:0:0:0:
298,192,258801,1,0,0:0:0:0:
128,192,258868,128,0,258935:0:0:0:0:
384,192,258868,128,0,258935:0:0:0:0:
213,192,258935,128,0,259001:0:0:0:0:
298,192,258935,128,0,259001:0:0:0:0:
42,192,259001,128,0,259135:0:0:0:0:
469,192,259001,128,0,259135:0:0:0:0:
128,192,259068,128,0,259135:0:0:0:0:
384,192,259068,128,0,259135:0:0:0:0:
384,192,259201,1,0,0:0:0:0:
469,192,259201,1,0,0:0:0:0:
42,192,259201,1,0,0:0:0:0:
298,192,259201,1,0,0:0:0:0:
128,192,259268,1,0,0:0:0:0:
213,192,259268,1,0,0:0:0:0:
298,192,259335,128,0,259401:0:0:0:0:
384,192,259335,128,0,259468:0:0:0:0:
469,192,259335,128,0,259535:0:0:0:0:
42,192,259335,128,0,259535:0:0:0:0:
128,192,259401,128,0,259535:0:0:0:0:
213,192,259468,128,0,259535:0:0:0:0:
384,192,259535,1,0,0:0:0:0:
128,192,259601,128,0,259735:0:0:0:0:
42,192,259601,128,0,259801:0:0:0:0:
213,192,259601,128,0,259668:0:0:0:0:
469,192,259601,128,0,259801:0:0:0:0:
298,192,259601,1,0,0:0:0:0:
384,192,259668,128,0,259801:0:0:0:0:
298,192,259735,128,0,259801:0:0:0:0:
213,192,259801,1,0,0:0:0:0:
42,192,259868,128,0,260135:0:0:0:0:
128,192,259868,128,0,259935:0:0:0:0:
298,192,259868,128,0,259935:0:0:0:0:
384,192,259868,128,0,259935:0:0:0:0:
469,192,259868,128,0,259935:0:0:0:0:
128,192,260001,128,0,260068:0:0:0:0:
384,192,260001,128,0,260068:0:0:0:0:
213,192,260001,128,0,260068:0:0:0:0:
298,192,260135,1,0,0:0:0:0:
384,192,260135,1,0,0:0:0:0:
469,192,260135,1,0,0:0:0:0:
213,192,260201,1,0,0:0:0:0:
128,192,260201,1,0,0:0:0:0:
42,192,260201,1,0,0:0:0:0:
298,192,260268,1,0,0:0:0:0:
384,192,260268,1,0,0:0:0:0:
469,192,260268,1,0,0:0:0:0:
213,192,260335,1,0,0:0:0:0:
128,192,260335,1,0,0:0:0:0:
42,192,260335,1,0,0:0:0:0:
469,192,260401,128,0,260668:0:0:0:0:
128,192,260401,128,0,260468:0:0:0:0:
42,192,260401,128,0,260468:0:0:0:0:
298,192,260401,128,0,260468:0:0:0:0:
384,192,260401,128,0,260468:0:0:0:0:
213,192,260535,1,0,0:0:0:0:
128,192,260535,1,0,0:0:0:0:
384,192,260601,1,0,0:0:0:0:
298,192,260601,1,0,0:0:0:0:
42,192,260668,1,0,0:0:0:0:
128,192,260701,1,0,0:0:0:0:
213,192,260735,1,0,0:0:0:0:
298,192,260768,1,0,0:0:0:0:
42,192,260801,128,0,260868:0:0:0:0:
384,192,260801,128,0,260868:0:0:0:0:
469,192,260801,128,0,260868:0:0:0:0:
128,192,260801,128,0,260868:0:0:0:0:
128,192,260935,128,0,261001:0:0:0:0:
213,192,260935,128,0,261001:0:0:0:0:
298,192,260935,128,0,261001:0:0:0:0:
469,192,260935,128,0,261135:0:0:0:0:
42,192,261068,128,0,261135:0:0:0:0:
128,192,261068,128,0,261135:0:0:0:0:
213,192,261068,128,0,261135:0:0:0:0:
384,192,261068,128,0,261135:0:0:0:0:
42,192,261201,128,0,261268:0:0:0:0:
298,192,261201,128,0,261268:0:0:0:0:
384,192,261201,128,0,261268:0:0:0:0:
469,192,261201,128,0,261268:0:0:0:0:
128,192,261268,128,0,261335:0:0:0:0:
213,192,261268,128,0,261335:0:0:0:0:
298,192,261335,128,0,261401:0:0:0:0:
384,192,261335,128,0,261401:0:0:0:0:
469,192,261335,128,0,261401:0:0:0:0:
42,192,261335,128,0,261401:0:0:0:0:
128,192,261468,128,0,261668:0:0:0:0:
213,192,261501,128,0,261668:0:0:0:0:
298,192,261535,128,0,261668:0:0:0:0:
384,192,261568,128,0,261668:0:0:0:0:
469,192,261601,128,0,261668:0:0:0:0:
42,192,261735,128,0,261801:0:0:0:0:
128,192,261735,128,0,261801:0:0:0:0:
213,192,261735,128,0,261801:0:0:0:0:
469,192,261735,128,0,261801:0:0:0:0:
298,192,261801,128,0,261868:0:0:0:0:
384,192,261801,128,0,261868:0:0:0:0:
469,192,261868,128,0,261935:0:0:0:0:
213,192,261868,128,0,261935:0:0:0:0:
128,192,261868,128,0,261935:0:0:0:0:
42,192,261868,128,0,261935:0:0:0:0:
384,192,262001,128,0,262201:0:0:0:0:
298,192,262035,128,0,262201:0:0:0:0:
213,192,262068,128,0,262201:0:0:0:0:
128,192,262101,128,0,262201:0:0:0:0:
42,192,262135,128,0,262201:0:0:0:0:
469,192,262201,128,0,262268:0:0:0:0:
128,192,262268,128,0,262468:0:0:0:0:
42,192,262268,128,0,262401:0:0:0:0:
298,192,262268,128,0,262335:0:0:0:0:
384,192,262335,128,0,262401:0:0:0:0:
213,192,262335,128,0,262535:0:0:0:0:
469,192,262401,128,0,262468:0:0:0:0:
298,192,262401,128,0,262601:0:0:0:0:
384,192,262468,128,0,262668:0:0:0:0:
42,192,262535,128,0,262601:0:0:0:0:
469,192,262535,128,0,262801:0:0:0:0:
42,192,262668,128,0,262735:0:0:0:0:
213,192,262668,128,0,262735:0:0:0:0:
298,192,262735,128,0,262801:0:0:0:0:
42,192,262801,128,0,262868:0:0:0:0:
384,192,262801,128,0,262868:0:0:0:0:
213,192,262801,128,0,262868:0:0:0:0:
128,192,262868,128,0,262935:0:0:0:0:
298,192,262935,128,0,263001:0:0:0:0:
469,192,263001,128,0,263135:0:0:0:0:
384,192,263068,128,0,263135:0:0:0:0:
42,192,263135,1,0,0:0:0:0:
298,192,263201,128,0,263335:0:0:0:0:
213,192,263201,128,0,263268:0:0:0:0:
469,192,263335,1,0,0:0:0:0:
42,192,263335,1,0,0:0:0:0:
128,192,263335,1,0,0:0:0:0:
384,192,263335,1,0,0:0:0:0:
298,192,263401,1,0,0:0:0:0:
213,192,263401,1,0,0:0:0:0:
128,192,263468,1,0,0:0:0:0:
42,192,263468,1,0,0:0:0:0:
469,192,263468,1,0,0:0:0:0:
384,192,263468,1,0,0:0:0:0:
298,192,263535,1,0,0:0:0:0:
213,192,263535,1,0,0:0:0:0:
128,192,263601,1,0,0:0:0:0:
42,192,263601,1,0,0:0:0:0:
469,192,263601,1,0,0:0:0:0:
384,192,263601,1,0,0:0:0:0:
298,192,263668,1,0,0:0:0:0:
213,192,263668,1,0,0:0:0:0:
469,192,263735,1,0,0:0:0:0:
128,192,263735,1,0,0:0:0:0:
42,192,263735,1,0,0:0:0:0:
384,192,263768,1,0,0:0:0:0:
298,192,263801,1,0,0:0:0:0:
213,192,263835,1,0,0:0:0:0:
128,192,263868,1,0,0:0:0:0:
42,192,263868,1,0,0:0:0:0:
384,192,263868,1,0,0:0:0:0:
469,192,263868,1,0,0:0:0:0:
213,192,263935,1,0,0:0:0:0:
298,192,263935,1,0,0:0:0:0:
42,192,264001,1,0,0:0:0:0:
384,192,264001,1,0,0:0:0:0:
469,192,264001,1,0,0:0:0:0:
128,192,264001,1,0,0:0:0:0:
298,192,264068,1,0,0:0:0:0:
213,192,264068,1,0,0:0:0:0:
384,192,264135,1,0,0:0:0:0:
469,192,264135,1,0,0:0:0:0:
42,192,264135,1,0,0:0:0:0:
128,192,264168,1,0,0:0:0:0:
213,192,264201,1,0,0:0:0:0:
298,192,264235,1,0,0:0:0:0:
384,192,264268,1,0,0:0:0:0:
42,192,264268,1,0,0:0:0:0:
128,192,264301,1,0,0:0:0:0:
213,192,264335,1,0,0:0:0:0:
298,192,264368,1,0,0:0:0:0:
384,192,264401,1,0,0:0:0:0:
42,192,264401,1,0,0:0:0:0:
469,192,264401,1,0,0:0:0:0:
128,192,264401,1,0,0:0:0:0:
298,192,264601,1,0,0:0:0:0:
469,192,264601,1,0,0:0:0:0:
298,192,264668,1,0,0:0:0:0:
469,192,264668,1,0,0:0:0:0:
42,192,264668,1,0,0:0:0:0:
128,192,264668,1,0,0:0:0:0:
213,192,264735,1,0,0:0:0:0:
469,192,264801,1,0,0:0:0:0:
42,192,264801,1,0,0:0:0:0:
128,192,264801,1,0,0:0:0:0:
298,192,264801,1,0,0:0:0:0:
42,192,264935,1,0,0:0:0:0:
213,192,264935,1,0,0:0:0:0:
384,192,264935,1,0,0:0:0:0:
469,192,264935,1,0,0:0:0:0:
42,192,265068,1,0,0:0:0:0:
213,192,265068,1,0,0:0:0:0:
384,192,265068,1,0,0:0:0:0:
469,192,265068,1,0,0:0:0:0:
384,192,265201,128,0,265335:0:0:0:0:
42,192,265201,128,0,265401:0:0:0:0:
469,192,265201,128,0,265401:0:0:0:0:
298,192,265201,128,0,265268:0:0:0:0:
213,192,265201,1,0,0:0:0:0:
128,192,265268,128,0,265401:0:0:0:0:
213,192,265335,128,0,265401:0:0:0:0:
384,192,265401,1,0,0:0:0:0:
42,192,265468,1,0,0:0:0:0:
128,192,265501,1,0,0:0:0:0:
213,192,265535,1,0,0:0:0:0:
469,192,265568,1,0,0:0:0:0:
384,192,265601,1,0,0:0:0:0:
298,192,265635,1,0,0:0:0:0:
213,192,265668,1,0,0:0:0:0:
128,192,265701,1,0,0:0:0:0:
469,192,265735,1,0,0:0:0:0:
42,192,265735,1,0,0:0:0:0:
298,192,265735,1,0,0:0:0:0:
213,192,265801,1,0,0:0:0:0:
384,192,265801,1,0,0:0:0:0:
128,192,265868,1,0,0:0:0:0:
213,192,265901,1,0,0:0:0:0:
298,192,265935,1,0,0:0:0:0:
384,192,265968,1,0,0:0:0:0:
469,192,266001,1,0,0:0:0:0:
42,192,266001,1,0,0:0:0:0:
128,192,266001,1,0,0:0:0:0:
213,192,266068,1,0,0:0:0:0:
298,192,266068,1,0,0:0:0:0:
469,192,266135,1,0,0:0:0:0:
42,192,266135,1,0,0:0:0:0:
128,192,266135,1,0,0:0:0:0:
384,192,266201,1,0,0:0:0:0:
298,192,266201,1,0,0:0:0:0:
42,192,266268,128,0,266468:0:0:0:0:
469,192,266268,128,0,266468:0:0:0:0:
128,192,266268,128,0,266401:0:0:0:0:
213,192,266268,128,0,266335:0:0:0:0:
384,192,266335,128,0,266468:0:0:0:0:
298,192,266401,128,0,266468:0:0:0:0:
213,192,266468,1,0,0:0:0:0:
128,192,266535,1,0,0:0:0:0:
42,192,266535,128,0,266668:0:0:0:0:
469,192,266535,128,0,266601:0:0:0:0:
298,192,266535,128,0,266601:0:0:0:0:
384,192,266601,1,0,0:0:0:0:
128,192,266668,1,0,0:0:0:0:
469,192,266668,1,0,0:0:0:0:
213,192,266701,1,0,0:0:0:0:
298,192,266735,1,0,0:0:0:0:
384,192,266768,1,0,0:0:0:0:
469,192,266801,1,0,0:0:0:0:
42,192,266801,1,0,0:0:0:0:
128,192,266801,1,0,0:0:0:0:
213,192,266868,1,0,0:0:0:0:
384,192,266935,1,0,0:0:0:0:
298,192,266968,1,0,0:0:0:0:
213,192,267001,1,0,0:0:0:0:
128,192,267035,1,0,0:0:0:0:
42,192,267068,1,0,0:0:0:0:
469,192,267068,1,0,0:0:0:0:
384,192,267068,1,0,0:0:0:0:
298,192,267135,128,0,267268:0:0:0:0:
213,192,267135,128,0,267268:0:0:0:0:
42,192,267335,128,0,267379:0:0:0:0:
469,192,267335,128,0,267379:0:0:0:0:
128,192,267379,128,0,267423:0:0:0:0:
384,192,267379,128,0,267423:0:0:0:0:
213,192,267423,128,0,267468:0:0:0:0:
298,192,267423,128,0,267468:0:0:0:0:
42,192,267468,128,0,267601:0:0:0:0:
469,192,267468,128,0,267601:0:0:0:0:
128,192,267601,128,0,267801:0:0:0:0:
213,192,267601,128,0,267801:0:0:0:0:
298,192,267601,128,0,267801:0:0:0:0:
384,192,267601,128,0,267801:0:0:0:0:
42,192,267868,1,0,0:0:0:0:
128,192,267868,1,0,0:0:0:0:
469,192,267868,1,0,0:0:0:0:
384,192,267868,1,0,0:0:0:0:
298,192,267935,1,0,0:0:0:0:
213,192,267935,1,0,0:0:0:0:
469,192,268001,1,0,0:0:0:0:
384,192,268001,1,0,0:0:0:0:
128,192,268001,1,0,0:0:0:0:
42,192,268001,1,0,0:0:0:0:
298,192,268068,1,0,0:0:0:0:
213,192,268068,1,0,0:0:0:0:
384,192,268135,1,0,0:0:0:0:
469,192,268135,1,0,0:0:0:0:
42,192,268135,128,0,268268:0:0:0:0:
128,192,268135,128,0,268201:0:0:0:0:
213,192,268268,128,0,268401:0:0:0:0:
298,192,268268,128,0,268335:0:0:0:0:
469,192,268268,1,0,0:0:0:0:
384,192,268268,1,0,0:0:0:0:
42,192,268401,128,0,268601:0:0:0:0:
469,192,268401,128,0,268535:0:0:0:0:
384,192,268401,128,0,268468:0:0:0:0:
128,192,268468,128,0,268601:0:0:0:0:
298,192,268468,1,0,0:0:0:0:
213,192,268535,128,0,268601:0:0:0:0:
384,192,268535,1,0,0:0:0:0:
469,192,268601,1,0,0:0:0:0:
384,192,268668,1,0,0:0:0:0:
42,192,268668,1,0,0:0:0:0:
128,192,268735,1,0,0:0:0:0:
298,192,268735,1,0,0:0:0:0:
213,192,268801,1,0,0:0:0:0:
469,192,268801,1,0,0:0:0:0:
384,192,268868,1,0,0:0:0:0:
128,192,268868,1,0,0:0:0:0:
42,192,268935,1,0,0:0:0:0:
298,192,268935,1,0,0:0:0:0:
213,192,268935,1,0,0:0:0:0:
384,192,269001,1,0,0:0:0:0:
128,192,269001,1,0,0:0:0:0:
469,192,269068,1,0,0:0:0:0:
213,192,269068,1,0,0:0:0:0:
298,192,269135,1,0,0:0:0:0:
42,192,269135,1,0,0:0:0:0:
384,192,269201,1,0,0:0:0:0:
469,192,269201,1,0,0:0:0:0:
128,192,269201,1,0,0:0:0:0:
213,192,269201,1,0,0:0:0:0:
384,192,269290,1,0,0:0:0:0:
298,192,269290,1,0,0:0:0:0:
42,192,269290,1,0,0:0:0:0:
298,192,269379,1,0,0:0:0:0:
213,192,269379,1,0,0:0:0:0:
469,192,269379,1,0,0:0:0:0:
42,192,269468,1,0,0:0:0:0:
128,192,269468,1,0,0:0:0:0:
384,192,269468,1,0,0:0:0:0:
128,192,269557,1,0,0:0:0:0:
469,192,269557,1,0,0:0:0:0:
298,192,269557,1,0,0:0:0:0:
213,192,269646,1,0,0:0:0:0:
42,192,269646,1,0,0:0:0:0:
384,192,269646,1,0,0:0:0:0:
42,192,269735,128,0,270001:0:0:0:0:
128,192,269735,128,0,269968:0:0:0:0:
298,192,269735,128,0,269935:0:0:0:0:
384,192,269735,128,0,269901:0:0:0:0:
469,192,269735,128,0,269868:0:0:0:0:
213,192,269868,1,0,0:0:0:0:
469,192,269935,1,0,0:0:0:0:
298,192,270001,1,0,0:0:0:0:
128,192,270068,1,0,0:0:0:0:
298,192,270135,128,0,270335:0:0:0:0:
384,192,270135,128,0,270368:0:0:0:0:
469,192,270135,128,0,270401:0:0:0:0:
42,192,270135,128,0,270268:0:0:0:0:
213,192,270135,128,0,270301:0:0:0:0:
128,192,270268,1,0,0:0:0:0:
42,192,270335,1,0,0:0:0:0:
213,192,270401,1,0,0:0:0:0:
298,192,270468,1,0,0:0:0:0:
42,192,270535,128,0,270801:0:0:0:0:
128,192,270535,128,0,270768:0:0:0:0:
213,192,270535,128,0,270735:0:0:0:0:
384,192,270535,128,0,270701:0:0:0:0:
469,192,270535,128,0,270668:0:0:0:0:
298,192,270668,1,0,0:0:0:0:
469,192,270735,1,0,0:0:0:0:
384,192,270801,1,0,0:0:0:0:
298,192,270868,1,0,0:0:0:0:
213,192,270935,1,0,0:0:0:0:
128,192,271001,1,0,0:0:0:0:
42,192,271068,128,0,271868:0:0:0:0:
213,192,271068,128,0,271468:0:0:0:0:
298,192,271068,128,0,271401:0:0:0:0:
384,192,271068,128,0,271335:0:0:0:0:
469,192,271068,128,0,271268:0:0:0:0:
469,192,271335,1,0,0:0:0:0:
384,192,271401,1,0,0:0:0:0:
298,192,271468,1,0,0:0:0:0:
213,192,271535,1,0,0:0:0:0:
128,192,271601,128,0,271668:0:0:0:0:
213,192,271668,128,0,271735:0:0:0:0:
298,192,271735,128,0,271801:0:0:0:0:
384,192,271801,128,0,271868:0:0:0:0:
128,192,271868,128,0,272001:0:0:0:0:
213,192,271868,128,0,271935:0:0:0:0:
469,192,271868,128,0,272068:0:0:0:0:
298,192,271935,128,0,272068:0:0:0:0:
42,192,271935,128,0,272068:0:0:0:0:
384,192,272001,128,0,272068:0:0:0:0:
213,192,272001,128,0,272135:0:0:0:0:
128,192,272068,128,0,272135:0:0:0:0:
42,192,272135,128,0,272335:0:0:0:0:
298,192,272135,128,0,272268:0:0:0:0:
384,192,272135,128,0,272201:0:0:0:0:
469,192,272135,128,0,272201:0:0:0:0:
128,192,272201,128,0,272335:0:0:0:0:
213,192,272201,128,0,272268:0:0:0:0:
469,192,272268,128,0,272335:0:0:0:0:
384,192,272268,128,0,272335:0:0:0:0:
213,192,272335,128,0,272401:0:0:0:0:
298,192,272335,128,0,272401:0:0:0:0:
384,192,272401,128,0,272535:0:0:0:0:
469,192,272401,128,0,272535:0:0:0:0:
42,192,272401,1,0,0:0:0:0:
128,192,272401,1,0,0:0:0:0:
42,192,272535,128,0,272668:0:0:0:0:
128,192,272535,128,0,272668:0:0:0:0:
213,192,272535,128,0,272601:0:0:0:0:
298,192,272535,128,0,272601:0:0:0:0:
384,192,272601,128,0,272735:0:0:0:0:
469,192,272601,128,0,272735:0:0:0:0:
298,192,272668,128,0,272735:0:0:0:0:
213,192,272668,128,0,272735:0:0:0:0:
42,192,272735,128,0,272801:0:0:0:0:
128,192,272735,128,0,272801:0:0:0:0:
213,192,272801,128,0,272935:0:0:0:0:
298,192,272801,128,0,272935:0:0:0:0:
469,192,272801,1,0,0:0:0:0:
384,192,272801,1,0,0:0:0:0:
42,192,272935,128,0,273001:0:0:0:0:
128,192,272935,128,0,273001:0:0:0:0:
384,192,272935,128,0,273068:0:0:0:0:
469,192,272935,128,0,273068:0:0:0:0:
213,192,273001,128,0,273135:0:0:0:0:
298,192,273001,128,0,273135:0:0:0:0:
128,192,273068,128,0,273135:0:0:0:0:
42,192,273068,128,0,273135:0:0:0:0:
384,192,273135,128,0,273201:0:0:0:0:
469,192,273135,128,0,273201:0:0:0:0:
42,192,273201,128,0,273335:0:0:0:0:
128,192,273201,128,0,273335:0:0:0:0:
298,192,273201,1,0,0:0:0:0:
213,192,273201,1,0,0:0:0:0:
213,192,273335,128,0,273468:0:0:0:0:
298,192,273335,128,0,273468:0:0:0:0:
384,192,273335,128,0,273401:0:0:0:0:
469,192,273335,128,0,273401:0:0:0:0:
128,192,273401,128,0,273535:0:0:0:0:
42,192,273401,128,0,273535:0:0:0:0:
384,192,273468,128,0,273535:0:0:0:0:
469,192,273468,128,0,273535:0:0:0:0:
213,192,273535,128,0,273601:0:0:0:0:
298,192,273535,128,0,273601:0:0:0:0:
469,192,273601,1,0,0:0:0:0:
384,192,273601,1,0,0:0:0:0:
128,192,273601,128,0,273735:0:0:0:0:
42,192,273601,128,0,273735:0:0:0:0:
213,192,273735,128,0,273801:0:0:0:0:
298,192,273735,128,0,273801:0:0:0:0:
384,192,273735,128,0,273868:0:0:0:0:
469,192,273735,128,0,273868:0:0:0:0:
42,192,273801,128,0,273935:0:0:0:0:
128,192,273801,128,0,273935:0:0:0:0:
298,192,273868,128,0,273935:0:0:0:0:
213,192,273868,128,0,273935:0:0:0:0:
384,192,273935,128,0,274001:0:0:0:0:
469,192,273935,128,0,274001:0:0:0:0:
42,192,274001,1,0,0:0:0:0:
213,192,274001,128,0,274135:0:0:0:0:
298,192,274001,128,0,274135:0:0:0:0:
128,192,274001,1,0,0:0:0:0:
469,192,274135,128,0,274268:0:0:0:0:
42,192,274135,128,0,274268:0:0:0:0:
128,192,274268,128,0,274335:0:0:0:0:
213,192,274268,128,0,274401:0:0:0:0:
298,192,274268,128,0,274401:0:0:0:0:
384,192,274268,128,0,274335:0:0:0:0:
42,192,274335,128,0,274468:0:0:0:0:
469,192,274335,128,0,274468:0:0:0:0:
128,192,274401,128,0,274468:0:0:0:0:
384,192,274401,128,0,274468:0:0:0:0:
213,192,274468,128,0,274535:0:0:0:0:
298,192,274468,128,0,274535:0:0:0:0:
42,192,274535,1,0,0:0:0:0:
128,192,274535,1,0,0:0:0:0:
384,192,274535,128,0,274668:0:0:0:0:
469,192,274535,128,0,274668:0:0:0:0:
42,192,274668,128,0,274801:0:0:0:0:
128,192,274668,128,0,274801:0:0:0:0:
213,192,274668,128,0,274735:0:0:0:0:
298,192,274668,128,0,274735:0:0:0:0:
384,192,274735,128,0,274868:0:0:0:0:
469,192,274735,128,0,274868:0:0:0:0:
298,192,274801,128,0,274868:0:0:0:0:
213,192,274801,128,0,274868:0:0:0:0:
128,192,274868,128,0,274935:0:0:0:0:
42,192,274868,128,0,274935:0:0:0:0:
384,192,274935,1,0,0:0:0:0:
469,192,274935,1,0,0:0:0:0:
213,192,274935,128,0,275068:0:0:0:0:
298,192,274935,128,0,275068:0:0:0:0:
42,192,275068,128,0,275135:0:0:0:0:
128,192,275068,128,0,275201:0:0:0:0:
384,192,275068,128,0,275201:0:0:0:0:
469,192,275068,128,0,275135:0:0:0:0:
213,192,275135,128,0,275268:0:0:0:0:
298,192,275135,128,0,275268:0:0:0:0:
469,192,275201,128,0,275268:0:0:0:0:
42,192,275201,128,0,275268:0:0:0:0:
384,192,275268,128,0,275401:0:0:0:0:
128,192,275268,128,0,275401:0:0:0:0:
213,192,275335,128,0,275401:0:0:0:0:
298,192,275335,128,0,275401:0:0:0:0:
42,192,275335,1,0,0:0:0:0:
469,192,275335,1,0,0:0:0:0:
298,192,275468,1,0,0:0:0:0:
213,192,275468,1,0,0:0:0:0:
42,192,275468,1,0,0:0:0:0:
469,192,275468,1,0,0:0:0:0:
128,192,275535,1,0,0:0:0:0:
384,192,275535,1,0,0:0:0:0:
213,192,275601,128,0,275779:0:0:0:0:
384,192,275779,1,0,0:0:0:0:
469,192,275868,1,0,0:0:0:0:
213,192,275868,128,0,275957:0:0:0:0:
42,192,275957,1,0,0:0:0:0:
384,192,275957,128,0,276046:0:0:0:0:
128,192,276046,1,0,0:0:0:0:
298,192,276046,128,0,276135:0:0:0:0:
42,192,276135,128,0,276335:0:0:0:0:
469,192,276135,128,0,276335:0:0:0:0:
128,192,276135,128,0,276335:0:0:0:0:
213,192,276135,128,0,276268:0:0:0:0:
384,192,276135,128,0,276335:0:0:0:0:
298,192,276268,128,0,276335:0:0:0:0:
213,192,276335,128,0,276401:0:0:0:0:
42,192,276401,128,0,276601:0:0:0:0:
469,192,276401,128,0,276468:0:0:0:0:
128,192,276401,128,0,276468:0:0:0:0:
384,192,276468,128,0,276535:0:0:0:0:
298,192,276468,128,0,276535:0:0:0:0:
469,192,276535,128,0,276601:0:0:0:0:
213,192,276535,128,0,276601:0:0:0:0:
128,192,276535,128,0,276601:0:0:0:0:
298,192,276601,128,0,276668:0:0:0:0:
384,192,276601,128,0,276668:0:0:0:0:
469,192,276668,1,0,0:0:0:0:
213,192,276668,1,0,0:0:0:0:
42,192,276668,128,0,276801:0:0:0:0:
128,192,276668,128,0,276801:0:0:0:0:
213,192,276801,128,0,276935:0:0:0:0:
298,192,276801,128,0,276935:0:0:0:0:
469,192,276801,128,0,276868:0:0:0:0:
384,192,276801,128,0,276868:0:0:0:0:
42,192,276868,128,0,277001:0:0:0:0:
128,192,276868,128,0,277001:0:0:0:0:
469,192,276935,128,0,277001:0:0:0:0:
384,192,276935,128,0,277001:0:0:0:0:
213,192,277001,128,0,277068:0:0:0:0:
298,192,277001,128,0,277068:0:0:0:0:
128,192,277068,1,0,0:0:0:0:
42,192,277068,1,0,0:0:0:0:
384,192,277068,128,0,277201:0:0:0:0:
469,192,277068,128,0,277201:0:0:0:0:
42,192,277201,128,0,277335:0:0:0:0:
128,192,277201,128,0,277335:0:0:0:0:
298,192,277201,128,0,277268:0:0:0:0:
213,192,277201,128,0,277268:0:0:0:0:
384,192,277268,128,0,277401:0:0:0:0:
469,192,277268,128,0,277401:0:0:0:0:
298,192,277335,128,0,277401:0:0:0:0:
213,192,277335,128,0,277401:0:0:0:0:
128,192,277401,128,0,277468:0:0:0:0:
42,192,277401,128,0,277468:0:0:0:0:
384,192,277468,1,0,0:0:0:0:
469,192,277468,1,0,0:0:0:0:
213,192,277468,128,0,277601:0:0:0:0:
298,192,277468,128,0,277601:0:0:0:0:
42,192,277601,128,0,277668:0:0:0:0:
128,192,277601,128,0,277801:0:0:0:0:
384,192,277601,128,0,277801:0:0:0:0:
469,192,277601,128,0,277668:0:0:0:0:
213,192,277668,128,0,277735:0:0:0:0:
298,192,277668,128,0,277735:0:0:0:0:
42,192,277735,128,0,277801:0:0:0:0:
469,192,277735,128,0,277801:0:0:0:0:
213,192,277801,128,0,277868:0:0:0:0:
298,192,277801,128,0,277868:0:0:0:0:
42,192,277868,128,0,278001:0:0:0:0:
469,192,277868,128,0,278001:0:0:0:0:
128,192,277868,1,0,0:0:0:0:
384,192,277868,1,0,0:0:0:0:
128,192,278001,128,0,278068:0:0:0:0:
213,192,278001,128,0,278135:0:0:0:0:
298,192,278001,128,0,278135:0:0:0:0:
384,192,278001,128,0,278068:0:0:0:0:
469,192,278068,128,0,278201:0:0:0:0:
42,192,278068,128,0,278201:0:0:0:0:
384,192,278135,128,0,278201:0:0:0:0:
128,192,278135,128,0,278201:0:0:0:0:
213,192,278201,128,0,278268:0:0:0:0:
298,192,278201,128,0,278268:0:0:0:0:
384,192,278268,128,0,278535:0:0:0:0:
469,192,278268,128,0,278535:0:0:0:0:
42,192,278268,128,0,278468:0:0:0:0:
128,192,278268,128,0,278401:0:0:0:0:
213,192,278401,128,0,278468:0:0:0:0:
298,192,278468,128,0,278535:0:0:0:0:
42,192,278535,128,0,278601:0:0:0:0:
128,192,278535,128,0,278601:0:0:0:0:
213,192,278535,128,0,278601:0:0:0:0:
298,192,278601,128,0,278668:0:0:0:0:
384,192,278601,128,0,278668:0:0:0:0:
469,192,278601,128,0,278668:0:0:0:0:
213,192,278668,128,0,278735:0:0:0:0:
128,192,278668,128,0,278735:0:0:0:0:
42,192,278668,128,0,278735:0:0:0:0:
384,192,278735,128,0,278801:0:0:0:0:
298,192,278735,128,0,278801:0:0:0:0:
469,192,278735,128,0,278801:0:0:0:0:
213,192,278801,128,0,278868:0:0:0:0:
42,192,278801,128,0,278868:0:0:0:0:
128,192,278801,128,0,278868:0:0:0:0:
298,192,278868,128,0,278935:0:0:0:0:
469,192,278868,128,0,278935:0:0:0:0:
213,192,278935,128,0,279001:0:0:0:0:
128,192,278935,128,0,279001:0:0:0:0:
42,192,278935,128,0,279001:0:0:0:0:
384,192,278935,128,0,279001:0:0:0:0:
298,192,279001,128,0,279068:0:0:0:0:
469,192,279001,128,0,279068:0:0:0:0:
42,192,279068,1,0,0:0:0:0:
128,192,279068,1,0,0:0:0:0:
213,192,279068,1,0,0:0:0:0:
384,192,279068,1,0,0:0:0:0:
298,192,279157,1,0,0:0:0:0:
213,192,279157,1,0,0:0:0:0:
128,192,279157,1,0,0:0:0:0:
298,192,279246,1,0,0:0:0:0:
384,192,279246,1,0,0:0:0:0:
213,192,279246,1,0,0:0:0:0:
128,192,279335,1,0,0:0:0:0:
42,192,279335,1,0,0:0:0:0:
384,192,279335,1,0,0:0:0:0:
469,192,279335,1,0,0:0:0:0:
298,192,279335,1,0,0:0:0:0:
42,192,279535,1,0,0:0:0:0:
128,192,279535,1,0,0:0:0:0:
213,192,279535,1,0,0:0:0:0:
384,192,279535,1,0,0:0:0:0:
469,192,279535,1,0,0:0:0:0:
42,192,279735,1,0,0:0:0:0:
128,192,279735,1,0,0:0:0:0:
213,192,279735,1,0,0:0:0:0:
298,192,279735,1,0,0:0:0:0:
469,192,279735,1,0,0:0:0:0:
469,192,279868,1,0,0:0:0:0:
42,192,279868,1,0,0:0:0:0:
128,192,279868,1,0,0:0:0:0:
213,192,279868,1,0,0:0:0:0:
298,192,279868,1,0,0:0:0:0:
42,192,280068,1,0,0:0:0:0:
128,192,280068,1,0,0:0:0:0:
213,192,280068,1,0,0:0:0:0:
469,192,280068,1,0,0:0:0:0:
384,192,280068,1,0,0:0:0:0:
42,192,280268,1,0,0:0:0:0:
469,192,280268,1,0,0:0:0:0:
298,192,280268,1,0,0:0:0:0:
384,192,280268,1,0,0:0:0:0:
128,192,280268,1,0,0:0:0:0:
298,192,280401,1,0,0:0:0:0:
384,192,280401,1,0,0:0:0:0:
469,192,280401,1,0,0:0:0:0:
42,192,280401,1,0,0:0:0:0:
128,192,280401,1,0,0:0:0:0:
213,192,280601,1,0,0:0:0:0:
128,192,280601,1,0,0:0:0:0:
42,192,280601,1,0,0:0:0:0:
469,192,280601,1,0,0:0:0:0:
384,192,280601,1,0,0:0:0:0:
128,192,280801,128,0,283601:0:0:0:0:
42,192,280801,128,0,283601:0:0:0:0:
298,192,280801,128,0,283601:0:0:0:0:
213,192,280801,128,0,283601:0:0:0:0:
384,192,280801,128,0,283601:0:0:0:0:
469,192,280801,128,0,283601:0:0:0:0:
