osu file format v14

[General]
AudioFilename: audio.mp3
AudioLeadIn: 0
PreviewTime: 210499
Countdown: 0
SampleSet: Drum
StackLeniency: 0.7
Mode: 2
LetterboxInBreaks: 0
WidescreenStoryboard: 1

[Editor]
DistanceSpacing: 0.9
BeatDivisor: 4
GridSize: 16
TimelineZoom: 2.8

[Metadata]
Title:finorza
TitleUnicode:⨍iиorzᾶ
Artist:Camellia feat. Nanahira
ArtistUnicode:かめりあ feat. ななひら
Creator:Rocma
Version:fin
Source:
Tags:Xronial Xero Xroniàl Xéro cametek ft. utaite speedcore hardcore Electronic Japanese
BeatmapID:2453357
BeatmapSetID:1151836

[Difficulty]
HPDrainRate:3
CircleSize:3.9
OverallDifficulty:9.9
ApproachRate:9.9
SliderMultiplier:1.92
SliderTickRate:2

[Events]
//Background and Video events
0,0,"BGF.jpg",0,0
//Break Periods
2,149432,156204
//Storyboard Layer 0 (Background)
//Storyboard Layer 1 (Fail)
//Storyboard Layer 2 (Pass)
//Storyboard Layer 3 (Foreground)
//Storyboard Layer 4 (Overlay)
//Storyboard Sound Samples

[TimingPoints]
4166,266.666666666667,4,2,2,40,1,0
4166,-200,4,2,2,40,0,0
27632,-100,4,2,2,60,0,0
28566,-200,4,2,2,50,0,0
30832,-200,4,2,2,40,0,0
34866,-200,4,2,2,40,0,0
35099,-200,4,2,2,40,0,0
39366,-100,4,1,2,60,0,0
40166,-100,4,1,2,40,0,0
41499,-100,4,1,2,60,0,0
42299,-100,4,1,2,40,0,0
43232,-100,4,1,2,60,0,0
47899,-75,4,1,2,60,0,0
55766,-100,4,1,2,60,0,0
56432,-75,4,1,2,60,0,0
59899,-100,4,1,2,60,0,0
60699,-75,4,1,2,60,0,0
62832,-100,4,1,2,60,0,0
64966,-100,4,2,2,40,0,0
69232,-100,4,1,2,60,0,0
73499,-100,4,2,2,40,0,0
77766,-100,4,1,2,60,0,0
86299,-75,4,1,2,60,0,0
106566,-100,4,2,2,40,0,0
110832,-100,4,2,2,50,0,0
111899,-100,4,2,2,60,0,0
115099,-75,4,1,2,60,0,0
115899,-42.9184549356223,4,1,2,60,0,0
116166,-75,4,1,2,60,0,0
116966,-42.9184549356223,4,1,2,80,0,0
117232,-75,4,1,2,60,0,0
118566,-42.9184549356223,4,1,2,60,0,0
118832,-75,4,1,2,60,0,0
119632,-33.3333333333333,4,1,2,60,0,0
120432,-75,4,1,2,60,0,0
122566,-75,4,1,2,40,0,0
123632,-75,4,1,2,60,0,0
130032,-100,4,1,2,50,0,0
131232,-75,4,1,2,50,0,0
132166,-75,4,1,2,60,0,0
136432,-75,4,1,2,50,0,0
140699,-75,4,1,2,60,0,0
143366,-42.8571428577551,4,1,2,60,0,0
143632,-75,4,1,2,60,0,0
148699,-75,4,1,2,50,0,0
148966,-75,4,1,2,40,0,0
156699,-100,4,2,2,40,0,0
158299,-200,4,2,2,40,0,0
161799,-200,4,2,2,40,0,0
162032,-200,4,2,2,40,0,0
166299,-100,4,1,2,60,0,0
167099,-100,4,1,2,40,0,0
168432,-100,4,1,2,60,0,0
169232,-100,4,1,2,40,0,0
170166,-100,4,1,2,60,0,0
177499,-100,4,1,2,40,0,0
178032,-100,4,1,2,40,0,0
186566,-100,4,1,2,60,0,0
187632,-100,4,1,2,50,0,0
191899,-100,4,1,2,60,0,0
196166,-100,4,1,2,50,0,0
200432,-100,4,1,2,60,0,0
211099,-100,4,1,2,40,0,0
215366,-75,4,1,2,60,0,1
215899,-42.9184549356223,4,1,2,60,0,1
216166,-75,4,1,2,60,0,1
219632,-42.9184549356223,4,1,2,60,0,1
219899,-75,4,1,2,60,0,1
220166,-42.9184549356223,4,1,2,60,0,1
220433,-75,4,1,2,60,0,1
222032,-42.9184549356223,4,1,2,60,0,1
222299,-75,4,1,2,60,0,1
222566,-42.9184549356223,4,1,2,60,0,1
222833,-75,4,1,2,60,0,1
228432,-85.7142857142857,4,3,2,80,0,1
243099,-100,4,1,2,60,0,0
254832,-75,4,3,2,80,0,1
276832,-85.7142857142857,4,3,2,80,0,1
277632,-75,4,3,2,80,0,1
280832,-75,4,2,2,60,0,0
280966,-75,4,2,2,40,0,0
281499,-75,4,2,2,30,0,0
282566,-75,4,2,2,20,0,0
283632,-75,4,2,2,10,0,0

[Colours]
Combo1 : 106,72,145
Combo2 : 140,140,140

[HitObjects]
336,160,4166,6,0,L|128:160,3,192,4|0|0|0,0:0|0:0|0:0|0:0,0:0:0:0:
336,320,6299,2,0,P|438:290|336:32,1,480,2|0,0:0|0:0,0:0:0:0:
192,64,7899,2,0,L|352:64,1,144,2|0,0:0|0:0,0:0:0:0:
224,112,8432,6,0,P|182:176|233:208,1,144,8|0,0:0|0:0,0:0:0:0:
320,240,8966,6,0,L|112:240,2,192,2|0|0,0:0|0:0|0:0,0:0:0:0:
128,240,10566,6,0,P|48:192|240:144,1,480,2|0,0:0|0:0,0:0:0:0:
240,132,12032,6,0,L|240:276,1,144,2|0,0:0|0:0,0:0:0:0:
288,304,12699,6,0,L|352:304,2,48,4|0|0,0:0|0:0|0:0,0:0:0:0:
416,304,13099,1,2,0:0:0:0:
224,304,13766,2,0,L|160:304,2,48,2|0|0,0:0|0:0|0:0,0:0:0:0:
96,304,14166,1,2,0:0:0:0:
256,224,14566,1,2,0:0:0:0:
400,208,14832,6,0,P|432:160|432:112,1,96,2|0,0:0|0:0,0:0:0:0:
304,96,15366,2,0,L|208:96,1,96,2|0,0:0|0:0,0:0:0:0:
400,64,15899,2,0,B|496:64|496:64|496:112,1,144,2|0,0:0|0:0,0:0:0:0:
208,160,16699,1,2,0:0:0:0:
368,208,16966,6,0,L|384:160,2,48,8|0|0,0:0|0:0|0:0,0:0:0:0:
464,208,17366,1,2,0:0:0:0:
176,144,18032,2,0,L|160:96,2,48,2|0|0,0:0|0:0|0:0,0:0:0:0:
80,144,18432,1,2,0:0:0:0:
224,256,18832,1,2,0:0:0:0:
400,240,19099,6,0,P|384:192|336:176,1,96,2|0,0:0|0:0,0:0:0:0:
208,160,19632,2,0,L|320:160,1,96,2|0,0:0|0:0,0:0:0:0:
176,288,20166,2,0,P|114:251|176:176,1,192,2|2,0:0|0:0,0:0:0:0:
256,160,20832,1,0,0:0:0:0:
288,80,20966,1,0,0:0:0:0:
256,160,21099,1,0,0:0:0:0:
32,224,21232,6,0,L|80:224,2,48,8|0|0,0:0|0:0|0:0,0:0:0:0:
144,224,21632,1,2,0:0:0:0:
480,224,22299,2,0,L|432:224,2,48,2|0|0,0:0|0:0|0:0,0:0:0:0:
368,224,22699,1,2,0:0:0:0:
128,208,23099,1,2,0:0:0:0:
320,192,23366,6,0,L|320:96,1,96,2|0,0:0|0:0,0:0:0:0:
432,144,23899,2,0,P|464:112|416:80,1,96,2|0,0:0|0:0,0:0:0:0:
272,64,24432,2,0,L|416:64,1,144,2|0,0:0|0:0,0:0:0:0:
176,144,25232,1,2,0:0:0:0:
368,224,25499,6,0,L|352:176,2,48,8|0|0,0:0|0:0|0:0,0:0:0:0:
272,224,25899,1,2,0:0:0:0:
32,192,26566,2,0,L|48:144,2,48,2|0|0,0:0|0:0|0:0,0:0:0:0:
128,192,26966,1,2,0:0:0:0:
224,192,27099,2,0,L|224:288,1,96,8|0,0:0|0:0,0:0:0:0:
176,288,27432,1,0,0:0:0:0:
336,288,27499,1,0,0:0:0:0:
384,288,27566,1,0,0:0:0:0:
224,224,27632,6,0,L|16:224,1,192,4|0,0:0|0:0,0:0:0:0:
288,224,28032,2,0,L|480:224,1,192,4|0,0:0|0:0,0:0:0:0:
224,336,28566,6,0,P|128:304|239:77,1,432,4|0,0:0|0:0,0:0:0:0:
336,80,30032,1,4,0:0:0:0:
176,144,30166,1,0,0:0:0:0:
128,112,30232,1,0,0:0:0:0:
176,80,30299,1,8,0:0:0:0:
224,128,30366,1,0,0:0:0:0:
240,192,30432,1,0,0:0:0:0:
224,256,30499,1,0,0:0:0:0:
176,288,30566,2,0,L|96:288,1,72,0|0,0:0|0:0,0:0:0:0:
352,288,30832,5,4,0:0:0:0:
272,224,31366,2,0,L|256:176,1,48,8|0,0:0|0:0,0:0:0:0:
368,176,31632,2,0,L|368:128,1,48,0|0,0:0|0:0,0:0:0:0:
480,160,31899,2,0,L|496:112,1,48,2|0,0:0|0:0,0:0:0:0:
384,96,32166,2,0,L|384:48,1,48,0|0,0:0|0:0,0:0:0:0:
272,48,32432,2,0,L|320:48,2,48,8|0|0,0:0|0:0|0:0,0:0:0:0:
384,64,32832,1,0,0:0:0:0:
272,128,32966,6,0,B|224:144|196:197|224:256|272:272|272:272|80:272|80:272|80:64,1,576,2|0,0:0|0:0,0:0:0:0:
240,96,34832,2,0,L|256:96,4,12,8|0|0|0|0,0:0|0:0|0:0|0:0|0:0,0:0:0:0:
240,240,35099,5,2,0:0:0:0:
80,224,35632,2,0,L|64:176,1,48,8|0,0:0|0:0,0:0:0:0:
176,176,35898,2,0,L|176:128,1,48,0|0,0:0|0:0,0:0:0:0:
288,160,36165,2,0,L|304:112,1,48,2|0,0:0|0:0,0:0:0:0:
192,96,36432,2,0,L|192:48,1,48,0|0,0:0|0:0,0:0:0:0:
80,48,36699,2,0,L|128:48,2,48,8|0|0,0:0|0:0|0:0,0:0:0:0:
192,64,37098,1,0,0:0:0:0:
80,176,37232,6,0,B|272:176|272:176|224:192|196:247|224:304|272:320|272:320|64:320,1,576,2|2,0:0|0:0,0:0:0:0:
32,304,38899,1,0,0:0:0:0:
80,272,38966,1,0,0:0:0:0:
32,256,39032,1,0,0:0:0:0:
192,240,39099,1,2,0:0:0:0:
240,224,39166,1,0,0:0:0:0:
192,192,39232,1,0,0:0:0:0:
240,176,39299,1,0,0:0:0:0:
416,144,39366,6,4,L|480:144,2,48,4|4|4,0:0|0:0|0:0,0:0:0:0:
256,144,39566,1,4,0:0:0:0:
256,96,39766,1,4,0:0:0:0:
96,96,39832,2,4,L|32:96,2,48,4|4|4,0:0|0:0|0:0,0:0:0:0:
48,192,40166,1,8,0:0:0:0:
160,192,40299,1,0,0:0:0:0:
48,256,40432,6,0,L|144:256,1,96,2|0,0:0|0:0,0:0:0:0:
256,208,40699,2,0,L|160:208,1,96,8|0,0:0|0:0,0:0:0:0:
272,240,40966,2,0,L|384:240,1,96,2|0,0:0|0:0,0:0:0:0:
256,208,41232,2,0,L|256:112,1,96,8|0,0:0|0:0,0:0:0:0:
496,112,41499,5,4,0:0:0:0:
448,112,41565,1,4,0:0:0:0:
400,112,41632,1,4,0:0:0:0:
256,112,41699,1,4,0:0:0:0:
256,112,41899,1,4,0:0:0:0:
112,112,41966,1,4,0:0:0:0:
64,112,42033,1,4,0:0:0:0:
16,112,42099,1,4,0:0:0:0:
64,208,42299,1,8,0:0:0:0:
192,224,42432,1,0,0:0:0:0:
64,320,42566,6,0,L|64:208,1,96,2|0,0:0|0:0,0:0:0:0:
192,272,42832,2,0,L|192:224,1,48,8|0,0:0|0:0,0:0:0:0:
256,240,42966,2,0,L|256:176,1,48,0|0,0:0|0:0,0:0:0:0:
192,160,43099,1,2,0:0:0:0:
416,112,43232,1,4,0:0:0:0:
128,80,43432,1,4,0:0:0:0:
480,304,43632,6,4,L|464:256,1,48,4|4,0:0|0:0,0:0:0:0:
400,256,43766,1,4,0:0:0:0:
256,240,43832,1,4,0:0:0:0:
256,144,44032,1,4,0:0:0:0:
112,128,44098,1,4,0:0:0:0:
47,125,44166,2,4,L|32:80,1,48,4|4,0:0|0:0,0:0:0:0:
496,176,44432,5,4,0:0:0:0:
448,176,44498,1,4,0:0:0:0:
400,176,44565,1,4,0:0:0:0:
256,192,44632,1,4,0:0:0:0:
256,192,44832,1,4,0:0:0:0:
112,176,44899,1,4,0:0:0:0:
64,176,44966,1,4,0:0:0:0:
16,176,45032,1,4,0:0:0:0:
192,128,45099,2,0,L|240:128,1,48,0|0,0:0|0:0,0:0:0:0:
400,80,45232,6,4,L|320:80,2,64,4|4|4,0:0|0:0|0:0,0:0:0:0:
192,48,45499,2,4,L|272:48,2,64,4|4|4,0:0|0:0|0:0,0:0:0:0:
256,192,45899,12,0,46132,0:0:0:0:
256,192,46166,12,0,46466,0:0:0:0:
256,192,46499,12,0,46666,0:0:0:0:
256,192,46699,12,0,46932,0:0:0:0:
256,192,46966,12,0,46982,0:0:0:0:
256,192,47032,12,0,47049,0:0:0:0:
256,192,47099,12,0,47116,0:0:0:0:
256,192,47166,12,0,47182,0:0:0:0:
256,192,47232,12,0,47249,0:0:0:0:
256,192,47299,12,0,47316,0:0:0:0:
256,192,47366,12,0,47382,0:0:0:0:
256,192,47432,12,0,47449,0:0:0:0:
256,192,47499,12,4,47632,0:0:0:0:
128,144,47899,5,4,0:0:0:0:
384,144,48032,1,0,0:0:0:0:
192,224,48166,2,0,L|352:224,1,128,4|0,0:0|0:0,0:0:0:0:
192,288,48432,2,0,L|48:288,1,128,4|0,0:0|0:0,0:0:0:0:
320,288,48699,2,0,L|464:288,1,128,4|0,0:0|0:0,0:0:0:0:
128,144,48966,5,4,0:0:0:0:
384,144,49099,1,0,0:0:0:0:
192,224,49233,2,0,L|352:224,1,128,4|0,0:0|0:0,0:0:0:0:
192,288,49499,2,0,L|48:288,1,128,4|0,0:0|0:0,0:0:0:0:
320,272,49766,1,4,0:0:0:0:
64,240,49899,1,4,0:0:0:0:
384,144,50032,5,4,0:0:0:0:
128,144,50165,1,0,0:0:0:0:
320,224,50299,2,0,L|160:224,1,128,4|0,0:0|0:0,0:0:0:0:
320,288,50566,2,0,L|464:288,1,128,4|0,0:0|0:0,0:0:0:0:
192,288,50832,2,0,L|48:288,1,128,4|0,0:0|0:0,0:0:0:0:
384,144,51099,5,4,0:0:0:0:
128,144,51232,1,0,0:0:0:0:
320,224,51366,2,0,L|160:224,1,128,4|0,0:0|0:0,0:0:0:0:
256,224,51566,1,4,0:0:0:0:
80,240,51632,2,0,L|80:96,1,128,4|4,0:0|0:0,0:0:0:0:
288,96,51899,1,4,0:0:0:0:
496,240,52032,1,4,0:0:0:0:
192,208,52166,6,0,L|192:144,1,64,4|0,0:0|0:0,0:0:0:0:
32,160,52299,2,0,L|32:80,1,64,4|0,0:0|0:0,0:0:0:0:
192,64,52432,1,4,0:0:0:0:
448,64,52566,2,0,L|416:64,1,32
192,144,52699,2,0,L|336:144,1,128,4|0,0:0|0:0,0:0:0:0:
192,320,52966,2,0,L|192:176,1,128,4|0,0:0|0:0,0:0:0:0:
128,192,53166,1,4,0:0:0:0:
256,192,53232,5,4,0:0:0:0:
496,192,53366,1,4,0:0:0:0:
256,112,53499,2,0,L|400:112,1,128,4|0,0:0|0:0,0:0:0:0:
112,192,53766,1,4,0:0:0:0:
176,192,53832,2,0,L|176:64,1,128,4|0,0:0|0:0,0:0:0:0:
352,64,54032,2,0,L|240:160,1,128,4|0,0:0|0:0,0:0:0:0:
480,288,54299,5,4,0:0:0:0:
256,288,54432,2,0,L|400:288,2,128,4|0|0,0:0|0:0|0:0,0:0:0:0:
32,288,54832,1,4,0:0:0:0:
256,288,54966,1,4,0:0:0:0:
32,240,55099,2,0,L|160:240,1,128,0|0,0:0|0:0,0:0:0:0:
416,256,55366,6,0,P|480:219|395:90,1,256,4|2,0:0|0:0,0:0:0:0:
352,80,55699,1,0,0:0:0:0:
176,112,55766,2,0,L|96:112,1,48,2|0,0:0|0:0,0:0:0:0:
304,112,55899,2,0,L|384:112,1,48,2|0,0:0|0:0,0:0:0:0:
208,176,56032,1,2,0:0:0:0:
64,224,56099,1,0,0:0:0:0:
208,240,56166,2,0,L|256:240,1,48,2|0,0:0|0:0,0:0:0:0:
400,240,56299,2,0,L|464:240,1,48,2|0,0:0|0:0,0:0:0:0:
256,144,56432,5,4,0:0:0:0:
128,112,56499,1,0,0:0:0:0:
256,144,56566,1,4,0:0:0:0:
128,112,56633,1,0,0:0:0:0:
304,144,56699,2,0,L|448:144,1,128,4|0,0:0|0:0,0:0:0:0:
176,256,56966,1,4,0:0:0:0:
432,256,57099,1,4,0:0:0:0:
176,336,57232,2,0,L|32:336,1,128,4|0,0:0|0:0,0:0:0:0:
288,272,57499,5,4,0:0:0:0:
48,224,57632,2,0,L|48:96,1,128,0|4,0:0|0:0,0:0:0:0:
288,64,57899,1,0,0:0:0:0:
64,48,58032,2,0,L|224:48,1,128,4|0,0:0|0:0,0:0:0:0:
384,144,58232,2,0,L|304:144,1,64,4|4,0:0|0:0,0:0:0:0:
64,240,58432,2,0,L|128:240,1,64,4|0,0:0|0:0,0:0:0:0:
336,304,58566,5,4,0:0:0:0:
400,256,58699,1,2,0:0:0:0:
439,256,58716,1,0,0:0:0:0:
400,256,58732,1,0,0:0:0:0:
439,256,58749,1,0,0:0:0:0:
400,256,58766,1,0,0:0:0:0:
240,256,58832,6,0,L|112:256,1,128,4|0,0:0|0:0,0:0:0:0:
176,256,59032,1,4,0:0:0:0:
32,96,59099,2,0,L|32:240,1,128,4|0,0:0|0:0,0:0:0:0:
256,224,59366,2,0,L|96:224,1,128,4|0,0:0|0:0,0:0:0:0:
416,272,59632,6,0,L|416:144,1,128,4|8,0:0|0:0,0:0:0:0:
240,144,59832,1,8,0:0:0:0:
416,112,59899,2,0,L|368:112,2,48,4|0|0,0:0|0:0|0:0,0:0:0:0:
192,48,60166,2,4,L|192:160,1,64
272,112,60343,1,4,0:0:0:0:
80,160,60432,2,0,L|112:160,1,24,8|0,0:0|0:0,0:0:0:0:
368,160,60566,2,8,L|320:160,1,48,8|0,0:0|0:0,0:0:0:0:
112,288,60699,5,4,0:0:0:0:
336,288,60832,1,4,0:0:0:0:
112,224,60966,2,0,L|272:224,1,128,4|0,0:0|0:0,0:0:0:0:
480,144,61232,2,0,L|336:144,1,128,4|0,0:0|0:0,0:0:0:0:
480,96,61499,1,4,0:0:0:0:
256,64,61632,1,4,0:0:0:0:
32,256,61766,6,0,L|32:224,1,32,4|0,0:0|0:0,0:0:0:0:
240,96,61899,2,0,L|272:96,1,32,4|0,0:0|0:0,0:0:0:0:
480,256,62032,2,0,L|480:224,1,32,4|0,0:0|0:0,0:0:0:0:
272,192,62165,2,0,L|240:192,1,32,4|0,0:0|0:0,0:0:0:0:
32,128,62299,6,4,L|128:128,2,85.3333333333333,4|0|4,0:0|0:0|0:0,0:0:0:0:
192,128,62566,2,4,L|288:128,1,85.3333333333333
112,64,62743,1,4,0:0:0:0:
336,80,62832,6,0,L|432:80,1,96,4|0,0:0|0:0,0:0:0:0:
384,80,63032,1,8,0:0:0:0:
256,112,63099,2,0,L|256:176,1,48,8|0,0:0|0:0,0:0:0:0:
112,176,63232,6,0,L|208:176,1,96,4|0,0:0|0:0,0:0:0:0:
160,176,63432,1,8,0:0:0:0:
32,208,63499,2,0,L|32:272,1,48,8|0,0:0|0:0,0:0:0:0:
176,224,63632,6,0,L|64:224,1,96,4|0,0:0|0:0,0:0:0:0:
128,224,63832,1,8,0:0:0:0:
256,192,63899,2,0,L|256:256,1,48,8|0,0:0|0:0,0:0:0:0:
384,272,64032,2,0,L|320:272,1,48,8|0,0:0|0:0,0:0:0:0:
160,272,64166,6,0,L|288:272,1,128,8|0,0:0|0:0,0:0:0:0:
128,144,64432,2,0,L|208:144,2,64,4|0|0,0:0|0:0|0:0,0:0:0:0:
288,80,64699,2,0,L|208:80,2,64,4|0|0,0:0|0:0|0:0,0:0:0:0:
88,111,64966,6,8,P|28:183|96:240,1,192,8|12,0:0|0:0,0:0:0:0:
176,240,65366,1,4,0:0:0:0:
64,304,65499,2,8,L|233:213,1,192,8|12,0:0|0:0,0:0:0:0:
240,208,65899,1,0,0:0:0:0:
368,224,66032,6,0,P|432:192|352:128,1,192,8|4,0:0|0:0,0:0:0:0:
144,224,66566,2,0,P|80:192|160:128,1,192,8|4,0:0|0:0,0:0:0:0:
256,144,66966,2,0,L|256:112,1,24,4|0,0:0|0:0,0:0:0:0:
144,272,67099,6,0,P|227:154|384:292,1,384,8|0,0:0|0:0,0:0:0:0:
224,320,67899,1,4,0:0:0:0:
384,256,68166,6,0,P|448:224|496:112,1,192,8|0,0:0|0:0,0:0:0:0:
368,176,68566,2,0,P|316:141|384:48,1,192,4|0,0:0|0:0,0:0:0:0:
240,63,68966,1,8,0:0:0:0:
304,63,69032,1,0,0:0:0:0:
368,47,69099,1,8,0:0:0:0:
304,63,69166,1,0,0:0:0:0:
96,208,69232,5,4,0:0:0:0:
96,160,69298,1,4,0:0:0:0:
96,112,69365,1,4,0:0:0:0:
256,96,69432,1,4,0:0:0:0:
256,96,69632,1,4,0:0:0:0:
416,112,69699,1,4,0:0:0:0:
416,160,69766,1,4,0:0:0:0:
416,208,69832,1,4,0:0:0:0:
96,256,70032,6,4,L|32:256,2,48,4|4|4,0:0|0:0|0:0,0:0:0:0:
256,256,70232,1,4,0:0:0:0:
256,256,70432,1,4,0:0:0:0:
416,256,70499,2,4,L|464:256,2,48,4|4|4,0:0|0:0|0:0,0:0:0:0:
256,192,70832,5,2,0:0:0:0:
300,177,70898,1,0,0:0:0:0:
318,134,70965,1,0,0:0:0:0:
298,92,71032,1,0,0:0:0:0:
254,78,71098,1,2,0:0:0:0:
208,80,71166,1,0,0:0:0:0:
254,78,71232,1,0,0:0:0:0:
208,80,71299,1,0,0:0:0:0:
416,256,71366,6,4,L|464:256,2,48,4|4|4,0:0|0:0|0:0,0:0:0:0:
256,256,71566,1,4,0:0:0:0:
256,256,71766,1,4,0:0:0:0:
96,256,71832,1,4,0:0:0:0:
96,208,71898,1,4,0:0:0:0:
96,160,71965,1,4,0:0:0:0:
416,256,72166,6,4,L|464:256,2,48,4|4|4,0:0|0:0|0:0,0:0:0:0:
256,256,72366,1,4,0:0:0:0:
256,256,72566,1,4,0:0:0:0:
96,256,72632,1,4,0:0:0:0:
96,208,72698,1,4,0:0:0:0:
96,160,72765,1,4,0:0:0:0:
256,128,72966,6,0,L|160:128,2,64,2|0|0,0:0|0:0|0:0,0:0:0:0:
336,80,73232,2,0,L|256:80,2,64,2|0|0,0:0|0:0|0:0,0:0:0:0:
96,192,73499,6,0,L|264:98,1,192,8|4,0:0|0:0,0:0:0:0:
160,224,73899,1,4,0:0:0:0:
288,176,74032,2,0,P|351:122|272:80,1,192,8|4,0:0|0:0,0:0:0:0:
192,80,74432,1,0,0:0:0:0:
64,128,74566,6,0,L|256:128,1,192,8|4,0:0|0:0,0:0:0:0:
448,128,75099,2,0,L|256:128,1,192,8|4,0:0|0:0,0:0:0:0:
352,160,75499,2,0,L|352:192,1,24,4|0,0:0|0:0,0:0:0:0:
448,272,75632,6,0,L|80:144,1,384,8|0,0:0|0:0,0:0:0:0:
256,208,76432,1,4,0:0:0:0:
80,192,76699,6,0,P|96:144|240:80,1,192,8|0,0:0|0:0,0:0:0:0:
336,64,77099,2,0,L|288:64,1,48,4|0,0:0|0:0,0:0:0:0:
336,64,77232,2,0,L|448:64,1,96,0|0,0:0|0:0,0:0:0:0:
384,96,77432,1,0,0:0:0:0:
432,128,77499,2,0,L|432:176,2,48,4|0|0,0:0|0:0|0:0,0:0:0:0:
96,256,77766,6,4,L|32:256,2,48,4|4|4,0:0|0:0|0:0,0:0:0:0:
256,256,77966,1,4,0:0:0:0:
256,256,78166,1,4,0:0:0:0:
416,256,78232,2,4,L|480:256,2,48,4|4|4,0:0|0:0|0:0,0:0:0:0:
128,256,78566,5,4,0:0:0:0:
80,256,78632,1,4,0:0:0:0:
32,256,78699,1,4,0:0:0:0:
256,256,78766,1,4,0:0:0:0:
256,256,78966,1,4,0:0:0:0:
480,256,79033,1,4,0:0:0:0:
432,256,79100,1,4,0:0:0:0:
384,256,79166,1,4,0:0:0:0:
256,208,79366,6,0,L|256:144,1,48,2|0,0:0|0:0,0:0:0:0:
192,128,79499,2,0,L|240:128,1,48,0|0,0:0|0:0,0:0:0:0:
176,96,79632,2,0,L|80:96,2,64,2|0|0,0:0|0:0|0:0,0:0:0:0:
416,256,79899,6,4,L|480:256,2,48
256,256,80099,1,4,0:0:0:0:
256,256,80299,1,4,0:0:0:0:
96,256,80365,2,4,L|32:256,2,48,4|4|4,0:0|0:0|0:0,0:0:0:0:
384,256,80699,5,4,0:0:0:0:
432,256,80765,1,4,0:0:0:0:
480,256,80832,1,4,0:0:0:0:
256,256,80899,1,4,0:0:0:0:
256,256,81099,1,4,0:0:0:0:
32,256,81166,1,4,0:0:0:0:
80,256,81233,1,4,0:0:0:0:
128,256,81299,1,4,0:0:0:0:
256,256,81499,6,0,L|336:256,1,48,2|0,0:0|0:0,0:0:0:0:
160,192,81632,2,0,L|160:128,1,48,0|0,0:0|0:0,0:0:0:0:
304,128,81766,2,0,L|224:128,1,48,2|0,0:0|0:0,0:0:0:0:
400,128,81899,2,0,L|448:128,1,48,0|0,0:0|0:0,0:0:0:0:
96,240,82032,6,4,L|32:240,2,48
256,192,82232,1,4,0:0:0:0:
96,192,82432,1,4,0:0:0:0:
256,192,82499,2,4,L|320:192,2,48,4|4|4,0:0|0:0|0:0,0:0:0:0:
416,240,82832,6,4,L|480:240,2,48
256,192,83032,1,4,0:0:0:0:
416,240,83232,1,4,0:0:0:0:
256,192,83299,1,4,0:0:0:0:
304,192,83365,1,4,0:0:0:0:
352,192,83432,1,4,0:0:0:0:
32,160,83632,5,4,0:0:0:0:
96,160,83720,1,4,0:0:0:0:
160,160,83809,1,4,0:0:0:0:
368,128,83899,1,4,0:0:0:0:
304,128,83987,1,4,0:0:0:0:
240,128,84076,1,4,0:0:0:0:
256,192,84299,12,0,84599,0:0:0:0:
256,192,84632,12,0,84699,0:0:0:0:
256,192,84832,12,0,84999,0:0:0:0:
256,192,85032,12,0,85199,0:0:0:0:
256,192,85232,12,0,85249,0:0:0:0:
256,192,85299,12,0,85316,0:0:0:0:
256,192,85366,12,0,85382,0:0:0:0:
256,192,85432,12,0,85449,0:0:0:0:
256,192,85499,12,0,85516,0:0:0:0:
256,192,85566,12,0,85582,0:0:0:0:
256,192,85632,12,0,85649,0:0:0:0:
256,192,85699,12,0,85716,0:0:0:0:
256,192,85766,12,0,85782,0:0:0:0:
256,192,85832,12,0,85849,0:0:0:0:
256,192,85899,12,4,86032,0:0:0:0:
368,304,86299,6,0,L|496:304,1,128,4|0,0:0|0:0,0:0:0:0:
256,240,86566,1,4,0:0:0:0:
496,208,86699,1,0,0:0:0:0:
256,208,86832,2,0,L|128:208,1,128,4|0,0:0|0:0,0:0:0:0:
368,144,87099,1,4,0:0:0:0:
128,112,87232,1,0,0:0:0:0:
368,64,87366,6,0,L|240:64,1,128,4|0,0:0|0:0,0:0:0:0:
16,144,87632,1,4,0:0:0:0:
240,192,87766,1,0,0:0:0:0:
464,176,87899,2,0,L|336:176,1,128,4|0,0:0|0:0,0:0:0:0:
112,256,88165,1,4,0:0:0:0:
336,304,88299,1,0,0:0:0:0:
112,320,88432,6,0,L|80:192,1,128,4|0,0:0|0:0,0:0:0:0:
304,160,88699,2,0,L|128:160,1,128,4|0,0:0|0:0,0:0:0:0:
400,320,88966,2,0,L|432:192,1,128,4|0,0:0|0:0,0:0:0:0:
208,160,89233,2,0,L|384:160,1,128,4|0,0:0|0:0,0:0:0:0:
80,96,89499,6,0,L|336:96,1,256,4|4,0:0|0:0,0:0:0:0:
208,96,89899,1,0,0:0:0:0:
432,144,90032,2,0,L|432:272,1,128,4|0,0:0|0:0,0:0:0:0:
208,288,90299,1,4,0:0:0:0:
432,320,90432,1,0,0:0:0:0:
144,304,90566,6,0,L|16:304,1,128,4|0,0:0|0:0,0:0:0:0:
256,240,90833,1,4,0:0:0:0:
16,208,90966,1,0,0:0:0:0:
256,208,91099,2,0,L|384:208,1,128,4|0,0:0|0:0,0:0:0:0:
144,144,91366,1,4,0:0:0:0:
384,112,91499,1,0,0:0:0:0:
144,64,91633,6,0,L|272:64,1,128,4|0,0:0|0:0,0:0:0:0:
496,144,91899,1,4,0:0:0:0:
272,192,92033,1,0,0:0:0:0:
48,176,92166,2,0,L|176:176,1,128,4|0,0:0|0:0,0:0:0:0:
400,256,92432,1,4,0:0:0:0:
256,256,92566,2,0,L|256:192,1,64,0|0,0:0|0:0,0:0:0:0:
400,320,92699,6,0,L|432:192,1,128,4|0,0:0|0:0,0:0:0:0:
208,160,92966,2,0,L|384:160,1,128,4|0,0:0|0:0,0:0:0:0:
112,320,93233,2,0,L|80:192,1,128,4|0,0:0|0:0,0:0:0:0:
304,160,93500,2,0,L|128:160,1,128,4|0,0:0|0:0,0:0:0:0:
448,96,93766,5,4,0:0:0:0:
80,96,93966,1,4,0:0:0:0:
432,96,94166,1,4,0:0:0:0:
96,96,94366,1,4,0:0:0:0:
416,96,94566,2,0,L|480:96,3,64,2|0|0|0,0:0|0:0|0:0|0:0,0:0:0:0:
256,96,94832,6,0,L|128:96,1,128,4|0,0:0|0:0,0:0:0:0:
352,144,95099,1,4,0:0:0:0:
128,192,95232,1,0,0:0:0:0:
352,192,95366,2,0,L|224:192,1,128,4|0,0:0|0:0,0:0:0:0:
448,240,95633,1,4,0:0:0:0:
224,288,95766,1,0,0:0:0:0:
448,304,95899,5,4,0:0:0:0:
64,304,96032,2,0,L|256:304,1,192,4|0,0:0|0:0,0:0:0:0:
448,304,96299,2,0,L|256:304,1,192,4|0,0:0|0:0,0:0:0:0:
64,304,96566,1,6,0:0:0:0:
176,304,96699,2,0,L|256:304,1,64
64,240,96832,2,0,L|144:240,1,64,0|0,0:0|0:0,0:0:0:0:
336,208,96966,6,0,L|192:208,1,128,4|0,0:0|0:0,0:0:0:0:
448,144,97232,1,4,0:0:0:0:
208,128,97366,1,0,0:0:0:0:
448,64,97499,2,0,L|304:64,1,128,4|0,0:0|0:0,0:0:0:0:
64,80,97766,1,4,0:0:0:0:
320,144,97899,1,0,0:0:0:0:
64,240,98032,5,4,0:0:0:0:
448,240,98232,1,4,0:0:0:0:
64,240,98432,1,4,0:0:0:0:
448,240,98699,2,0,L|256:240,1,192,4|0,0:0|0:0,0:0:0:0:
64,240,98966,2,0,L|144:240,1,64
384,224,99099,6,0,L|256:224,1,128,4|0,0:0|0:0,0:0:0:0:
480,144,99366,1,4,0:0:0:0:
256,144,99499,1,0,0:0:0:0:
16,176,99632,2,0,L|16:144,1,32,4|0,0:0|0:0,0:0:0:0:
240,96,99766,2,0,L|288:96,1,32,4|0,0:0|0:0,0:0:0:0:
496,176,99899,5,4,0:0:0:0:
384,128,100032,1,0,0:0:0:0:
16,240,100166,2,0,L|16:224,1,16,4|0,0:0|0:0,0:0:0:0:
160,208,100232,2,0,L|176:208,1,16,4|0,0:0|0:0,0:0:0:0:
320,240,100299,1,4,0:0:0:0:
256,240,100366,1,0,0:0:0:0:
16,192,100432,6,0,L|144:192,1,128,4|0,0:0|0:0,0:0:0:0:
320,176,100632,1,0,0:0:0:0:
256,160,100699,2,0,L|240:32,1,128,4|0,0:0|0:0,0:0:0:0:
464,160,100966,2,0,L|480:32,1,128,4|0,0:0|0:0,0:0:0:0:
320,32,101132,2,0,L|313:81,1,32,0|0,0:0|0:0,0:0:0:0:
464,96,101232,6,0,L|480:256,1,128,4|0,0:0|0:0,0:0:0:0:
240,272,101499,1,4,0:0:0:0:
480,304,101632,2,0,L|192:304,1,256,4|0,0:0|0:0,0:0:0:0:
352,304,102032,1,4,0:0:0:0:
96,320,102166,2,0,L|96:192,1,128,4|0,0:0|0:0,0:0:0:0:
320,192,102432,5,0,0:0:0:0:
80,128,102566,1,2,0:0:0:0:
336,128,102699,2,0,L|256:128,1,64,0|0,0:0|0:0,0:0:0:0:
64,64,102832,1,2,0:0:0:0:
352,64,102966,1,0,0:0:0:0:
224,64,103099,2,0,L|224:288,1,192,2|0,0:0|0:0,0:0:0:0:
48,96,103366,6,0,L|32:256,1,128,4|0,0:0|0:0,0:0:0:0:
272,272,103633,1,4,0:0:0:0:
32,304,103766,2,0,L|320:304,1,256,4|0,0:0|0:0,0:0:0:0:
160,304,104166,1,4,0:0:0:0:
384,304,104299,6,0,L|400:224,1,64,4|0,0:0|0:0,0:0:0:0:
256,240,104432,2,0,L|240:160,1,64
384,304,104566,2,0,L|400:224,1,64
244,203,104699,2,0,L|212:123,1,64
384,304,104832,2,0,L|400:224,1,64
223,174,104966,6,0,L|170:99,1,64
384,304,105099,2,0,L|400:224,1,64
192,156,105232,2,0,L|128:96,1,64
384,304,105366,2,0,L|400:224,1,64
152,147,105499,6,0,L|64:128,1,64
384,304,105632,2,0,L|400:224,1,64
112,192,105766,1,2,0:0:0:0:
56,211,105832,1,0,0:0:0:0:
53,271,105899,1,0,0:0:0:0:
108,296,105966,1,0,0:0:0:0:
256,304,106032,5,2,0:0:0:0:
416,304,106099,1,0,0:0:0:0:
256,304,106166,1,0,0:0:0:0:
96,304,106233,1,0,0:0:0:0:
352,256,106299,2,0,L|400:256,2,32,0|0|0,0:0|0:0|0:0,0:0:0:0:
160,256,106432,2,0,L|112:256,2,32,0|0|0,0:0|0:0|0:0,0:0:0:0:
416,192,106566,6,0,L|432:80,1,96,4|0,0:0|0:0,0:0:0:0:
320,64,106832,2,0,L|288:288,1,192,8|0,0:0|0:0,0:0:0:0:
192,256,107232,1,2,0:0:0:0:
293,254,107366,2,0,L|266:63,1,192,8|0,0:0|0:0,0:0:0:0:
96,64,107899,1,8,0:0:0:0:
246,63,108166,2,0,L|219:254,1,192,8|0,0:0|0:0,0:0:0:0:
64,208,108699,6,0,L|80:304,1,96,8|0,0:0|0:0,0:0:0:0:
192,256,108966,2,0,L|176:352,1,96,2|0,0:0|0:0,0:0:0:0:
272,352,109232,2,0,P|320:320|384:192,1,192,8|0,0:0|0:0,0:0:0:0:
208,144,109766,6,0,L|416:144,1,192,8|0,0:0|0:0,0:0:0:0:
208,80,110299,2,0,L|80:80,1,96,8|0,0:0|0:0,0:0:0:0:
224,128,110566,2,0,L|336:128,1,96,8|0,0:0|0:0,0:0:0:0:
112,304,110832,5,4,0:0:0:0:
71,281,110898,1,0,0:0:0:0:
68,235,110965,1,0,0:0:0:0:
104,206,111032,1,0,0:0:0:0:
288,160,111099,2,0,L|208:160,1,48,4|0,0:0|0:0,0:0:0:0:
64,128,111232,2,0,L|144:128,1,48,4|0,0:0|0:0,0:0:0:0:
288,80,111366,5,4,0:0:0:0:
340,85,111432,1,0,0:0:0:0:
378,117,111499,1,0,0:0:0:0:
387,160,111566,1,0,0:0:0:0:
240,192,111632,2,0,L|232:257,1,48,4|0,0:0|0:0,0:0:0:0:
80,240,111766,2,0,L|88:305,1,48,4|0,0:0|0:0,0:0:0:0:
272,320,111899,5,4,0:0:0:0:
313,301,111965,1,0,0:0:0:0:
315,256,112032,1,4,0:0:0:0:
275,234,112099,1,0,0:0:0:0:
432,208,112166,2,0,L|496:208,1,48,4|0,0:0|0:0,0:0:0:0:
304,160,112299,2,0,L|240:160,1,48,4|0,0:0|0:0,0:0:0:0:
64,112,112432,6,0,L|112:112,1,48,4|0,0:0|0:0,0:0:0:0:
279,99,112566,2,0,L|199:99,1,48,4|0,0:0|0:0,0:0:0:0:
400,112,112699,2,0,L|448:112,1,48,4|0,0:0|0:0,0:0:0:0:
112,112,112832,2,0,L|64:112,1,48,4|0,0:0|0:0,0:0:0:0:
256,192,113099,12,0,113332,0:0:0:0:
256,192,113366,12,0,113666,0:0:0:0:
256,192,113699,12,0,113866,0:0:0:0:
256,192,113899,12,0,113999,0:0:0:0:
256,192,114032,12,0,114049,0:0:0:0:
256,192,114099,12,0,114116,0:0:0:0:
256,192,114166,12,0,114182,0:0:0:0:
256,192,114232,12,0,114249,0:0:0:0:
256,192,114299,12,0,114316,0:0:0:0:
256,192,114366,12,0,114382,0:0:0:0:
256,192,114432,12,0,114449,0:0:0:0:
256,192,114499,12,0,114516,0:0:0:0:
256,192,114566,12,0,114582,0:0:0:0:
256,192,114632,12,0,114649,0:0:0:0:
256,192,114699,12,4,114832,0:0:0:0:
416,160,115099,5,8,0:0:0:0:
176,160,115232,1,8,0:0:0:0:
416,256,115366,2,0,L|416:192,1,64,8|0,0:0|0:0,0:0:0:0:
224,272,115499,2,0,L|224:208,1,64,8|0,0:0|0:0,0:0:0:0:
32,256,115632,2,0,L|32:192,1,64,8|0,0:0|0:0,0:0:0:0:
192,176,115766,2,0,L|272:176,1,64,8|0,0:0|0:0,0:0:0:0:
416,208,115899,2,0,B|192:208|192:208|144:96,1,335.520013439026,8|0,0:0|0:0,0:0:0:0:
416,288,116166,6,0,P|432:176|496:112,1,192,8|0,0:0|0:0,0:0:0:0:
256,208,116432,2,0,P|240:96|176:32,1,192,8|0,0:0|0:0,0:0:0:0:
416,176,116699,2,0,P|480:144|400:64,1,192,8|0,0:0|0:0,0:0:0:0:
80,96,116966,2,0,B|304:96|304:96|352:224,1,335.520013439026,4|0,0:3|0:0,0:0:0:0:
96,288,117232,6,0,P|80:176|16:112,1,192,8|0,0:0|0:0,0:0:0:0:
256,208,117498,2,0,P|272:96|336:32,1,192,8|0,0:0|0:0,0:0:0:0:
80,64,117766,2,0,L|80:144,1,64,8|0,0:0|0:0,0:0:0:0:
256,48,117899,2,0,L|256:128,1,64,8|0,0:0|0:0,0:0:0:0:
432,64,118032,2,0,L|432:144,1,64,8|0,0:0|0:0,0:0:0:0:
160,128,118232,1,4,0:0:0:0:
352,128,118299,6,0,P|400:160|448:288,1,192,8|0,0:0|0:0,0:0:0:0:
144,144,118566,2,0,B|368:144|368:144|416:256,1,335.520013439026,4|0,0:3|0:0,0:0:0:0:
128,320,118832,2,0,L|64:320,1,64,8|0,0:0|0:0,0:0:0:0:
256,320,118966,2,0,L|256:256,1,64,8|0,0:0|0:0,0:0:0:0:
448,320,119099,2,0,P|368:288|304:112,1,256,8|2,0:0|0:0,0:0:0:0:
96,320,119499,5,4,0:0:0:0:
233,310,119632,2,0,B|269:148|174:37|174:37|30:37,1,432.000016479493,8|0,0:0|0:0,0:0:0:0:
32,128,119899,2,0,L|480:128,1,432.000016479493,8|0,0:0|0:0,0:0:0:0:
480,128,120166,2,0,L|32:128,1,432.000016479493,8|0,0:0|0:0,0:0:0:0:
32,192,120432,6,0,L|224:192,1,192,8|0,0:0|0:0,0:0:0:0:
416,224,120699,2,0,L|224:224,1,192,8|0,0:0|0:0,0:0:0:0:
416,304,120966,2,0,P|464:272|393:172,1,192,8|0,0:0|0:0,0:0:0:0:
207,176,121232,2,0,L|198:128,1,42.6666666666667,8|0,0:0|0:0,0:0:0:0:
326,126,121321,2,0,L|326:78,1,42.6666666666667,8|0,0:0|0:0,0:0:0:0:
453,112,121410,2,0,L|462:64,1,42.6666666666667,8|0,0:0|0:0,0:0:0:0:
208,288,121499,6,0,L|80:288,1,128,8|0,0:0|0:0,0:0:0:0:
240,240,121677,2,0,L|368:240,1,128,8|0,0:0|0:0,0:0:0:0:
208,288,121854,2,0,L|80:288,1,128,8|0,0:0|0:0,0:0:0:0:
320,272,122032,2,0,L|320:128,1,128,8|0,0:0|0:0,0:0:0:0:
192,144,122210,2,0,L|192:96,1,42.6666666666667,4|0,0:0|0:0,0:0:0:0:
320,80,122299,2,0,L|464:80,1,128,8|0,0:0|0:0,0:0:0:0:
320,144,122477,2,0,L|272:144,1,42.6666666666667,8|0,0:0|0:0,0:0:0:0:
320,144,122566,5,2,0:0:0:0:
380,134,122632,1,0,0:0:0:0:
398,76,122699,1,0,0:0:0:0:
355,33,122766,1,0,0:0:0:0:
272,32,122832,2,0,L|464:32,1,192,2|0,0:0|0:0,0:0:0:0:
464,96,123099,2,0,L|224:96,1,192,4|0,0:0|0:0,0:0:0:0:
464,160,123366,2,0,L|464:352,1,192,4|0,0:0|0:0,0:0:0:0:
144,272,123632,5,4,0:0:0:0:
368,272,123766,1,4,0:0:0:0:
96,192,123899,2,0,L|96:160,1,32,8|0,0:0|0:0,0:0:0:0:
16,144,124032,1,4,0:0:0:0:
352,208,124166,6,0,L|144:208,1,192,4|0,0:0|0:0,0:0:0:0:
368,128,124432,2,0,L|512:128,1,128,8|4,0:0|0:0,0:0:0:0:
192,304,124699,6,0,L|320:304,1,128,4|4,0:0|0:0,0:0:0:0:
80,256,124966,2,0,L|80:128,1,128,8|0,0:0|0:0,0:0:0:0:
320,304,125232,2,0,L|192:304,1,128,4|0,0:0|0:0,0:0:0:0:
464,176,125499,1,8,0:0:0:0:
192,176,125632,1,4,0:0:0:0:
464,304,125766,6,0,L|464:176,1,128,4|0,0:0|0:0,0:0:0:0:
320,160,125966,1,4,0:0:0:0:
464,80,126032,2,0,P|448:144|320:192,1,192,8|0,0:0|0:0,0:0:0:0:
160,224,126299,2,0,L|336:224,1,128,4|4,0:0|0:0,0:0:0:0:
48,144,126566,2,0,L|192:144,1,128,8|0,0:0|0:0,0:0:0:0:
416,112,126832,5,4,0:0:0:0:
176,80,126966,1,4,0:0:0:0:
416,208,127099,1,8,0:0:0:0:
421,239,127132,1,0,0:0:0:0:
426,271,127165,1,0,0:0:0:0:
272,304,127232,1,4,0:0:0:0:
384,304,127366,5,8,0:0:0:0:
416,304,127399,1,0,0:0:0:0:
448,304,127432,1,0,0:0:0:0:
256,256,127499,1,4,0:0:0:0:
224,256,127532,1,0,0:0:0:0:
192,256,127565,1,0,0:0:0:0:
384,208,127632,1,8,0:0:0:0:
413,196,127665,1,0,0:0:0:0:
434,172,127698,1,0,0:0:0:0:
441,141,127731,1,0,0:0:0:0:
433,111,127765,1,0,0:0:0:0:
412,87,127798,1,0,0:0:0:0:
383,76,127831,1,0,0:0:0:0:
192,64,127899,6,0,L|320:64,1,128,4|0,0:0|0:0,0:0:0:0:
80,128,128166,2,0,L|80:288,1,128,4|0,0:0|0:0,0:0:0:0:
16,272,128366,1,4,0:0:0:0:
208,320,128432,2,0,L|208:96,1,192,4|0,0:0|0:0,0:0:0:0:
400,192,128699,2,0,L|272:112,1,128,8|4,0:0|0:0,0:0:0:0:
352,112,128899,1,0,0:0:0:0:
160,160,128966,6,8,L|32:160,1,128
256,144,129232,2,0,L|256:336,1,192,4|0,0:0|0:0,0:0:0:0:
416,288,129499,1,8,0:0:0:0:
96,288,129632,1,8,0:0:0:0:
416,208,129766,2,0,L|256:208,1,128,8|0,0:0|0:0,0:0:0:0:
224,208,129966,1,0,0:0:0:0:
400,144,130032,6,0,L|448:144,1,48,8|0,0:0|0:0,0:0:0:0:
256,144,130166,2,0,L|208:144,3,48,4|0|0|0,0:0|0:0|0:0|0:0,0:0:0:0:
16,224,130432,2,8,L|64:224,1,48,4|0,0:0|0:0,0:0:0:0:
272,224,130566,2,0,L|224:224,3,48,4|0|0|0,0:0|0:0|0:0|0:0,0:0:0:0:
32,176,130832,6,0,L|96:176,1,48,4|0,0:0|0:0,0:0:0:0:
256,144,130966,2,0,L|256:80,1,48,4|0,0:0|0:0,0:0:0:0:
80,64,131099,2,0,L|144:64,1,48,8|0,0:0|0:0,0:0:0:0:
352,48,131232,6,0,L|224:144,1,128,4|0,0:0|0:0,0:0:0:0:
464,112,131432,2,0,L|464:256,1,128,4|0,0:0|0:0,0:0:0:0:
256,288,131632,2,0,P|388:227|247:36,1,448,4|0,0:0|0:0,0:0:0:0:
64,96,132166,5,4,0:0:0:0:
192,96,132232,1,0,0:0:0:0:
64,96,132299,1,4,0:0:0:0:
192,96,132365,1,0,0:0:0:0:
416,176,132432,2,0,L|256:176,1,128,4|0,0:0|0:0,0:0:0:0:
64,240,132699,2,0,L|272:240,1,192,8|0,0:0|0:0,0:0:0:0:
416,288,132966,2,0,L|256:288,1,128,4|4,0:0|0:0,0:0:0:0:
496,208,133232,6,0,L|320:208,1,128,8|0,0:0|0:0,0:0:0:0:
144,192,133499,2,0,L|272:192,1,128,4|0,0:0|0:0,0:0:0:0:
16,208,133766,2,0,L|192:208,1,128,8|0,0:0|0:0,0:0:0:0:
352,192,134032,1,8,0:0:0:0:
144,144,134166,1,4,0:0:0:0:
352,304,134299,6,0,P|416:256|336:208,1,192,8|0,0:0|0:0,0:0:0:0:
160,192,134566,2,0,L|320:192,1,128,4|0,0:0|0:0,0:0:0:0:
32,128,134832,2,0,P|64:208|192:240,1,192,8|0,0:0|0:0,0:0:0:0:
368,272,135099,2,4,L|240:272,1,128
480,240,135366,6,0,B|480:112|480:112|384:112,1,192,8|0,0:0|0:0,0:0:0:0:
240,112,135632,2,0,L|384:112,1,128,4|0,0:0|0:0,0:0:0:0:
128,208,135899,1,8,0:0:0:0:
368,208,136032,1,4,0:0:0:0:
128,304,136166,2,0,L|256:304,1,128,8|8,0:0|0:0,0:0:0:0:
432,288,136366,1,8,0:0:0:0:
256,240,136432,6,0,L|256:96,1,128,4|0,0:0|0:0,0:0:0:0:
128,112,136699,1,8,0:0:0:0:
368,96,136832,2,0,P|448:128|352:224,1,256,4|8,0:0|0:0,0:0:0:0:
240,272,137232,2,0,L|384:272,1,128,4|0,0:0|0:0,0:0:0:0:
128,256,137499,6,0,P|32:208|128:128,1,256,8|4,0:0|0:0,0:0:0:0:
384,256,137899,2,0,P|480:208|384:128,1,256,8|4,0:0|0:0,0:0:0:0:
272,128,138299,2,4,L|144:128,1,128
448,272,138566,6,0,L|432:128,1,128,8|0,0:0|0:0,0:0:0:0:
304,128,138832,2,0,L|432:128,1,128,4|0,0:0|0:0,0:0:0:0:
288,224,139099,2,0,L|304:80,1,128,8|0,0:0|0:0,0:0:0:0:
432,80,139365,2,0,L|304:80,1,128,8|0,0:0|0:0,0:0:0:0:
48,176,139632,6,0,L|304:176,1,256,8|4,0:0|0:0,0:0:0:0:
176,176,140032,1,4,0:0:0:0:
448,240,140166,2,0,L|464:112,1,128,8|0,0:0|0:0,0:0:0:0:
336,64,140432,2,0,L|464:64,1,128,8|0,0:0|0:0,0:0:0:0:
224,144,140699,5,4,0:0:0:0:
464,192,140832,1,4,0:0:0:0:
224,288,140966,2,0,L|64:288,1,128,8|0,0:0|0:0,0:0:0:0:
160,288,141166,1,0,0:0:0:0:
320,288,141232,2,0,P|381:214|336:144,1,192,4|0,0:0|0:0,0:0:0:0:
160,112,141499,2,0,L|32:112,1,128,4|8,0:0|0:0,0:0:0:0:
96,112,141699,1,0,0:0:0:0:
288,112,141766,6,0,L|304:256,1,128,4|0,0:0|0:0,0:0:0:0:
368,240,141966,1,0,0:0:0:0:
224,288,142032,2,0,L|0:288,1,192,4|0,0:0|0:0,0:0:0:0:
192,240,142299,2,0,L|208:112,1,128,8|0,0:0|0:0,0:0:0:0:
80,192,142566,2,4,L|64:64,1,128
448,64,142832,5,8,0:0:0:0:
224,64,142966,1,0,0:0:0:0:
448,64,143099,2,4,L|304:64,1,128
64,160,143366,2,0,B|288:160|288:160|48:160,1,447.999994303386,8|4,0:0|0:0,0:0:0:0:
192,64,143766,1,0,0:0:0:0:
448,64,143899,5,8,0:0:0:0:
224,64,144033,1,0,0:0:0:0:
448,64,144166,2,4,L|448:192,1,128
224,224,144432,1,8,0:0:0:0:
448,272,144566,2,0,L|448:240,1,32,4|0,0:0|0:0,0:0:0:0:
192,160,144699,1,8,0:0:0:0:
480,160,144832,1,8,0:0:0:0:
224,304,144966,6,0,P|160:256|239:120,1,256,4|0,0:0|0:0,0:0:0:0:
352,80,145366,2,0,L|96:80,1,256,4|0,0:0|0:0,0:0:0:0:
224,144,145766,2,0,L|368:144,1,128,4|0,0:0|0:0,0:0:0:0:
80,352,146032,6,0,P|48:272|95:90,1,256,8|4,0:0|0:0,0:0:0:0:
208,96,146432,1,4,0:0:0:0:
464,80,146566,2,0,L|192:80,1,256,8|0,0:0|0:0,0:0:0:0:
336,80,146966,1,4,0:0:0:0:
80,304,147099,6,0,L|64:208,1,64,8|0,0:0|0:0,0:0:0:0:
256,240,147232,2,0,L|271:162,1,64,4|0,0:0|0:0,0:0:0:0:
432,304,147366,2,0,L|448:208,1,64,4|0,0:0|0:0,0:0:0:0:
64,224,147499,6,0,L|128:176,1,64,8|0,0:0|0:0,0:0:0:0:
280,215,147632,2,0,L|216:167,1,64,4|0,0:0|0:0,0:0:0:0:
396,185,147766,2,0,L|448:224,1,64,4|0,0:0|0:0,0:0:0:0:
80,304,147899,6,0,L|64:208,1,64,8|0,0:0|0:0,0:0:0:0:
432,304,148032,2,0,L|448:208,1,64,4|0,0:0|0:0,0:0:0:0:
256,256,148166,6,0,L|240:176,3,64,8|0|0|0,0:0|0:0|0:0|0:0,0:0:0:0:
80,176,148432,2,0,L|96:96,1,64,4|0,0:0|0:0,0:0:0:0:
256,256,148566,2,0,L|240:176,1,64,4|0,0:0|0:0,0:0:0:0:
80,240,148699,5,4,0:0:0:0:
23,220,148765,1,0,0:0:0:0:
20,160,148832,1,0,0:0:0:0:
75,135,148898,1,0,0:0:0:0:
144,128,148966,1,4,0:0:0:0:
198,103,149032,1,0,0:0:0:0:
196,43,149099,1,0,0:0:0:0:
139,23,149165,1,0,0:0:0:0:
64,16,149232,5,4,0:0:0:0:
256,272,156699,5,0,0:0:0:0:
301,264,156765,1,0,0:0:0:0:
322,223,156832,1,0,0:0:0:0:
301,182,156898,1,0,0:0:0:0:
256,272,156966,1,0,0:0:0:0:
210,264,157032,1,0,0:0:0:0:
189,223,157099,1,0,0:0:0:0:
256,192,157232,12,0,157632,0:0:0:0:
256,144,157766,5,4,0:0:0:0:
240,224,158299,2,0,L|256:176,1,48,8|0,0:0|0:0,0:0:0:0:
144,176,158565,2,0,L|144:128,1,48,0|0,0:0|0:0,0:0:0:0:
32,160,158832,2,0,L|16:112,1,48,2|0,0:0|0:0,0:0:0:0:
128,96,159099,2,0,L|128:48,1,48,0|0,0:0|0:0,0:0:0:0:
240,48,159365,2,0,L|192:48,2,48,8|0|0,0:0|0:0|0:0,0:0:0:0:
128,64,159765,1,0,0:0:0:0:
240,128,159899,6,0,B|288:144|316:197|288:256|240:272|240:272|432:272|432:272|432:64,1,576,2|0,0:0|0:0,0:0:0:0:
272,96,161766,2,0,L|256:96,4,12,8|0|0|0|0,0:0|0:0|0:0|0:0|0:0,0:0:0:0:
272,240,162032,5,2,0:0:0:0:
432,224,162565,2,0,L|448:176,1,48,8|0,0:0|0:0,0:0:0:0:
336,176,162832,2,0,L|336:128,1,48,0|0,0:0|0:0,0:0:0:0:
224,160,163099,2,0,L|208:112,1,48,2|0,0:0|0:0,0:0:0:0:
320,96,163365,2,0,L|320:48,1,48,0|0,0:0|0:0,0:0:0:0:
432,48,163632,2,0,L|384:48,2,48,8|0|0,0:0|0:0|0:0,0:0:0:0:
320,64,164031,1,0,0:0:0:0:
432,176,164166,6,0,B|240:176|240:176|288:192|316:247|288:304|240:320|240:320|448:320,1,576,2|2,0:0|0:0,0:0:0:0:
480,304,165832,1,0,0:0:0:0:
432,272,165899,1,0,0:0:0:0:
480,256,165965,1,0,0:0:0:0:
320,240,166032,1,2,0:0:0:0:
272,224,166099,1,0,0:0:0:0:
320,192,166165,1,0,0:0:0:0:
272,176,166232,1,0,0:0:0:0:
96,144,166299,6,4,L|32:144,2,48,4|4|4,0:0|0:0|0:0,0:0:0:0:
256,144,166499,1,4,0:0:0:0:
256,96,166699,1,4,0:0:0:0:
416,96,166765,2,4,L|480:96,2,48,4|4|4,0:0|0:0|0:0,0:0:0:0:
464,192,167099,1,8,0:0:0:0:
352,192,167232,1,0,0:0:0:0:
464,256,167365,6,0,L|368:256,1,96,2|0,0:0|0:0,0:0:0:0:
256,208,167632,2,0,L|352:208,1,96,8|0,0:0|0:0,0:0:0:0:
240,240,167899,2,0,L|128:240,1,96,2|0,0:0|0:0,0:0:0:0:
256,208,168165,2,0,L|256:112,1,96,8|0,0:0|0:0,0:0:0:0:
16,112,168432,5,4,0:0:0:0:
64,112,168498,1,4,0:0:0:0:
112,112,168565,1,4,0:0:0:0:
256,112,168632,1,4,0:0:0:0:
256,112,168832,1,4,0:0:0:0:
400,112,168899,1,4,0:0:0:0:
448,112,168966,1,4,0:0:0:0:
496,112,169032,1,4,0:0:0:0:
448,208,169232,1,8,0:0:0:0:
320,224,169365,1,0,0:0:0:0:
448,320,169499,6,0,L|448:208,1,96,2|0,0:0|0:0,0:0:0:0:
320,272,169765,2,0,L|320:224,1,48,8|0,0:0|0:0,0:0:0:0:
256,240,169899,2,0,L|256:176,1,48,0|0,0:0|0:0,0:0:0:0:
320,160,170032,1,2,0:0:0:0:
96,112,170165,1,4,0:0:0:0:
384,80,170365,1,4,0:0:0:0:
32,304,170566,5,4,0:0:0:0:
47,258,170632,1,4,0:0:0:0:
62,212,170699,1,4,0:0:0:0:
256,240,170765,1,4,0:0:0:0:
256,144,170966,1,4,0:0:0:0:
449,171,171032,1,4,0:0:0:0:
464,125,171099,1,4,0:0:0:0:
480,80,171165,1,4,0:0:0:0:
32,320,171366,5,4,0:0:0:0:
61,282,171432,1,4,0:0:0:0:
91,245,171499,1,4,0:0:0:0:
256,192,171566,1,4,0:0:0:0:
256,192,171766,1,4,0:0:0:0:
420,245,171833,1,4,0:0:0:0:
450,282,171900,1,4,0:0:0:0:
480,320,171966,1,4,0:0:0:0:
192,304,172166,6,4,L|256:304,1,64,4|4,0:0|0:0,0:0:0:0:
91,245,172343,1,4,0:0:0:0:
256,224,172432,2,4,L|320:224,1,64,4|4,0:0|0:0,0:0:0:0:
155,165,172609,1,4,0:0:0:0:
480,304,172699,5,4,0:0:0:0:
465,258,172765,1,4,0:0:0:0:
450,212,172832,1,4,0:0:0:0:
256,240,172898,1,4,0:0:0:0:
256,144,173099,1,4,0:0:0:0:
63,171,173165,1,4,0:0:0:0:
48,125,173232,1,4,0:0:0:0:
32,80,173298,1,4,0:0:0:0:
480,320,173499,5,4,0:0:0:0:
451,282,173565,1,4,0:0:0:0:
421,245,173632,1,4,0:0:0:0:
256,192,173699,1,4,0:0:0:0:
256,192,173899,1,4,0:0:0:0:
92,245,173966,1,4,0:0:0:0:
62,282,174033,1,4,0:0:0:0:
32,320,174099,1,4,0:0:0:0:
368,304,174299,6,4,L|464:304,1,64,4|4,0:0|0:0,0:0:0:0:
256,240,174477,1,4,0:0:0:0:
432,176,174566,2,4,L|352:176,1,64,4|4,0:0|0:0,0:0:0:0:
192,176,174743,1,4,0:0:0:0:
448,208,174832,6,4,L|512:208,2,48,4|4|4,0:0|0:0|0:0,0:0:0:0:
256,192,175032,1,4,0:0:0:0:
256,192,175232,1,4,0:0:0:0:
64,208,175299,2,4,L|112:208,2,48
448,208,175632,6,4,L|496:208,2,48,4|4|4,0:0|0:0|0:0,0:0:0:0:
256,192,175832,1,4,0:0:0:0:
256,192,176032,1,4,0:0:0:0:
64,208,176099,2,4,L|112:208,2,48,4|4|4,0:0|0:0|0:0,0:0:0:0:
384,192,176432,6,4,L|304:192,1,64,4|4,0:0|0:0,0:0:0:0:
144,192,176610,1,4,0:0:0:0:
320,128,176699,2,4,L|240:128,1,64,4|4,0:0|0:0,0:0:0:0:
80,128,176877,1,4,0:0:0:0:
256,128,176966,5,4,0:0:0:0:
496,128,177099,1,4,0:0:0:0:
256,320,177499,2,0,L|256:16,1,288,8|0,0:0|0:0,0:0:0:0:
496,128,178032,5,4,0:0:0:0:
256,16,178166,2,0,B|256:304|256:304,1,288,4|8,0:0|0:0,0:0:0:0:
16,128,179099,5,4,0:0:0:0:
256,32,179232,2,0,B|436:257|436:257,1,288,4|8,0:0|0:0,0:0:0:0:
144,224,180166,5,4,0:0:0:0:
368,224,180299,2,0,P|427:148|352:96,1,192,0|0,0:0|0:0,0:0:0:0:
368,48,180632,1,0,0:0:0:0:
288,48,180699,2,0,L|208:48,1,48,2|0,0:0|0:0,0:0:0:0:
320,80,180832,2,0,L|320:144,1,48,0|0,0:0|0:0,0:0:0:0:
400,128,180966,2,0,L|464:128,1,48,0|0,0:0|0:0,0:0:0:0:
96,304,181232,6,0,L|320:304,1,192,2|0,0:0|0:0,0:0:0:0:
80,208,181766,2,0,L|304:208,1,192,2|0,0:0|0:0,0:0:0:0:
64,128,182299,2,0,L|288:128,1,192,2|0,0:0|0:0,0:0:0:0:
160,96,182699,1,2,0:0:0:0:
48,32,182833,2,0,L|272:32,1,192,2|0,0:0|0:0,0:0:0:0:
144,32,183232,1,2,0:0:0:0:
448,112,183366,6,0,L|464:192,3,48,2|0|0|0,0:0|0:0|0:0|0:0,0:0:0:0:
304,240,183632,2,0,L|256:240,1,48,2|0,0:0|0:0,0:0:0:0:
416,240,183766,2,0,L|464:240,1,48,0|0,0:0|0:0,0:0:0:0:
288,176,183899,2,0,L|224:176,1,48,2|0,0:0|0:0,0:0:0:0:
400,176,184032,2,0,L|464:176,1,48,0|0,0:0|0:0,0:0:0:0:
272,112,184166,2,0,L|224:112,1,48,2|0,0:0|0:0,0:0:0:0:
384,112,184299,2,0,L|464:112,1,48,0|0,0:0|0:0,0:0:0:0:
176,64,184432,5,8,0:0:0:0:
134,83,184498,1,0,0:0:0:0:
128,129,184565,1,0,0:0:0:0:
163,158,184631,1,0,0:0:0:0:
320,192,184699,2,0,L|256:192,1,48,2|0,0:0|0:0,0:0:0:0:
432,208,184832,2,0,L|448:272,1,48,0|0,0:0|0:0,0:0:0:0:
288,288,184966,6,0,L|224:288,1,48,2|0,0:0|0:0,0:0:0:0:
96,288,185099,2,0,L|16:288,1,48,0|0,0:0|0:0,0:0:0:0:
224,224,185232,2,0,L|288:224,1,48,2|0,0:0|0:0,0:0:0:0:
416,224,185365,2,0,L|496:224,1,48,2|0,0:0|0:0,0:0:0:0:
224,176,185499,6,0,L|224:144,2,24,4|0|0,0:0|0:0|0:0,0:0:0:0:
160,144,185632,2,0,L|160:112,6,24,8|0|0|0|0|0|0,0:0|0:0|0:0|0:0|0:0|0:0|0:0,0:0:0:0:
304,128,185899,6,0,L|336:128,2,24,8|0|0,0:0|0:0|0:0,0:0:0:0:
160,112,186032,2,0,L|160:80,1,24,8|0,0:0|0:0,0:0:0:0:
208,80,186099,2,0,L|208:48,1,24,0|0,0:0|0:0,0:0:0:0:
64,80,186166,2,0,L|32:80,2,24,0|0|0,0:0|0:0|0:0,0:0:0:0:
208,144,186299,2,4,L|208:256,1,96,4|0,0:0|0:0,0:0:0:0:
272,240,186499,1,0,0:0:0:0:
448,240,186566,5,4,0:0:0:0:
64,240,186699,1,4,0:0:0:0:
448,240,186966,1,4,0:0:0:0:
64,240,187099,2,0,L|208:240,1,144,4|0,0:0|0:0,0:0:0:0:
448,240,187366,2,0,L|352:240,1,96,8|0,0:0|0:0,0:0:0:0:
64,240,187632,6,0,L|64:144,1,96,4|0,0:0|0:0,0:0:0:0:
192,128,187899,1,2,0:0:0:0:
64,112,188032,1,0,0:0:0:0:
192,80,188166,2,0,L|288:80,1,96,0|0,0:0|0:0,0:0:0:0:
160,144,188432,1,2,0:0:0:0:
288,176,188566,1,0,0:0:0:0:
160,208,188699,6,0,P|112:256|187:277,1,144,4|0,0:0|0:0,0:0:0:0:
240,288,188966,2,0,L|112:288,1,96,2|0,0:0|0:0,0:0:0:0:
256,240,189232,2,0,L|400:240,1,144,0|0,0:0|0:0,0:0:0:0:
320,208,189499,2,0,L|192:208,1,96,2|0,0:0|0:0,0:0:0:0:
352,176,189766,6,0,P|416:160|480:48,1,192,4|0,0:0|0:0,0:0:0:0:
352,64,190166,1,0,0:0:0:0:
480,144,190299,2,0,L|304:144,1,144,2|0,0:0|0:0,0:0:0:0:
272,208,190566,2,0,L|448:208,1,144,2|0,0:0|0:0,0:0:0:0:
352,272,190832,6,0,L|128:272,1,192,4|0,0:0|0:0,0:0:0:0:
288,224,191232,2,0,P|352:176|288:112,1,192,4|0,0:0|0:0,0:0:0:0:
265,111,191532,2,0,L|297:111,1,24,0|0,0:0|0:0,0:0:0:0:
432,112,191632,2,0,L|448:176,2,48,2|0|0,0:0|0:0|0:0,0:0:0:0:
368,112,191832,1,0,0:0:0:0:
176,176,191899,5,4,0:0:0:0:
128,176,191965,1,4,0:0:0:0:
80,176,192032,1,4,0:0:0:0:
256,176,192099,1,4,0:0:0:0:
256,176,192299,1,4,0:0:0:0:
432,176,192366,1,4,0:0:0:0:
384,176,192433,1,4,0:0:0:0:
336,176,192499,1,4,0:0:0:0:
64,256,192699,6,4,L|16:256,2,48,4|4|4,0:0|0:0|0:0,0:0:0:0:
256,240,192899,1,4,0:0:0:0:
256,240,193099,1,4,0:0:0:0:
448,256,193166,2,4,L|496:256,2,48,4|4|4,0:0|0:0|0:0,0:0:0:0:
256,288,193499,2,0,L|176:288,3,48,2|0|0|0,0:0|0:0|0:0|0:0,0:0:0:0:
144,272,193766,1,2,0:0:0:0:
113,237,193832,1,0,0:0:0:0:
124,192,193899,1,0,0:0:0:0:
166,174,193965,1,0,0:0:0:0:
336,176,194032,5,4,0:0:0:0:
384,176,194098,1,4,0:0:0:0:
432,176,194165,1,4,0:0:0:0:
256,176,194232,1,4,0:0:0:0:
256,176,194432,1,4,0:0:0:0:
80,176,194499,1,4,0:0:0:0:
128,176,194566,1,4,0:0:0:0:
176,176,194632,1,4,0:0:0:0:
448,256,194832,6,4,L|496:256,2,48,4|4|4,0:0|0:0|0:0,0:0:0:0:
256,240,195032,1,4,0:0:0:0:
256,240,195232,1,4,0:0:0:0:
64,256,195299,2,4,L|16:256,2,48,4|4|4,0:0|0:0|0:0,0:0:0:0:
256,256,195632,6,0,L|352:256,2,64,2|0|0,0:0|0:0|0:0,0:0:0:0:
416,208,195899,1,2,0:0:0:0:
352,208,195987,1,0,0:0:0:0:
288,208,196076,1,0,0:0:0:0:
448,240,196166,6,0,L|448:144,1,96,4|0,0:0|0:0,0:0:0:0:
320,128,196433,1,2,0:0:0:0:
448,112,196566,1,0,0:0:0:0:
320,80,196700,2,0,L|224:80,1,96,0|0,0:0|0:0,0:0:0:0:
352,144,196966,1,2,0:0:0:0:
224,176,197100,1,0,0:0:0:0:
352,208,197233,6,0,P|400:256|325:277,1,144,4|0,0:0|0:0,0:0:0:0:
272,288,197500,2,0,L|400:288,1,96,2|0,0:0|0:0,0:0:0:0:
256,240,197766,2,0,L|112:240,1,144,0|0,0:0|0:0,0:0:0:0:
192,208,198033,2,0,L|320:208,1,96,2|0,0:0|0:0,0:0:0:0:
160,176,198300,6,0,P|96:160|32:48,1,192,4|0,0:0|0:0,0:0:0:0:
160,64,198700,1,0,0:0:0:0:
32,144,198832,2,0,L|208:144,1,144,2|0,0:0|0:0,0:0:0:0:
240,208,199100,2,0,L|64:208,1,144,2|0,0:0|0:0,0:0:0:0:
160,272,199366,6,0,L|384:272,1,192,4|0,0:0|0:0,0:0:0:0:
224,224,199766,1,0,0:0:0:0:
179,210,199832,1,0,0:0:0:0:
159,168,199899,1,0,0:0:0:0:
222,111,200032,1,0,0:0:0:0:
272,112,200099,1,0,0:0:0:0:
80,112,200166,2,0,L|32:112,3,48,2|0|0|0,0:0|0:0|0:0|0:0,0:0:0:0:
208,112,200432,5,4,0:0:0:0:
256,112,200498,1,4,0:0:0:0:
304,112,200565,1,4,0:0:0:0:
128,112,200632,1,4,0:0:0:0:
128,112,200832,1,4,0:0:0:0:
304,112,200899,1,4,0:0:0:0:
256,112,200966,1,4,0:0:0:0:
208,112,201032,1,4,0:0:0:0:
304,112,201232,5,4,0:0:0:0:
256,112,201298,1,4,0:0:0:0:
208,112,201365,1,4,0:0:0:0:
384,112,201432,1,4,0:0:0:0:
384,112,201632,1,4,0:0:0:0:
208,112,201699,1,4,0:0:0:0:
256,112,201766,1,4,0:0:0:0:
304,112,201832,1,4,0:0:0:0:
176,192,202032,6,0,L|112:192,3,48,2|0|0|0,0:0|0:0|0:0|0:0,0:0:0:0:
191,163,202299,2,0,L|266:164,2,64,2|0|0,0:0|0:0|0:0,0:0:0:0:
416,112,202566,6,4,L|464:112,2,48,4|4|4,0:0|0:0|0:0,0:0:0:0:
256,112,202766,1,4,0:0:0:0:
416,192,202966,1,4,0:0:0:0:
256,192,203032,2,4,L|208:192,2,48,4|4|4,0:0|0:0|0:0,0:0:0:0:
96,112,203366,6,4,L|48:112,2,48,4|4|4,0:0|0:0|0:0,0:0:0:0:
256,112,203566,1,4,0:0:0:0:
96,192,203766,1,4,0:0:0:0:
256,192,203832,2,4,L|304:192,2,48,4|4|4,0:0|0:0|0:0,0:0:0:0:
384,240,204166,2,4,L|448:240,1,48,4|4,0:0|0:0,0:0:0:0:
256,240,204299,2,4,L|192:240,1,48,4|4,0:0|0:0,0:0:0:0:
352,176,204432,2,0,L|416:176,1,48,2|0,0:0|0:0,0:0:0:0:
224,176,204566,2,0,L|160:176,1,48,2|0,0:0|0:0,0:0:0:0:
384,112,204699,6,4,L|448:112,1,48,4|4,0:0|0:0,0:0:0:0:
256,112,204832,1,4,0:0:0:0:
80,112,204899,1,4,0:0:0:0:
80,208,205099,1,4,0:0:0:0:
256,208,205166,1,4,0:0:0:0:
432,208,205232,2,4,L|368:208,1,48,4|4,0:0|0:0,0:0:0:0:
112,112,205499,6,4,L|48:112,1,48,4|4,0:0|0:0,0:0:0:0:
256,112,205632,1,4,0:0:0:0:
448,112,205699,1,4,0:0:0:0:
448,208,205899,1,4,0:0:0:0:
256,208,205966,1,4,0:0:0:0:
64,208,206032,2,4,L|128:208,1,48,4|4,0:0|0:0,0:0:0:0:
448,272,206299,6,4,L|352:272,1,64
176,288,206477,1,4,0:0:0:0:
384,224,206566,2,4,L|288:224,1,64,4|4,0:0|0:0,0:0:0:0:
112,240,206744,1,4,0:0:0:0:
416,224,206832,6,4,L|416:176,1,48,4|4,0:0|0:0,0:0:0:0:
256,112,206966,1,4,0:0:0:0:
416,112,207032,1,4,0:0:0:0:
416,112,207232,5,4,0:0:0:0:
256,112,207298,1,4,0:0:0:0:
416,176,207366,2,4,L|416:224,1,48,4|4,0:0|0:0,0:0:0:0:
96,224,207632,6,4,L|96:176,1,48,4|4,0:0|0:0,0:0:0:0:
256,112,207766,1,4,0:0:0:0:
96,112,207832,1,4,0:0:0:0:
96,112,208032,5,4,0:0:0:0:
256,112,208098,1,4,0:0:0:0:
96,176,208166,2,4,L|96:224,1,48,4|4,0:0|0:0,0:0:0:0:
464,320,208432,6,4,L|464:224,1,64,4|4,0:0|0:0,0:0:0:0:
256,240,208610,1,4,0:0:0:0:
464,192,208699,2,4,L|368:192,1,64,4|4,0:0|0:0,0:0:0:0:
176,240,208877,1,4,0:0:0:0:
256,192,209232,12,0,209466,0:0:0:0:
256,192,209499,12,0,209899,0:0:0:0:
256,192,210232,12,0,210466,0:0:0:0:
256,192,210499,12,2,211099,0:0:0:0:
256,192,212166,5,0,0:0:0:0:
256,192,213232,1,0,0:0:0:0:
256,192,214299,1,2,0:0:0:0:
256,128,214432,2,0,L|320:128,1,48,0|0,0:0|0:0,0:0:0:0:
256,80,214566,2,0,L|192:80,1,48,0|0,0:0|0:0,0:0:0:0:
352,96,214699,2,0,P|413:134|336:201,1,192,2|0,0:0|0:0,0:0:0:0:
16,160,215099,2,0,L|16:304,1,144,8|0,0:0|0:0,0:0:0:0:
368,256,215366,5,4,0:0:0:0:
144,256,215499,1,4,0:0:0:0:
384,208,215632,2,0,P|440:170|352:96,1,192,8|0,0:0|0:0,0:0:0:0:
144,160,215899,2,0,B|368:160|368:160|384:48,1,335.520013439026,4|0,0:0|0:0,0:0:0:0:
128,208,216166,2,0,P|72:170|160:96,1,192,8|0,0:0|0:0,0:0:0:0:
352,224,216432,6,0,L|144:224,1,192,4|0,0:0|0:0,0:0:0:0:
384,208,216699,2,0,P|440:170|352:96,1,192,8|0,0:0|0:0,0:0:0:0:
256,272,216966,2,0,L|256:64,1,192,4|0,0:0|0:0,0:0:0:0:
128,208,217232,2,0,P|72:170|160:96,1,192,4|0,0:0|0:0,0:0:0:0:
304,48,217499,6,0,L|496:48,1,192,4|0,0:0|0:0,0:0:0:0:
304,128,217766,2,0,L|96:128,1,192,8|0,0:0|0:0,0:0:0:0:
416,192,218032,2,0,P|480:256|400:304,1,192,4|4,0:0|0:0,0:0:0:0:
221,321,218299,1,8,0:0:0:0:
416,320,218432,1,8,0:0:0:0:
112,288,218566,6,0,L|96:160,1,128,4|0,0:0|0:0,0:0:0:0:
256,240,218766,2,0,L|256:96,1,128,4|0,0:0|0:0,0:0:0:0:
400,288,218966,2,0,L|416:160,1,128,4|0,0:0|0:0,0:0:0:0:
112,288,219166,2,0,L|96:160,1,128,4|0,0:0|0:0,0:0:0:0:
176,160,219366,2,0,L|192:96,1,64,4|0,0:0|0:0,0:0:0:0:
106,217,219499,2,0,L|90:153,1,64
368,160,219632,6,0,B|144:160|144:160|128:48,1,335.520013439026,4|0,0:0|0:0,0:0:0:0:
384,208,219899,2,0,P|440:170|352:96,1,192,8|0,0:0|0:0,0:0:0:0:
144,160,220166,2,0,B|368:160|368:160|384:48,1,335.520013439026,4|0,0:0|0:0,0:0:0:0:
128,208,220433,2,0,P|72:170|160:96,1,192,8|0,0:0|0:0,0:0:0:0:
375,277,220699,5,4,0:0:0:0:
133,280,220832,1,4,0:0:0:0:
464,288,221099,1,4,0:0:0:0:
96,288,221366,2,0,L|224:288,1,128,4|0,0:0|0:0,0:0:0:0:
416,288,221632,2,0,L|336:288,1,64,4|0,0:0|0:0,0:0:0:0:
128,208,221766,6,0,P|72:170|160:96,1,192,4|0,0:0|0:0,0:0:0:0:
368,160,222032,2,0,B|144:160|144:160|162:45,1,335.520013439026,8|0,0:0|0:0,0:0:0:0:
384,208,222299,2,0,P|440:170|352:96,1,192,4|0,0:0|0:0,0:0:0:0:
144,160,222566,2,0,B|368:160|368:160|351:46,1,335.520013439026,8|0,0:0|0:0,0:0:0:0:
96,288,222832,5,4,0:0:0:0:
416,288,223032,1,4,0:0:0:0:
96,288,223232,2,0,P|36:239|113:175,1,192,4|0,0:0|0:0,0:0:0:0:
416,288,223499,2,0,P|476:239|399:175,1,192,4|0,0:0|0:0,0:0:0:0:
224,176,223766,2,0,L|304:176,1,64,2|0,0:0|0:0,0:0:0:0:
496,112,223899,5,4,0:0:0:0:
256,112,224032,1,4,0:0:0:0:
16,128,224166,2,0,P|32:48|144:32,1,192,8|0,0:0|0:0,0:0:0:0:
496,112,224432,5,4,0:0:0:0:
256,112,224565,1,4,0:0:0:0:
16,128,224699,2,0,L|208:128,1,192,8|0,0:0|0:0,0:0:0:0:
368,48,224966,5,4,0:0:0:0:
144,48,225099,1,4,0:0:0:0:
368,144,225232,2,0,L|384:272,1,128,8|4,0:0|0:0,0:0:0:0:
320,288,225432,1,0,0:0:0:0:
176,288,225499,2,0,L|240:288,1,64,8|0,0:0|0:0,0:0:0:0:
96,288,225632,2,0,L|32:288,1,64
176,224,225766,2,0,L|320:224,1,128,4|4,0:0|0:0,0:0:0:0:
32,176,226032,6,4,L|96:176,1,64
352,160,226166,2,4,L|272:160,1,64,4|4,0:0|0:0,0:0:0:0:
448,176,226432,6,4,L|384:176,1,64,4|4,0:0|0:0,0:0:0:0:
176,128,226566,2,4,L|256:128,1,64,4|4,0:0|0:0,0:0:0:0:
80,64,226832,6,4,L|144:64,1,64,4|4,0:0|0:0,0:0:0:0:
304,48,226966,2,4,L|224:48,1,64,4|4,0:0|0:0,0:0:0:0:
384,112,227232,6,4,L|448:112,1,64,4|4,0:0|0:0,0:0:0:0:
256,176,227366,2,4,L|192:176,1,64,4|4,0:0|0:0,0:0:0:0:
384,208,227499,2,0,L|384:272,1,64,4|0,0:0|0:0,0:0:0:0:
448,272,227632,2,0,L|448:64,1,192
240,160,227899,2,0,L|192:96,1,64,8|0,0:0|0:0,0:0:0:0:
240,160,228032,2,0,L|320:160,1,64
496,64,228166,6,0,L|496:256,1,192,4|0,0:0|0:0,0:0:0:0:
320,272,228432,2,0,L|256:272,1,55.9999992879232,4|0,0:3|0:0,0:0:0:0:
80,272,228566,2,0,L|144:272,1,55.9999992879232,2|0,0:0|0:0,0:0:0:0:
320,208,228699,5,2,0:0:0:0:
352,192,228766,1,0,0:0:0:0:
320,160,228832,1,0,0:0:0:0:
256,144,228899,1,0,0:0:0:0:
80,192,228966,1,8,0:0:0:0:
136,176,229033,1,0,0:0:0:0:
192,160,229099,1,0,0:0:0:0:
32,64,229166,1,0,0:0:0:0:
192,48,229232,6,2,L|248:48,1,55.9999992879232,8|0,0:0|0:0,0:0:0:0:
96,96,229366,2,0,L|96:152,1,55.9999992879232
160,144,229499,2,0,L|160:200,1,55.9999992879232,8|0,0:0|0:0,0:0:0:0:
336,240,229632,2,0,L|272:240,1,55.9999992879232,8|0,0:0|0:0,0:0:0:0:
96,288,229766,6,0,L|168:288,3,55.9999992879232,2|0|0|0,0:0|0:0|0:0|0:0,0:0:0:0:
312,320,230032,2,0,L|312:264,1,55.9999992879232,8|0,0:0|0:0,0:0:0:0:
480,240,230166,2,0,L|408:240,1,55.9999992879232,0|0,0:0|0:0,0:0:0:0:
224,240,230299,6,0,L|168:240,2,55.9999992879232,0|0|2,0:0|0:0|0:0,0:0:0:0:
384,240,230499,1,0,0:0:0:0:
224,176,230566,1,8,0:0:0:0:
168,176,230632,1,0,0:0:0:0:
328,112,230699,1,0,0:0:0:0:
272,112,230766,1,0,0:0:0:0:
112,80,230832,6,0,L|56:80,2,55.9999992879232,2|0|2,0:0|0:0|0:0,0:0:0:0:
272,64,231032,1,0,0:0:0:0:
112,32,231099,1,8,0:0:0:0:
168,32,231165,1,0,0:0:0:0:
327,49,231232,1,0,0:0:0:0:
384,48,231299,1,0,0:0:0:0:
224,136,231366,6,0,L|160:136,1,55.9999992879232,8|0,0:0|0:0,0:0:0:0:
136,136,231499,1,0,0:0:0:0:
168,136,231566,1,0,0:0:0:0:
336,208,231632,2,0,L|400:208,1,55.9999992879232,8|0,0:0|0:0,0:0:0:0:
224,232,231766,2,0,L|160:232,1,55.9999992879232,0|0,0:0|0:0,0:0:0:0:
336,328,231899,6,0,L|336:272,1,55.9999992879232,2|0,0:0|0:0,0:0:0:0:
400,296,232032,2,0,L|400:232,1,55.9999992879232,2|0,0:0|0:0,0:0:0:0:
224,192,232166,2,0,L|288:192,1,55.9999992879232,2|0,0:0|0:0,0:0:0:0:
456,176,232299,2,0,L|392:176,1,55.9999992879232,0|0,0:0|0:0,0:0:0:0:
160,200,232432,6,0,L|160:136,1,55.9999992879232,4|0,0:0|0:0,0:0:0:0:
304,144,232566,2,0,L|304:72,1,55.9999992879232,0|0,0:0|0:0,0:0:0:0:
448,192,232699,2,0,L|376:192,1,55.9999992879232,8|0,0:0|0:0,0:0:0:0:
224,192,232832,2,0,L|312:192,1,55.9999992879232,0|0,0:0|0:0,0:0:0:0:
112,208,232966,6,0,L|32:208,3,55.9999992879232,2|0|2|0,0:0|0:0|0:0|0:0,0:0:0:0:
224,256,233232,2,0,L|304:256,1,55.9999992879232,8|0,0:0|0:0,0:0:0:0:
112,288,233366,2,0,L|32:288,1,55.9999992879232,0|0,0:0|0:0,0:0:0:0:
256,200,233499,6,0,L|336:200,2,55.9999992879232,2|0|0,0:0|0:0|0:0,0:0:0:0:
424,160,233699,2,0,L|480:160,2,55.9999992879232,2|0|0,0:0|0:0|0:0,0:0:0:0:
256,136,233899,2,0,L|328:136,1,55.9999992879232,2|0,0:0|0:0,0:0:0:0:
136,136,234032,6,0,L|72:136,3,55.9999992879232,8|0|0|0,0:0|0:0|0:0|0:0,0:0:0:0:
240,88,234299,2,0,L|304:88,3,55.9999992879232,8|0|0|0,0:0|0:0|0:0|0:0,0:0:0:0:
456,144,234566,6,2,L|456:208,1,55.9999992879232
288,248,234699,2,0,L|344:248,1,55.9999992879232,8|0,0:0|0:0,0:0:0:0:
192,176,234832,2,0,L|136:176,1,55.9999992879232,8|0,0:0|0:0,0:0:0:0:
288,120,234966,2,0,L|352:120,1,55.9999992879232
112,104,235099,6,0,L|112:168,1,55.9999992879232,2|0,0:0|0:0,0:0:0:0:
280,208,235232,2,0,L|224:208,1,55.9999992879232,8|0,0:0|0:0,0:0:0:0:
376,136,235365,2,0,L|432:136,1,55.9999992879232,8|0,0:0|0:0,0:0:0:0:
280,80,235499,2,0,L|344:80,1,55.9999992879232,8|0,0:0|0:0,0:0:0:0:
152,176,235632,6,0,L|72:176,2,55.9999992879232,2|0|0,0:0|0:0|0:0,0:0:0:0:
296,176,235832,2,0,L|240:176,2,55.9999992879232,2|0|0,0:0|0:0|0:0,0:0:0:0:
440,176,236032,2,0,L|512:176,2,55.9999992879232,2|0|0,0:0|0:0|0:0,0:0:0:0:
256,128,236232,2,0,L|320:128,1,55.9999992879232,2|0,0:0|0:0,0:0:0:0:
368,128,236366,1,0,0:0:0:0:
176,48,236432,2,0,L|104:48,1,55.9999992879232,2|0,0:0|0:0,0:0:0:0:
256,32,236566,2,0,L|328:32,1,55.9999992879232,0|0,0:0|0:0,0:0:0:0:
448,272,236699,6,0,L|448:256,1,13.9999998219808,0|0,0:0|0:0,0:0:0:0:
400,256,236766,2,0,L|400:232,1,13.9999998219808,0|0,0:0|0:0,0:0:0:0:
448,224,236832,2,0,L|448:200,1,13.9999998219808,0|0,0:0|0:0,0:0:0:0:
400,208,236899,2,0,L|400:184,1,13.9999998219808,0|0,0:0|0:0,0:0:0:0:
256,144,236966,2,0,L|218:97,1,55.9999992879232,4|0,0:0|0:0,0:0:0:0:
256,144,237099,2,0,L|320:144,1,55.9999992879232,0|0,0:0|0:0,0:0:0:0:
152,104,237232,5,2,0:0:0:0:
16,96,237299,1,0,0:0:0:0:
152,104,237366,1,2,0:0:0:0:
16,96,237433,1,0,0:0:0:0:
152,192,237499,1,8,0:0:0:0:
205,198,237565,1,0,0:0:0:0:
226,247,237632,1,0,0:0:0:0:
195,290,237698,1,0,0:0:0:0:
32,320,237766,6,0,L|96:320,1,55.9999992879232,8|0,0:0|0:0,0:0:0:0:
256,328,237899,2,0,L|312:328,1,55.9999992879232,8|0,0:0|0:0,0:0:0:0:
32,136,238166,2,0,L|96:136,1,55.9999992879232,8|0,0:0|0:0,0:0:0:0:
480,136,238432,2,0,L|416:136,1,55.9999992879232,8|0,0:0|0:0,0:0:0:0:
256,128,238699,2,0,L|320:128,1,55.9999992879232,8|0,0:0|0:0,0:0:0:0:
152,272,238832,6,0,P|96:224|168:176,1,167.99999786377,2|0,0:0|0:0,0:0:0:0:
336,168,239099,1,8,0:0:0:0:
224,144,239232,2,0,L|184:144,2,27.9999996439616,0|0|0,0:0|0:0|0:0,0:0:0:0:
400,136,239366,6,0,L|480:136,2,55.9999992879232,2|0|2,0:0|0:0|0:0,0:0:0:0:
248,88,239566,1,8,0:0:0:0:
304,88,239632,1,0,0:0:0:0:
360,88,239699,1,0,0:0:0:0:
208,40,239766,2,0,L|152:40,1,55.9999992879232,8|0,0:0|0:0,0:0:0:0:
328,184,239899,6,0,L|384:184,2,55.9999992879232,8|0|0,0:0|0:0|0:0,0:0:0:0:
128,224,240099,1,8,0:0:0:0:
184,224,240166,1,0,0:0:0:0:
240,224,240232,1,0,0:0:0:0:
472,304,240299,2,0,L|408:304,1,55.9999992879232,8|0,0:0|0:0,0:0:0:0:
40,304,240566,2,0,L|104:304,1,55.9999992879232,8|0,0:0|0:0,0:0:0:0:
256,304,240699,2,0,L|336:304,1,55.9999992879232,0|0,0:0|0:0,0:0:0:0:
152,224,240832,2,0,L|232:224,1,55.9999992879232,0|0,0:0|0:0,0:0:0:0:
384,208,240966,6,0,L|384:176,2,27.9999996439616,4|0|0,0:0|0:0|0:0,0:0:0:0:
232,160,241099,2,0,L|232:128,2,27.9999996439616
64,208,241232,2,0,L|64:152,1,55.9999992879232,8|0,0:0|0:0,0:0:0:0:
216,136,241366,2,0,L|216:72,1,55.9999992879232,0|0,0:0|0:0,0:0:0:0:
376,72,241499,6,0,L|448:72,1,55.9999992879232,2|0,0:0|0:0,0:0:0:0:
208,56,241632,1,0,0:0:0:0:
180,56,241665,1,0,0:0:0:0:
152,56,241698,1,0,0:0:0:0:
344,152,241766,2,0,L|416:152,1,55.9999992879232,8|0,0:0|0:0,0:0:0:0:
160,128,241899,2,0,L|104:128,1,55.9999992879232,8|0,0:0|0:0,0:0:0:0:
256,224,242032,5,2,0:0:0:0:
284,224,242065,1,0,0:0:0:0:
312,224,242098,1,0,0:0:0:0:
284,224,242132,1,0,0:0:0:0:
256,224,242165,1,0,0:0:0:0:
64,224,242232,1,0,0:0:0:0:
256,224,242299,5,2,0:0:0:0:
284,224,242332,1,0,0:0:0:0:
312,224,242365,1,0,0:0:0:0:
284,224,242399,1,0,0:0:0:0:
256,224,242432,1,0,0:0:0:0:
64,224,242499,1,0,0:0:0:0:
304,288,242566,6,0,L|368:288,1,55.9999992879232,8|0,0:0|0:0,0:0:0:0:
208,288,242699,2,0,L|171:289,2,27.9999996439616
368,224,242832,1,8,0:0:0:0:
392,211,242865,1,0,0:0:0:0:
402,186,242898,1,0,0:0:0:0:
394,160,242932,1,0,0:0:0:0:
370,146,242965,1,8,0:0:0:0:
176,88,243032,1,0,0:0:0:0:
384,320,243099,6,0,L|400:192,1,96,4|0,0:0|0:0,0:0:0:0:
144,160,243366,1,4,0:0:0:0:
400,112,243499,2,0,L|176:112,1,192,8|4,0:0|0:0,0:0:0:0:
416,192,243899,2,0,L|432:272,1,48,8|0,0:0|0:0,0:0:0:0:
256,288,244032,6,0,L|128:288,1,96,4|0,0:0|0:0,0:0:0:0:
384,256,244299,2,0,L|512:256,1,96,4|8,0:0|0:0,0:0:0:0:
256,192,244566,2,0,L|192:192,1,48,4|0,0:0|0:0,0:0:0:0:
368,144,244699,2,0,L|464:144,1,96,4|4,0:0|0:0,0:0:0:0:
368,80,244966,2,0,L|368:240,1,144,12|0,0:0|0:0,0:0:0:0:
208,224,245232,6,0,L|96:224,1,96,4|0,0:0|0:0,0:0:0:0:
368,160,245499,1,4,0:0:0:0:
112,112,245632,2,0,L|336:112,1,192,8|4,0:0|0:0,0:0:0:0:
96,192,246032,2,0,L|80:272,1,48,8|0,0:0|0:0,0:0:0:0:
256,288,246166,6,8,L|384:288,1,96,4|0,0:0|0:0,0:0:0:0:
128,256,246432,2,0,L|0:256,1,96,4|8,0:0|0:0,0:0:0:0:
256,192,246699,2,0,L|320:192,1,48,4|0,0:0|0:0,0:0:0:0:
144,144,246832,2,0,L|48:144,1,96,8|0,0:0|0:0,0:0:0:0:
208,96,247032,2,0,L|304:96,1,96,8|0,0:0|0:0,0:0:0:0:
144,64,247232,2,0,L|80:64,1,48,8|0,0:0|0:0,0:0:0:0:
288,80,247366,6,0,L|304:208,1,96,4|0,0:0|0:0,0:0:0:0:
496,192,247632,1,8,0:0:0:0:
272,272,247766,2,0,L|496:272,1,192,4|8,0:0|0:0,0:0:0:0:
256,208,248166,2,0,L|192:208,1,48,4|0,0:0|0:0,0:0:0:0:
368,192,248299,6,0,L|384:96,1,96,4|0,0:0|0:0,0:0:0:0:
175,33,248566,2,0,L|160:128,1,96,4|8,0:0|0:0,0:0:0:0:
352,144,248832,2,0,L|368:224,1,48,4|0,0:0|0:0,0:0:0:0:
208,208,248966,2,0,L|192:302,1,96,4|4,0:0|0:0,0:0:0:0:
432,240,249232,2,0,L|448:334,1,96,8|0,0:0|0:0,0:0:0:0:
224,80,249499,6,0,L|208:208,1,96,4|0,0:0|0:0,0:0:0:0:
16,192,249765,1,8,0:0:0:0:
240,272,249899,2,0,L|16:272,1,192,4|8,0:0|0:0,0:0:0:0:
256,208,250299,2,0,L|320:208,1,48,4|0,0:0|0:0,0:0:0:0:
256,208,250432,2,0,L|192:208,1,48,8|0,0:0|0:0,0:0:0:0:
336,160,250566,6,0,L|384:160,1,48,2|0,0:0|0:0,0:0:0:0:
176,160,250699,2,0,L|128:160,1,48,0|0,0:0|0:0,0:0:0:0:
368,96,250832,2,0,L|432:96,1,48,2|0,0:0|0:0,0:0:0:0:
144,96,250966,2,0,L|80:96,1,48
400,160,251099,2,0,L|464:160,1,48,2|0,0:0|0:0,0:0:0:0:
112,160,251232,2,0,L|48:160,1,48,0|0,0:0|0:0,0:0:0:0:
432,96,251366,2,0,L|496:96,1,48,2|0,0:0|0:0,0:0:0:0:
80,96,251499,2,0,L|16:96,1,48,0|0,0:0|0:0,0:0:0:0:
464,176,251632,6,0,L|480:240,1,48,2|0,0:0|0:0,0:0:0:0:
48,176,251766,2,0,L|32:240,1,48,0|0,0:0|0:0,0:0:0:0:
240,224,251899,2,0,L|256:288,1,48,4|0,0:0|0:0,0:0:0:0:
496,304,252032,2,0,L|448:304,1,48,0|0,0:0|0:0,0:0:0:0:
288,304,252166,2,0,L|224:304,1,48,8|0,0:0|0:0,0:0:0:0:
16,304,252299,2,0,L|64:304,1,48,0|0,0:0|0:0,0:0:0:0:
272,304,252433,2,0,L|224:304,1,48
448,304,252566,2,0,L|496:304,1,48,8|0,0:0|0:0,0:0:0:0:
256,224,252699,5,8,0:0:0:0:
256,192,252832,12,0,253132,0:0:0:0:
256,192,253166,12,0,253399,0:0:0:0:
256,192,253432,12,0,253599,0:0:0:0:
256,192,253632,12,0,253732,0:0:0:0:
256,192,253766,12,0,253866,0:0:0:0:
256,192,253899,12,0,253915,0:0:0:0:
256,192,253965,12,0,253982,0:0:0:0:
256,192,254032,12,0,254049,0:0:0:0:
256,192,254099,12,0,254115,0:0:0:0:
256,192,254165,12,0,254182,0:0:0:0:
256,192,254232,12,0,254249,0:0:0:0:
256,192,254299,12,0,254315,0:0:0:0:
256,192,254365,12,0,254382,0:0:0:0:
256,192,254432,12,4,254565,0:0:0:0:
256,224,254832,5,4,0:0:0:0:
496,224,254966,1,8,0:0:0:0:
144,304,255099,1,8,0:0:0:0:
384,304,255233,1,0,0:0:0:0:
32,224,255366,6,0,L|96:224,1,64,8|0,0:0|0:0,0:0:0:0:
288,176,255499,2,0,L|368:176,1,64
192,176,255632,2,0,L|112:176,3,64,8|0|8|0,0:0|0:0|0:0|0:0,0:0:0:0:
288,80,255899,6,0,L|288:160,1,64,2|0,0:0|0:0,0:0:0:0:
128,128,256032,2,0,L|128:192,1,64
288,224,256166,2,0,L|208:224,3,64,8|0|0|0,0:0|0:0|0:0|0:0,0:0:0:0:
416,192,256432,6,0,L|496:192,1,64,8|0,0:0|0:0,0:0:0:0:
336,160,256566,2,0,L|256:160,1,64,8|0,0:0|0:0,0:0:0:0:
416,96,256699,1,8,0:0:0:0:
272,80,256766,2,0,L|240:80,2,32,2|0|0,0:0|0:0|0:0,0:0:0:0:
416,80,256899,1,0,0:0:0:0:
240,176,256966,5,2,0:0:0:0:
96,224,257032,2,0,L|160:224,1,64
304,240,257166,1,2,0:0:0:0:
160,288,257232,2,0,L|96:288,3,64,8|0|0|0,0:0|0:0|0:0|0:0,0:0:0:0:
240,256,257499,6,0,L|240:176,1,64,2|0,0:0|0:0,0:0:0:0:
384,240,257632,2,0,L|384:160,1,64,8|0,0:0|0:0,0:0:0:0:
240,112,257766,2,0,L|208:112,1,32,2|0,0:0|0:0,0:0:0:0:
432,112,257899,2,0,L|464:112,1,32,2|0,0:0|0:0,0:0:0:0:
240,176,258032,6,0,L|160:176,1,64,2|0,0:0|0:0,0:0:0:0:
320,144,258166,1,0,0:0:0:0:
176,112,258232,2,0,L|176:48,1,64,8|0,0:0|0:0,0:0:0:0:
320,48,258366,1,0,0:0:0:0:
464,32,258432,2,0,L|368:32,1,64,8|0,0:0|0:0,0:0:0:0:
256,48,258566,1,0,0:0:0:0:
400,96,258632,6,0,L|400:160,1,64,8|0,0:0|0:0,0:0:0:0:
336,160,258766,1,0,0:0:0:0:
496,128,258832,2,0,L|496:208,3,64,2|0|0|0,0:0|0:0|0:0|0:0,0:0:0:0:
256,320,259099,6,0,L|256:256,1,64,4|0,0:0|0:0,0:0:0:0:
416,224,259232,1,0,0:0:0:0:
256,208,259299,1,0,0:0:0:0:
96,208,259366,2,0,L|176:208,3,64,8|0|0|0,0:0|0:0|0:0|0:0,0:0:0:0:
352,160,259632,6,0,L|432:160,1,64,8|0,0:0|0:0,0:0:0:0:
256,160,259766,2,0,L|176:160,1,64,8|0,0:0|0:0,0:0:0:0:
336,144,259899,2,0,L|336:64,1,64,2|0,0:0|0:0,0:0:0:0:
480,128,260032,2,0,L|400:128,1,64,0|0,0:0|0:0,0:0:0:0:
256,208,260166,5,8,0:0:0:0:
112,208,260232,1,0,0:0:0:0:
256,208,260299,1,8,0:0:0:0:
112,208,260365,1,0,0:0:0:0:
256,288,260432,2,0,L|320:288,2,64,8|0|0,0:0|0:0|0:0,0:0:0:0:
112,288,260632,1,0,0:0:0:0:
256,240,260699,6,0,L|288:240,1,32,2|0,0:0|0:0,0:0:0:0:
176,192,260766,2,0,L|144:192,1,32
256,160,260832,2,0,L|336:160,1,64
320,96,260966,2,0,L|240:96,1,64,8|0,0:0|0:0,0:0:0:0:
96,96,261099,1,8,0:0:0:0:
256,96,261166,1,0,0:0:0:0:
432,96,261232,6,0,L|432:160,1,64,8|0,0:0|0:0,0:0:0:0:
256,144,261366,2,0,L|256:208,1,64,8|0,0:0|0:0,0:0:0:0:
80,240,261499,2,0,L|160:240,1,64,2|0,0:0|0:0,0:0:0:0:
320,240,261632,2,0,L|256:240,1,64
48,96,261766,6,0,L|48:160,1,64,8|0,0:0|0:0,0:0:0:0:
256,144,261900,2,0,L|256:208,1,64,8|0,0:0|0:0,0:0:0:0:
464,240,262033,2,0,L|384:240,1,64,2|0,0:0|0:0,0:0:0:0:
224,240,262166,2,0,L|288:240,1,64,0|0,0:0|0:0,0:0:0:0:
96,240,262299,6,0,L|32:240,1,64,8|0,0:0|0:0,0:0:0:0:
416,240,262432,2,0,P|480:192|396:51,1,256,2|0,0:0|0:0,0:0:0:0:
288,64,262832,2,0,L|288:144,1,64,0|0,0:0|0:0,0:0:0:0:
352,144,262966,1,0,0:0:0:0:
176,144,263032,2,0,L|176:224,1,64,2|0,0:0|0:0,0:0:0:0:
240,224,263166,1,0,0:0:0:0:
64,80,263232,2,0,L|64:160,1,64,2|0,0:0|0:0,0:0:0:0:
256,192,263366,5,4,0:0:0:0:
400,176,263432,1,0,0:0:0:0:
256,128,263499,1,0,0:0:0:0:
400,112,263566,1,0,0:0:0:0:
256,80,263632,2,0,L|224:80,1,32,8|0,0:0|0:0,0:0:0:0:
128,80,263699,2,0,L|96:80,1,32
256,80,263766,2,0,L|288:80,1,32,8|0,0:0|0:0,0:0:0:0:
400,80,263833,2,0,L|432:80,1,32
192,160,263899,6,0,L|128:160,1,64,8|0,0:0|0:0,0:0:0:0:
336,160,264032,2,0,L|400:160,1,64,8|0,0:0|0:0,0:0:0:0:
256,224,264166,1,2,0:0:0:0:
256,256,264199,1,0,0:0:0:0:
256,288,264232,1,0,0:0:0:0:
112,288,264299,2,0,L|80:288,2,32,8|0|0,0:0|0:0|0:0,0:0:0:0:
256,304,264432,6,0,L|400:304,1,128,8|8,0:0|0:0,0:0:0:0:
320,304,264632,1,8,0:0:0:0:
128,256,264699,2,0,L|208:256,2,64,2|0|0,0:0|0:0|0:0,0:0:0:0:
384,240,264966,6,0,L|464:240,1,64,8|0,0:0|0:0,0:0:0:0:
288,224,265099,2,0,L|352:224,1,64,2|0,0:0|0:0,0:0:0:0:
496,80,265232,1,8,0:0:0:0:
352,128,265299,1,0,0:0:0:0:
208,176,265366,1,0,0:0:0:0:
352,96,265432,1,0,0:0:0:0:
496,208,265499,5,2,0:0:0:0:
464,208,265532,1,0,0:0:0:0:
432,208,265565,1,0,0:0:0:0:
288,208,265632,2,0,L|288:176,2,32
144,224,265766,2,0,L|224:224,1,64,10|0,0:0|0:0,0:0:0:0:
416,320,265899,6,0,L|416:304,4,16,2|0|0|0|0,0:0|0:0|0:0|0:0|0:0,0:0:0:0:
272,320,266032,2,0,L|192:320,1,64
64,320,266166,2,0,L|144:320,1,64,8|0,0:0|0:0,0:0:0:0:
320,256,266299,6,0,L|240:256,1,64,2|0,0:0|0:0,0:0:0:0:
416,288,266432,2,0,L|480:288,1,64,0|0,0:0|0:0,0:0:0:0:
256,192,266566,6,0,L|256:128,1,64,8|0,0:0|0:0,0:0:0:0:
96,128,266699,1,0,0:0:0:0:
48,128,266732,1,0,0:0:0:0:
96,128,266766,1,0,0:0:0:0:
256,112,266832,2,0,L|320:112,1,64,8|0,0:0|0:0,0:0:0:0:
160,80,266966,1,0,0:0:0:0:
128,80,266999,1,0,0:0:0:0:
96,80,267032,1,0,0:0:0:0:
256,176,267099,6,0,L|320:176,2,64,8|0|8,0:0|0:0|0:0,0:0:0:0:
80,176,267299,1,0,0:0:0:0:
256,176,267366,1,2,0:0:0:0:
288,176,267399,1,0,0:0:0:0:
320,176,267432,1,0,0:0:0:0:
208,128,267466,2,0,L|112:128,1,96
304,208,267632,5,4,0:0:0:0:
381,209,267721,1,0,0:0:0:0:
304,208,267810,1,0,0:0:0:0:
96,288,267899,2,0,L|176:288,1,64,8|0,0:0|0:0,0:0:0:0:
352,288,268032,2,0,L|416:288,1,64,8|0,0:0|0:0,0:0:0:0:
96,224,268166,6,0,L|96:144,1,64,8|0,0:0|0:0,0:0:0:0:
256,160,268299,2,0,L|256:240,1,64,8|0,0:0|0:0,0:0:0:0:
416,224,268432,2,0,L|496:224,3,64,8|0|0|0,0:0|0:0|0:0|0:0,0:0:0:0:
304,176,268699,6,0,L|240:176,1,64,2|0,0:0|0:0,0:0:0:0:
304,176,268832,2,0,L|368:176,1,64,0|0,0:0|0:0,0:0:0:0:
208,128,268966,2,0,L|128:128,1,64,2|0,0:0|0:0,0:0:0:0:
304,112,269099,2,0,L|384:112,1,64,0|0,0:0|0:0,0:0:0:0:
160,64,269232,1,2,0:0:0:0:
240,64,269321,2,8,L|240:160,1,85.3333333333333
432,80,269499,1,2,0:0:0:0:
200,175,269588,2,8,L|270:226,1,85.3333333333333
80,288,269766,6,0,L|0:288,1,64,2|0,0:0|0:0,0:0:0:0:
176,288,269899,1,0,0:0:0:0:
336,288,269966,1,0,0:0:0:0:
496,288,270032,1,2,0:0:0:0:
176,288,270166,5,2,0:0:0:0:
16,288,270232,1,0,0:0:0:0:
176,288,270299,1,0,0:0:0:0:
336,288,270366,1,0,0:0:0:0:
496,288,270432,1,2,0:0:0:0:
256,288,270566,5,2,0:0:0:0:
16,288,270632,1,0,0:0:0:0:
176,288,270699,1,0,0:0:0:0:
336,288,270766,1,0,0:0:0:0:
496,288,270832,1,2,0:0:0:0:
336,288,270899,1,0,0:0:0:0:
96,224,270966,6,0,L|16:224,1,64
336,192,271099,2,0,L|432:192,1,64,8|0,0:0|0:0,0:0:0:0:
176,192,271232,2,0,L|96:192,1,64
272,144,271366,1,8,0:0:0:0:
326,116,271432,1,0,0:0:0:0:
331,55,271499,1,8,0:0:0:0:
281,20,271566,1,0,0:0:0:0:
96,48,271632,2,0,L|176:48,1,64,0|0,0:0|0:0,0:0:0:0:
96,48,271766,2,0,L|32:48,1,64,0|0,0:0|0:0,0:0:0:0:
208,112,271899,6,0,L|224:176,1,64,2|0,0:0|0:0,0:0:0:0:
291,172,272032,2,0,L|307:236,1,64,0|0,0:0|0:0,0:0:0:0:
480,256,272166,6,0,L|464:320,1,64,8|0,0:0|0:0,0:0:0:0:
400,318,272299,2,0,L|464:318,1,64,8|0,0:0|0:0,0:0:0:0:
288,320,272432,2,0,L|272:257,1,64
480,256,272566,6,0,L|464:320,1,64,8|0,0:0|0:0,0:0:0:0:
288,304,272699,2,0,L|352:304,1,64,8|0,0:0|0:0,0:0:0:0:
176,288,272832,2,0,L|160:224,1,64
333,199,272966,6,0,L|317:263,1,64,8|0,0:0|0:0,0:0:0:0:
160,240,273099,2,0,L|224:240,1,64,8|0,0:0|0:0,0:0:0:0:
64,240,273232,2,0,L|48:176,1,64
231,129,273366,6,0,L|215:193,1,64,8|0,0:0|0:0,0:0:0:0:
151,191,273499,2,0,L|215:191,1,64,8|0,0:0|0:0,0:0:0:0:
39,179,273632,2,0,L|23:115,1,64
168,108,273766,2,0,L|232:108,1,64,8|0,0:0|0:0,0:0:0:0:
168,108,273899,2,0,L|104:108,1,64
288,192,274032,6,0,L|304:112,1,64,2|0,0:0|0:0,0:0:0:0:
368,144,274166,2,0,L|384:64,1,64,2|0,0:0|0:0,0:0:0:0:
176,176,274299,6,0,L|192:240,1,64,8|0,0:0|0:0,0:0:0:0:
256,224,274432,2,0,L|272:288,1,64,8|0,0:0|0:0,0:0:0:0:
432,272,274566,2,0,L|416:336,1,64,0|0,0:0|0:0,0:0:0:0:
192,288,274699,6,0,L|176:350,1,64,8|0,0:0|0:0,0:0:0:0:
326,285,274832,2,0,L|342:221,1,64,8|0,0:0|0:0,0:0:0:0:
496,208,274966,2,0,L|480:144,1,64,0|0,0:0|0:0,0:0:0:0:
256,112,275099,6,0,L|336:112,1,64,8|0,0:0|0:0,0:0:0:0:
464,64,275232,2,0,L|384:64,1,64,8|0,0:0|0:0,0:0:0:0:
256,32,275366,2,0,L|336:32,1,64,0|0,0:0|0:0,0:0:0:0:
144,304,275499,6,0,L|48:304,1,64,8|0,0:0|0:0,0:0:0:0:
240,272,275632,2,0,L|416:272,1,170.666666666667
240,208,275899,2,0,L|128:208,2,85.3333333333333
32,176,276166,6,0,L|48:272,1,64,4|0,0:0|0:0,0:0:0:0:
192,240,276299,2,0,L|208:304,1,64,0|0,0:0|0:0,0:0:0:0:
352,176,276432,2,0,L|416:176,1,64,8|0,0:0|0:0,0:0:0:0:
240,176,276566,2,0,L|176:176,1,64,8|0,0:0|0:0,0:0:0:0:
400,112,276699,5,0,0:0:0:0:
288,96,276832,2,0,L|352:96,1,55.9999992879232,8|0,0:0|0:0,0:0:0:0:
192,96,276966,2,0,L|128:96,1,55.9999992879232,8|0,0:0|0:0,0:0:0:0:
288,96,277099,1,0,0:0:0:0:
496,96,277232,6,0,L|432:96,1,55.9999992879232,8|0,0:0|0:0,0:0:0:0:
288,64,277366,2,0,L|352:64,1,55.9999992879232,8|0,0:0|0:0,0:0:0:0:
192,64,277499,1,0,0:0:0:0:
304,176,277632,2,0,L|368:176,1,64,8|0,0:0|0:0,0:0:0:0:
208,176,277766,6,0,L|144:176,1,64,8|0,0:0|0:0,0:0:0:0:
432,304,277899,2,0,L|512:304,1,64,2|0,0:0|0:0,0:0:0:0:
320,320,278032,2,0,L|240:320,1,64,8|0,0:0|0:0,0:0:0:0:
80,288,278166,2,0,L|144:288,1,64
352,240,278299,5,2,0:0:0:0:
96,240,278432,2,0,L|96:176,1,64,8|0,0:0|0:0,0:0:0:0:
256,208,278566,2,0,L|256:144,1,64,8|0,0:0|0:0,0:0:0:0:
432,176,278699,2,0,L|352:176,1,64,2|0,0:0|0:0,0:0:0:0:
144,128,278832,6,0,L|64:128,1,64,8|0,0:0|0:0,0:0:0:0:
256,96,278966,2,0,L|336:96,1,64,0|0,0:0|0:0,0:0:0:0:
496,80,279099,1,8,0:0:0:0:
304,80,279188,1,0,0:0:0:0:
112,80,279277,1,0,0:0:0:0:
368,272,279366,5,8,0:0:0:0:
432,272,279432,1,0,0:0:0:0:
496,272,279499,1,0,0:0:0:0:
336,208,279566,1,8,0:0:0:0:
496,160,279632,1,0,0:0:0:0:
448,160,279699,1,0,0:0:0:0:
288,128,279766,1,8,0:0:0:0:
336,128,279832,1,0,0:0:0:0:
144,272,279899,5,8,0:0:0:0:
80,272,279965,1,0,0:0:0:0:
16,272,280032,1,0,0:0:0:0:
176,208,280099,1,8,0:0:0:0:
16,160,280166,1,0,0:0:0:0:
64,160,280233,1,0,0:0:0:0:
224,128,280300,1,8,0:0:0:0:
176,128,280366,1,0,0:0:0:0:
432,112,280432,6,0,L|496:112,1,64,8|0,0:0|0:0,0:0:0:0:
304,112,280566,1,0,0:0:0:0:
80,112,280632,2,0,L|16:112,1,64,8|0,0:0|0:0,0:0:0:0:
208,112,280766,1,0,0:0:0:0:
496,112,280832,5,4,0:3:0:0:
256,192,280966,12,0,283632,0:0:0:0:
