osu file format v14

[General]
AudioFilename: audio.mp3
AudioLeadIn: 0
PreviewTime: 210499
Countdown: 0
SampleSet: Soft
StackLeniency: 0.7
Mode: 2
LetterboxInBreaks: 0
WidescreenStoryboard: 1

[Editor]
DistanceSpacing: 0.9
BeatDivisor: 4
GridSize: 16
TimelineZoom: 2.8

[Metadata]
Title:finorza
TitleUnicode:⨍iиorzᾶ
Artist:Camellia feat. Nanahira
ArtistUnicode:かめりあ feat. ななひら
Creator:Rocma
Version:Cup
Source:
Tags:Xronial Xero Xroniàl Xéro cametek ft. utaite speedcore hardcore Electronic Japanese
BeatmapID:2642930
BeatmapSetID:1151836

[Difficulty]
HPDrainRate:3
CircleSize:3.3
OverallDifficulty:6.3
ApproachRate:6.3
SliderMultiplier:1.12
SliderTickRate:0.5

[Events]
//Background and Video events
0,0,"BGC.jpg",0,0
//Break Periods
2,149432,155695
//Storyboard Layer 0 (Background)
//Storyboard Layer 1 (Fail)
//Storyboard Layer 2 (Pass)
//Storyboard Layer 3 (Foreground)
//Storyboard Layer 4 (Overlay)
//Storyboard Sound Samples

[TimingPoints]
4166,266.666666666667,4,2,2,40,1,0
4166,-139.999944000022,4,2,2,40,0,0
27632,-100,4,2,2,60,0,0
28566,-160,4,2,2,50,0,0
30832,-160,4,2,2,40,0,0
34866,-160,4,2,2,40,0,0
35099,-160,4,2,2,40,0,0
39366,-100,4,1,2,60,0,0
40166,-100,4,1,2,40,0,0
41499,-100,4,1,2,60,0,0
42299,-100,4,1,2,40,0,0
43232,-100,4,1,2,60,0,0
64966,-100,4,2,2,40,0,0
69232,-100,4,1,2,60,0,0
73499,-100,4,2,2,40,0,0
77766,-100,4,1,2,60,0,0
106566,-100,4,2,2,40,0,0
110832,-100,4,2,2,50,0,0
111899,-100,4,2,2,60,0,0
115099,-100,4,1,2,60,0,0
116966,-100,4,1,2,80,0,0
117232,-100,4,1,2,60,0,0
122566,-100,4,1,2,40,0,0
123632,-100,4,1,2,60,0,0
130032,-100,4,1,2,50,0,0
132166,-100,4,1,2,60,0,0
136432,-100,4,1,2,50,0,0
140699,-100,4,1,2,60,0,0
148699,-100,4,1,2,50,0,0
148966,-100,4,1,2,40,0,0
156699,-100,4,2,2,40,0,0
158299,-160,4,2,2,40,0,0
166299,-100,4,1,2,60,0,0
167099,-100,4,1,2,40,0,0
168432,-100,4,1,2,60,0,0
169232,-100,4,1,2,40,0,0
170166,-100,4,1,2,60,0,0
177499,-100,4,1,2,40,0,0
186566,-100,4,1,2,60,0,0
187632,-100,4,1,2,50,0,0
191899,-100,4,1,2,60,0,0
196166,-100,4,1,2,50,0,0
200432,-100,4,1,2,60,0,0
211099,-100,4,1,2,40,0,0
215366,-100,4,1,2,60,0,1
228432,-100,4,3,2,80,0,1
243099,-100,4,1,2,60,0,0
254832,-100,4,3,2,80,0,1
280832,-100,4,2,2,60,0,0
280966,-100,4,2,2,40,0,0
281499,-100,4,2,2,30,0,0
282566,-100,4,2,2,20,0,0
283632,-100,4,2,2,10,0,0

[Colours]
Combo1 : 0,159,0
Combo2 : 140,140,140

[HitObjects]
256,352,4166,5,4,0:0:0:0:
96,320,4699,1,0,0:0:0:0:
64,192,5232,1,0,0:0:0:0:
96,320,5766,1,0,0:0:0:0:
256,352,6299,6,0,B|416:352|416:352|416:192|416:192|256:192,1,480.000209263484,2|2,0:0|0:0,0:0:0:0:
96,208,8432,1,8,0:0:0:0:
256,352,8966,5,2,0:0:0:0:
416,320,9499,1,0,0:0:0:0:
448,192,10032,1,0,0:0:0:0:
256,320,10566,6,0,B|96:320|96:320|416:320,1,480.000209263484,2|0,0:0|0:0,0:0:0:0:
256,160,12699,5,4,0:0:0:0:
48,192,13766,1,2,0:0:0:0:
256,240,14832,5,2,0:0:0:0:
352,208,15099,1,0,0:0:0:0:
400,112,15366,1,2,0:0:0:0:
352,208,15632,1,0,0:0:0:0:
256,240,15899,6,0,L|128:240,2,120,2|0|2,0:0|0:0|0:0,0:0:0:0:
352,240,16966,5,8,0:0:0:0:
144,192,18032,1,2,0:0:0:0:
336,144,18832,1,2,0:0:0:0:
432,192,19099,5,2,0:0:0:0:
464,288,19366,1,0,0:0:0:0:
432,192,19632,1,2,0:0:0:0:
336,144,19899,1,0,0:0:0:0:
208,144,20166,6,0,L|32:144,1,160,2|2,0:0|0:0,0:0:0:0:
256,160,21232,5,8,0:0:0:0:
464,192,22299,1,2,0:0:0:0:
256,240,23365,5,2,0:0:0:0:
160,208,23632,1,0,0:0:0:0:
112,112,23899,1,2,0:0:0:0:
160,208,24165,1,0,0:0:0:0:
256,240,24432,6,0,L|384:240,2,120,2|0|2,0:0|0:0|0:0,0:0:0:0:
160,240,25499,5,8,0:0:0:0:
368,192,26565,1,2,0:0:0:0:
192,160,27099,1,8,0:0:0:0:
416,160,27632,6,0,P|460:207|411:290,1,168,4|4,0:0|0:0,0:0:0:0:
176,320,28566,6,0,P|86:272|192:64,1,385,4|4,0:0|0:0,0:0:0:0:
256,64,30299,1,8,0:0:0:0:
416,96,30832,5,4,0:0:0:0:
240,112,31366,2,0,L|96:112,2,140,8|2|8,0:0|0:0|0:0,0:0:0:0:
432,128,32966,6,0,P|400:224|182:121,1,420,2|0,0:0|0:0,0:0:0:0:
256,112,34832,1,8,0:0:0:0:
336,96,35099,1,2,0:0:0:0:
176,80,35632,6,0,P|102:116|96:176,2,140,8|2|8,0:0|0:0|0:0,0:0:0:0:
320,80,37232,6,0,P|426:140|304:272,1,350,2|0,0:0|0:0,0:0:0:0:
208,224,38832,2,0,L|128:224,1,70,2|2,0:0|0:0,0:0:0:0:
256,288,39366,5,4,0:0:0:0:
368,272,39766,1,4,0:0:0:0:
208,96,41499,5,4,0:0:0:0:
64,112,41899,1,4,0:0:0:0:
288,112,43232,5,4,0:0:0:0:
368,192,43432,1,4,0:0:0:0:
288,272,43632,6,0,L|112:272,1,168,4|4,0:0|0:0,0:0:0:0:
288,112,44432,2,0,L|464:112,1,168,4|4,0:0|0:0,0:0:0:0:
288,208,45232,5,4,0:0:0:0:
208,288,45499,1,4,0:0:0:0:
256,192,45899,12,4,47632,0:0:0:0:
256,272,47899,5,4,0:0:0:0:
368,240,48166,1,4,0:0:0:0:
416,144,48432,1,4,0:0:0:0:
384,48,48699,1,4,0:0:0:0:
256,272,48966,5,4,0:0:0:0:
144,240,49233,1,4,0:0:0:0:
96,144,49499,1,4,0:0:0:0:
128,48,49766,1,4,0:0:0:0:
256,64,50032,5,4,0:0:0:0:
368,80,50299,1,4,0:0:0:0:
256,64,50566,1,4,0:0:0:0:
144,80,50832,1,4,0:0:0:0:
256,64,51099,5,4,0:0:0:0:
368,80,51366,1,4,0:0:0:0:
416,176,51632,2,0,L|409:245,1,56,4|4,0:0|0:0,0:0:0:0:
368,80,51899,1,4,0:0:0:0:
256,256,52166,5,4,0:0:0:0:
192,256,52299,1,4,0:0:0:0:
128,256,52432,1,4,0:0:0:0:
256,224,52699,1,4,0:0:0:0:
384,224,52966,1,4,0:0:0:0:
256,192,53232,5,4,0:0:0:0:
144,224,53499,1,4,0:0:0:0:
96,112,53766,1,4,0:0:0:0:
144,224,54032,1,4,0:0:0:0:
256,192,54299,6,0,L|368:192,1,112,4|0,0:0|0:0,0:0:0:0:
256,176,54832,2,0,L|128:176,1,112,4|0,0:0|0:0,0:0:0:0:
256,128,55366,2,0,P|361:253|244:325,1,336,4|2,0:0|0:0,0:0:0:0:
128,352,56432,5,4,0:0:0:0:
112,256,56699,1,4,0:0:0:0:
224,240,56966,1,4,0:0:0:0:
233,190,57099,1,4,0:0:0:0:
240,144,57233,1,4,0:0:0:0:
128,112,57499,5,4,0:0:0:0:
240,80,57766,1,4,0:0:0:0:
352,128,58032,1,4,0:0:0:0:
400,192,58232,1,4,0:0:0:0:
352,256,58432,1,4,0:0:0:0:
288,256,58566,5,4,0:0:0:0:
176,256,58832,1,4,0:0:0:0:
288,224,59099,1,4,0:0:0:0:
400,256,59366,1,4,0:0:0:0:
288,224,59632,5,4,0:0:0:0:
272,128,59899,1,4,0:0:0:0:
384,144,60166,1,4,0:0:0:0:
400,48,60433,1,8,0:0:0:0:
288,48,60699,5,4,0:0:0:0:
232,48,60832,1,4,0:0:0:0:
176,48,60965,1,4,0:0:0:0:
288,48,61232,1,4,0:0:0:0:
400,48,61499,1,4,0:0:0:0:
288,128,61766,6,0,L|176:128,1,112,4|4,0:0|0:0,0:0:0:0:
64,128,62299,2,0,L|176:128,1,112,4|4,0:0|0:0,0:0:0:0:
272,208,62832,6,0,L|464:208,1,168,4|4,0:0|0:0,0:0:0:0:
240,208,63632,2,0,B|71:209|71:209|64:128,1,224,4|8,0:0|0:0,0:0:0:0:
176,80,64432,1,4,0:0:0:0:
368,64,64966,5,8,0:0:0:0:
480,160,65499,1,8,0:0:0:0:
368,256,66032,2,0,L|144:256,1,224,8|8,0:0|0:0,0:0:0:0:
352,336,67099,6,0,P|448:288|342:141,1,336,8|4,0:0|0:0,0:0:0:0:
256,160,68166,1,8,0:0:0:0:
96,208,68566,1,4,0:0:0:0:
256,256,68966,1,8,0:0:0:0:
368,256,69232,5,4,0:0:0:0:
480,192,69632,1,4,0:0:0:0:
368,256,70032,1,4,0:0:0:0:
480,192,70432,1,4,0:0:0:0:
144,256,71366,5,4,0:0:0:0:
32,192,71766,1,4,0:0:0:0:
144,256,72166,1,4,0:0:0:0:
32,192,72566,1,4,0:0:0:0:
256,192,73499,5,8,0:0:0:0:
400,192,74032,1,8,0:0:0:0:
256,192,74566,2,0,L|32:192,1,224,8|8,0:0|0:0,0:0:0:0:
256,352,75632,6,0,P|336:336|464:128,1,336,8|4,0:0|0:0,0:0:0:0:
352,128,76699,1,8,0:0:0:0:
208,176,77099,1,4,0:0:0:0:
176,304,77499,1,4,0:0:0:0:
288,320,77766,5,4,0:0:0:0:
320,192,78166,1,4,0:0:0:0:
144,176,78566,1,4,0:0:0:0:
112,48,78966,1,4,0:0:0:0:
432,192,79899,5,4,0:0:0:0:
400,320,80299,1,4,0:0:0:0:
224,48,80699,1,4,0:0:0:0:
256,176,81099,1,4,0:0:0:0:
400,208,81499,1,2,0:0:0:0:
288,224,81766,1,2,0:0:0:0:
176,240,82032,5,4,0:0:0:0:
16,224,82432,1,4,0:0:0:0:
176,240,82832,1,4,0:0:0:0:
336,224,83232,1,4,0:0:0:0:
176,240,83632,6,0,L|176:16,1,224,4|0,0:0|0:0,0:0:0:0:
256,192,84432,12,4,86032,0:0:0:0:
176,336,86299,6,0,B|96:304|48:256|-21:180|48:96|96:48|176:16|176:16|416:272,1,784,4|4,0:0|0:0,0:0:0:0:
288,272,88432,6,0,L|272:144,1,112,4|4,0:0|0:0,0:0:0:0:
384,192,88966,2,0,L|400:64,1,112,4|4,0:0|0:0,0:0:0:0:
288,64,89499,2,0,P|208:80|176:160,2,168,4|0|4,0:0|0:0|0:0,0:0:0:0:
400,64,90566,6,0,B|400:192|325:277|224:352|112:352|112:352|448:272,1,784,4|4,0:0|0:0,0:0:0:0:
320,224,92699,6,0,L|192:224,1,112,4|4,0:0|0:0,0:0:0:0:
320,192,93232,2,0,L|432:192,1,112,4|4,0:0|0:0,0:0:0:0:
320,128,93766,6,0,B|96:128,1,224,4|0,0:0|0:0,0:0:0:0:
320,160,94832,6,0,P|278:251|16:160,1,448,4|4,0:0|0:0,0:0:0:0:
176,160,96299,1,4,0:0:0:0:
192,64,96566,1,6,0:0:0:0:
16,48,96966,6,0,P|192:64|336:288,1,448,4|4,0:0|0:0,0:0:0:0:
256,304,98232,1,4,0:0:0:0:
176,288,98432,1,4,0:0:0:0:
288,256,98699,1,4,0:0:0:0:
160,208,99099,6,0,B|48:208|48:208|176:208,1,224,4|4,0:0|0:0,0:0:0:0:
352,208,100166,2,0,B|464:208|464:208|336:208,1,224,4|4,0:0|0:0,0:0:0:0:
160,320,101232,6,0,L|336:320,1,168,4|4,0:0|0:0,0:0:0:0:
128,320,102166,2,0,P|74:288|141:116,1,280,4|2,0:0|0:0,0:0:0:0:
352,320,103366,6,0,L|176:320,1,168,4|4,0:0|0:0,0:0:0:0:
384,320,104300,6,0,P|438:288|192:144,1,616,4|2,0:0|0:0,0:0:0:0:
320,160,106032,2,0,P|368:176|320:304,1,224,2|4,0:0|0:0,0:0:0:0:
144,320,107099,5,0,0:0:0:0:
80,224,107366,1,8,0:0:0:0:
144,128,107632,1,0,0:0:0:0:
368,128,108166,1,8,0:0:0:0:
144,192,108699,6,0,P|48:240|16:352,1,224,8|8,0:0|0:0,0:0:0:0:
240,208,109766,2,0,P|336:256|368:368,1,224,8|8,0:0|0:0,0:0:0:0:
144,368,110832,5,4,0:0:0:0:
256,352,111099,1,4,0:0:0:0:
352,288,111366,1,4,0:0:0:0:
384,176,111632,1,4,0:0:0:0:
352,288,111899,5,4,0:0:0:0:
256,352,112166,1,4,0:0:0:0:
144,368,112432,1,4,0:0:0:0:
16,368,112699,1,4,0:0:0:0:
256,192,113099,12,4,114832,0:0:0:0:
208,192,115099,6,0,P|128:208|64:336,1,224,8|8,0:0|0:0,0:0:0:0:
160,352,115899,1,8,0:0:0:0:
272,336,116166,6,0,L|384:336,2,112,8|8|8,0:0|0:0|0:0,0:0:0:0:
144,336,116966,1,4,0:3:0:0:
256,288,117232,6,0,L|384:288,1,112,8|8,0:0|0:0,0:0:0:0:
480,224,117766,1,8,0:0:0:0:
424,224,117899,1,8,0:0:0:0:
368,224,118032,1,8,0:0:0:0:
256,224,118299,6,0,L|128:224,1,112,8|4,0:0|0:3,0:0:0:0:
256,160,118832,1,8,0:0:0:0:
312,160,118965,1,8,0:0:0:0:
368,160,119098,1,8,0:0:0:0:
256,96,119366,6,0,P|196:127|260:234,1,224,2|8,0:0|0:0,0:0:0:0:
384,240,120166,1,8,0:0:0:0:
256,240,120432,5,8,0:0:0:0:
144,240,120699,1,8,0:0:0:0:
256,240,120966,1,8,0:0:0:0:
384,240,121232,6,0,L|384:112,1,112,8|8,0:0|0:0,0:0:0:0:
304,80,121677,1,8,0:0:0:0:
224,128,121854,1,8,0:0:0:0:
192,208,122032,5,8,0:0:0:0:
304,208,122299,1,8,0:0:0:0:
192,336,122566,6,0,P|128:336|204:181,1,336,2|4,0:0|0:0,0:0:0:0:
320,176,123632,6,0,L|448:176,1,112,4|8,0:0|0:0,0:0:0:0:
320,128,124166,2,0,L|192:128,1,112,4|8,0:0|0:0,0:0:0:0:
96,176,124699,2,0,L|208:176,1,112,4|8,0:0|0:0,0:0:0:0:
320,224,125232,2,0,L|208:224,1,112,4|8,0:0|0:0,0:0:0:0:
96,256,125766,6,0,P|153:139|381:272,1,448,4|4,0:0|0:0,0:0:0:0:
272,288,127099,1,8,0:0:0:0:
384,304,127366,1,8,0:0:0:0:
496,320,127632,1,8,0:0:0:0:
384,352,127899,6,0,L|272:352,1,112,4|4,0:0|0:0,0:0:0:0:
160,320,128432,2,0,L|272:320,1,112,4|8,0:0|0:0,0:0:0:0:
160,288,128966,2,0,L|32:288,1,112,8|4,0:0|0:0,0:0:0:0:
160,240,129499,2,0,L|272:240,1,112,8|8,0:0|0:0,0:0:0:0:
400,224,130032,6,0,P|442:199|384:112,1,168,8|4,0:0|0:0,0:0:0:0:
240,176,130832,2,0,P|198:151|256:64,1,168,4|4,0:0|0:0,0:0:0:0:
320,64,131432,1,4,0:0:0:0:
400,64,131632,1,4,0:0:0:0:
192,144,132166,6,0,L|64:144,1,112,4|4,0:0|0:0,0:0:0:0:
192,144,132699,2,0,L|368:144,1,168,8|4,0:0|0:0,0:0:0:0:
304,144,133232,6,0,L|64:144,1,224,8|8,0:0|0:0,0:0:0:0:
240,144,134166,1,4,0:0:0:0:
304,144,134299,6,0,P|384:176|448:304,1,224,8|8,0:0|0:0,0:0:0:0:
272,320,135232,1,4,0:0:0:0:
208,320,135366,6,0,P|144:288|224:192,1,224,8|8,0:0|0:0,0:0:0:0:
317,176,136166,1,8,0:0:0:0:
432,208,136432,6,0,L|432:32,1,168,4|4,0:0|0:0,0:0:0:0:
256,48,137232,1,4,0:0:0:0:
144,288,137499,6,0,L|144:64,1,224,8|0,0:0|0:0,0:0:0:0:
256,64,138299,1,4,0:0:0:0:
368,64,138566,6,0,L|496:64,1,112,8|4,0:0|0:0,0:0:0:0:
368,64,139099,2,0,L|256:64,1,112,8|8,0:0|0:0,0:0:0:0:
144,80,139632,6,0,P|79:127|103:276,1,224,8|0,0:0|0:0,0:0:0:0:
320,144,140699,6,0,L|448:144,1,112,4|8,0:0|0:0,0:0:0:0:
320,144,141232,2,0,L|144:144,1,168,4|8,0:0|0:0,0:0:0:0:
208,144,141765,6,0,L|448:144,1,224,4|8,0:0|0:0,0:0:0:0:
272,144,142699,1,4,0:0:0:0:
208,144,142832,6,0,P|128:176|64:304,1,224,8|8,0:0|0:0,0:0:0:0:
240,320,143765,1,0,0:0:0:0:
304,320,143899,6,0,P|368:288|288:192,1,224,8|8,0:0|0:0,0:0:0:0:
176,176,144699,1,8,0:0:0:0:
304,240,144965,6,0,L|304:64,1,168,4|4,0:0|0:0,0:0:0:0:
128,64,145765,1,4,0:0:0:0:
240,80,146032,2,0,L|416:80,1,168,8|4,0:0|0:0,0:0:0:0:
288,80,146832,1,0,0:0:0:0:
176,80,147099,5,8,0:0:0:0:
336,128,147499,1,8,0:0:0:0:
176,176,147899,1,8,0:0:0:0:
288,160,148166,6,0,P|353:207|272:304,1,224,8|4,0:0|0:0,0:0:0:0:
64,272,149232,5,4,0:0:0:0:
256,192,156699,12,4,157766,0:0:0:0:
272,112,158299,6,0,L|416:112,2,140,8|2|8,0:0|0:0|0:0,0:0:0:0:
80,128,159899,6,0,P|112:224|330:121,1,420,2|0,0:0|0:0,0:0:0:0:
256,112,161765,1,8,0:0:0:0:
176,96,162032,1,2,0:0:0:0:
336,80,162565,6,0,P|410:116|416:176,2,140,8|2|8,0:0|0:0|0:0,0:0:0:0:
192,80,164165,6,0,P|86:140|208:272,1,350,2|0,0:0|0:0,0:0:0:0:
304,224,165765,2,0,L|384:224,1,70,0|2,0:0|0:0,0:0:0:0:
256,288,166299,5,4,0:0:0:0:
144,272,166699,1,4,0:0:0:0:
304,96,168432,5,4,0:0:0:0:
448,112,168832,1,4,0:0:0:0:
224,112,170165,5,4,0:0:0:0:
144,192,170365,1,4,0:0:0:0:
224,272,170566,6,0,P|304:240|320:160,1,168,4|4,0:0|0:0,0:0:0:0:
160,96,171366,2,0,P|80:128|64:208,1,168,4|4,0:0|0:0,0:0:0:0:
224,208,172165,5,4,0:0:0:0:
304,288,172432,1,4,0:0:0:0:
160,320,172699,5,4,0:0:0:0:
16,320,173099,1,4,0:0:0:0:
160,320,173499,1,4,0:0:0:0:
304,320,173899,1,4,0:0:0:0:
432,288,174299,5,4,0:0:0:0:
320,288,174566,1,4,0:0:0:0:
208,272,174832,6,0,L|32:272,1,168,4|4,0:0|0:0,0:0:0:0:
208,160,175632,2,0,L|384:160,1,168,4|4,0:0|0:0,0:0:0:0:
208,80,176432,1,4,0:0:0:0:
96,80,176699,1,4,0:0:0:0:
208,160,176966,5,4,0:0:0:0:
256,160,177099,1,4,0:0:0:0:
432,160,177499,6,0,P|416:224|272:304,2,224,8|4|8,0:0|0:0|0:0,0:0:0:0:
240,160,179099,6,0,L|19:251,2,224,4|8|4,0:0|0:0|0:0,0:0:0:0:
432,176,180699,1,2,0:0:0:0:
256,368,181232,6,0,P|71:271|278:12,1,616,2|2,0:0|0:0,0:0:0:0:
320,16,182832,6,0,P|400:64|432:144,1,168,2|2,0:0|0:0,0:0:0:0:
368,176,183366,6,0,B|151:130|151:130|35:184,1,336,2|2,0:0|0:0,0:0:0:0:
176,192,184432,6,0,B|393:146|393:146|509:200,1,336,8|2,0:0|0:0,0:0:0:0:
256,192,185499,12,4,186566,0:0:0:0:
288,272,186966,5,4,0:0:0:0:
224,272,187099,2,0,L|208:144,1,112,4|8,0:0|0:0,0:0:0:0:
352,128,187632,5,4,0:0:0:0:
448,192,187899,1,2,0:0:0:0:
352,256,188166,1,0,0:0:0:0:
256,320,188432,1,2,0:0:0:0:
352,352,188699,6,0,P|416:336|432:288,1,112,4|2,0:0|0:0,0:0:0:0:
320,288,189232,2,0,P|256:272|240:224,1,112,0|2,0:0|0:0,0:0:0:0:
352,224,189766,6,0,P|416:192|334:96,1,224,4|2,0:0|0:0,0:0:0:0:
240,112,190566,1,2,0:0:0:0:
128,128,190832,2,0,P|64:160|16:256,2,168,4|4|2,0:0|0:0|0:0,0:0:0:0:
256,128,191899,5,4,0:0:0:0:
400,128,192299,1,4,0:0:0:0:
256,128,192699,1,4,0:0:0:0:
112,128,193099,1,4,0:0:0:0:
400,304,194032,5,4,0:0:0:0:
256,304,194432,1,4,0:0:0:0:
112,304,194832,1,4,0:0:0:0:
256,304,195232,1,4,0:0:0:0:
384,272,195632,2,0,L|272:208,1,112,2|2,0:0|0:0,0:0:0:0:
160,128,196166,5,4,0:0:0:0:
64,192,196433,1,2,0:0:0:0:
160,256,196700,1,0,0:0:0:0:
256,320,196966,1,2,0:0:0:0:
160,352,197233,6,0,P|96:336|80:288,1,112,4|2,0:0|0:0,0:0:0:0:
192,288,197766,2,0,P|256:272|272:224,1,112,0|2,0:0|0:0,0:0:0:0:
160,224,198300,6,0,P|96:192|178:96,1,224,4|0,0:0|0:0,0:0:0:0:
272,112,199100,1,2,0:0:0:0:
384,128,199366,2,0,P|448:160|496:256,2,168,4|0|2,0:0|0:0|0:0,0:0:0:0:
256,128,200433,5,4,0:0:0:0:
112,128,200833,1,4,0:0:0:0:
256,128,201233,1,4,0:0:0:0:
400,128,201633,1,4,0:0:0:0:
112,304,202566,5,4,0:0:0:0:
256,304,202966,1,4,0:0:0:0:
400,304,203366,1,4,0:0:0:0:
256,304,203766,1,4,0:0:0:0:
112,304,204166,1,4,0:0:0:0:
224,304,204432,1,2,0:0:0:0:
352,304,204699,5,4,0:0:0:0:
496,288,205099,1,4,0:0:0:0:
352,304,205499,1,4,0:0:0:0:
496,288,205899,1,4,0:0:0:0:
336,256,206299,1,4,0:0:0:0:
224,240,206566,1,4,0:0:0:0:
112,224,206832,5,4,0:0:0:0:
256,208,207232,1,4,0:0:0:0:
112,224,207632,1,4,0:0:0:0:
256,208,208032,1,4,0:0:0:0:
416,192,208432,1,4,0:0:0:0:
496,160,208699,1,4,0:0:0:0:
256,192,208966,12,2,211099,0:0:0:0:
256,192,212166,5,0,0:0:0:0:
256,192,213232,1,0,0:0:0:0:
256,192,214299,2,0,L|448:192,2,168,2|2|8,0:0|0:0|0:0,0:0:0:0:
128,192,215366,6,0,B|136:294|200:339|277:357|359:337|414:301|416:192|416:192|208:96,1,672,4|4,0:0|0:0,0:0:0:0:
96,80,217232,1,4,0:0:0:0:
208,80,217499,6,0,L|320:80,1,112,4|8,0:0|0:0,0:0:0:0:
208,80,218032,2,0,L|96:80,1,112,4|8,0:0|0:0,0:0:0:0:
208,128,218566,2,0,P|272:144|352:272,1,224,4|0,0:0|0:0,0:0:0:0:
128,352,219632,6,0,P|160:240|448:80,1,448,4|4,0:0|0:0,0:0:0:0:
429,79,220832,1,4,0:0:0:0:
320,176,221099,1,4,0:0:0:0:
208,208,221366,1,4,0:0:0:0:
368,288,221766,6,0,L|480:288,1,112,4|8,0:0|0:0,0:0:0:0:
368,288,222299,2,0,L|256:288,1,112,4|8,0:0|0:0,0:0:0:0:
128,288,222832,6,0,P|144:224|240:176,1,168,4|4,0:0|0:0,0:0:0:0:
368,192,223499,1,4,0:0:0:0:
208,144,223899,6,0,L|80:144,1,112,4|8,0:0|0:0,0:0:0:0:
208,144,224432,2,0,L|336:144,1,112,4|8,0:0|0:0,0:0:0:0:
432,176,224966,2,0,L|320:176,1,112,4|8,0:0|0:0,0:0:0:0:
208,176,225499,1,8,0:0:0:0:
448,272,226032,5,4,0:0:0:0:
304,240,226432,1,4,0:0:0:0:
160,272,226832,1,4,0:0:0:0:
304,240,227232,1,4,0:0:0:0:
160,208,227632,6,0,L|32:208,1,112,0|8,0:0|0:0,0:0:0:0:
160,256,228166,6,0,B|160:368|160:368|251:369|351:370|368:274|367:179|367:179|144:175|144:175|368:175|368:175|438:172|461:135|464:80|432:48|368:48|368:48|302:52|276:87|281:138|304:176|368:176,1,1344,4|8,0:0|0:0,0:0:0:0:
480,224,231899,1,2,0:0:0:0:
352,352,232432,6,0,B|272:352|224:336|166:203|224:96|272:80|368:80|368:80|240:64|129:92|75:198|96:336,1,896,4|2,0:0|0:0,0:0:0:0:
240,320,235099,1,2,0:0:0:0:
416,320,235632,6,0,P|464:272|403:203,1,168,2|2,0:0|0:0,0:0:0:0:
320,192,236232,2,0,L|112:192,1,196,2|0,0:0|0:0,0:0:0:0:
240,176,236966,1,4,0:0:0:0:
368,160,237232,6,0,P|442:205|368:288,1,224,2|8,0:0|0:0,0:0:0:0:
192,272,238166,1,8,0:0:0:0:
80,224,238432,1,8,0:0:0:0:
272,64,238832,6,0,B|352:64|400:96|504:203|400:304|352:336|272:336|272:336|16:96,1,784,2|0,0:0|0:0,0:0:0:0:
208,80,241232,5,8,0:0:0:0:
320,64,241499,2,0,P|384:80|464:224,2,224,2|2|8,0:0|0:0|0:0,0:0:0:0:
96,64,243099,6,0,P|112:144|208:160,1,168,4|8,0:0|0:0,0:0:0:0:
384,96,244032,2,0,P|480:144|377:344,1,392,4|12,0:0|0:0,0:0:0:0:
256,352,245232,6,0,P|272:288|368:256,1,168,4|8,0:0|0:0,0:0:0:0:
496,208,246166,2,0,L|208:208,1,280,4|8,0:0|0:0,0:0:0:0:
32,224,247366,6,0,P|48:288|144:320,1,168,4|4,0:0|0:0,0:0:0:0:
320,304,248299,2,0,P|224:304|64:64,1,392,4|8,0:0|0:0,0:0:0:0:
176,96,249499,6,0,L|368:96,1,168,4|4,0:0|0:0,0:0:0:0:
160,80,250432,6,0,P|113:118|352:80,1,1008,8|0,0:0|0:0,0:0:0:0:
256,192,253232,12,4,254566,0:0:0:0:
256,224,254832,5,4,0:0:0:0:
144,192,255099,1,8,0:0:0:0:
112,80,255366,1,8,0:0:0:0:
144,192,255633,1,8,0:0:0:0:
256,224,255899,5,2,0:0:0:0:
368,208,256166,1,8,0:0:0:0:
256,224,256432,1,8,0:0:0:0:
144,208,256699,1,8,0:0:0:0:
256,224,256966,6,0,L|256:96,1,112,2|8,0:0|0:0,0:0:0:0:
160,176,257499,2,0,L|160:48,1,112,2|2,0:0|0:0,0:0:0:0:
256,96,258032,5,2,0:0:0:0:
352,128,258232,1,8,0:0:0:0:
384,224,258432,1,8,0:0:0:0:
352,320,258632,1,8,0:0:0:0:
256,352,258832,2,0,L|144:352,1,112,2|4,0:0|0:0,0:0:0:0:
32,272,259366,5,8,0:0:0:0:
144,224,259632,1,8,0:0:0:0:
256,176,259899,1,2,0:0:0:0:
144,160,260166,6,0,L|32:160,1,112,8|8,0:0|0:0,0:0:0:0:
144,112,260699,2,0,L|272:112,1,112,2|8,0:0|0:0,0:0:0:0:
368,112,261232,6,0,L|368:240,1,112,8|2,0:0|0:0,0:0:0:0:
256,176,261766,2,0,L|256:304,1,112,8|2,0:0|0:0,0:0:0:0:
144,128,262299,5,8,0:0:0:0:
64,160,262432,2,0,L|64:352,1,168,2|0,0:0|0:0,0:0:0:0:
256,336,263366,6,0,L|496:336,1,224,4|8,0:0|0:0,0:0:0:0:
368,336,264166,1,2,0:0:0:0:
256,336,264432,2,0,L|16:336,1,224,8|8,0:0|0:0,0:0:0:0:
256,320,265499,6,0,P|398:179|256:32,1,448,2|8,0:0|0:0,0:0:0:0:
176,80,266832,1,8,0:0:0:0:
288,128,267099,1,8,0:0:0:0:
400,176,267366,1,2,0:0:0:0:
288,208,267632,6,0,L|288:320,1,112,4|8,0:0|0:0,0:0:0:0:
176,304,268166,2,0,L|176:192,1,112,8|8,0:0|0:0,0:0:0:0:
64,272,268699,2,0,L|64:160,1,112,2|2,0:0|0:0,0:0:0:0:
176,224,269232,2,0,L|176:96,1,112,2|2,0:0|0:0,0:0:0:0:
64,256,269766,6,0,P|121:141|448:272,1,560,2|8,0:0|0:0,0:0:0:0:
336,288,271366,1,8,0:0:0:0:
128,336,271899,6,0,B|128:112|128:112|352:112|352:112|352:336,1,672,2|8,0:0|0:0,0:0:0:0:
240,336,273766,1,8,0:0:0:0:
352,336,274032,6,0,B|464:336|464:336|464:224,1,224,2|0,0:0|0:0,0:0:0:0:
352,224,274832,1,8,0:0:0:0:
240,224,275099,6,0,L|64:224,2,168,8|8|0,0:0|0:0|0:0,0:0:0:0:
352,208,276166,6,0,P|336:288|208:352,1,224,4|0,0:0|0:0,0:0:0:0:
112,336,276966,1,8,0:0:0:0:
208,304,277232,6,0,L|384:304,2,168,8|8|8,0:0|0:0|0:0,0:0:0:0:
96,288,278299,6,0,P|48:272|108:150,1,224,2|8,0:0|0:0,0:0:0:0:
208,144,279099,1,8,0:0:0:0:
320,144,279366,6,0,P|389:174|380:273,1,168,8|8,0:0|0:0,0:0:0:0:
336,272,279899,2,0,L|160:272,1,168,8|8,0:0|0:0,0:0:0:0:
119,258,280432,2,0,P|120:178|160:160,1,112,8|0,0:0|0:0,0:0:0:0:
208,144,280832,1,4,0:3:0:0:
256,192,281099,12,0,283632,0:0:0:0:
