osu file format v14

[General]
AudioFilename: finorza.ogg
AudioLeadIn: 0
PreviewTime: 210032
Countdown: 0
SampleSet: Normal
StackLeniency: 0.7
Mode: 1
LetterboxInBreaks: 0
WidescreenStoryboard: 0

[Editor]
Bookmarks: 4166,30832,47899,64966,86299,106566,115099,132166,149232,157766,187632,215366
DistanceSpacing: 0.9
BeatDivisor: 6
GridSize: 32
TimelineZoom: 3.499999

[Metadata]
Title:finorza
TitleUnicode:⨍iиorzᾶ
Artist:Camellia feat. Nanahira
ArtistUnicode:かめりあ feat. ななひら
Creator:Ph0eNiiXZ
Version:finale
Source:
Tags:electronic japanese phoeniixz phoenix xronial xero xroniàl xéro cametek ft. utaite speedcore hardcore
BeatmapID:3549964
BeatmapSetID:1736881

[Difficulty]
HPDrainRate:4
CircleSize:2
OverallDifficulty:7
ApproachRate:10
SliderMultiplier:1.4
SliderTickRate:1

[Events]
//Background and Video events
0,0,"bg.jpg",0,75
//Break Periods
//Storyboard Layer 0 (Background)
//Storyboard Layer 1 (Fail)
//Storyboard Layer 2 (Pass)
//Storyboard Layer 3 (Foreground)
//Storyboard Layer 4 (Overlay)
//Storyboard Sound Samples

[TimingPoints]
-127,266.666666666667,4,1,0,30,1,0
-127,-200,4,1,0,30,0,0
3873,-200,4,1,0,60,0,0
4139,-133.333333333333,4,1,0,60,0,0
4406,-200,4,1,0,30,0,0
7606,-200,4,1,0,60,0,0
8673,-200,4,1,0,30,0,0
11605,-133.333333333333,4,1,0,30,0,0
12672,-200,4,1,0,60,0,0
27339,-83.3333333333333,4,1,0,100,0,0
28606,-33.3333333333333,4,1,0,40,0,0
28673,-133.333333333333,4,1,0,40,0,0
29739,-133.333333333333,4,1,0,40,0,0
30539,-133.333333333333,4,1,0,60,0,0
38539,-133.333333333333,4,1,0,60,0,0
38672,-111.157426705572,4,1,0,80,0,0
38872,-106.68800426752,4,1,0,80,0,0
38939,-102.564102564103,4,1,0,80,0,0
39005,-98.8020254415216,4,1,0,80,0,0
39072,-95.2551050782878,4,1,0,80,0,0
39139,-91.9540229885058,4,1,0,80,0,0
39205,-88.918528398355,4,1,0,80,0,0
39272,-86.0353820508684,4,1,0,80,0,0
39339,-83.3333333333333,4,1,0,80,0,0
39939,-83.3556448014279,4,1,0,80,0,0
40006,-88.0716643092881,4,1,0,60,0,0
40272,-91.5147952184989,4,1,0,60,0,0
40405,-95.2380952380952,4,1,0,60,0,0
40539,-99.3088782562467,4,1,0,60,0,0
40605,-101.444553057456,4,1,0,60,0,0
40672,-103.708638685321,4,1,0,60,0,0
40805,-108.516323922389,4,1,0,60,0,0
40872,-111.111111111111,4,1,0,60,0,0
40939,-113.833028641073,4,1,0,60,0,0
41072,-119.651550089675,4,1,0,60,0,0
41205,-126.096935331443,4,1,0,60,0,0
41272,-129.614210380239,4,1,0,60,0,0
41339,-133.333333333333,4,1,0,60,0,0
41406,-83.3333333333333,4,1,0,90,0,0
42072,-83.3333333333333,4,1,0,90,0,0
42139,-88.495575221239,4,1,0,60,0,0
42405,-92.2977525497254,4,1,0,60,0,0
42539,-96.473879697072,4,1,0,60,0,0
42672,-101.010101010101,4,1,0,60,0,0
42805,-105.993958344374,4,1,0,60,0,0
42872,-108.695652173913,4,1,0,60,0,0
42939,-111.538676035916,4,1,0,60,0,0
43072,-117.647058823529,4,1,0,60,0,0
43139,-83.3333333333333,4,1,0,100,0,0
43605,-100,4,1,0,100,0,0
43672,-99.066895687294,4,1,0,100,0,0
43739,-98.1510440621838,4,1,0,100,0,0
43805,-97.2652689152233,4,1,0,100,0,0
44005,-94.6761313220941,4,1,0,100,0,0
44072,-93.8393210500857,4,1,0,100,0,0
44139,-93.017173742481,4,1,0,100,0,0
44205,-92.2212618841832,4,1,0,100,0,0
44405,-89.8904802021904,4,1,0,100,0,0
44472,-89.1357921557161,4,1,0,100,0,0
44539,-88.3936707812112,4,1,0,100,0,0
44605,-87.6746096959737,4,1,0,100,0,0
44672,-86.9565217391304,4,1,0,100,0,0
44805,-85.5653568564555,4,1,0,100,0,0
44872,-84.8812696392347,4,1,0,100,0,0
44939,-84.2080340935996,4,1,0,100,0,0
45005,-83.5552075176194,4,1,0,100,0,0
45205,-81.637337413925,4,1,0,100,0,0
45294,-80.8119059340326,4,1,0,100,0,0
45383,-80.0029991752268,4,1,0,100,0,0
45472,-79.2101258305185,4,1,0,100,0,0
45561,-78.4328138782711,4,1,0,100,0,0
45650,-77.6706096451319,4,1,0,100,0,0
45695,-76.9230769230769,4,1,0,40,0,0
46738,-125,4,1,0,60,0,0
47539,-71.4285714285714,4,1,0,100,0,0
47873,-90.9090909090909,4,1,0,100,0,1
54273,-76.9230769230769,4,1,0,100,0,0
54538,-90.9090909090909,4,1,0,100,0,0
54805,-76.9230769230769,4,1,0,100,0,0
55072,-90.9090909090909,4,1,0,100,0,0
55272,-76.9230769230769,4,1,0,80,0,0
56338,-90.9090909090909,4,1,0,100,0,0
56406,-90.9090909090909,4,1,0,100,0,1
60672,-76.9526002686624,4,1,0,100,0,1
60805,-81.0920121334681,4,1,0,100,0,1
60939,-85.7020730925411,4,1,0,100,0,1
61072,-90.9090909090909,4,1,0,100,0,1
62805,-90.9090909090909,4,1,0,100,0,1
62939,-88.8938274348575,4,1,0,100,0,1
63005,-87.9120879120879,4,1,0,100,0,1
63072,-86.9517960980381,4,1,0,100,0,1
63205,-85.1063829787234,4,1,0,100,0,1
63339,-83.337673837179,4,1,0,100,0,1
63405,-82.4742268041237,4,1,0,100,0,1
63472,-81.6284883424315,4,1,0,100,0,1
63605,-80,4,1,0,100,0,1
63872,-100,4,1,0,100,0,1
63939,-98.1459274974633,4,1,0,100,0,1
64005,-96.3855421686747,4,1,0,100,0,1
64072,-94.6619217081851,4,1,0,100,0,1
64138,-93.0232558139535,4,1,0,100,0,1
64539,-112.671594508976,4,1,0,100,0,1
64605,-115.114899126119,4,1,0,100,0,1
64672,-117.666519629466,4,1,0,100,0,1
64739,-120.293122886133,4,1,0,100,0,1
64805,-123.082247087323,4,1,0,100,0,1
64872,-126.003778932452,4,1,0,100,0,1
64938,-125.970307842153,4,1,0,100,0,1
64939,-129.020556227328,4,1,0,100,0,0
65072,-142.857142857143,4,1,0,80,0,0
68539,-142.857142857143,4,1,0,80,0,0
68672,-111.148197596796,4,1,0,100,0,0
68939,-99.9699789852897,4,1,0,100,0,0
69072,-90.8966834993858,4,1,0,100,0,0
69205,-83.3333333333333,4,1,0,100,0,0
70605,-83.3333333333333,4,1,0,100,0,0
70805,-88.8859275053305,4,1,0,100,0,0
70939,-93.0394755195983,4,1,0,100,0,0
71072,-97.5645432604403,4,1,0,100,0,0
71139,-100.014994751837,4,1,0,100,0,0
71205,-102.552275522755,4,1,0,100,0,0
71272,-105.263157894737,4,1,0,100,0,0
71338,-83.3333333333333,4,1,0,100,0,0
72739,-83.3680700291788,4,1,0,100,0,0
72939,-90.9504320145521,4,1,0,100,0,0
73027,-94.7418285172904,4,1,0,100,0,0
73116,-98.9119683481701,4,1,0,100,0,0
73205,-103.466114847388,4,1,0,100,0,0
73294,-108.459869848156,4,1,0,100,0,0
73383,-113.960113960114,4,1,0,100,0,0
73472,-120.048019207683,4,1,0,100,0,0
73606,-100,4,1,0,80,0,0
73738,-142.857142857143,4,1,0,80,0,0
76672,-142.857142857143,4,1,0,80,0,0
76939,-112.683493505122,4,1,0,100,0,0
77139,-108.833129334965,4,1,0,100,0,0
77205,-105.289125715414,4,1,0,100,0,0
77339,-98.7597186227323,4,1,0,100,0,0
77472,-93.0333943674252,4,1,0,100,0,0
77539,-90.3930870891223,4,1,0,100,0,0
77605,-87.9347288610516,4,1,0,100,0,0
77672,-85.5722191033764,4,1,0,100,0,0
77739,-83.3333333333333,4,1,0,100,0,0
84095,-83.3333333333333,4,1,0,40,0,0
85139,-125,4,1,0,60,0,0
85939,-71.4285714285714,4,1,0,100,0,0
86273,-90.9090909090909,4,1,0,100,0,1
93739,-76.9230769230769,4,1,0,100,0,0
93939,-82.4742268041237,4,1,0,100,0,0
94139,-88.8888888888889,4,1,0,100,0,0
94339,-96.3855421686747,4,1,0,100,0,0
94539,-105.263157894737,4,1,0,100,0,0
94583,-103.421461897356,4,1,0,100,0,0
94627,-101.681957186544,4,1,0,100,0,0
94672,-100,4,1,0,100,0,0
94806,-90.9090909090909,4,1,0,100,0,1
95873,-76.9230769230769,4,1,0,100,0,0
96005,-78.6478968220518,4,1,0,100,0,0
96272,-82.355018095154,4,1,0,100,0,0
96539,-86.4128924701306,4,1,0,100,0,0
96805,-90.9090909090909,4,1,0,100,0,0
96939,-90.9090909090909,4,1,0,100,0,1
98006,-76.9230769230769,4,1,0,100,0,0
98205,-79.5464233950038,4,1,0,100,0,0
98405,-82.355018095154,4,1,0,100,0,0
98672,-86.4289022695692,4,1,0,100,0,0
98938,-90.9090909090909,4,1,0,100,0,0
99073,-90.9090909090909,4,1,0,100,0,1
100805,-90.9090909090909,4,1,0,100,0,1
100939,-88.2417824840062,4,1,0,100,0,1
100983,-87.3743993010048,4,1,0,100,0,1
101027,-86.5426222414539,4,1,0,100,0,1
101072,-85.7081637025927,4,1,0,100,0,1
101116,-84.9076629165782,4,1,0,100,0,1
101161,-84.1219768664564,4,1,0,100,0,1
101206,-83.3333333333333,4,1,0,100,0,0
101472,-100,4,1,0,100,0,0
103205,-100,4,1,0,100,0,0
103339,-95.2125759199714,4,1,0,100,0,0
103738,-83.3333333333333,4,1,0,100,0,0
104273,-99.9889734259565,4,1,0,100,0,1
104339,-99.2665571975917,4,1,0,100,0,1
104405,-98.5437948272115,4,1,0,100,0,1
104472,-97.8314812816917,4,1,0,100,0,1
104539,-97.139796464917,4,1,0,100,0,1
104605,-96.4475643480111,4,1,0,100,0,1
104672,-95.7651283134439,4,1,0,100,0,1
104739,-95.1022548505506,4,1,0,100,0,1
104805,-94.438658612789,4,1,0,100,0,1
104872,-93.7842589719723,4,1,0,100,0,1
104939,-93.1484334874165,4,1,0,100,0,1
105005,-92.5117322995307,4,1,0,100,0,1
105072,-91.8836761576654,4,1,0,100,0,1
105139,-91.2732762959235,4,1,0,100,0,1
105205,-90.6618676264747,4,1,0,100,0,1
105272,-90.0585956897408,4,1,0,100,0,1
105339,-89.4721262950173,4,1,0,100,0,1
105405,-88.8845324446187,4,1,0,100,0,1
105472,-88.3046060960172,4,1,0,100,0,1
105539,-87.74068698597,4,1,0,100,0,1
105605,-87.175543164776,4,1,0,100,0,1
105672,-86.617633011749,4,1,0,100,0,1
105739,-86.0749881347888,4,1,0,100,0,1
105805,-85.5310318807772,4,1,0,100,0,1
105872,-84.9939075827163,4,1,0,100,0,1
105939,-84.4713553795994,4,1,0,100,0,1
106005,-83.9474171449732,4,1,0,100,0,1
106072,-83.4299383567946,4,1,0,100,0,1
106139,-82.9263831732968,4,1,0,100,0,1
106205,-82.4213779312852,4,1,0,100,0,1
106272,-81.9224862227843,4,1,0,100,0,1
106316,-81.5981283181859,4,1,0,100,0,1
106361,-81.2763287622121,4,1,0,100,0,1
106405,-80.9498303874308,4,1,0,100,0,1
106450,-80.6331139960875,4,1,0,100,0,1
106494,-80.311752723408,4,1,0,100,0,1
106539,-80,4,1,0,100,0,0
106606,-33.3333333333333,4,1,0,40,0,0
107605,-142.857142857143,4,1,0,40,0,0
108672,-133.333333333333,4,1,0,40,0,0
109739,-125,4,1,0,40,0,0
110672,-111.111111111111,4,1,0,100,0,0
110872,-109.727936297279,4,1,0,100,0,0
110939,-108.398667960249,4,1,0,100,0,0
111005,-107.081800756359,4,1,0,100,0,0
111072,-105.796545105566,4,1,0,100,0,0
111139,-104.560285302375,4,1,0,100,0,0
111205,-103.334499825026,4,1,0,100,0,0
111272,-102.137121680049,4,1,0,100,0,0
111339,-100.984439504605,4,1,0,100,0,0
111405,-99.8406028111868,4,1,0,100,0,0
111472,-98.7223880597015,4,1,0,100,0,0
111539,-97.6450858587052,4,1,0,100,0,0
111605,-96.5752464607765,4,1,0,100,0,0
111672,-95.5285961871751,4,1,0,100,0,0
111739,-94.5195143699842,4,1,0,100,0,0
111805,-93.5167171877121,4,1,0,100,0,0
111872,-92.5349748181309,4,1,0,100,0,0
111939,-91.5878325985334,4,1,0,100,0,0
112005,-90.6459676358374,4,1,0,100,0,0
112072,-89.7232772653283,4,1,0,100,0,0
112139,-88.8325418484217,4,1,0,100,0,0
112205,-87.9462196315364,4,1,0,100,0,0
112272,-87.0774091627172,4,1,0,100,0,0
112339,-86.2381876212529,4,1,0,100,0,0
112405,-85.4026360368549,4,1,0,100,0,0
112472,-84.5831202046036,4,1,0,100,0,0
112539,-83.7910695826662,4,1,0,100,0,0
112605,-83.0020479460306,4,1,0,100,0,0
112672,-82.2277473893585,4,1,0,100,0,0
112739,-81.4789995466819,4,1,0,100,0,0
112805,-80.7327266335976,4,1,0,100,0,0
112872,-80,4,1,0,100,0,0
112939,-125,4,1,0,60,0,0
114739,-71.4285714285714,4,1,0,100,0,0
115073,-78.1414994720169,4,1,0,100,0,1
115205,-81.9793205317578,4,1,0,100,0,1
115339,-86.2135922330097,4,1,0,100,0,1
115472,-90.9090909090909,4,1,0,100,0,1
115539,-91.6065498683156,4,1,0,100,0,1
115605,-92.3041421483789,4,1,0,100,0,1
115672,-93.0232558139535,4,1,0,100,0,1
115739,-93.7536622524317,4,1,0,100,0,1
115805,-94.4844691153891,4,1,0,100,0,1
115872,-95.2380952380952,4,1,0,100,0,1
115939,-96.0038401536061,4,1,0,100,0,1
116005,-96.7702915205032,4,1,0,100,0,1
116072,-97.5609756097561,4,1,0,100,0,1
116139,-98.3646870773392,4,1,0,100,0,1
116272,-100,4,1,0,100,0,1
116339,-100.844573301399,4,1,0,100,0,1
116405,-101.69060633024,4,1,0,100,0,1
116472,-102.564102564103,4,1,0,100,0,1
116539,-103.452735031682,4,1,0,100,0,1
116605,-104.343289422199,4,1,0,100,0,1
116672,-105.263157894737,4,1,0,100,0,1
116805,-107.138074193116,4,1,0,100,0,1
116872,-108.108108108108,4,1,0,100,0,1
116939,-109.095867994,4,1,0,100,0,1
116983,-109.754424475237,4,1,0,100,0,1
117027,-110.420979986197,4,1,0,100,0,1
117072,-111.111111111111,4,1,0,100,0,1
117205,-90.9090909090909,4,1,0,100,0,1
117272,-91.4485500626628,4,1,0,100,0,1
117339,-91.9944497908552,4,1,0,100,0,1
117405,-92.5386117357467,4,1,0,100,0,1
117472,-93.0976429957686,4,1,0,100,0,1
117539,-93.6634695890169,4,1,0,100,0,1
117605,-94.2276162297646,4,1,0,100,0,1
117739,-95.3941691840393,4,1,0,100,0,1
117805,-95.9794220119206,4,1,0,100,0,1
117872,-96.5809335426113,4,1,0,100,0,1
117939,-97.1900320736825,4,1,0,100,0,1
118005,-97.7975980909909,4,1,0,100,0,1
118205,-99.6859891342272,4,1,0,100,0,1
118272,-100.335013593638,4,1,0,100,0,1
118405,-101.648742605054,4,1,0,100,0,1
118472,-102.32366294565,4,1,0,100,0,1
118539,-103.007605772587,4,1,0,100,0,1
118672,-104.392736750069,4,1,0,100,0,1
118805,-105.815626851774,4,1,0,100,0,1
118939,-107.288988577049,4,1,0,100,0,1
119005,-108.029859453153,4,1,0,100,0,1
119072,-108.792495232577,4,1,0,100,0,1
119116,-109.299215510346,4,1,0,100,0,1
119161,-109.822357943133,4,1,0,100,0,1
119205,-110.33873993159,4,1,0,100,0,1
119339,-111.111111111111,4,1,0,100,0,1
119605,-90.9090909090909,4,1,0,100,0,1
119650,-91.4189568143578,4,1,0,100,0,1
119694,-91.9230528228586,4,1,0,100,0,1
119739,-92.4443884302729,4,1,0,100,0,1
119805,-93.2198004702294,4,1,0,100,0,1
119872,-94.02038069602,4,1,0,100,0,1
119939,-94.834830952227,4,1,0,100,0,1
120005,-95.6510399687031,4,1,0,100,0,1
120072,-96.4941130040124,4,1,0,100,0,1
120139,-97.3521799721282,4,1,0,100,0,1
120272,-99.1015334729447,4,1,0,100,0,1
120405,-100.914906789571,4,1,0,100,0,1
120472,-101.853780462404,4,1,0,100,0,1
120539,-102.810288037003,4,1,0,100,0,1
120605,-103.770248284643,4,1,0,100,0,1
120672,-104.76326501464,4,1,0,100,0,1
120739,-105.775470473718,4,1,0,100,0,1
120805,-106.791875955449,4,1,0,100,0,1
120939,-108.916771846462,4,1,0,100,0,1
121005,-109.994751443353,4,1,0,100,0,1
121072,-111.111111111111,4,1,0,100,0,1
121205,-90.9090909090909,4,1,0,100,0,1
121250,-90.3549173665673,4,1,0,100,0,1
121294,-89.8195529221653,4,1,0,100,0,1
121339,-89.2785437023156,4,1,0,100,0,1
121383,-88.7558216899534,4,1,0,100,0,1
121427,-88.2391850773912,4,1,0,100,0,1
121473,-87.7169910573382,4,1,0,100,0,0
121650,-85.7106142379851,4,1,0,100,0,0
121827,-83.8044980525192,4,1,0,100,0,0
122005,-81.9712424726558,4,1,0,100,0,0
122183,-80.216476247745,4,1,0,100,0,0
122272,-79.3669681104236,4,1,0,100,0,0
122450,-77.720810999767,4,1,0,100,0,0
122506,-33.3333333333333,4,1,0,60,0,0
123272,-71.4285714285714,4,1,0,100,0,0
123606,-90.9090909090909,4,1,0,100,0,1
130006,-76.9230769230769,4,1,0,100,0,0
130139,-79.2020394525159,4,1,0,100,0,0
130272,-81.6389009362961,4,1,0,100,0,0
130405,-84.2105263157895,4,1,0,100,0,0
130539,-86.9494334700975,4,1,0,100,0,0
130672,-89.8952158889794,4,1,0,100,0,0
130805,-93.0232558139535,4,1,0,100,0,0
130939,-96.376833418667,4,1,0,100,0,0
131072,-100.009375878989,4,1,0,100,0,0
131205,-103.896103896104,4,1,0,100,0,0
131405,-110.344827586207,4,1,0,100,0,0
131605,-117.647058823529,4,1,0,100,0,0
132139,-90.9090909090909,4,1,0,100,0,1
136406,-90.9090909090909,4,1,0,100,0,0
136539,-111.111111111111,4,1,0,80,0,0
140539,-100,4,1,0,100,0,0
140673,-76.9230769230769,4,1,0,100,0,1
140805,-81.0810810810811,4,1,0,100,0,1
140939,-85.7142857142857,4,1,0,100,0,1
141072,-90.9090909090909,4,1,0,100,0,1
144939,-90.9090909090909,4,1,0,100,0,0
145072,-111.111111111111,4,1,0,80,0,0
146939,-86.9565217391304,4,1,0,100,0,0
147139,-89.8989898989899,4,1,0,100,0,0
147205,-92.9989550679206,4,1,0,100,0,0
147272,-96.3724959393611,4,1,0,100,0,0
147339,-100,4,1,0,100,0,0
147472,-81.6326530612245,4,1,0,100,0,0
147539,-84.6796657381616,4,1,0,100,0,0
147605,-87.9120879120879,4,1,0,100,0,0
147672,-91.4560770156438,4,1,0,100,0,0
147738,-95.2380952380952,4,1,0,100,0,0
147872,-76.9230769230769,4,1,0,100,0,0
147939,-80.011986814504,4,1,0,100,0,0
148005,-83.3073322932917,4,1,0,100,0,0
148072,-86.9423640507978,4,1,0,100,0,0
148139,-90.9090909090909,4,1,0,100,0,0
148272,-89.1118543292456,4,1,0,100,0,0
148339,-88.2331297372875,4,1,0,100,0,0
148405,-87.3843014357554,4,1,0,100,0,0
148472,-86.5391555395164,4,1,0,100,0,0
148539,-85.7102008721138,4,1,0,100,0,0
148605,-84.9090007789817,4,1,0,100,0,0
148672,-84.11083830235,4,1,0,100,0,0
148739,-83.3275418722635,4,1,0,100,0,0
148805,-82.570070931754,4,1,0,100,0,0
148872,-81.8150801774139,4,1,0,100,0,0
148939,-81.0737710460477,4,1,0,100,0,0
149005,-80.356544467529,4,1,0,100,0,0
149072,-79.6413151776818,4,1,0,100,0,0
149139,-78.9387056422411,4,1,0,100,0,0
149205,-78.2585993081392,4,1,0,100,0,0
149272,-76.9230769230769,4,1,0,40,0,0
150272,-133.333333333333,4,1,0,40,0,0
157672,-133.333333333333,4,1,0,60,0,0
165472,-133.333333333333,4,1,0,60,0,0
165606,-111.087967784489,4,1,0,80,0,0
165805,-106.68800426752,4,1,0,80,0,0
165872,-102.564102564103,4,1,0,80,0,0
165939,-98.7471455903228,4,1,0,80,0,0
166005,-95.2551050782878,4,1,0,80,0,0
166072,-91.9540229885058,4,1,0,80,0,0
166139,-88.8740765427984,4,1,0,80,0,0
166205,-86.0353820508684,4,1,0,80,0,0
166272,-83.3333333333333,4,1,0,80,0,0
166872,-83.3333333333333,4,1,0,80,0,0
166939,-88.0503144654088,4,1,0,60,0,0
167205,-91.494297944646,4,1,0,60,0,0
167338,-95.2186628579202,4,1,0,60,0,0
167339,-95.2478144028302,4,1,0,60,0,0
167472,-99.290780141844,4,1,0,60,0,0
167539,-101.460303656194,4,1,0,60,0,0
167605,-103.692182350109,4,1,0,60,0,0
167739,-108.539752684421,4,1,0,60,0,0
167805,-111.0978851724,4,1,0,60,0,0
167872,-113.821138211382,4,1,0,60,0,0
168005,-119.642780840063,4,1,0,60,0,0
168139,-126.143172500788,4,1,0,60,0,0
168205,-129.611628014628,4,1,0,60,0,0
168272,-133.333333333333,4,1,0,60,0,0
168339,-83.3333333333333,4,1,0,90,0,0
169005,-83.3333333333333,4,1,0,90,0,0
169072,-88.495575221239,4,1,0,60,0,0
169339,-92.3275782476226,4,1,0,60,0,0
169472,-96.473879697072,4,1,0,60,0,0
169605,-101.010101010101,4,1,0,60,0,0
169672,-103.46076250582,4,1,0,60,0,0
169739,-106.033294454459,4,1,0,60,0,0
169805,-108.695652173913,4,1,0,60,0,0
169872,-111.538676035916,4,1,0,60,0,0
169939,-114.534417592487,4,1,0,60,0,0
170005,-117.647058823529,4,1,0,60,0,0
170072,-83.3333333333333,4,1,0,100,0,0
170339,-83.3457083457084,4,1,0,100,0,0
170538,-83.3333333333333,4,1,0,100,0,0
170605,-84.4866763065482,4,1,0,100,0,0
170672,-85.672392124005,4,1,0,100,0,0
170739,-86.8918631824942,4,1,0,100,0,0
170939,-90.747725759929,4,1,0,100,0,0
171005,-92.0963746903851,4,1,0,100,0,0
171072,-93.5070873342478,4,1,0,100,0,0
171139,-94.9616902716508,4,1,0,100,0,0
171339,-99.5860725590455,4,1,0,100,0,0
171405,-101.212571145756,4,1,0,100,0,0
171472,-102.918973326623,4,1,0,100,0,0
171539,-104.683900691067,4,1,0,100,0,0
171605,-106.482686800312,4,1,0,100,0,0
171739,-110.331804693823,4,1,0,100,0,0
171805,-112.331776984345,4,1,0,100,0,0
171872,-114.437604924454,4,1,0,100,0,0
171939,-116.623895067009,4,1,0,100,0,0
172139,-123.677048684608,4,1,0,100,0,0
172227,-127.058092575334,4,1,0,100,0,0
172316,-130.670926517572,4,1,0,100,0,0
172405,-134.495231831634,4,1,0,100,0,0
172494,-138.550135501355,4,1,0,100,0,0
172583,-142.857142857143,4,1,0,100,0,0
172672,-83.3333333333333,4,1,0,100,0,0
172739,-84.4872483776299,4,1,0,100,0,0
172805,-85.6556174831329,4,1,0,100,0,0
172872,-86.8752125127508,4,1,0,100,0,0
173072,-90.7315340909091,4,1,0,100,0,0
173139,-92.1011129635471,4,1,0,100,0,0
173205,-93.4912866486759,4,1,0,100,0,0
173272,-94.9461166852471,4,1,0,100,0,0
173472,-99.5713172252533,4,1,0,100,0,0
173539,-101.223196157084,4,1,0,100,0,0
173605,-102.904898555102,4,1,0,100,0,0
173672,-104.670217124129,4,1,0,100,0,0
173738,-106.469423898323,4,1,0,100,0,0
173872,-110.319516407599,4,1,0,100,0,0
173939,-112.350904193921,4,1,0,100,0,0
174005,-114.426468118457,4,1,0,100,0,0
174072,-116.613418530351,4,1,0,100,0,0
174272,-123.668925459826,4,1,0,100,0,0
174361,-127.09071690605,4,1,0,100,0,0
174450,-130.707251566696,4,1,0,100,0,0
174539,-134.535641413809,4,1,0,100,0,0
174627,-138.548091913509,4,1,0,100,0,0
174716,-142.857142857143,4,1,0,100,0,0
174805,-83.3333333333333,4,1,0,100,0,0
174872,-84.4866763065482,4,1,0,100,0,0
174939,-85.672392124005,4,1,0,100,0,0
175005,-86.8734069668649,4,1,0,100,0,0
175205,-90.7275953859805,4,1,0,100,0,0
175272,-92.0963746903851,4,1,0,100,0,0
175339,-93.5070873342478,4,1,0,100,0,0
175405,-94.9396471680594,4,1,0,100,0,0
175605,-99.5618305744888,4,1,0,100,0,0
175672,-101.212571145756,4,1,0,100,0,0
175739,-102.918973326623,4,1,0,100,0,0
175805,-104.657113613101,4,1,0,100,0,0
175872,-106.482686800312,4,1,0,100,0,0
176005,-110.302049622438,4,1,0,100,0,0
176072,-112.331776984345,4,1,0,100,0,0
176139,-114.437604924454,4,1,0,100,0,0
176205,-116.590649942987,4,1,0,100,0,0
176405,-123.639661426844,4,1,0,100,0,0
176494,-127.058092575334,4,1,0,100,0,0
176583,-130.670926517572,4,1,0,100,0,0
176672,-134.495231831634,4,1,0,100,0,0
176761,-138.550135501355,4,1,0,100,0,0
176850,-142.857142857143,4,1,0,100,0,0
176938,-76.9230769230769,4,1,0,100,0,0
180272,-76.9230769230769,4,1,0,100,0,0
180539,-90.9168370824813,4,1,0,100,0,0
180583,-92.3010380622837,4,1,0,100,0,0
180627,-93.7280393534786,4,1,0,100,0,0
180672,-95.2338450553374,4,1,0,100,0,0
180761,-98.3591445427729,4,1,0,100,0,0
180850,-101.69653069005,4,1,0,100,0,0
180939,-105.268350434096,4,1,0,100,0,0
181027,-109.055600981194,4,1,0,100,0,0
181116,-113.173525668222,4,1,0,100,0,0
181205,-117.614638447972,4,1,0,100,0,0
181272,-33.3333333333333,4,1,0,40,0,0
181739,-100,4,1,0,45,0,0
182272,-100,4,1,0,50,0,0
182806,-86.969756267258,4,1,0,55,0,0
183339,-66.6666666666667,4,1,0,60,0,0
183605,-100,4,1,0,65,0,0
183872,-100,4,1,0,70,0,0
184006,-100,4,1,0,72,0,0
184138,-100,4,1,0,75,0,0
184272,-74.8194979611687,4,1,0,77,0,0
184406,-50,4,1,0,80,0,0
184539,-100,4,1,0,82,0,0
184672,-100,4,1,0,85,0,0
184806,-100,4,1,0,87,0,0
184939,-100,4,1,0,90,0,0
185072,-100,4,1,0,92,0,0
185206,-100,4,1,0,95,0,0
185405,-125,4,1,0,60,0,0
186472,-83.3333333333333,4,1,0,100,0,0
186673,-82.4702426959345,4,1,0,100,0,0
186939,-80.8088458043017,4,1,0,100,0,0
187073,-79.9970010496326,4,1,0,100,0,0
187339,-78.4328138782711,4,1,0,100,0,0
187606,-76.9230769230769,4,1,0,100,0,0
187739,-100,4,1,0,80,0,0
191472,-100,4,1,0,80,0,0
191539,-93.764650726676,4,1,0,100,0,0
191672,-90.9090909090909,4,1,0,100,0,0
191739,-88.2223202470225,4,1,0,100,0,0
191805,-85.726532361766,4,1,0,100,0,0
191872,-83.3333333333333,4,1,0,100,0,0
193272,-83.3333333333333,4,1,0,100,0,0
193472,-90.0974025974026,4,1,0,100,0,0
193605,-95.2380952380952,4,1,0,100,0,0
193739,-101.046882111971,4,1,0,100,0,0
193805,-104.176442984514,4,1,0,100,0,0
193872,-107.558139534884,4,1,0,100,0,0
193938,-111.111111111111,4,1,0,100,0,0
194005,-83.3333333333333,4,1,0,100,0,0
195405,-83.3333333333333,4,1,0,100,0,0
195605,-86.2068965517241,4,1,0,100,0,0
195694,-87.5503414463316,4,1,0,100,0,0
195783,-88.9363215937389,4,1,0,100,0,0
195872,-90.3668895716609,4,1,0,100,0,0
195961,-91.844232182219,4,1,0,100,0,0
196050,-93.3706816059757,4,1,0,100,0,0
196138,-94.9307005885704,4,1,0,100,0,0
196139,-94.948727687049,4,1,0,100,0,0
196272,-100,4,1,0,80,0,0
199605,-100,4,1,0,80,0,0
199672,-96.7585873246251,4,1,0,100,0,0
199805,-95.2380952380952,4,1,0,100,0,0
199872,-93.7426763534099,4,1,0,100,0,0
199939,-92.2934933087217,4,1,0,100,0,0
200005,-90.9090909090909,4,1,0,100,0,0
200139,-88.2223202470225,4,1,0,100,0,0
200205,-86.9565217391304,4,1,0,100,0,0
200272,-85.7081637025927,4,1,0,100,0,0
200339,-84.4951415293621,4,1,0,100,0,0
200405,-83.3333333333333,4,1,0,100,0,0
208895,-83.3333333333333,4,1,0,40,0,0
209973,-100,4,1,0,50,0,0
210039,-98.1510440621838,4,1,0,53,0,0
210106,-96.3692196531792,4,1,0,55,0,0
210173,-94.6761313220941,4,1,0,59,0,0
210239,-93.017173742481,4,1,0,62,0,0
210306,-91.4153529814942,4,1,0,65,0,0
210373,-89.8904802021904,4,1,0,68,0,0
210439,-88.3936707812112,4,1,0,71,0,0
210506,-86.9458930899609,4,1,0,74,0,0
210573,-85.5653568564555,4,1,0,77,0,0
210639,-84.2080340935996,4,1,0,80,0,0
210706,-82.8931013051585,4,1,0,83,0,0
210773,-81.637337413925,4,1,0,86,0,0
210839,-80.4008740863537,4,1,0,89,0,0
210906,-79.2013064133017,4,1,0,92,0,0
210973,-78.054133138259,4,1,0,95,0,0
211039,-76.9230769230769,4,1,0,98,0,0
211205,-142.857142857143,4,1,0,60,0,0
215006,-71.4515265131227,4,1,0,100,0,0
215338,-84.7199288708243,4,1,0,100,0,0
215339,-90.9090909090909,4,1,0,100,0,1
218539,-76.9230769230769,4,1,0,100,0,0
218738,-82.4742268041237,4,1,0,100,0,0
218939,-88.8888888888889,4,1,0,100,0,0
219138,-96.3855421686747,4,1,0,100,0,0
219338,-105.263157894737,4,1,0,100,0,0
219383,-103.434967194134,4,1,0,100,0,0
219427,-101.707779886148,4,1,0,100,0,0
219472,-100,4,1,0,100,0,0
219606,-90.9090909090909,4,1,0,100,0,1
220606,-76.9230769230769,4,1,0,100,0,1
220673,-76.9357495881384,4,1,0,100,0,0
220805,-78.659255516254,4,1,0,100,0,0
221072,-82.363315696649,4,1,0,100,0,0
221339,-86.4174685418209,4,1,0,100,0,0
221605,-90.9090909090909,4,1,0,100,0,0
221739,-90.9090909090909,4,1,0,100,0,1
222806,-76.9230769230769,4,1,0,100,0,0
223005,-79.5464233950038,4,1,0,100,0,0
223205,-82.355018095154,4,1,0,100,0,0
223472,-86.4289022695692,4,1,0,100,0,0
223739,-90.9090909090909,4,1,0,100,0,0
223873,-90.9090909090909,4,1,0,100,0,1
224938,-100,4,1,0,100,0,1
224939,-90.9090909090909,4,1,0,100,0,1
225005,-90.1372756071806,4,1,0,100,0,1
225072,-89.3784553526554,4,1,0,100,0,1
225139,-88.6433496718451,4,1,0,100,0,1
225205,-87.9093717816684,4,1,0,100,0,1
225272,-87.1874489295637,4,1,0,100,0,1
225339,-86.4878009240496,4,1,0,100,0,1
225405,-85.7889447236181,4,1,0,100,0,1
225472,-85.1012920721008,4,1,0,100,0,1
225539,-84.4345968188652,4,1,0,100,0,1
225605,-83.7684003925417,4,1,0,100,0,1
225672,-83.1126343667238,4,1,0,100,0,1
225739,-82.4766174538146,4,1,0,100,0,1
225805,-81.8408437200384,4,1,0,100,0,1
225872,-81.2147967727203,4,1,0,100,0,1
225939,-80.6073883810531,4,1,0,100,0,1
226006,-80,4,1,0,100,0,0
227205,-80,4,1,0,100,0,0
227272,-80.4854486173167,4,1,0,100,0,0
227339,-80.9694466379153,4,1,0,100,0,0
227405,-81.4667685255921,4,1,0,100,0,0
227472,-81.970237363178,4,1,0,100,0,0
227539,-82.472313308173,4,1,0,100,0,0
227605,-82.988326848249,4,1,0,100,0,0
227672,-83.510838240822,4,1,0,100,0,0
227739,-84.0320242072748,4,1,0,100,0,0
227805,-84.5678033306899,4,1,0,100,0,0
227872,-85.1104584344273,4,1,0,100,0,0
227939,-85.6518666066954,4,1,0,100,0,0
228005,-86.2085691188359,4,1,0,100,0,0
228138,-91.3166991819831,4,1,0,100,0,0
228139,-87.3353862281334,4,1,0,100,0,0
228205,-87.9142621599341,4,1,0,100,0,0
228272,-88.50086309919,4,1,0,100,0,0
228339,-89.0864131524427,4,1,0,100,0,0
228406,-89.6888141295206,4,1,0,100,0,1
228539,-90.9090909090909,4,1,0,100,0,1
235606,-90.9090909090909,4,1,0,100,0,0
235739,-93.1327472689153,4,1,0,100,0,0
235805,-94.2946521674363,4,1,0,100,0,0
235939,-96.6891969297743,4,1,0,100,0,0
236005,-97.9421321367786,4,1,0,100,0,0
236139,-100.528050184619,4,1,0,100,0,0
236205,-101.883148237566,4,1,0,100,0,0
236272,-103.275278378268,4,1,0,100,0,0
236339,-104.684334559888,4,1,0,100,0,0
236405,-106.154620157639,4,1,0,100,0,0
236472,-107.666794233958,4,1,0,100,0,0
236539,-109.199120196662,4,1,0,100,0,0
236605,-110.799929984247,4,1,0,100,0,0
236672,-112.423408223071,4,1,0,100,0,0
236673,-112.448372340898,4,1,0,100,0,0
236805,-115.870400878638,4,1,0,100,0,0
236872,-117.647058823529,4,1,0,100,0,0
236939,-90.9090909090909,4,1,0,100,0,1
237739,-76.9230769230769,4,1,0,100,0,0
238806,-76.9230769230769,4,1,0,100,0,1
239072,-90.9090909090909,4,1,0,100,0,1
239873,-90.9090909090909,4,1,0,100,0,0
240939,-90.9090909090909,4,1,0,100,0,1
241072,-89.8824322615988,4,1,0,100,0,1
241116,-89.550358957135,4,1,0,100,0,1
241161,-89.2207303300288,4,1,0,100,0,1
241205,-88.8861107638455,4,1,0,100,0,1
241272,-88.3925241390742,4,1,0,100,0,1
241339,-87.9116349997939,4,1,0,100,0,1
241405,-87.428782227323,4,1,0,100,0,1
241472,-86.9512045982634,4,1,0,100,0,1
241605,-86.0184699762068,4,1,0,100,0,1
241672,-85.5561349324135,4,1,0,100,0,1
241739,-85.1055340541835,4,1,0,100,0,1
241805,-84.6529348731992,4,1,0,100,0,1
241872,-84.2051241561723,4,1,0,100,0,1
241939,-83.768605427483,4,1,0,100,0,1
242005,-83.3300777434856,4,1,0,100,0,1
242073,-82.9875518672199,4,1,0,100,0,1
242139,-82.473030970885,4,1,0,100,0,1
242272,-81.6271861007998,4,1,0,100,0,1
242316,-81.3532171326138,4,1,0,100,0,1
242361,-81.0810810810811,4,1,0,100,0,1
242405,-80.8046368905557,4,1,0,100,0,1
242450,-80.5361525391731,4,1,0,100,0,1
242494,-80.2634054562559,4,1,0,100,0,1
242539,-79.9984997937216,4,1,0,100,0,1
242605,-79.5984625144606,4,1,0,100,0,1
242672,-79.2024061490476,4,1,0,100,0,1
242739,-78.8160957765215,4,1,0,100,0,1
242805,-78.4277677685039,4,1,0,100,0,1
242850,-78.1748213304013,4,1,0,100,0,1
242894,-77.9178082191781,4,1,0,100,0,1
242939,-77.6681353093253,4,1,0,100,0,1
243073,-76.9230769230769,4,1,0,100,0,0
243339,-100,4,1,0,100,0,0
243473,-76.9230769230769,4,1,0,100,0,0
243739,-100,4,1,0,100,0,0
244006,-76.9230769230769,4,1,0,100,0,0
244139,-100,4,1,0,100,0,0
244273,-83.3333333333333,4,1,0,100,0,0
244339,-84.4951415293621,4,1,0,100,0,0
244406,-85.7081637025927,4,1,0,100,0,0
244539,-88.2223202470225,4,1,0,100,0,0
244606,-89.5455563017685,4,1,0,100,0,0
244673,-90.9090909090909,4,1,0,100,0,0
244806,-93.7426763534099,4,1,0,100,0,0
244939,-96.7585873246251,4,1,0,100,0,0
244984,-97.8234287111763,4,1,0,100,0,0
245028,-98.8875154511743,4,1,0,100,0,0
245073,-100,4,1,0,100,0,0
245206,-76.9230769230769,4,1,0,100,0,0
245339,-100,4,1,0,100,0,0
245606,-76.9230769230769,4,1,0,100,0,0
245739,-100,4,1,0,100,0,0
246139,-76.9230769230769,4,1,0,100,0,0
246206,-100,4,1,0,100,0,0
246406,-83.3333333333333,4,1,0,100,0,0
246539,-85.8539913577439,4,1,0,100,0,0
246606,-87.1824480369515,4,1,0,100,0,0
246673,-88.5526624442881,4,1,0,100,0,0
246739,-89.9451989516321,4,1,0,100,0,0
246806,-91.4043583535109,4,1,0,100,0,0
246984,-95.5212550607287,4,1,0,100,0,0
247161,-100,4,1,0,100,0,0
247339,-76.9230769230769,4,1,0,100,0,0
247473,-100,4,1,0,100,0,0
247739,-76.9230769230769,4,1,0,100,0,0
247873,-100,4,1,0,100,0,0
248273,-76.9230769230769,4,1,0,100,0,0
248406,-100,4,1,0,100,0,0
248539,-83.3333333333333,4,1,0,100,0,0
248606,-84.4206426484908,4,1,0,100,0,0
248673,-85.5367008681926,4,1,0,100,0,0
248806,-87.8419452887538,4,1,0,100,0,0
248873,-89.05094494659,4,1,0,100,0,0
248939,-90.2748854643898,4,1,0,100,0,0
249073,-92.866323907455,4,1,0,100,0,0
249139,-94.1981747066493,4,1,0,100,0,0
249206,-95.5898566703418,4,1,0,100,0,0
249273,-97.0232766338406,4,1,0,100,0,0
249339,-98.4779645615629,4,1,0,100,0,0
249406,-100,4,1,0,100,0,0
249472,-71.4285714285714,4,1,0,100,0,0
250405,-100,4,1,0,100,0,0
250472,-99.1207733694939,4,1,0,100,0,0
250538,-99.8865395434985,4,1,0,100,0,0
250539,-98.2696560995707,4,1,0,100,0,0
250605,-97.4204643164231,4,1,0,100,0,0
250672,-96.58582328119,4,1,0,100,0,0
250739,-95.7775053890697,4,1,0,100,0,0
250805,-94.9706621961442,4,1,0,100,0,0
250872,-94.1772993641162,4,1,0,100,0,0
250939,-93.408631847974,4,1,0,100,0,0
251005,-92.6410466067048,4,1,0,100,0,0
251072,-91.885973804793,4,1,0,100,0,0
251139,-91.1541091757512,4,1,0,100,0,0
251205,-90.4229848363927,4,1,0,100,0,0
251272,-89.7034955069079,4,1,0,100,0,0
251339,-89.0058525472328,4,1,0,100,0,0
251405,-88.3086515978176,4,1,0,100,0,0
251472,-87.62228838792,4,1,0,100,0,0
251539,-86.9565217391304,4,1,0,100,0,0
251605,-86.2909367859863,4,1,0,100,0,0
251672,-85.6354635123389,4,1,0,100,0,0
251739,-84.9994373382347,4,1,0,100,0,0
251805,-84.3633655994043,4,1,0,100,0,0
251872,-83.7367429141569,4,1,0,100,0,0
251939,-83.1285080157012,4,1,0,100,0,0
252005,-82.5200291332848,4,1,0,100,0,0
252072,-81.9203933335743,4,1,0,100,0,0
252139,-81.3381671991098,4,1,0,100,0,0
252205,-80.7555238774056,4,1,0,100,0,0
252272,-80.1811683946074,4,1,0,100,0,0
252339,-79.6233177553674,4,1,0,100,0,0
252405,-79.0648988136776,4,1,0,100,0,0
252450,-78.7024173381495,4,1,0,100,0,0
252494,-78.3351194385868,4,1,0,100,0,0
252539,-77.9792835266182,4,1,0,100,0,0
252583,-77.6186887716654,4,1,0,100,0,0
252627,-77.2693173293323,4,1,0,100,0,0
252672,-76.9230769230769,4,1,0,100,0,0
252739,-33.3333333333333,4,1,0,40,0,0
253672,-142.857142857143,4,1,0,60,0,0
254472,-71.4285714285714,4,1,0,100,0,0
254806,-78.1304908047323,4,1,0,100,0,1
254939,-81.9611698205947,4,1,0,100,0,1
255072,-86.2202688728025,4,1,0,100,0,1
255205,-90.9090909090909,4,1,0,100,0,1
258805,-80,4,1,0,100,0,1
258850,-81.0947795235682,4,1,0,100,0,1
258894,-82.1945957053324,4,1,0,100,0,1
258939,-83.3506980620963,4,1,0,100,0,1
258983,-84.5129938728079,4,1,0,100,0,1
259027,-85.7081637025927,4,1,0,100,0,1
259072,-86.9659745624524,4,1,0,100,0,1
259205,-90.9090909090909,4,1,0,100,0,1
262272,-90.9090909090909,4,1,0,100,0,1
262273,-90.9267912772586,4,1,0,100,0,0
262406,-93.3439936038377,4,1,0,100,0,0
262539,-95.8932238193018,4,1,0,100,0,0
262673,-98.6064189189189,4,1,0,100,0,0
262739,-100,4,1,0,100,0,0
262873,-102.954144620811,4,1,0,100,0,0
263006,-106.064047240518,4,1,0,100,0,0
263073,-107.70295202952,4,1,0,100,0,0
263139,-109.367681498829,4,1,0,100,0,0
263206,-111.111111111111,4,1,0,100,0,0
263339,-90.8974741236103,4,1,0,100,0,1
263405,-90.1372756071806,4,1,0,100,0,1
263472,-89.3784553526554,4,1,0,100,0,1
263539,-88.6323046891224,4,1,0,100,0,1
263605,-87.9093717816684,4,1,0,100,0,1
263672,-87.1874489295637,4,1,0,100,0,1
263739,-86.4772865421242,4,1,0,100,0,1
263783,-86.0171711878754,4,1,0,100,0,1
263827,-85.5619261457039,4,1,0,100,0,1
263872,-85.1012920721008,4,1,0,100,0,1
263939,-84.4245757012304,4,1,0,100,0,1
264005,-83.7684003925417,4,1,0,100,0,1
264072,-83.1126343667238,4,1,0,100,0,1
264139,-82.467055686517,4,1,0,100,0,1
264183,-82.0485216655773,4,1,0,100,0,1
264227,-81.6342144523928,4,1,0,100,0,1
264272,-81.2147967727203,4,1,0,100,0,1
264316,-80.8088458043017,4,1,0,100,0,1
264361,-80.3978450062163,4,1,0,100,0,1
264405,-80,4,1,0,100,0,1
264605,-90.9090909090909,4,1,0,100,0,1
265339,-90.9090909090909,4,1,0,100,0,1
265405,-90.2221720987933,4,1,0,100,0,1
265472,-89.5555804321057,4,1,0,100,0,1
265473,-89.5455563017685,4,1,0,100,0,1
265516,-89.1067052795723,4,1,0,100,0,1
265561,-88.6721347816449,4,1,0,100,0,1
265605,-88.2320502922687,4,1,0,100,0,1
265672,-87.5848478213269,4,1,0,100,0,1
265739,-86.9565217391304,4,1,0,100,0,1
265805,-86.327829934175,4,1,0,100,0,1
265872,-85.7081637025927,4,1,0,100,0,1
265916,-85.3060354020047,4,1,0,100,0,1
265961,-84.9076629165782,4,1,0,100,0,1
266005,-84.5040667582127,4,1,0,100,0,1
266072,-83.9102160688064,4,1,0,100,0,1
266139,-83.3333333333333,4,1,0,100,0,1
266205,-82.7557670425158,4,1,0,100,0,1
266272,-82.1861516334498,4,1,0,100,0,1
266405,-81.0783419479072,4,1,0,100,0,1
266472,-80.5315079524864,4,1,0,100,0,1
266538,-86.0644058136221,4,1,0,100,0,1
266539,-80,4,1,0,100,0,1
266672,-81.6414025417241,4,1,0,100,0,1
266716,-82.195159549869,4,1,0,100,0,1
266761,-82.7564799006674,4,1,0,100,0,1
266805,-83.3385432947796,4,1,0,100,0,1
266872,-84.2205022903175,4,1,0,100,0,1
266939,-85.1077414205906,4,1,0,100,0,1
266983,-85.7234726688103,4,1,0,100,0,1
267027,-86.3341968911917,4,1,0,100,0,1
267073,-86.9678682107323,4,1,0,100,0,0
267250,-89.5527734493937,4,1,0,100,0,0
267428,-92.3079763322349,4,1,0,100,0,0
267605,-95.2483029653448,4,1,0,100,0,0
267873,-100,4,1,0,100,0,1
267939,-99.983779245045,4,1,0,100,0,1
268005,-99.9361291641905,4,1,0,100,0,1
268072,-99.8557501808579,4,1,0,100,0,1
268139,-99.7433650337543,4,1,0,100,0,1
268272,-99.4268622166362,4,1,0,100,0,1
268339,-99.221305567287,4,1,0,100,0,1
268405,-98.9893630257479,4,1,0,100,0,1
268472,-98.7246844695394,4,1,0,100,0,1
268539,-98.4313252101733,4,1,0,100,0,1
268605,-98.115116896451,4,1,0,100,0,1
268672,-97.7673706131358,4,1,0,100,0,1
268739,-97.3936376726393,4,1,0,100,0,1
268805,-97.0010693168597,4,1,0,100,0,1
268872,-96.5788282218538,4,1,0,100,0,1
268939,-96.1337943049654,4,1,0,100,0,1
269005,-95.6742397013215,4,1,0,100,0,1
269072,-95.1874087308044,4,1,0,100,0,1
269139,-94.6813158813529,4,1,0,100,0,1
269205,-94.1651400920951,4,1,0,100,0,1
269294,-93.4434791142752,4,1,0,100,0,1
269383,-92.6950940579724,4,1,0,100,0,1
269472,-91.9229200216392,4,1,0,100,0,1
269561,-91.1298735992969,4,1,0,100,0,1
269650,-90.3188337664847,4,1,0,100,0,1
269738,-89.5019819366138,4,1,0,100,0,1
269739,-89.492624639155,4,1,0,100,0,0
269872,-88.2356369317205,4,1,0,100,0,0
269939,-87.5947191888103,4,1,0,100,0,0
270005,-86.9597361425938,4,1,0,100,0,0
270072,-86.3124820937749,4,1,0,100,0,0
270139,-85.6635665304765,4,1,0,100,0,0
270272,-84.3743033903456,4,1,0,100,0,0
270339,-83.7260834451453,4,1,0,100,0,0
270405,-83.0894878867814,4,1,0,100,0,0
270472,-82.4460355756922,4,1,0,100,0,0
270539,-81.8061688014295,4,1,0,100,0,0
270672,-80.5494825755129,4,1,0,100,0,0
270739,-79.9245646142324,4,1,0,100,0,0
270805,-79.3151312640514,4,1,0,100,0,0
270872,-78.7032934834852,4,1,0,100,0,0
270939,-78.0988830148425,4,1,0,100,0,0
271005,-77.511255332577,4,1,0,100,0,0
271072,-76.9230769230769,4,1,0,100,0,0
271472,-86.9565217391304,4,1,0,100,0,0
271539,-88.8987665296144,4,1,0,100,0,0
271605,-90.8987615043745,4,1,0,100,0,0
271672,-93.0232558139535,4,1,0,100,0,0
271739,-95.2494344564829,4,1,0,100,0,0
271805,-97.5490793805633,4,1,0,100,0,0
271839,-100,4,1,0,100,0,0
271873,-100,4,1,0,100,0,1
272005,-86.9565217391304,4,1,0,100,0,1
272072,-88.8987665296144,4,1,0,100,0,1
272139,-90.9297567629007,4,1,0,100,0,1
272205,-93.0232558139535,4,1,0,100,0,1
272272,-95.2494344564829,4,1,0,100,0,1
272339,-97.5847767748231,4,1,0,100,0,1
272405,-100,4,1,0,100,0,1
272539,-90.9090909090909,4,1,0,100,0,1
272605,-93.006993006993,4,1,0,100,0,1
272672,-95.2380952380952,4,1,0,100,0,1
272739,-97.5788701393984,4,1,0,100,0,1
272805,-100,4,1,0,100,0,1
272938,-90.9090909090909,4,1,0,100,0,1
272939,-90.9400544959128,4,1,0,100,0,1
273005,-93.0313588850174,4,1,0,100,0,1
273072,-95.2550838387442,4,1,0,100,0,1
273139,-97.5877192982456,4,1,0,100,0,1
273205,-100,4,1,0,100,0,1
273339,-90.9090909090909,4,1,0,100,0,1
273405,-93.006993006993,4,1,0,100,0,1
273472,-95.2380952380952,4,1,0,100,0,1
273539,-97.5788701393984,4,1,0,100,0,1
273605,-100,4,1,0,100,0,1
273739,-90.9400544959128,4,1,0,100,0,1
273805,-93.0313588850174,4,1,0,100,0,1
273872,-95.2550838387442,4,1,0,100,0,1
273939,-97.5877192982456,4,1,0,100,0,1
274005,-100,4,1,0,100,0,1
274139,-86.9565217391304,4,1,0,100,0,1
274205,-88.8740394253258,4,1,0,100,0,1
274272,-90.9090909090909,4,1,0,100,0,1
274339,-93.039524309199,4,1,0,100,0,1
274405,-95.2380952380952,4,1,0,100,0,1
274472,-97.5788701393984,4,1,0,100,0,1
274538,-100,4,1,0,100,0,1
274672,-90.9090909090909,4,1,0,100,0,1
274739,-93.0313588850174,4,1,0,100,0,1
274805,-95.2211126961484,4,1,0,100,0,1
274872,-97.5520643039825,4,1,0,100,0,1
274939,-100,4,1,0,100,0,1
275072,-90.9090909090909,4,1,0,100,0,1
275139,-92.8168719983295,4,1,0,100,0,1
275205,-94.7761194029851,4,1,0,100,0,1
275272,-96.8515088789628,4,1,0,100,0,1
275339,-99.0198262419247,4,1,0,100,0,1
275472,-103.625131134165,4,1,0,100,0,1
275538,-106.073260947381,4,1,0,100,0,1
275606,-108.679706601467,4,1,0,100,0,0
275783,-116.269945069317,4,1,0,100,0,0
275961,-125,4,1,0,100,0,0
276139,-83.3333333333333,4,1,0,100,0,1
276272,-86.970684039088,4,1,0,100,0,1
276339,-88.9110889110889,4,1,0,100,0,1
276405,-90.9090909090909,4,1,0,100,0,1
276472,-93.0313588850174,4,1,0,100,0,1
276539,-95.2550838387442,4,1,0,100,0,1
276605,-97.5520643039825,4,1,0,100,0,1
276672,-100,4,1,0,100,0,1
276805,-90.9090909090909,4,1,0,100,0,1
276872,-93.0313588850174,4,1,0,100,0,1
276939,-95.2550838387442,4,1,0,100,0,1
277005,-97.5520643039825,4,1,0,100,0,1
277072,-100,4,1,0,100,0,1
277205,-90.9090909090909,4,1,0,100,0,1
277272,-93.0313588850174,4,1,0,100,0,1
277339,-95.2550838387442,4,1,0,100,0,1
277405,-97.5520643039825,4,1,0,100,0,1
277472,-100,4,1,0,100,0,1
277605,-90.9090909090909,4,1,0,100,0,1
277672,-93.0313588850174,4,1,0,100,0,1
277739,-95.2550838387442,4,1,0,100,0,1
277805,-97.5520643039825,4,1,0,100,0,1
277872,-100,4,1,0,100,0,1
278005,-90.9090909090909,4,1,0,100,0,1
278072,-93.0313588850174,4,1,0,100,0,1
278139,-95.2550838387442,4,1,0,100,0,1
278205,-97.5520643039825,4,1,0,100,0,1
278272,-100,4,1,0,100,0,1
278405,-83.3333333333333,4,1,0,100,0,1
278472,-85.0186135426099,4,1,0,100,0,1
278539,-86.7734647771616,4,1,0,100,0,1
278605,-88.5744234800839,4,1,0,100,0,1
278672,-90.4807795267159,4,1,0,100,0,1
278739,-92.4710002188663,4,1,0,100,0,1
278805,-94.5190156599553,4,1,0,100,0,1
278872,-96.6929854674448,4,1,0,100,0,1
278939,-98.969313656594,4,1,0,100,0,1
279005,-101.318944844125,4,1,0,100,0,1
279072,-103.821108244256,4,1,0,100,0,1
279161,-107.342479674797,4,1,0,100,0,1
279250,-111.111111111111,4,1,0,100,0,1
279338,-83.3333333333333,4,1,0,100,0,1
279339,-83.3203145341874,4,1,0,100,0,0
279539,-80.7958390142908,4,1,0,100,0,0
279739,-78.4198402195756,4,1,0,100,0,0
279872,-76.9156811845015,4,1,0,100,0,0
280072,-74.759368283338,4,1,0,100,0,0
280272,-72.720661758022,4,1,0,100,0,0
280405,-71.4253827954109,4,1,0,100,0,0
280605,-69.5621929481327,4,1,0,100,0,0
280805,-67.7937375534935,4,1,0,100,0,0
280872,-33.3333333333333,4,1,0,60,0,0
281206,-100,4,1,0,55,0,0
281472,-100,4,1,0,50,0,0
281739,-100,4,1,0,45,0,0
282006,-100,4,1,0,40,0,0
282272,-100,4,1,0,35,0,0
282539,-100,4,1,0,30,0,0
282806,-100,4,1,0,25,0,0
283072,-100,4,1,0,20,0,0
283339,-100,4,1,0,15,0,0

[HitObjects]
256,192,4139,5,4,0:0:0:0:
256,192,7873,1,8,0:0:0:0:
256,192,8406,1,0,0:0:0:0:
256,192,11606,8,0,12406,0:0:0:0:
256,192,12673,5,0,0:0:0:0:
256,192,12806,1,0,0:0:0:0:
256,192,12939,1,0,0:0:0:0:
256,192,13073,1,8,0:0:0:0:
256,192,13739,1,0,0:0:0:0:
256,192,13873,1,0,0:0:0:0:
256,192,14006,1,8,0:0:0:0:
256,192,14139,1,8,0:0:0:0:
256,192,14806,1,0,0:0:0:0:
256,192,14939,1,8,0:0:0:0:
256,192,15073,1,8,0:0:0:0:
256,192,15206,1,8,0:0:0:0:
256,192,15873,1,8,0:0:0:0:
256,192,16006,1,0,0:0:0:0:
256,192,16139,1,0,0:0:0:0:
256,192,16273,1,8,0:0:0:0:
256,192,16939,1,0,0:0:0:0:
256,192,17073,1,8,0:0:0:0:
256,192,17206,1,8,0:0:0:0:
256,192,17339,1,8,0:0:0:0:
256,192,18006,1,0,0:0:0:0:
256,192,18139,1,0,0:0:0:0:
256,192,18273,1,8,0:0:0:0:
256,192,18406,1,8,0:0:0:0:
256,192,19073,1,0,0:0:0:0:
256,192,19206,1,0,0:0:0:0:
256,192,19339,1,0,0:0:0:0:
256,192,19473,1,8,0:0:0:0:
256,192,20139,1,0,0:0:0:0:
256,192,20673,1,8,0:0:0:0:
256,192,20806,1,8,0:0:0:0:
256,192,20939,1,0,0:0:0:0:
256,192,21073,1,0,0:0:0:0:
256,192,21206,1,8,0:0:0:0:
256,192,21339,1,0,0:0:0:0:
256,192,21473,1,8,0:0:0:0:
256,192,21606,1,8,0:0:0:0:
256,192,22273,1,0,0:0:0:0:
256,192,22406,1,8,0:0:0:0:
256,192,22539,1,8,0:0:0:0:
256,192,22673,1,8,0:0:0:0:
256,192,23339,1,0,0:0:0:0:
256,192,23473,1,0,0:0:0:0:
256,192,23606,1,8,0:0:0:0:
256,192,23739,1,8,0:0:0:0:
256,192,24406,1,0,0:0:0:0:
256,192,24539,1,0,0:0:0:0:
256,192,24673,1,8,0:0:0:0:
256,192,24806,1,0,0:0:0:0:
256,192,24939,1,8,0:0:0:0:
256,192,25073,1,8,0:0:0:0:
256,192,25206,1,0,0:0:0:0:
256,192,25473,1,0,0:0:0:0:
256,192,25606,1,0,0:0:0:0:
256,192,25739,1,0,0:0:0:0:
256,192,25873,1,8,0:0:0:0:
256,192,26539,1,0,0:0:0:0:
256,192,26673,1,0,0:0:0:0:
256,192,26806,1,8,0:0:0:0:
256,192,26939,1,8,0:0:0:0:
256,192,27073,1,0,0:0:0:0:
256,192,27606,1,12,0:0:0:0:
256,192,28006,1,12,0:0:0:0:
256,192,28539,1,4,0:0:0:0:
256,192,28606,8,0,30273,0:0:0:0:
256,192,30806,5,12,0:0:0:0:
256,192,31073,1,0,0:0:0:0:
256,192,31206,1,0,0:0:0:0:
256,192,31339,1,8,0:0:0:0:
256,192,31606,1,0,0:0:0:0:
256,192,31673,1,0,0:0:0:0:
256,192,31739,1,8,0:0:0:0:
256,192,31806,1,8,0:0:0:0:
256,192,31873,1,0,0:0:0:0:
256,192,32006,1,8,0:0:0:0:
256,192,32139,1,0,0:0:0:0:
256,192,32406,1,8,0:0:0:0:
256,192,32539,1,0,0:0:0:0:
256,192,32673,1,8,0:0:0:0:
256,192,32739,1,8,0:0:0:0:
256,192,32806,1,8,0:0:0:0:
256,192,32873,1,8,0:0:0:0:
256,192,32939,1,0,0:0:0:0:
256,192,33073,1,0,0:0:0:0:
256,192,33206,1,0,0:0:0:0:
256,192,33473,1,8,0:0:0:0:
256,192,33606,1,8,0:0:0:0:
256,192,33873,1,0,0:0:0:0:
256,192,33939,1,0,0:0:0:0:
256,192,34006,1,8,0:0:0:0:
256,192,34139,1,8,0:0:0:0:
256,192,34273,1,0,0:0:0:0:
256,192,34539,1,8,0:0:0:0:
256,192,34673,1,8,0:0:0:0:
256,192,34806,1,0,0:0:0:0:
256,192,34939,1,8,0:0:0:0:
256,192,35073,1,0,0:0:0:0:
256,192,35206,1,0,0:0:0:0:
256,192,35339,1,0,0:0:0:0:
256,192,35606,1,8,0:0:0:0:
256,192,35739,1,8,0:0:0:0:
256,192,35873,1,0,0:0:0:0:
256,192,36006,1,0,0:0:0:0:
256,192,36073,1,0,0:0:0:0:
256,192,36139,1,8,0:0:0:0:
256,192,36273,1,8,0:0:0:0:
256,192,36406,1,0,0:0:0:0:
256,192,36673,1,8,0:0:0:0:
256,192,36806,1,0,0:0:0:0:
256,192,36873,1,0,0:0:0:0:
256,192,36939,1,8,0:0:0:0:
256,192,37006,1,8,0:0:0:0:
256,192,37073,1,8,0:0:0:0:
256,192,37206,1,0,0:0:0:0:
256,192,37339,1,8,0:0:0:0:
256,192,37473,1,0,0:0:0:0:
256,192,37739,1,8,0:0:0:0:
256,192,37873,1,8,0:0:0:0:
256,192,38139,1,0,0:0:0:0:
256,192,38206,1,0,0:0:0:0:
256,192,38273,1,8,0:0:0:0:
256,192,38406,1,8,0:0:0:0:
256,192,38539,1,0,0:0:0:0:
256,192,38806,1,0,0:0:0:0:
256,192,38873,1,0,0:0:0:0:
256,192,38939,1,0,0:0:0:0:
256,192,39006,1,0,0:0:0:0:
256,192,39073,1,8,0:0:0:0:
256,192,39139,1,8,0:0:0:0:
256,192,39206,1,8,0:0:0:0:
256,192,39273,1,8,0:0:0:0:
256,192,39339,1,0,0:0:0:0:
256,192,39406,1,0,0:0:0:0:
256,192,39473,1,0,0:0:0:0:
256,192,39539,1,0,0:0:0:0:
256,192,39739,1,8,0:0:0:0:
256,192,39806,1,8,0:0:0:0:
256,192,39873,1,8,0:0:0:0:
256,192,39939,1,8,0:0:0:0:
256,192,40139,1,8,0:0:0:0:
256,192,40273,1,0,0:0:0:0:
256,192,40406,1,8,0:0:0:0:
256,192,40539,1,8,0:0:0:0:
256,192,40606,1,8,0:0:0:0:
256,192,40673,1,0,0:0:0:0:
256,192,40806,1,8,0:0:0:0:
256,192,40873,1,0,0:0:0:0:
256,192,40939,1,0,0:0:0:0:
256,192,41073,1,0,0:0:0:0:
256,192,41206,1,8,0:0:0:0:
256,192,41273,1,8,0:0:0:0:
256,192,41339,1,8,0:0:0:0:
256,192,41473,1,0,0:0:0:0:
256,192,41539,1,0,0:0:0:0:
256,192,41606,1,0,0:0:0:0:
256,192,41673,1,0,0:0:0:0:
256,192,41873,1,8,0:0:0:0:
256,192,41939,1,8,0:0:0:0:
256,192,42006,1,8,0:0:0:0:
256,192,42073,1,8,0:0:0:0:
256,192,42273,1,8,0:0:0:0:
256,192,42406,1,0,0:0:0:0:
256,192,42539,1,8,0:0:0:0:
256,192,42673,1,8,0:0:0:0:
256,192,42806,1,0,0:0:0:0:
256,192,42873,1,0,0:0:0:0:
256,192,42939,1,8,0:0:0:0:
256,192,43073,1,8,0:0:0:0:
256,192,43206,1,4,0:0:0:0:
256,192,43406,1,4,0:0:0:0:
256,192,43606,1,8,0:0:0:0:
256,192,43673,1,8,0:0:0:0:
256,192,43739,1,8,0:0:0:0:
256,192,43806,1,8,0:0:0:0:
256,192,44006,1,8,0:0:0:0:
256,192,44073,1,8,0:0:0:0:
256,192,44139,1,8,0:0:0:0:
256,192,44206,1,8,0:0:0:0:
256,192,44406,1,0,0:0:0:0:
256,192,44473,1,0,0:0:0:0:
256,192,44539,1,0,0:0:0:0:
256,192,44606,1,0,0:0:0:0:
256,192,44806,1,0,0:0:0:0:
256,192,44873,1,0,0:0:0:0:
256,192,44939,1,0,0:0:0:0:
256,192,45006,1,0,0:0:0:0:
256,192,45206,1,8,0:0:0:0:
256,192,45295,1,8,0:0:0:0:
256,192,45384,1,8,0:0:0:0:
256,192,45473,1,8,0:0:0:0:
256,192,45561,1,8,0:0:0:0:
256,192,45650,1,8,0:0:0:0:
256,192,45739,8,0,46673,0:0:0:0:
256,192,46806,5,8,0:0:0:0:
256,192,46939,1,0,0:0:0:0:
256,192,47006,1,0,0:0:0:0:
256,192,47073,1,0,0:0:0:0:
256,192,47206,1,8,0:0:0:0:
256,192,47339,1,0,0:0:0:0:
256,192,47406,1,0,0:0:0:0:
256,192,47473,1,0,0:0:0:0:
256,192,47606,1,12,0:0:0:0:
256,192,47873,1,4,0:0:0:0:
256,192,48006,1,8,0:0:0:0:
256,192,48073,1,8,0:0:0:0:
256,192,48139,1,0,0:0:0:0:
256,192,48273,1,8,0:0:0:0:
256,192,48339,1,8,0:0:0:0:
256,192,48406,1,0,0:0:0:0:
256,192,48473,1,0,0:0:0:0:
256,192,48539,1,8,0:0:0:0:
256,192,48673,1,0,0:0:0:0:
256,192,48739,1,0,0:0:0:0:
256,192,48806,1,8,0:0:0:0:
256,192,48939,1,0,0:0:0:0:
256,192,49073,1,8,0:0:0:0:
256,192,49139,1,8,0:0:0:0:
256,192,49206,1,0,0:0:0:0:
256,192,49339,1,8,0:0:0:0:
256,192,49473,1,0,0:0:0:0:
256,192,49539,1,8,0:0:0:0:
256,192,49606,1,0,0:0:0:0:
256,192,49673,1,0,0:0:0:0:
256,192,49739,1,8,0:0:0:0:
256,192,49806,1,0,0:0:0:0:
256,192,49873,1,8,0:0:0:0:
256,192,50006,1,0,0:0:0:0:
256,192,50139,1,8,0:0:0:0:
256,192,50206,1,8,0:0:0:0:
256,192,50273,1,8,0:0:0:0:
256,192,50406,1,0,0:0:0:0:
256,192,50473,1,0,0:0:0:0:
256,192,50539,1,8,0:0:0:0:
256,192,50606,1,8,0:0:0:0:
256,192,50673,1,0,0:0:0:0:
256,192,50806,1,8,0:0:0:0:
256,192,50873,1,0,0:0:0:0:
256,192,50939,1,8,0:0:0:0:
256,192,51073,1,0,0:0:0:0:
256,192,51206,1,8,0:0:0:0:
256,192,51273,1,8,0:0:0:0:
256,192,51339,1,0,0:0:0:0:
256,192,51539,1,0,0:0:0:0:
256,192,51606,1,0,0:0:0:0:
256,192,51739,1,0,0:0:0:0:
256,192,51873,1,8,0:0:0:0:
256,192,52006,1,8,0:0:0:0:
256,192,52139,1,0,0:0:0:0:
256,192,52273,1,8,0:0:0:0:
256,192,52406,1,0,0:0:0:0:
256,192,52539,1,8,0:0:0:0:
256,192,52606,1,8,0:0:0:0:
256,192,52673,1,0,0:0:0:0:
256,192,52806,1,0,0:0:0:0:
256,192,52939,1,8,0:0:0:0:
256,192,53006,1,0,0:0:0:0:
256,192,53073,1,8,0:0:0:0:
256,192,53139,1,8,0:0:0:0:
256,192,53206,1,0,0:0:0:0:
256,192,53339,1,8,0:0:0:0:
256,192,53406,1,8,0:0:0:0:
256,192,53473,1,8,0:0:0:0:
256,192,53606,1,0,0:0:0:0:
256,192,53673,1,0,0:0:0:0:
256,192,53739,1,8,0:0:0:0:
256,192,53806,1,0,0:0:0:0:
256,192,53873,1,8,0:0:0:0:
256,192,53939,1,8,0:0:0:0:
256,192,54006,1,0,0:0:0:0:
256,192,54139,1,0,0:0:0:0:
256,192,54273,1,12,0:0:0:0:
256,192,54406,1,12,0:0:0:0:
256,192,54539,1,0,0:0:0:0:
256,192,54673,1,0,0:0:0:0:
256,192,54806,1,12,0:0:0:0:
256,192,54939,1,12,0:0:0:0:
256,192,55073,1,0,0:0:0:0:
256,192,55206,1,0,0:0:0:0:
256,192,55339,8,0,56273,0:0:0:0:
256,192,56406,5,0,0:0:0:0:
256,192,56473,1,0,0:0:0:0:
256,192,56539,1,0,0:0:0:0:
256,192,56606,1,0,0:0:0:0:
256,192,56673,1,0,0:0:0:0:
256,192,56806,1,8,0:0:0:0:
256,192,56939,1,0,0:0:0:0:
256,192,57073,1,8,0:0:0:0:
256,192,57139,1,8,0:0:0:0:
256,192,57206,1,8,0:0:0:0:
256,192,57339,1,0,0:0:0:0:
256,192,57406,1,0,0:0:0:0:
256,192,57473,1,8,0:0:0:0:
256,192,57539,1,0,0:0:0:0:
256,192,57606,1,8,0:0:0:0:
256,192,57673,1,8,0:0:0:0:
256,192,57739,1,0,0:0:0:0:
256,192,57873,1,8,0:0:0:0:
256,192,58006,1,0,0:0:0:0:
256,192,58073,1,8,0:0:0:0:
256,192,58139,1,0,0:0:0:0:
256,192,58206,1,0,0:0:0:0:
256,192,58273,1,8,0:0:0:0:
256,192,58406,1,8,0:0:0:0:
256,192,58539,1,0,0:0:0:0:
256,192,58673,1,8,0:0:0:0:
256,192,58717,1,8,0:0:0:0:
256,192,58761,1,8,0:0:0:0:
256,192,58806,1,0,0:0:0:0:
256,192,58939,1,0,0:0:0:0:
256,192,59006,1,0,0:0:0:0:
256,192,59073,1,0,0:0:0:0:
256,192,59206,1,0,0:0:0:0:
256,192,59339,1,8,0:0:0:0:
256,192,59473,1,8,0:0:0:0:
256,192,59606,1,0,0:0:0:0:
256,192,59739,1,8,0:0:0:0:
256,192,59806,1,8,0:0:0:0:
256,192,59873,1,8,0:0:0:0:
256,192,59939,1,8,0:0:0:0:
256,192,60006,1,0,0:0:0:0:
256,192,60139,1,0,0:0:0:0:
256,192,60228,1,0,0:0:0:0:
256,192,60317,1,0,0:0:0:0:
256,192,60406,1,8,0:0:0:0:
256,192,60539,1,8,0:0:0:0:
256,192,60673,1,4,0:0:0:0:
256,192,60806,1,4,0:0:0:0:
256,192,60939,1,12,0:0:0:0:
256,192,61073,1,0,0:0:0:0:
256,192,61206,1,8,0:0:0:0:
256,192,61273,1,8,0:0:0:0:
256,192,61339,1,0,0:0:0:0:
256,192,61406,1,0,0:0:0:0:
256,192,61473,1,8,0:0:0:0:
256,192,61539,1,0,0:0:0:0:
256,192,61606,1,8,0:0:0:0:
256,192,61739,1,0,0:0:0:0:
256,192,61873,1,8,0:0:0:0:
256,192,61939,1,8,0:0:0:0:
256,192,62006,1,0,0:0:0:0:
256,192,62139,1,8,0:0:0:0:
256,192,62273,1,0,0:0:0:0:
256,192,62361,1,0,0:0:0:0:
256,192,62450,1,0,0:0:0:0:
256,192,62539,1,0,0:0:0:0:
256,192,62628,1,0,0:0:0:0:
256,192,62717,1,0,0:0:0:0:
256,192,62806,1,12,0:0:0:0:
256,192,62939,1,0,0:0:0:0:
256,192,63006,1,0,0:0:0:0:
256,192,63073,1,0,0:0:0:0:
256,192,63206,1,12,0:0:0:0:
256,192,63339,1,0,0:0:0:0:
256,192,63406,1,0,0:0:0:0:
256,192,63473,1,0,0:0:0:0:
256,192,63606,1,12,0:0:0:0:
256,192,63873,1,0,0:0:0:0:
256,192,63939,1,0,0:0:0:0:
256,192,64006,1,0,0:0:0:0:
256,192,64073,1,0,0:0:0:0:
256,192,64139,1,12,0:0:0:0:
256,192,64539,1,8,0:0:0:0:
256,192,64606,1,8,0:0:0:0:
256,192,64673,1,0,0:0:0:0:
256,192,64739,1,0,0:0:0:0:
256,192,64806,1,0,0:0:0:0:
256,192,64873,1,0,0:0:0:0:
256,192,64939,1,12,0:0:0:0:
256,192,65206,1,0,0:0:0:0:
256,192,65473,1,8,0:0:0:0:
256,192,65739,1,0,0:0:0:0:
256,192,66006,1,8,0:0:0:0:
256,192,66539,1,8,0:0:0:0:
256,192,67073,1,0,0:0:0:0:
256,192,67873,1,0,0:0:0:0:
256,192,68139,1,0,0:0:0:0:
256,192,68539,1,8,0:0:0:0:
256,192,68806,1,0,0:0:0:0:
256,192,68939,1,0,0:0:0:0:
256,192,69073,1,0,0:0:0:0:
256,192,69206,1,8,0:0:0:0:
256,192,69273,1,0,0:0:0:0:
256,192,69339,1,0,0:0:0:0:
256,192,69406,1,8,0:0:0:0:
256,192,69606,1,8,0:0:0:0:
256,192,69673,1,8,0:0:0:0:
256,192,69739,1,8,0:0:0:0:
256,192,69806,1,8,0:0:0:0:
256,192,70006,1,8,0:0:0:0:
256,192,70073,1,0,0:0:0:0:
256,192,70139,1,0,0:0:0:0:
256,192,70206,1,8,0:0:0:0:
256,192,70406,1,0,0:0:0:0:
256,192,70473,1,0,0:0:0:0:
256,192,70539,1,0,0:0:0:0:
256,192,70606,1,0,0:0:0:0:
256,192,70806,1,8,0:0:0:0:
256,192,70939,1,8,0:0:0:0:
256,192,71073,1,0,0:0:0:0:
256,192,71139,1,0,0:0:0:0:
256,192,71206,1,0,0:0:0:0:
256,192,71273,1,0,0:0:0:0:
256,192,71339,1,8,0:0:0:0:
256,192,71406,1,8,0:0:0:0:
256,192,71473,1,8,0:0:0:0:
256,192,71539,1,8,0:0:0:0:
256,192,71739,1,8,0:0:0:0:
256,192,71806,1,8,0:0:0:0:
256,192,71873,1,8,0:0:0:0:
256,192,71939,1,8,0:0:0:0:
256,192,72139,1,0,0:0:0:0:
256,192,72206,1,0,0:0:0:0:
256,192,72273,1,0,0:0:0:0:
256,192,72339,1,0,0:0:0:0:
256,192,72539,1,0,0:0:0:0:
256,192,72606,1,0,0:0:0:0:
256,192,72673,1,0,0:0:0:0:
256,192,72739,1,0,0:0:0:0:
256,192,72939,1,8,0:0:0:0:
256,192,73028,1,0,0:0:0:0:
256,192,73117,1,0,0:0:0:0:
256,192,73206,1,8,0:0:0:0:
256,192,73295,1,8,0:0:0:0:
256,192,73384,1,8,0:0:0:0:
256,192,73473,1,4,0:0:0:0:
256,192,73739,1,0,0:0:0:0:
256,192,74006,1,8,0:0:0:0:
256,192,74273,1,0,0:0:0:0:
256,192,74539,1,8,0:0:0:0:
256,192,75073,1,8,0:0:0:0:
256,192,75606,1,0,0:0:0:0:
256,192,76406,1,0,0:0:0:0:
256,192,76673,1,0,0:0:0:0:
256,192,77073,1,8,0:0:0:0:
256,192,77139,1,8,0:0:0:0:
256,192,77206,1,8,0:0:0:0:
256,192,77339,1,0,0:0:0:0:
256,192,77473,1,8,0:0:0:0:
256,192,77539,1,8,0:0:0:0:
256,192,77606,1,8,0:0:0:0:
256,192,77673,1,8,0:0:0:0:
256,192,77739,1,0,0:0:0:0:
256,192,77806,1,0,0:0:0:0:
256,192,77873,1,0,0:0:0:0:
256,192,77939,1,0,0:0:0:0:
256,192,78139,1,0,0:0:0:0:
256,192,78206,1,8,0:0:0:0:
256,192,78273,1,8,0:0:0:0:
256,192,78339,1,0,0:0:0:0:
256,192,78539,1,0,0:0:0:0:
256,192,78606,1,0,0:0:0:0:
256,192,78673,1,0,0:0:0:0:
256,192,78739,1,0,0:0:0:0:
256,192,78939,1,0,0:0:0:0:
256,192,79006,1,8,0:0:0:0:
256,192,79073,1,8,0:0:0:0:
256,192,79139,1,0,0:0:0:0:
256,192,79339,1,8,0:0:0:0:
256,192,79406,1,8,0:0:0:0:
256,192,79473,1,0,0:0:0:0:
256,192,79539,1,0,0:0:0:0:
256,192,79606,1,8,0:0:0:0:
256,192,79695,1,8,0:0:0:0:
256,192,79784,1,8,0:0:0:0:
256,192,79873,1,0,0:0:0:0:
256,192,79939,1,0,0:0:0:0:
256,192,80006,1,0,0:0:0:0:
256,192,80073,1,0,0:0:0:0:
256,192,80273,1,0,0:0:0:0:
256,192,80339,1,0,0:0:0:0:
256,192,80406,1,8,0:0:0:0:
256,192,80473,1,8,0:0:0:0:
256,192,80673,1,8,0:0:0:0:
256,192,80739,1,8,0:0:0:0:
256,192,80806,1,8,0:0:0:0:
256,192,80873,1,8,0:0:0:0:
256,192,81073,1,8,0:0:0:0:
256,192,81139,1,8,0:0:0:0:
256,192,81206,1,0,0:0:0:0:
256,192,81273,1,0,0:0:0:0:
256,192,81473,1,0,0:0:0:0:
256,192,81539,1,0,0:0:0:0:
256,192,81606,1,8,0:0:0:0:
256,192,81673,1,0,0:0:0:0:
256,192,81739,1,8,0:0:0:0:
256,192,81806,1,8,0:0:0:0:
256,192,81873,1,0,0:0:0:0:
256,192,81939,1,0,0:0:0:0:
256,192,82006,1,8,0:0:0:0:
256,192,82073,1,8,0:0:0:0:
256,192,82139,1,8,0:0:0:0:
256,192,82206,1,8,0:0:0:0:
256,192,82406,1,8,0:0:0:0:
256,192,82473,1,8,0:0:0:0:
256,192,82539,1,8,0:0:0:0:
256,192,82606,1,8,0:0:0:0:
256,192,82806,1,8,0:0:0:0:
256,192,82873,1,0,0:0:0:0:
256,192,82939,1,0,0:0:0:0:
256,192,83006,1,8,0:0:0:0:
256,192,83206,1,8,0:0:0:0:
256,192,83273,1,0,0:0:0:0:
256,192,83339,1,0,0:0:0:0:
256,192,83406,1,8,0:0:0:0:
256,192,83606,1,8,0:0:0:0:
256,192,83695,1,8,0:0:0:0:
256,192,83784,1,8,0:0:0:0:
256,192,83873,1,8,0:0:0:0:
256,192,83961,1,8,0:0:0:0:
256,192,84050,1,8,0:0:0:0:
256,192,84139,8,8,85073,0:0:0:0:
256,192,85206,5,0,0:0:0:0:
256,192,85339,1,0,0:0:0:0:
256,192,85406,1,0,0:0:0:0:
256,192,85473,1,0,0:0:0:0:
256,192,85606,1,0,0:0:0:0:
256,192,85673,1,0,0:0:0:0:
256,192,85739,1,0,0:0:0:0:
256,192,85806,1,0,0:0:0:0:
256,192,85873,1,0,0:0:0:0:
256,128,86006,1,12,0:0:0:0:
256,192,86273,1,12,0:0:0:0:
256,192,86406,1,0,0:0:0:0:
256,192,86473,1,0,0:0:0:0:
256,192,86539,1,8,0:0:0:0:
256,192,86673,1,0,0:0:0:0:
256,192,86739,1,0,0:0:0:0:
256,192,86806,1,8,0:0:0:0:
256,192,86873,1,0,0:0:0:0:
256,192,86939,1,8,0:0:0:0:
256,192,87006,1,8,0:0:0:0:
256,192,87073,1,0,0:0:0:0:
256,192,87139,1,0,0:0:0:0:
256,192,87206,1,8,0:0:0:0:
256,192,87273,1,0,0:0:0:0:
256,192,87339,1,8,0:0:0:0:
256,192,87473,1,0,0:0:0:0:
256,192,87539,1,8,0:0:0:0:
256,192,87606,1,0,0:0:0:0:
256,192,87739,1,8,0:0:0:0:
256,192,87873,1,0,0:0:0:0:
256,192,87939,1,0,0:0:0:0:
256,192,88006,1,8,0:0:0:0:
256,192,88073,1,8,0:0:0:0:
256,192,88139,1,0,0:0:0:0:
256,192,88206,1,8,0:0:0:0:
256,192,88273,1,0,0:0:0:0:
256,192,88339,1,0,0:0:0:0:
256,192,88406,1,8,0:0:0:0:
256,192,88539,1,0,0:0:0:0:
256,192,88606,1,0,0:0:0:0:
256,192,88673,1,8,0:0:0:0:
256,192,88806,1,0,0:0:0:0:
256,192,88939,1,8,0:0:0:0:
256,192,89006,1,0,0:0:0:0:
256,192,89073,1,8,0:0:0:0:
256,192,89139,1,8,0:0:0:0:
256,192,89206,1,0,0:0:0:0:
256,192,89339,1,0,0:0:0:0:
256,192,89473,1,8,0:0:0:0:
256,192,89539,1,8,0:0:0:0:
256,192,89606,1,0,0:0:0:0:
256,192,89673,1,0,0:0:0:0:
256,192,89739,1,0,0:0:0:0:
256,192,89873,1,8,0:0:0:0:
256,192,89939,1,8,0:0:0:0:
256,192,90006,1,8,0:0:0:0:
256,192,90073,1,8,0:0:0:0:
256,192,90139,1,0,0:0:0:0:
256,192,90273,1,8,0:0:0:0:
256,192,90339,1,8,0:0:0:0:
256,192,90406,1,0,0:0:0:0:
256,192,90473,1,8,0:0:0:0:
256,192,90539,1,0,0:0:0:0:
256,192,90673,1,8,0:0:0:0:
256,192,90806,1,0,0:0:0:0:
256,192,90873,1,0,0:0:0:0:
256,192,90939,1,8,0:0:0:0:
256,192,91073,1,0,0:0:0:0:
256,192,91139,1,0,0:0:0:0:
256,192,91206,1,8,0:0:0:0:
256,192,91273,1,8,0:0:0:0:
256,192,91339,1,0,0:0:0:0:
256,192,91406,1,8,0:0:0:0:
256,192,91473,1,0,0:0:0:0:
256,192,91606,1,8,0:0:0:0:
256,192,91673,1,0,0:0:0:0:
256,192,91739,1,0,0:0:0:0:
256,192,91806,1,0,0:0:0:0:
256,192,91873,1,8,0:0:0:0:
256,192,92006,1,0,0:0:0:0:
256,192,92139,1,8,0:0:0:0:
256,192,92206,1,8,0:0:0:0:
256,192,92273,1,0,0:0:0:0:
256,192,92339,1,8,0:0:0:0:
256,192,92406,1,0,0:0:0:0:
256,192,92473,1,0,0:0:0:0:
256,192,92539,1,8,0:0:0:0:
256,192,92606,1,8,0:0:0:0:
256,192,92673,1,0,0:0:0:0:
256,192,92806,1,0,0:0:0:0:
256,192,92873,1,0,0:0:0:0:
256,192,92939,1,8,0:0:0:0:
256,192,93073,1,8,0:0:0:0:
256,192,93206,1,0,0:0:0:0:
256,192,93273,1,0,0:0:0:0:
256,192,93339,1,0,0:0:0:0:
256,192,93406,1,0,0:0:0:0:
256,192,93473,1,8,0:0:0:0:
256,192,93606,1,0,0:0:0:0:
256,192,93739,1,12,0:0:0:0:
256,192,93939,1,12,0:0:0:0:
256,192,94139,1,12,0:0:0:0:
256,192,94339,1,12,0:0:0:0:
256,192,94539,1,0,0:0:0:0:
256,192,94584,1,0,0:0:0:0:
256,192,94628,1,0,0:0:0:0:
256,192,94672,1,0,0:0:0:0:
256,192,94806,1,12,0:0:0:0:
256,192,94939,1,0,0:0:0:0:
256,192,95006,1,8,0:0:0:0:
256,192,95073,1,0,0:0:0:0:
256,192,95139,1,0,0:0:0:0:
256,192,95206,1,8,0:0:0:0:
256,192,95339,1,0,0:0:0:0:
256,192,95406,1,0,0:0:0:0:
256,192,95473,1,8,0:0:0:0:
256,192,95539,1,0,0:0:0:0:
256,192,95606,1,8,0:0:0:0:
256,192,95673,1,8,0:0:0:0:
256,192,95739,1,0,0:0:0:0:
256,192,95873,1,12,0:0:0:0:
256,192,96006,1,12,0:0:0:0:
256,192,96273,1,12,0:0:0:0:
256,192,96539,1,12,0:0:0:0:
256,192,96806,1,0,0:0:0:0:
256,192,96873,1,0,0:0:0:0:
256,192,96939,1,8,0:0:0:0:
256,192,97073,1,0,0:0:0:0:
256,192,97206,1,8,0:0:0:0:
256,192,97273,1,0,0:0:0:0:
256,192,97339,1,8,0:0:0:0:
256,192,97406,1,8,0:0:0:0:
256,192,97473,1,0,0:0:0:0:
256,192,97539,1,0,0:0:0:0:
256,192,97606,1,0,0:0:0:0:
256,192,97673,1,0,0:0:0:0:
256,192,97739,1,8,0:0:0:0:
256,192,97873,1,8,0:0:0:0:
256,192,98006,1,4,0:0:0:0:
256,192,98206,1,4,0:0:0:0:
256,192,98406,1,4,0:0:0:0:
256,192,98673,1,12,0:0:0:0:
256,192,98939,1,8,0:0:0:0:
256,192,99006,1,8,0:0:0:0:
256,192,99073,1,0,0:0:0:0:
256,192,99206,1,0,0:0:0:0:
256,192,99339,1,8,0:0:0:0:
256,192,99406,1,8,0:0:0:0:
256,192,99473,1,0,0:0:0:0:
256,192,99539,1,0,0:0:0:0:
256,192,99606,1,8,0:0:0:0:
256,192,99739,1,8,0:0:0:0:
256,192,99873,1,0,0:0:0:0:
256,192,100006,1,0,0:0:0:0:
256,192,100139,1,8,0:0:0:0:
256,192,100206,1,8,0:0:0:0:
256,192,100273,1,8,0:0:0:0:
256,192,100339,1,8,0:0:0:0:
256,192,100406,1,0,0:0:0:0:
256,192,100606,1,8,0:0:0:0:
256,192,100673,1,0,0:0:0:0:
256,192,100806,1,0,0:0:0:0:
256,192,100939,1,8,0:0:0:0:
256,192,100984,1,8,0:0:0:0:
256,192,101028,1,8,0:0:0:0:
256,192,101073,1,0,0:0:0:0:
256,192,101117,1,0,0:0:0:0:
256,192,101161,1,0,0:0:0:0:
256,192,101206,1,8,0:0:0:0:
256,192,101473,1,0,0:0:0:0:
256,192,101606,1,8,0:0:0:0:
256,192,101873,1,0,0:0:0:0:
256,192,102006,1,0,0:0:0:0:
256,192,102139,1,8,0:0:0:0:
256,192,102406,1,0,0:0:0:0:
256,192,102539,1,8,0:0:0:0:
256,192,102606,1,0,0:0:0:0:
256,192,102673,1,8,0:0:0:0:
256,192,102739,1,8,0:0:0:0:
256,192,102806,1,0,0:0:0:0:
256,192,102939,1,0,0:0:0:0:
256,192,103073,1,8,0:0:0:0:
256,192,103339,1,12,0:0:0:0:
256,192,103739,1,12,0:0:0:0:
256,192,104273,1,8,0:0:0:0:
256,192,104339,1,8,0:0:0:0:
256,192,104406,1,0,0:0:0:0:
256,192,104473,1,0,0:0:0:0:
256,192,104539,1,8,0:0:0:0:
256,192,104606,1,0,0:0:0:0:
256,192,104673,1,8,0:0:0:0:
256,192,104739,1,8,0:0:0:0:
256,192,104806,1,0,0:0:0:0:
256,192,104873,1,0,0:0:0:0:
256,192,104939,1,8,0:0:0:0:
256,192,105006,1,0,0:0:0:0:
256,192,105073,1,8,0:0:0:0:
256,192,105139,1,8,0:0:0:0:
256,192,105206,1,0,0:0:0:0:
256,192,105273,1,0,0:0:0:0:
256,192,105339,1,8,0:0:0:0:
256,192,105406,1,8,0:0:0:0:
256,192,105473,1,0,0:0:0:0:
256,192,105539,1,0,0:0:0:0:
256,192,105606,1,0,0:0:0:0:
256,192,105673,1,0,0:0:0:0:
256,192,105739,1,8,0:0:0:0:
256,192,105806,1,8,0:0:0:0:
256,192,105873,1,0,0:0:0:0:
256,192,105939,1,0,0:0:0:0:
256,192,106006,1,8,0:0:0:0:
256,192,106073,1,8,0:0:0:0:
256,192,106139,1,8,0:0:0:0:
256,192,106206,1,8,0:0:0:0:
256,192,106273,1,0,0:0:0:0:
256,192,106317,1,0,0:0:0:0:
256,192,106361,1,0,0:0:0:0:
256,192,106406,1,0,0:0:0:0:
256,192,106450,1,0,0:0:0:0:
256,192,106495,1,0,0:0:0:0:
256,192,106539,1,12,0:0:0:0:
256,192,106606,8,0,110539,0:0:0:0:
256,192,110806,5,8,0:0:0:0:
256,192,110873,1,8,0:0:0:0:
256,192,110939,1,0,0:0:0:0:
256,192,111006,1,0,0:0:0:0:
256,192,111073,1,8,0:0:0:0:
256,192,111139,1,0,0:0:0:0:
256,192,111206,1,0,0:0:0:0:
256,192,111273,1,0,0:0:0:0:
256,192,111339,1,8,0:0:0:0:
256,192,111406,1,8,0:0:0:0:
256,192,111473,1,0,0:0:0:0:
256,192,111539,1,0,0:0:0:0:
256,192,111606,1,8,0:0:0:0:
256,192,111673,1,0,0:0:0:0:
256,192,111739,1,0,0:0:0:0:
256,192,111806,1,0,0:0:0:0:
256,192,111873,1,8,0:0:0:0:
256,192,111939,1,8,0:0:0:0:
256,192,112006,1,8,0:0:0:0:
256,192,112073,1,8,0:0:0:0:
256,192,112139,1,0,0:0:0:0:
256,192,112206,1,0,0:0:0:0:
256,192,112273,1,8,0:0:0:0:
256,192,112339,1,8,0:0:0:0:
256,192,112406,1,8,0:0:0:0:
256,192,112473,1,8,0:0:0:0:
256,192,112539,1,0,0:0:0:0:
256,192,112606,1,0,0:0:0:0:
256,192,112673,1,8,0:0:0:0:
256,192,112739,1,8,0:0:0:0:
256,192,112806,1,8,0:0:0:0:
256,192,112873,1,8,0:0:0:0:
256,192,113873,1,0,0:0:0:0:
256,192,113917,1,0,0:0:0:0:
256,192,113961,1,0,0:0:0:0:
256,192,114006,1,8,0:0:0:0:
256,192,114139,1,0,0:0:0:0:
256,192,114206,1,0,0:0:0:0:
256,192,114273,1,0,0:0:0:0:
256,192,114406,1,8,0:0:0:0:
256,192,114539,1,0,0:0:0:0:
256,192,114606,1,0,0:0:0:0:
256,192,114673,1,0,0:0:0:0:
256,128,114806,1,12,0:0:0:0:
256,192,115073,1,4,0:0:0:0:
256,192,115206,1,4,0:0:0:0:
256,192,115339,1,12,0:0:0:0:
256,192,115473,1,0,0:0:0:0:
256,192,115539,1,0,0:0:0:0:
256,192,115606,1,8,0:0:0:0:
256,192,115673,1,0,0:0:0:0:
256,192,115739,1,8,0:0:0:0:
256,192,115806,1,8,0:0:0:0:
256,192,115873,1,0,0:0:0:0:
256,192,115939,1,0,0:0:0:0:
256,192,116006,1,8,0:0:0:0:
256,192,116073,1,0,0:0:0:0:
256,192,116139,1,8,0:0:0:0:
256,192,116273,1,0,0:0:0:0:
256,192,116339,1,0,0:0:0:0:
256,192,116406,1,8,0:0:0:0:
256,192,116473,1,8,0:0:0:0:
256,192,116539,1,8,0:0:0:0:
256,192,116606,1,8,0:0:0:0:
256,192,116673,1,0,0:0:0:0:
256,192,116806,1,0,0:0:0:0:
256,192,116873,1,0,0:0:0:0:
256,192,116939,1,8,0:0:0:0:
256,192,116984,1,8,0:0:0:0:
256,192,117028,1,8,0:0:0:0:
256,192,117073,1,0,0:0:0:0:
256,192,117206,1,8,0:0:0:0:
256,192,117273,1,0,0:0:0:0:
256,192,117339,1,0,0:0:0:0:
256,192,117406,1,0,0:0:0:0:
256,192,117473,1,8,0:0:0:0:
256,192,117539,1,0,0:0:0:0:
256,192,117606,1,8,0:0:0:0:
256,192,117739,1,0,0:0:0:0:
256,192,117806,1,8,0:0:0:0:
256,192,117873,1,0,0:0:0:0:
256,192,117939,1,0,0:0:0:0:
256,192,118006,1,8,0:0:0:0:
256,192,118206,1,0,0:0:0:0:
256,192,118273,1,8,0:0:0:0:
256,192,118406,1,0,0:0:0:0:
256,192,118473,1,0,0:0:0:0:
256,192,118539,1,8,0:0:0:0:
256,192,118673,1,0,0:0:0:0:
256,192,118806,1,8,0:0:0:0:
256,192,118939,1,8,0:0:0:0:
256,192,119006,1,8,0:0:0:0:
256,192,119073,1,0,0:0:0:0:
256,192,119117,1,0,0:0:0:0:
256,192,119161,1,0,0:0:0:0:
256,192,119206,1,0,0:0:0:0:
256,192,119473,1,0,0:0:0:0:
256,192,119606,1,8,0:0:0:0:
256,192,119650,1,8,0:0:0:0:
256,192,119695,1,8,0:0:0:0:
256,192,119739,1,0,0:0:0:0:
256,192,119806,1,0,0:0:0:0:
256,192,119873,1,8,0:0:0:0:
256,192,119939,1,8,0:0:0:0:
256,192,120006,1,8,0:0:0:0:
256,192,120073,1,8,0:0:0:0:
256,192,120139,1,0,0:0:0:0:
256,192,120273,1,0,0:0:0:0:
256,192,120406,1,8,0:0:0:0:
256,192,120473,1,8,0:0:0:0:
256,192,120539,1,0,0:0:0:0:
256,192,120606,1,0,0:0:0:0:
256,192,120673,1,8,0:0:0:0:
256,192,120739,1,0,0:0:0:0:
256,192,120806,1,8,0:0:0:0:
256,192,120939,1,0,0:0:0:0:
256,192,121006,1,0,0:0:0:0:
256,192,121073,1,8,0:0:0:0:
256,192,121206,1,0,0:0:0:0:
256,192,121250,1,0,0:0:0:0:
256,192,121295,1,0,0:0:0:0:
256,192,121339,1,0,0:0:0:0:
256,192,121384,1,0,0:0:0:0:
256,192,121428,1,0,0:0:0:0:
256,192,121473,1,12,0:0:0:0:
256,192,121650,1,4,0:0:0:0:
256,192,121828,1,4,0:0:0:0:
256,192,122006,1,12,0:0:0:0:
256,192,122184,1,4,0:0:0:0:
256,192,122273,1,12,0:0:0:0:
256,192,122450,1,12,0:0:0:0:
256,192,122539,8,0,123206,0:0:0:0:
256,128,123339,5,4,0:0:0:0:
256,192,123606,1,12,0:0:0:0:
256,192,123739,1,0,0:0:0:0:
256,192,123873,1,8,0:0:0:0:
256,192,123939,1,8,0:0:0:0:
256,192,124006,1,0,0:0:0:0:
256,192,124073,1,0,0:0:0:0:
256,192,124139,1,8,0:0:0:0:
256,192,124206,1,8,0:0:0:0:
256,192,124273,1,8,0:0:0:0:
256,192,124339,1,8,0:0:0:0:
256,192,124406,1,0,0:0:0:0:
256,192,124473,1,0,0:0:0:0:
256,192,124539,1,8,0:0:0:0:
256,192,124606,1,8,0:0:0:0:
256,192,124673,1,0,0:0:0:0:
256,192,124806,1,0,0:0:0:0:
256,192,124939,1,8,0:0:0:0:
256,192,125006,1,8,0:0:0:0:
256,192,125073,1,0,0:0:0:0:
256,192,125139,1,0,0:0:0:0:
256,192,125206,1,8,0:0:0:0:
256,192,125273,1,0,0:0:0:0:
256,192,125339,1,8,0:0:0:0:
256,192,125473,1,0,0:0:0:0:
256,192,125539,1,0,0:0:0:0:
256,192,125606,1,8,0:0:0:0:
256,192,125673,1,8,0:0:0:0:
256,192,125739,1,0,0:0:0:0:
256,192,125873,1,0,0:0:0:0:
256,192,125939,1,0,0:0:0:0:
256,192,126006,1,8,0:0:0:0:
256,192,126073,1,8,0:0:0:0:
256,192,126139,1,0,0:0:0:0:
256,192,126206,1,0,0:0:0:0:
256,192,126273,1,8,0:0:0:0:
256,192,126339,1,8,0:0:0:0:
256,192,126406,1,8,0:0:0:0:
256,192,126473,1,8,0:0:0:0:
256,192,126539,1,0,0:0:0:0:
256,192,126673,1,0,0:0:0:0:
256,192,126806,1,8,0:0:0:0:
256,192,126873,1,0,0:0:0:0:
256,192,126939,1,8,0:0:0:0:
256,192,127006,1,8,0:0:0:0:
256,192,127073,1,0,0:0:0:0:
256,192,127139,1,8,0:0:0:0:
256,192,127206,1,0,0:0:0:0:
256,192,127250,1,0,0:0:0:0:
256,192,127295,1,0,0:0:0:0:
256,192,127339,1,8,0:0:0:0:
256,192,127473,1,0,0:0:0:0:
256,192,127539,1,0,0:0:0:0:
256,192,127606,1,8,0:0:0:0:
256,192,127650,1,8,0:0:0:0:
256,192,127695,1,8,0:0:0:0:
256,192,127739,1,0,0:0:0:0:
256,192,127873,1,12,0:0:0:0:
256,192,128006,1,0,0:0:0:0:
256,192,128139,1,8,0:0:0:0:
256,192,128206,1,8,0:0:0:0:
256,192,128273,1,0,0:0:0:0:
256,192,128339,1,0,0:0:0:0:
256,192,128406,1,8,0:0:0:0:
256,192,128473,1,8,0:0:0:0:
256,192,128539,1,8,0:0:0:0:
256,192,128606,1,8,0:0:0:0:
256,192,128673,1,0,0:0:0:0:
256,192,128739,1,0,0:0:0:0:
256,192,128806,1,8,0:0:0:0:
256,192,128873,1,8,0:0:0:0:
256,192,128939,1,0,0:0:0:0:
256,192,129073,1,0,0:0:0:0:
256,192,129206,1,8,0:0:0:0:
256,192,129273,1,0,0:0:0:0:
256,192,129339,1,8,0:0:0:0:
256,192,129406,1,8,0:0:0:0:
256,192,129473,1,0,0:0:0:0:
256,192,129606,1,0,0:0:0:0:
256,192,129739,1,8,0:0:0:0:
256,192,129806,1,8,0:0:0:0:
256,192,129873,1,0,0:0:0:0:
256,192,129939,1,0,0:0:0:0:
256,192,130006,1,12,0:0:0:0:
256,192,130139,1,0,0:0:0:0:
256,192,130273,1,0,0:0:0:0:
256,192,130406,1,12,0:0:0:0:
256,192,130539,1,0,0:0:0:0:
256,192,130673,1,0,0:0:0:0:
256,192,130806,1,12,0:0:0:0:
256,192,130939,1,0,0:0:0:0:
256,192,131073,1,0,0:0:0:0:
256,192,131206,1,12,0:0:0:0:
256,192,131406,1,12,0:0:0:0:
256,192,131606,1,4,0:0:0:0:
256,192,132139,1,8,0:0:0:0:
256,192,132206,1,8,0:0:0:0:
256,192,132273,1,8,0:0:0:0:
256,192,132339,1,8,0:0:0:0:
256,192,132406,1,8,0:0:0:0:
256,192,132539,1,0,0:0:0:0:
256,192,132673,1,8,0:0:0:0:
256,192,132739,1,8,0:0:0:0:
256,192,132806,1,0,0:0:0:0:
256,192,132873,1,8,0:0:0:0:
256,192,132939,1,0,0:0:0:0:
256,192,133006,1,0,0:0:0:0:
256,192,133073,1,8,0:0:0:0:
256,192,133139,1,0,0:0:0:0:
256,192,133206,1,8,0:0:0:0:
256,192,133339,1,8,0:0:0:0:
256,192,133473,1,0,0:0:0:0:
256,192,133606,1,8,0:0:0:0:
256,192,133673,1,8,0:0:0:0:
256,192,133739,1,0,0:0:0:0:
256,192,133873,1,8,0:0:0:0:
256,192,133939,1,0,0:0:0:0:
256,192,134006,1,8,0:0:0:0:
256,192,134073,1,0,0:0:0:0:
256,192,134139,1,0,0:0:0:0:
256,192,134206,1,0,0:0:0:0:
256,192,134273,1,8,0:0:0:0:
256,192,134406,1,0,0:0:0:0:
256,192,134473,1,0,0:0:0:0:
256,192,134539,1,8,0:0:0:0:
256,192,134673,1,0,0:0:0:0:
256,192,134806,1,8,0:0:0:0:
256,192,134873,1,0,0:0:0:0:
256,192,134939,1,8,0:0:0:0:
256,192,135006,1,8,0:0:0:0:
256,192,135073,1,0,0:0:0:0:
256,192,135139,1,8,0:0:0:0:
256,192,135206,1,0,0:0:0:0:
256,192,135273,1,0,0:0:0:0:
256,192,135339,1,8,0:0:0:0:
256,192,135473,1,8,0:0:0:0:
256,192,135539,1,8,0:0:0:0:
256,192,135606,1,0,0:0:0:0:
256,192,135739,1,0,0:0:0:0:
256,192,135873,1,8,0:0:0:0:
256,192,135939,1,8,0:0:0:0:
256,192,136006,1,0,0:0:0:0:
256,192,136073,1,0,0:0:0:0:
256,192,136139,1,8,0:0:0:0:
256,192,136206,1,0,0:0:0:0:
256,192,136273,1,8,0:0:0:0:
256,192,136339,1,8,0:0:0:0:
256,192,136406,1,4,0:0:0:0:
256,192,136673,1,8,0:0:0:0:
256,192,136806,1,0,0:0:0:0:
256,192,137073,1,8,0:0:0:0:
256,192,137206,1,0,0:0:0:0:
256,192,137339,1,0,0:0:0:0:
256,192,137473,1,8,0:0:0:0:
256,192,137739,1,8,0:0:0:0:
256,192,137873,1,0,0:0:0:0:
256,192,138139,1,8,0:0:0:0:
256,192,138273,1,8,0:0:0:0:
256,192,138539,1,0,0:0:0:0:
256,192,138673,1,0,0:0:0:0:
256,192,138806,1,8,0:0:0:0:
256,192,138939,1,0,0:0:0:0:
256,192,139206,1,8,0:0:0:0:
256,192,139339,1,0,0:0:0:0:
256,192,139606,1,8,0:0:0:0:
256,192,139739,1,8,0:0:0:0:
256,192,139873,1,8,0:0:0:0:
256,192,140006,1,0,0:0:0:0:
256,192,140273,1,8,0:0:0:0:
256,192,140406,1,8,0:0:0:0:
256,192,140673,1,4,0:0:0:0:
256,192,140806,1,4,0:0:0:0:
256,192,140939,1,12,0:0:0:0:
256,192,141073,1,0,0:0:0:0:
256,192,141139,1,0,0:0:0:0:
256,192,141206,1,8,0:0:0:0:
256,192,141273,1,8,0:0:0:0:
256,192,141339,1,8,0:0:0:0:
256,192,141406,1,8,0:0:0:0:
256,192,141473,1,0,0:0:0:0:
256,192,141606,1,8,0:0:0:0:
256,192,141673,1,8,0:0:0:0:
256,192,141739,1,0,0:0:0:0:
256,192,141873,1,8,0:0:0:0:
256,192,141939,1,0,0:0:0:0:
256,192,142006,1,8,0:0:0:0:
256,192,142073,1,0,0:0:0:0:
256,192,142139,1,0,0:0:0:0:
256,192,142273,1,8,0:0:0:0:
256,192,142406,1,8,0:0:0:0:
256,192,142539,1,0,0:0:0:0:
256,192,142606,1,0,0:0:0:0:
256,192,142673,1,0,0:0:0:0:
256,192,142739,1,0,0:0:0:0:
256,192,142806,1,8,0:0:0:0:
256,192,142939,1,0,0:0:0:0:
256,192,143073,1,8,0:0:0:0:
256,192,143139,1,0,0:0:0:0:
256,192,143206,1,0,0:0:0:0:
256,192,143273,1,0,0:0:0:0:
256,192,143339,1,8,0:0:0:0:
256,192,143406,1,0,0:0:0:0:
256,192,143473,1,8,0:0:0:0:
256,192,143606,1,0,0:0:0:0:
256,192,143673,1,0,0:0:0:0:
256,192,143739,1,8,0:0:0:0:
256,192,143873,1,0,0:0:0:0:
256,192,143939,1,8,0:0:0:0:
256,192,144006,1,8,0:0:0:0:
256,192,144073,1,8,0:0:0:0:
256,192,144139,1,0,0:0:0:0:
256,192,144206,1,8,0:0:0:0:
256,192,144273,1,0,0:0:0:0:
256,192,144406,1,8,0:0:0:0:
256,192,144539,1,8,0:0:0:0:
256,192,144606,1,8,0:0:0:0:
256,192,144673,1,0,0:0:0:0:
256,192,144717,1,0,0:0:0:0:
256,192,144761,1,0,0:0:0:0:
256,192,144806,1,0,0:0:0:0:
256,192,144939,1,12,0:0:0:0:
256,192,145206,1,8,0:0:0:0:
256,192,145339,1,0,0:0:0:0:
256,192,145473,1,0,0:0:0:0:
256,192,145606,1,8,0:0:0:0:
256,192,145739,1,0,0:0:0:0:
256,192,146006,1,8,0:0:0:0:
256,192,146139,1,0,0:0:0:0:
256,192,146273,1,8,0:0:0:0:
256,192,146406,1,8,0:0:0:0:
256,192,146673,1,8,0:0:0:0:
256,192,146806,1,0,0:0:0:0:
256,192,147073,1,8,0:0:0:0:
256,192,147139,1,8,0:0:0:0:
256,192,147206,1,8,0:0:0:0:
256,192,147273,1,8,0:0:0:0:
256,192,147339,1,0,0:0:0:0:
256,192,147473,1,8,0:0:0:0:
256,192,147539,1,8,0:0:0:0:
256,192,147606,1,0,0:0:0:0:
256,192,147673,1,0,0:0:0:0:
256,192,147739,1,8,0:0:0:0:
256,192,147873,1,0,0:0:0:0:
256,192,147939,1,0,0:0:0:0:
256,192,148006,1,0,0:0:0:0:
256,192,148073,1,0,0:0:0:0:
256,192,148139,1,8,0:0:0:0:
256,192,148273,1,0,0:0:0:0:
256,192,148339,1,0,0:0:0:0:
256,192,148406,1,8,0:0:0:0:
256,192,148473,1,8,0:0:0:0:
256,192,148539,1,0,0:0:0:0:
256,192,148606,1,0,0:0:0:0:
256,192,148673,1,8,0:0:0:0:
256,192,148739,1,8,0:0:0:0:
256,192,148806,1,8,0:0:0:0:
256,192,148873,1,8,0:0:0:0:
256,192,148939,1,0,0:0:0:0:
256,192,149006,1,0,0:0:0:0:
256,192,149073,1,0,0:0:0:0:
256,192,149139,1,0,0:0:0:0:
256,192,149206,1,12,0:0:0:0:
256,192,149339,8,0,157606,0:0:0:0:
256,192,157739,5,12,0:0:0:0:
256,192,158006,1,0,0:0:0:0:
256,192,158139,1,0,0:0:0:0:
256,192,158273,1,8,0:0:0:0:
256,192,158539,1,0,0:0:0:0:
256,192,158606,1,0,0:0:0:0:
256,192,158673,1,8,0:0:0:0:
256,192,158739,1,8,0:0:0:0:
256,192,158806,1,0,0:0:0:0:
256,192,158939,1,8,0:0:0:0:
256,192,159073,1,0,0:0:0:0:
256,192,159339,1,8,0:0:0:0:
256,192,159473,1,0,0:0:0:0:
256,192,159606,1,8,0:0:0:0:
256,192,159673,1,8,0:0:0:0:
256,192,159739,1,8,0:0:0:0:
256,192,159806,1,8,0:0:0:0:
256,192,159873,1,0,0:0:0:0:
256,192,160006,1,0,0:0:0:0:
256,192,160139,1,0,0:0:0:0:
256,192,160406,1,8,0:0:0:0:
256,192,160539,1,8,0:0:0:0:
256,192,160806,1,0,0:0:0:0:
256,192,160873,1,0,0:0:0:0:
256,192,160939,1,8,0:0:0:0:
256,192,161073,1,8,0:0:0:0:
256,192,161206,1,0,0:0:0:0:
256,192,161473,1,8,0:0:0:0:
256,192,161606,1,8,0:0:0:0:
256,192,161739,1,0,0:0:0:0:
256,192,161873,1,8,0:0:0:0:
256,192,162006,1,0,0:0:0:0:
256,192,162139,1,0,0:0:0:0:
256,192,162273,1,0,0:0:0:0:
256,192,162539,1,8,0:0:0:0:
256,192,162673,1,8,0:0:0:0:
256,192,162806,1,0,0:0:0:0:
256,192,162939,1,0,0:0:0:0:
256,192,163006,1,0,0:0:0:0:
256,192,163073,1,8,0:0:0:0:
256,192,163206,1,8,0:0:0:0:
256,192,163339,1,0,0:0:0:0:
256,192,163606,1,8,0:0:0:0:
256,192,163739,1,0,0:0:0:0:
256,192,163806,1,0,0:0:0:0:
256,192,163873,1,8,0:0:0:0:
256,192,163939,1,8,0:0:0:0:
256,192,164006,1,8,0:0:0:0:
256,192,164139,1,0,0:0:0:0:
256,192,164273,1,8,0:0:0:0:
256,192,164406,1,0,0:0:0:0:
256,192,164673,1,8,0:0:0:0:
256,192,164806,1,8,0:0:0:0:
256,192,165073,1,0,0:0:0:0:
256,192,165139,1,0,0:0:0:0:
256,192,165206,1,8,0:0:0:0:
256,192,165339,1,8,0:0:0:0:
256,192,165473,1,0,0:0:0:0:
256,192,165739,1,0,0:0:0:0:
256,192,165806,1,0,0:0:0:0:
256,192,165873,1,0,0:0:0:0:
256,192,165939,1,0,0:0:0:0:
256,192,166006,1,8,0:0:0:0:
256,192,166073,1,8,0:0:0:0:
256,192,166139,1,8,0:0:0:0:
256,192,166206,1,8,0:0:0:0:
256,192,166273,1,0,0:0:0:0:
256,192,166339,1,0,0:0:0:0:
256,192,166406,1,0,0:0:0:0:
256,192,166473,1,0,0:0:0:0:
256,192,166673,1,8,0:0:0:0:
256,192,166739,1,8,0:0:0:0:
256,192,166806,1,8,0:0:0:0:
256,192,166873,1,8,0:0:0:0:
256,192,167073,1,8,0:0:0:0:
256,192,167206,1,0,0:0:0:0:
256,192,167339,1,8,0:0:0:0:
256,192,167473,1,8,0:0:0:0:
256,192,167539,1,8,0:0:0:0:
256,192,167606,1,0,0:0:0:0:
256,192,167739,1,8,0:0:0:0:
256,192,167806,1,0,0:0:0:0:
256,192,167873,1,0,0:0:0:0:
256,192,168006,1,0,0:0:0:0:
256,192,168139,1,8,0:0:0:0:
256,192,168206,1,8,0:0:0:0:
256,192,168273,1,8,0:0:0:0:
256,192,168406,1,0,0:0:0:0:
256,192,168473,1,0,0:0:0:0:
256,192,168539,1,0,0:0:0:0:
256,192,168606,1,0,0:0:0:0:
256,192,168806,1,8,0:0:0:0:
256,192,168873,1,8,0:0:0:0:
256,192,168939,1,8,0:0:0:0:
256,192,169006,1,8,0:0:0:0:
256,192,169206,1,8,0:0:0:0:
256,192,169339,1,0,0:0:0:0:
256,192,169473,1,8,0:0:0:0:
256,192,169606,1,8,0:0:0:0:
256,192,169673,1,8,0:0:0:0:
256,192,169739,1,0,0:0:0:0:
256,192,169806,1,0,0:0:0:0:
256,192,169873,1,8,0:0:0:0:
256,192,169939,1,0,0:0:0:0:
256,192,170006,1,8,0:0:0:0:
256,192,170139,1,4,0:0:0:0:
256,192,170339,1,4,0:0:0:0:
256,192,170539,1,8,0:0:0:0:
256,192,170606,1,8,0:0:0:0:
256,192,170673,1,8,0:0:0:0:
256,192,170739,1,8,0:0:0:0:
256,192,170939,1,8,0:0:0:0:
256,192,171006,1,0,0:0:0:0:
256,192,171073,1,0,0:0:0:0:
256,192,171139,1,8,0:0:0:0:
256,192,171339,1,0,0:0:0:0:
256,192,171406,1,8,0:0:0:0:
256,192,171473,1,8,0:0:0:0:
256,192,171539,1,0,0:0:0:0:
256,192,171739,1,0,0:0:0:0:
256,192,171806,1,0,0:0:0:0:
256,192,171873,1,0,0:0:0:0:
256,192,171939,1,0,0:0:0:0:
256,192,172139,1,8,0:0:0:0:
256,192,172228,1,8,0:0:0:0:
256,192,172317,1,8,0:0:0:0:
256,192,172406,1,8,0:0:0:0:
256,192,172495,1,8,0:0:0:0:
256,192,172584,1,8,0:0:0:0:
256,192,172673,1,0,0:0:0:0:
256,192,172739,1,0,0:0:0:0:
256,192,172806,1,0,0:0:0:0:
256,192,172873,1,0,0:0:0:0:
256,192,173073,1,0,0:0:0:0:
256,192,173139,1,8,0:0:0:0:
256,192,173206,1,8,0:0:0:0:
256,192,173273,1,0,0:0:0:0:
256,192,173473,1,8,0:0:0:0:
256,192,173539,1,0,0:0:0:0:
256,192,173606,1,0,0:0:0:0:
256,192,173673,1,8,0:0:0:0:
256,192,173873,1,8,0:0:0:0:
256,192,173939,1,8,0:0:0:0:
256,192,174006,1,8,0:0:0:0:
256,192,174073,1,8,0:0:0:0:
256,192,174273,1,0,0:0:0:0:
256,192,174361,1,0,0:0:0:0:
256,192,174450,1,0,0:0:0:0:
256,192,174539,1,0,0:0:0:0:
256,192,174628,1,0,0:0:0:0:
256,192,174717,1,0,0:0:0:0:
256,192,174806,1,8,0:0:0:0:
256,192,174873,1,8,0:0:0:0:
256,192,174939,1,8,0:0:0:0:
256,192,175006,1,8,0:0:0:0:
256,192,175206,1,8,0:0:0:0:
256,192,175273,1,8,0:0:0:0:
256,192,175339,1,8,0:0:0:0:
256,192,175406,1,0,0:0:0:0:
256,192,175606,1,8,0:0:0:0:
256,192,175673,1,8,0:0:0:0:
256,192,175739,1,0,0:0:0:0:
256,192,175806,1,0,0:0:0:0:
256,192,176006,1,8,0:0:0:0:
256,192,176073,1,0,0:0:0:0:
256,192,176139,1,0,0:0:0:0:
256,192,176206,1,0,0:0:0:0:
256,192,176406,1,8,0:0:0:0:
256,192,176495,1,0,0:0:0:0:
256,192,176584,1,0,0:0:0:0:
256,192,176673,1,8,0:0:0:0:
256,192,176761,1,0,0:0:0:0:
256,192,176850,1,0,0:0:0:0:
256,192,176939,1,12,0:0:0:0:
256,192,177073,1,12,0:0:0:0:
256,192,178006,1,12,0:0:0:0:
256,192,178139,1,12,0:0:0:0:
256,192,179073,1,4,0:0:0:0:
256,192,179206,1,4,0:0:0:0:
256,192,180139,1,4,0:0:0:0:
256,192,180273,1,4,0:0:0:0:
256,192,180539,1,8,0:0:0:0:
256,192,180584,1,8,0:0:0:0:
256,192,180628,1,8,0:0:0:0:
256,192,180673,1,0,0:0:0:0:
256,192,180761,1,0,0:0:0:0:
256,192,180850,1,0,0:0:0:0:
256,192,180939,1,8,0:0:0:0:
256,192,181028,1,8,0:0:0:0:
256,192,181117,1,8,0:0:0:0:
256,192,181206,1,4,0:0:0:0:
256,192,181273,8,0,185339,0:0:0:0:
256,192,185473,5,8,0:0:0:0:
256,192,185606,1,0,0:0:0:0:
256,192,185673,1,0,0:0:0:0:
256,192,185739,1,0,0:0:0:0:
256,192,185806,1,0,0:0:0:0:
256,192,185873,1,8,0:0:0:0:
256,192,186006,1,0,0:0:0:0:
256,192,186073,1,0,0:0:0:0:
256,192,186139,1,8,0:0:0:0:
256,192,186206,1,8,0:0:0:0:
256,192,186273,1,0,0:0:0:0:
256,192,186406,1,8,0:0:0:0:
256,192,186539,1,4,0:0:0:0:
256,192,186673,1,4,0:0:0:0:
256,192,186939,1,4,0:0:0:0:
256,192,187073,1,4,0:0:0:0:
256,192,187339,1,12,0:0:0:0:
256,128,187606,1,4,0:0:0:0:
256,192,187873,1,0,0:0:0:0:
256,192,188006,1,0,0:0:0:0:
256,192,188139,1,8,0:0:0:0:
256,192,188273,1,8,0:0:0:0:
256,192,188406,1,0,0:0:0:0:
256,192,188539,1,0,0:0:0:0:
256,192,188673,1,8,0:0:0:0:
256,192,188806,1,0,0:0:0:0:
256,192,188939,1,0,0:0:0:0:
256,192,189073,1,0,0:0:0:0:
256,192,189206,1,8,0:0:0:0:
256,192,189339,1,0,0:0:0:0:
256,192,189473,1,8,0:0:0:0:
256,192,189606,1,8,0:0:0:0:
256,192,189739,1,0,0:0:0:0:
256,192,189873,1,8,0:0:0:0:
256,192,190006,1,0,0:0:0:0:
256,192,190139,1,0,0:0:0:0:
256,192,190273,1,8,0:0:0:0:
256,192,190406,1,0,0:0:0:0:
256,192,190539,1,8,0:0:0:0:
256,192,190673,1,8,0:0:0:0:
256,192,190806,1,0,0:0:0:0:
256,192,190939,1,0,0:0:0:0:
256,192,191073,1,0,0:0:0:0:
256,192,191206,1,8,0:0:0:0:
256,192,191339,1,8,0:0:0:0:
256,192,191473,1,8,0:0:0:0:
256,192,191606,1,0,0:0:0:0:
256,192,191673,1,0,0:0:0:0:
256,192,191739,1,0,0:0:0:0:
256,192,191806,1,0,0:0:0:0:
256,192,191873,1,8,0:0:0:0:
256,192,191939,1,0,0:0:0:0:
256,192,192006,1,0,0:0:0:0:
256,192,192073,1,8,0:0:0:0:
256,192,192273,1,8,0:0:0:0:
256,192,192339,1,8,0:0:0:0:
256,192,192406,1,8,0:0:0:0:
256,192,192473,1,8,0:0:0:0:
256,192,192673,1,8,0:0:0:0:
256,192,192739,1,0,0:0:0:0:
256,192,192806,1,0,0:0:0:0:
256,192,192873,1,8,0:0:0:0:
256,192,193073,1,0,0:0:0:0:
256,192,193139,1,0,0:0:0:0:
256,192,193206,1,0,0:0:0:0:
256,192,193273,1,0,0:0:0:0:
256,192,193473,1,8,0:0:0:0:
256,192,193606,1,8,0:0:0:0:
256,192,193739,1,0,0:0:0:0:
256,192,193806,1,0,0:0:0:0:
256,192,193873,1,0,0:0:0:0:
256,192,193939,1,0,0:0:0:0:
256,192,194006,1,8,0:0:0:0:
256,192,194073,1,8,0:0:0:0:
256,192,194139,1,8,0:0:0:0:
256,192,194206,1,8,0:0:0:0:
256,192,194406,1,8,0:0:0:0:
256,192,194473,1,8,0:0:0:0:
256,192,194539,1,8,0:0:0:0:
256,192,194606,1,8,0:0:0:0:
256,192,194806,1,0,0:0:0:0:
256,192,194873,1,0,0:0:0:0:
256,192,194939,1,0,0:0:0:0:
256,192,195006,1,0,0:0:0:0:
256,192,195206,1,0,0:0:0:0:
256,192,195273,1,0,0:0:0:0:
256,192,195339,1,0,0:0:0:0:
256,192,195406,1,0,0:0:0:0:
256,192,195606,1,8,0:0:0:0:
256,192,195695,1,0,0:0:0:0:
256,192,195784,1,0,0:0:0:0:
256,192,195873,1,8,0:0:0:0:
256,192,195961,1,8,0:0:0:0:
256,192,196050,1,8,0:0:0:0:
256,192,196139,1,4,0:0:0:0:
256,192,196406,1,8,0:0:0:0:
256,192,196539,1,0,0:0:0:0:
256,192,196673,1,8,0:0:0:0:
256,192,196806,1,8,0:0:0:0:
256,192,196939,1,0,0:0:0:0:
256,192,197073,1,0,0:0:0:0:
256,192,197206,1,8,0:0:0:0:
256,192,197339,1,0,0:0:0:0:
256,192,197473,1,0,0:0:0:0:
256,192,197606,1,0,0:0:0:0:
256,192,197739,1,8,0:0:0:0:
256,192,197873,1,0,0:0:0:0:
256,192,198006,1,8,0:0:0:0:
256,192,198139,1,8,0:0:0:0:
256,192,198273,1,0,0:0:0:0:
256,192,198406,1,0,0:0:0:0:
256,192,198539,1,8,0:0:0:0:
256,192,198673,1,8,0:0:0:0:
256,192,198806,1,0,0:0:0:0:
256,192,198939,1,8,0:0:0:0:
256,192,199073,1,0,0:0:0:0:
256,192,199206,1,0,0:0:0:0:
256,192,199339,1,8,0:0:0:0:
256,192,199473,1,0,0:0:0:0:
256,192,199606,1,0,0:0:0:0:
256,192,199739,1,8,0:0:0:0:
256,192,199806,1,0,0:0:0:0:
256,192,199873,1,8,0:0:0:0:
256,192,199939,1,8,0:0:0:0:
256,192,200006,1,0,0:0:0:0:
256,192,200139,1,8,0:0:0:0:
256,192,200206,1,8,0:0:0:0:
256,192,200273,1,8,0:0:0:0:
256,192,200339,1,8,0:0:0:0:
256,192,200406,1,0,0:0:0:0:
256,192,200473,1,0,0:0:0:0:
256,192,200539,1,0,0:0:0:0:
256,192,200606,1,0,0:0:0:0:
256,192,200806,1,0,0:0:0:0:
256,192,200873,1,8,0:0:0:0:
256,192,200939,1,8,0:0:0:0:
256,192,201006,1,0,0:0:0:0:
256,192,201206,1,0,0:0:0:0:
256,192,201273,1,0,0:0:0:0:
256,192,201339,1,0,0:0:0:0:
256,192,201406,1,0,0:0:0:0:
256,192,201606,1,0,0:0:0:0:
256,192,201673,1,8,0:0:0:0:
256,192,201739,1,8,0:0:0:0:
256,192,201806,1,0,0:0:0:0:
256,192,202006,1,8,0:0:0:0:
256,192,202073,1,8,0:0:0:0:
256,192,202139,1,0,0:0:0:0:
256,192,202206,1,0,0:0:0:0:
256,192,202273,1,8,0:0:0:0:
256,192,202361,1,8,0:0:0:0:
256,192,202450,1,8,0:0:0:0:
256,192,202539,1,0,0:0:0:0:
256,192,202606,1,0,0:0:0:0:
256,192,202673,1,0,0:0:0:0:
256,192,202739,1,0,0:0:0:0:
256,192,202939,1,0,0:0:0:0:
256,192,203006,1,0,0:0:0:0:
256,192,203073,1,8,0:0:0:0:
256,192,203139,1,8,0:0:0:0:
256,192,203339,1,8,0:0:0:0:
256,192,203406,1,8,0:0:0:0:
256,192,203473,1,8,0:0:0:0:
256,192,203539,1,8,0:0:0:0:
256,192,203739,1,8,0:0:0:0:
256,192,203806,1,8,0:0:0:0:
256,192,203873,1,0,0:0:0:0:
256,192,203939,1,0,0:0:0:0:
256,192,204139,1,0,0:0:0:0:
256,192,204206,1,0,0:0:0:0:
256,192,204273,1,8,0:0:0:0:
256,192,204339,1,0,0:0:0:0:
256,192,204406,1,8,0:0:0:0:
256,192,204473,1,8,0:0:0:0:
256,192,204539,1,0,0:0:0:0:
256,192,204606,1,0,0:0:0:0:
256,192,204673,1,8,0:0:0:0:
256,192,204739,1,8,0:0:0:0:
256,192,204806,1,8,0:0:0:0:
256,192,204873,1,8,0:0:0:0:
256,192,205073,1,8,0:0:0:0:
256,192,205139,1,8,0:0:0:0:
256,192,205206,1,8,0:0:0:0:
256,192,205273,1,8,0:0:0:0:
256,192,205473,1,8,0:0:0:0:
256,192,205539,1,0,0:0:0:0:
256,192,205606,1,0,0:0:0:0:
256,192,205673,1,8,0:0:0:0:
256,192,205873,1,8,0:0:0:0:
256,192,205939,1,0,0:0:0:0:
256,192,206006,1,0,0:0:0:0:
256,192,206073,1,8,0:0:0:0:
256,192,206273,1,8,0:0:0:0:
256,192,206361,1,8,0:0:0:0:
256,192,206450,1,8,0:0:0:0:
256,192,206539,1,0,0:0:0:0:
256,192,206628,1,0,0:0:0:0:
256,192,206717,1,0,0:0:0:0:
256,192,206806,1,8,0:0:0:0:
256,192,206873,1,8,0:0:0:0:
256,192,206939,1,8,0:0:0:0:
256,192,207006,1,8,0:0:0:0:
256,192,207206,1,8,0:0:0:0:
256,192,207273,1,8,0:0:0:0:
256,192,207339,1,8,0:0:0:0:
256,192,207406,1,0,0:0:0:0:
256,192,207606,1,8,0:0:0:0:
256,192,207673,1,8,0:0:0:0:
256,192,207739,1,0,0:0:0:0:
256,192,207806,1,0,0:0:0:0:
256,192,208006,1,8,0:0:0:0:
256,192,208073,1,0,0:0:0:0:
256,192,208139,1,0,0:0:0:0:
256,192,208206,1,0,0:0:0:0:
256,192,208406,1,0,0:0:0:0:
256,192,208495,1,0,0:0:0:0:
256,192,208584,1,0,0:0:0:0:
256,192,208673,1,0,0:0:0:0:
256,192,208761,1,0,0:0:0:0:
256,192,208850,1,0,0:0:0:0:
256,192,208939,8,0,209873,0:0:0:0:
256,192,210006,5,8,0:0:0:0:
256,192,210073,1,8,0:0:0:0:
256,192,210139,1,0,0:0:0:0:
256,192,210206,1,0,0:0:0:0:
256,192,210273,1,8,0:0:0:0:
256,192,210339,1,0,0:0:0:0:
256,192,210406,1,8,0:0:0:0:
256,192,210473,1,8,0:0:0:0:
256,192,210539,1,0,0:0:0:0:
256,192,210606,1,0,0:0:0:0:
256,192,210673,1,8,0:0:0:0:
256,192,210739,1,0,0:0:0:0:
256,192,210806,1,8,0:0:0:0:
256,192,210873,1,8,0:0:0:0:
256,192,210939,1,8,0:0:0:0:
256,192,211006,1,8,0:0:0:0:
256,192,211073,1,0,0:0:0:0:
256,192,212139,1,8,0:0:0:0:
256,192,213206,1,0,0:0:0:0:
256,192,214273,1,0,0:0:0:0:
256,192,214406,1,0,0:0:0:0:
256,192,214473,1,0,0:0:0:0:
256,192,214539,1,0,0:0:0:0:
256,192,214673,1,0,0:0:0:0:
256,192,214739,1,0,0:0:0:0:
256,192,214806,1,0,0:0:0:0:
256,192,214873,1,0,0:0:0:0:
256,192,214939,1,0,0:0:0:0:
256,192,215073,1,12,0:0:0:0:
256,192,215339,1,4,0:0:0:0:
256,192,215473,1,4,0:0:0:0:
256,192,215606,1,12,0:0:0:0:
256,192,215739,1,0,0:0:0:0:
256,192,215806,1,0,0:0:0:0:
256,192,215873,1,8,0:0:0:0:
256,192,215939,1,8,0:0:0:0:
256,192,216006,1,0,0:0:0:0:
256,192,216073,1,8,0:0:0:0:
256,192,216139,1,0,0:0:0:0:
256,192,216206,1,0,0:0:0:0:
256,192,216273,1,8,0:0:0:0:
256,192,216339,1,8,0:0:0:0:
256,192,216406,1,0,0:0:0:0:
256,192,216539,1,0,0:0:0:0:
256,192,216673,1,8,0:0:0:0:
256,192,216739,1,8,0:0:0:0:
256,192,216806,1,0,0:0:0:0:
256,192,216873,1,0,0:0:0:0:
256,192,216939,1,8,0:0:0:0:
256,192,217006,1,8,0:0:0:0:
256,192,217073,1,8,0:0:0:0:
256,192,217139,1,8,0:0:0:0:
256,192,217206,1,0,0:0:0:0:
256,192,217339,1,0,0:0:0:0:
256,192,217473,1,8,0:0:0:0:
256,192,217539,1,8,0:0:0:0:
256,192,217606,1,0,0:0:0:0:
256,192,217673,1,0,0:0:0:0:
256,192,217739,1,8,0:0:0:0:
256,192,217873,1,0,0:0:0:0:
256,192,217939,1,0,0:0:0:0:
256,192,218006,1,8,0:0:0:0:
256,192,218073,1,0,0:0:0:0:
256,192,218139,1,8,0:0:0:0:
256,192,218206,1,8,0:0:0:0:
256,192,218273,1,0,0:0:0:0:
256,192,218339,1,8,0:0:0:0:
256,192,218406,1,0,0:0:0:0:
256,192,218539,1,12,0:0:0:0:
256,192,218739,1,12,0:0:0:0:
256,192,218939,1,12,0:0:0:0:
256,192,219139,1,12,0:0:0:0:
256,192,219339,1,0,0:0:0:0:
256,192,219384,1,0,0:0:0:0:
256,192,219428,1,0,0:0:0:0:
256,192,219473,1,0,0:0:0:0:
256,192,219606,1,12,0:0:0:0:
256,192,219739,1,0,0:0:0:0:
256,192,219806,1,8,0:0:0:0:
256,192,219873,1,0,0:0:0:0:
256,192,219939,1,0,0:0:0:0:
256,192,220006,1,8,0:0:0:0:
256,192,220139,1,0,0:0:0:0:
256,192,220206,1,0,0:0:0:0:
256,192,220273,1,8,0:0:0:0:
256,192,220339,1,0,0:0:0:0:
256,192,220406,1,8,0:0:0:0:
256,192,220473,1,8,0:0:0:0:
256,192,220539,1,0,0:0:0:0:
256,192,220673,1,12,0:0:0:0:
256,192,220806,1,12,0:0:0:0:
256,192,221073,1,12,0:0:0:0:
256,192,221339,1,12,0:0:0:0:
256,192,221606,1,0,0:0:0:0:
256,192,221673,1,0,0:0:0:0:
256,192,221739,1,8,0:0:0:0:
256,192,221873,1,8,0:0:0:0:
256,192,222006,1,0,0:0:0:0:
256,192,222073,1,0,0:0:0:0:
256,192,222139,1,8,0:0:0:0:
256,192,222206,1,8,0:0:0:0:
256,192,222273,1,0,0:0:0:0:
256,192,222339,1,0,0:0:0:0:
256,192,222406,1,0,0:0:0:0:
256,192,222473,1,0,0:0:0:0:
256,192,222539,1,8,0:0:0:0:
256,192,222673,1,8,0:0:0:0:
256,192,222806,1,4,0:0:0:0:
256,192,223006,1,4,0:0:0:0:
256,192,223206,1,4,0:0:0:0:
256,192,223473,1,12,0:0:0:0:
256,192,223739,1,8,0:0:0:0:
256,192,223806,1,8,0:0:0:0:
256,192,223873,1,0,0:0:0:0:
256,192,224006,1,0,0:0:0:0:
256,192,224139,1,8,0:0:0:0:
256,192,224206,1,0,0:0:0:0:
256,192,224273,1,0,0:0:0:0:
256,192,224339,1,0,0:0:0:0:
256,192,224406,1,8,0:0:0:0:
256,192,224539,1,8,0:0:0:0:
256,192,224673,1,0,0:0:0:0:
256,192,224806,1,0,0:0:0:0:
256,192,224939,1,8,0:0:0:0:
256,192,225006,1,8,0:0:0:0:
256,192,225073,1,0,0:0:0:0:
256,192,225139,1,8,0:0:0:0:
256,192,225206,1,0,0:0:0:0:
256,192,225273,1,0,0:0:0:0:
256,192,225339,1,8,0:0:0:0:
256,192,225406,1,8,0:0:0:0:
256,192,225473,1,0,0:0:0:0:
256,192,225539,1,0,0:0:0:0:
256,192,225606,1,0,0:0:0:0:
256,192,225673,1,0,0:0:0:0:
256,192,225739,1,8,0:0:0:0:
256,192,225806,1,8,0:0:0:0:
256,192,225873,1,0,0:0:0:0:
256,192,225939,1,0,0:0:0:0:
256,192,226006,1,8,0:0:0:0:
256,192,226073,1,8,0:0:0:0:
256,192,226139,1,8,0:0:0:0:
256,192,226206,1,8,0:0:0:0:
256,192,226406,1,8,0:0:0:0:
256,192,226473,1,8,0:0:0:0:
256,192,226539,1,8,0:0:0:0:
256,192,226606,1,8,0:0:0:0:
256,192,226806,1,0,0:0:0:0:
256,192,226873,1,0,0:0:0:0:
256,192,226939,1,8,0:0:0:0:
256,192,227006,1,8,0:0:0:0:
256,192,227206,1,0,0:0:0:0:
256,192,227273,1,0,0:0:0:0:
256,192,227339,1,8,0:0:0:0:
256,192,227406,1,8,0:0:0:0:
256,192,227473,1,0,0:0:0:0:
256,192,227539,1,8,0:0:0:0:
256,192,227606,1,0,0:0:0:0:
256,192,227673,1,0,0:0:0:0:
256,192,227739,1,8,0:0:0:0:
256,192,227806,1,8,0:0:0:0:
256,192,227873,1,0,0:0:0:0:
256,192,227939,1,8,0:0:0:0:
256,192,228006,1,0,0:0:0:0:
256,192,228139,1,0,0:0:0:0:
256,192,228206,1,0,0:0:0:0:
256,192,228273,1,0,0:0:0:0:
256,192,228339,1,0,0:0:0:0:
256,192,228406,1,12,0:0:0:0:
256,192,228539,1,0,0:0:0:0:
256,192,228606,1,0,0:0:0:0:
256,192,228673,1,8,0:0:0:0:
256,192,228739,1,0,0:0:0:0:
256,192,228806,1,8,0:0:0:0:
256,192,228873,1,8,0:0:0:0:
256,192,228939,1,0,0:0:0:0:
256,192,229006,1,8,0:0:0:0:
256,192,229073,1,0,0:0:0:0:
256,192,229139,1,0,0:0:0:0:
256,192,229206,1,8,0:0:0:0:
256,192,229339,1,0,0:0:0:0:
256,192,229406,1,8,0:0:0:0:
256,192,229473,1,0,0:0:0:0:
256,192,229539,1,0,0:0:0:0:
256,192,229606,1,8,0:0:0:0:
256,192,229739,1,8,0:0:0:0:
256,192,229806,1,8,0:0:0:0:
256,192,229873,1,0,0:0:0:0:
256,192,229939,1,0,0:0:0:0:
256,192,230006,1,8,0:0:0:0:
256,192,230073,1,8,0:0:0:0:
256,192,230139,1,8,0:0:0:0:
256,192,230206,1,8,0:0:0:0:
256,192,230273,1,0,0:0:0:0:
256,192,230406,1,8,0:0:0:0:
256,192,230473,1,0,0:0:0:0:
256,192,230539,1,8,0:0:0:0:
256,192,230606,1,8,0:0:0:0:
256,192,230673,1,0,0:0:0:0:
256,192,230739,1,0,0:0:0:0:
256,192,230806,1,8,0:0:0:0:
256,192,230873,1,0,0:0:0:0:
256,192,230939,1,8,0:0:0:0:
256,192,231006,1,8,0:0:0:0:
256,192,231073,1,0,0:0:0:0:
256,192,231139,1,0,0:0:0:0:
256,192,231206,1,0,0:0:0:0:
256,192,231273,1,0,0:0:0:0:
256,192,231339,1,8,0:0:0:0:
256,192,231473,1,0,0:0:0:0:
256,192,231539,1,8,0:0:0:0:
256,192,231606,1,0,0:0:0:0:
256,192,231673,1,0,0:0:0:0:
256,192,231739,1,8,0:0:0:0:
256,192,231873,1,0,0:0:0:0:
256,192,231939,1,0,0:0:0:0:
256,192,232006,1,8,0:0:0:0:
256,192,232073,1,8,0:0:0:0:
256,192,232139,1,0,0:0:0:0:
256,192,232206,1,8,0:0:0:0:
256,192,232273,1,8,0:0:0:0:
256,192,232339,1,8,0:0:0:0:
256,192,232406,1,0,0:0:0:0:
256,192,232539,1,0,0:0:0:0:
256,192,232673,1,8,0:0:0:0:
256,192,232739,1,0,0:0:0:0:
256,192,232806,1,8,0:0:0:0:
256,192,232873,1,8,0:0:0:0:
256,192,232939,1,0,0:0:0:0:
256,192,233006,1,8,0:0:0:0:
256,192,233073,1,8,0:0:0:0:
256,192,233139,1,8,0:0:0:0:
256,192,233206,1,0,0:0:0:0:
256,192,233339,1,8,0:0:0:0:
256,192,233406,1,0,0:0:0:0:
256,192,233473,1,8,0:0:0:0:
256,192,233539,1,0,0:0:0:0:
256,192,233606,1,0,0:0:0:0:
256,192,233673,1,8,0:0:0:0:
256,192,233739,1,0,0:0:0:0:
256,192,233806,1,0,0:0:0:0:
256,192,233873,1,8,0:0:0:0:
256,192,234006,1,0,0:0:0:0:
256,192,234073,1,0,0:0:0:0:
256,192,234139,1,8,0:0:0:0:
256,192,234206,1,8,0:0:0:0:
256,192,234273,1,0,0:0:0:0:
256,192,234339,1,8,0:0:0:0:
256,192,234406,1,8,0:0:0:0:
256,192,234473,1,8,0:0:0:0:
256,192,234539,1,0,0:0:0:0:
256,192,234673,1,8,0:0:0:0:
256,192,234739,1,0,0:0:0:0:
256,192,234806,1,8,0:0:0:0:
256,192,234873,1,0,0:0:0:0:
256,192,234939,1,0,0:0:0:0:
256,192,235006,1,0,0:0:0:0:
256,192,235073,1,8,0:0:0:0:
256,192,235206,1,0,0:0:0:0:
256,192,235273,1,0,0:0:0:0:
256,192,235339,1,8,0:0:0:0:
256,192,235406,1,0,0:0:0:0:
256,192,235473,1,8,0:0:0:0:
256,192,235539,1,8,0:0:0:0:
256,192,235606,1,0,0:0:0:0:
256,192,235739,1,8,0:0:0:0:
256,192,235806,1,0,0:0:0:0:
256,192,235939,1,8,0:0:0:0:
256,192,236006,1,0,0:0:0:0:
256,192,236139,1,8,0:0:0:0:
256,192,236206,1,0,0:0:0:0:
256,192,236273,1,8,0:0:0:0:
256,192,236339,1,8,0:0:0:0:
256,192,236406,1,0,0:0:0:0:
256,192,236473,1,0,0:0:0:0:
256,192,236539,1,8,0:0:0:0:
256,192,236606,1,8,0:0:0:0:
256,192,236673,1,0,0:0:0:0:
256,192,236806,1,0,0:0:0:0:
256,192,236873,1,0,0:0:0:0:
256,192,236939,1,12,0:0:0:0:
256,192,237073,1,0,0:0:0:0:
256,192,237206,1,8,0:0:0:0:
256,192,237273,1,8,0:0:0:0:
256,192,237339,1,8,0:0:0:0:
256,192,237406,1,8,0:0:0:0:
256,192,237473,1,0,0:0:0:0:
256,192,237606,1,0,0:0:0:0:
256,192,237739,1,12,0:0:0:0:
256,192,237873,1,12,0:0:0:0:
256,192,238139,1,12,0:0:0:0:
256,192,238406,1,12,0:0:0:0:
256,192,238673,1,8,0:0:0:0:
256,192,238739,1,8,0:0:0:0:
256,192,238806,1,4,0:0:0:0:
256,192,239073,1,8,0:0:0:0:
256,192,239139,1,8,0:0:0:0:
256,192,239206,1,0,0:0:0:0:
256,192,239250,1,0,0:0:0:0:
256,192,239295,1,0,0:0:0:0:
256,192,239339,1,8,0:0:0:0:
256,192,239473,1,8,0:0:0:0:
256,192,239539,1,0,0:0:0:0:
256,192,239673,1,8,0:0:0:0:
256,192,239739,1,0,0:0:0:0:
256,192,239873,1,8,0:0:0:0:
256,192,239939,1,0,0:0:0:0:
256,192,240006,1,0,0:0:0:0:
256,192,240073,1,8,0:0:0:0:
256,192,240139,1,0,0:0:0:0:
256,192,240206,1,0,0:0:0:0:
256,192,240273,1,8,0:0:0:0:
256,192,240406,1,0,0:0:0:0:
256,192,240539,1,8,0:0:0:0:
256,192,240606,1,8,0:0:0:0:
256,192,240673,1,0,0:0:0:0:
256,192,240739,1,8,0:0:0:0:
256,192,240806,1,0,0:0:0:0:
256,192,240850,1,0,0:0:0:0:
256,192,240895,1,0,0:0:0:0:
256,192,240939,1,8,0:0:0:0:
256,192,241073,1,0,0:0:0:0:
256,192,241117,1,0,0:0:0:0:
256,192,241161,1,0,0:0:0:0:
256,192,241206,1,8,0:0:0:0:
256,192,241273,1,8,0:0:0:0:
256,192,241339,1,0,0:0:0:0:
256,192,241406,1,0,0:0:0:0:
256,192,241473,1,8,0:0:0:0:
256,192,241606,1,8,0:0:0:0:
256,192,241673,1,8,0:0:0:0:
256,192,241739,1,0,0:0:0:0:
256,192,241806,1,0,0:0:0:0:
256,192,241873,1,8,0:0:0:0:
256,192,241939,1,0,0:0:0:0:
256,192,242006,1,8,0:0:0:0:
256,192,242073,1,8,0:0:0:0:
256,192,242139,1,0,0:0:0:0:
256,192,242273,1,8,0:0:0:0:
256,192,242317,1,8,0:0:0:0:
256,192,242361,1,8,0:0:0:0:
256,192,242406,1,0,0:0:0:0:
256,192,242450,1,0,0:0:0:0:
256,192,242495,1,0,0:0:0:0:
256,192,242539,1,8,0:0:0:0:
256,192,242606,1,0,0:0:0:0:
256,192,242673,1,0,0:0:0:0:
256,192,242739,1,0,0:0:0:0:
256,192,242806,1,8,0:0:0:0:
256,192,242850,1,8,0:0:0:0:
256,192,242895,1,8,0:0:0:0:
256,192,242939,1,0,0:0:0:0:
256,192,243073,1,12,0:0:0:0:
256,192,243339,1,8,0:0:0:0:
256,192,243473,1,4,0:0:0:0:
256,192,243739,1,8,0:0:0:0:
256,192,243806,1,0,0:0:0:0:
256,192,243873,1,8,0:0:0:0:
256,192,244006,1,4,0:0:0:0:
256,192,244273,1,0,0:0:0:0:
256,192,244339,1,0,0:0:0:0:
256,192,244406,1,8,0:0:0:0:
256,192,244539,1,0,0:0:0:0:
256,192,244606,1,0,0:0:0:0:
256,192,244673,1,8,0:0:0:0:
256,192,244806,1,0,0:0:0:0:
256,192,244939,1,8,0:0:0:0:
256,192,244984,1,8,0:0:0:0:
256,192,245028,1,8,0:0:0:0:
256,192,245073,1,0,0:0:0:0:
256,192,245206,1,12,0:0:0:0:
256,192,245339,1,0,0:0:0:0:
256,192,245406,1,0,0:0:0:0:
256,192,245473,1,8,0:0:0:0:
256,192,245606,1,4,0:0:0:0:
256,192,245873,1,8,0:0:0:0:
256,192,245939,1,8,0:0:0:0:
256,192,246006,1,0,0:0:0:0:
256,192,246139,1,12,0:0:0:0:
256,192,246406,1,0,0:0:0:0:
256,192,246539,1,8,0:0:0:0:
256,192,246606,1,0,0:0:0:0:
256,192,246673,1,0,0:0:0:0:
256,192,246739,1,0,0:0:0:0:
256,192,246806,1,8,0:0:0:0:
256,192,246984,1,8,0:0:0:0:
256,192,247161,1,8,0:0:0:0:
256,192,247339,1,4,0:0:0:0:
256,192,247606,1,8,0:0:0:0:
256,192,247739,1,4,0:0:0:0:
256,192,247873,1,8,0:0:0:0:
256,192,247939,1,8,0:0:0:0:
256,192,248006,1,0,0:0:0:0:
256,192,248073,1,0,0:0:0:0:
256,192,248139,1,8,0:0:0:0:
256,192,248273,1,4,0:0:0:0:
256,192,248539,1,0,0:0:0:0:
256,192,248606,1,0,0:0:0:0:
256,192,248673,1,8,0:0:0:0:
256,192,248806,1,0,0:0:0:0:
256,192,248873,1,0,0:0:0:0:
256,192,248939,1,8,0:0:0:0:
256,192,249073,1,8,0:0:0:0:
256,192,249139,1,8,0:0:0:0:
256,192,249206,1,0,0:0:0:0:
256,192,249273,1,8,0:0:0:0:
256,192,249339,1,0,0:0:0:0:
256,192,249406,1,0,0:0:0:0:
256,192,249473,1,12,0:0:0:0:
256,192,249873,1,12,0:0:0:0:
256,192,250406,1,0,0:0:0:0:
256,192,250473,1,0,0:0:0:0:
256,192,250539,1,8,0:0:0:0:
256,192,250606,1,0,0:0:0:0:
256,192,250673,1,8,0:0:0:0:
256,192,250739,1,8,0:0:0:0:
256,192,250806,1,0,0:0:0:0:
256,192,250873,1,0,0:0:0:0:
256,192,250939,1,8,0:0:0:0:
256,192,251006,1,8,0:0:0:0:
256,192,251073,1,8,0:0:0:0:
256,192,251139,1,8,0:0:0:0:
256,192,251206,1,0,0:0:0:0:
256,192,251273,1,0,0:0:0:0:
256,192,251339,1,8,0:0:0:0:
256,192,251406,1,0,0:0:0:0:
256,192,251473,1,8,0:0:0:0:
256,192,251539,1,8,0:0:0:0:
256,192,251606,1,0,0:0:0:0:
256,192,251673,1,0,0:0:0:0:
256,192,251739,1,8,0:0:0:0:
256,192,251806,1,8,0:0:0:0:
256,192,251873,1,8,0:0:0:0:
256,192,251939,1,8,0:0:0:0:
256,192,252006,1,0,0:0:0:0:
256,192,252073,1,0,0:0:0:0:
256,192,252139,1,8,0:0:0:0:
256,192,252206,1,8,0:0:0:0:
256,192,252273,1,0,0:0:0:0:
256,192,252339,1,0,0:0:0:0:
256,192,252406,1,8,0:0:0:0:
256,192,252450,1,8,0:0:0:0:
256,192,252495,1,8,0:0:0:0:
256,192,252539,1,8,0:0:0:0:
256,192,252584,1,8,0:0:0:0:
256,192,252628,1,8,0:0:0:0:
256,192,252673,1,0,0:0:0:0:
256,192,252739,8,0,253606,0:0:0:0:
256,192,253739,5,8,0:0:0:0:
256,192,253873,1,0,0:0:0:0:
256,192,253939,1,0,0:0:0:0:
256,192,254006,1,0,0:0:0:0:
256,192,254139,1,8,0:0:0:0:
256,192,254273,1,0,0:0:0:0:
256,192,254339,1,0,0:0:0:0:
256,192,254406,1,0,0:0:0:0:
256,192,254539,1,12,0:0:0:0:
256,192,254806,1,4,0:0:0:0:
256,192,254939,1,4,0:0:0:0:
256,192,255073,1,12,0:0:0:0:
256,192,255206,1,0,0:0:0:0:
256,192,255273,1,8,0:0:0:0:
256,192,255339,1,0,0:0:0:0:
256,192,255406,1,0,0:0:0:0:
256,192,255473,1,8,0:0:0:0:
256,192,255539,1,0,0:0:0:0:
256,192,255606,1,8,0:0:0:0:
256,192,255739,1,0,0:0:0:0:
256,192,255806,1,0,0:0:0:0:
256,192,255873,1,8,0:0:0:0:
256,192,255939,1,8,0:0:0:0:
256,192,256006,1,0,0:0:0:0:
256,192,256073,1,0,0:0:0:0:
256,192,256139,1,8,0:0:0:0:
256,192,256206,1,0,0:0:0:0:
256,192,256273,1,8,0:0:0:0:
256,192,256339,1,8,0:0:0:0:
256,192,256406,1,0,0:0:0:0:
256,192,256473,1,8,0:0:0:0:
256,192,256539,1,8,0:0:0:0:
256,192,256606,1,8,0:0:0:0:
256,192,256673,1,0,0:0:0:0:
256,192,256806,1,0,0:0:0:0:
256,192,256873,1,0,0:0:0:0:
256,192,256939,1,8,0:0:0:0:
256,192,257006,1,8,0:0:0:0:
256,192,257139,1,8,0:0:0:0:
256,192,257206,1,0,0:0:0:0:
256,192,257273,1,8,0:0:0:0:
256,192,257339,1,0,0:0:0:0:
256,192,257406,1,0,0:0:0:0:
256,192,257473,1,8,0:0:0:0:
256,192,257606,1,0,0:0:0:0:
256,192,257673,1,0,0:0:0:0:
256,192,257739,1,8,0:0:0:0:
256,192,257806,1,8,0:0:0:0:
256,192,257873,1,0,0:0:0:0:
256,192,257939,1,0,0:0:0:0:
256,192,258006,1,8,0:0:0:0:
256,192,258139,1,0,0:0:0:0:
256,192,258206,1,8,0:0:0:0:
256,192,258339,1,0,0:0:0:0:
256,192,258406,1,8,0:0:0:0:
256,192,258473,1,8,0:0:0:0:
256,192,258539,1,8,0:0:0:0:
256,192,258606,1,0,0:0:0:0:
256,192,258806,1,8,0:0:0:0:
256,192,258850,1,0,0:0:0:0:
256,192,258895,1,0,0:0:0:0:
256,192,258939,1,8,0:0:0:0:
256,192,258984,1,8,0:0:0:0:
256,192,259028,1,8,0:0:0:0:
256,192,259073,1,0,0:0:0:0:
256,192,259206,1,0,0:0:0:0:
256,192,259273,1,0,0:0:0:0:
256,192,259339,1,8,0:0:0:0:
256,192,259473,1,0,0:0:0:0:
256,192,259539,1,8,0:0:0:0:
256,192,259606,1,0,0:0:0:0:
256,192,259673,1,0,0:0:0:0:
256,192,259739,1,8,0:0:0:0:
256,192,259806,1,8,0:0:0:0:
256,192,259873,1,0,0:0:0:0:
256,192,259939,1,8,0:0:0:0:
256,192,260006,1,0,0:0:0:0:
256,192,260139,1,8,0:0:0:0:
256,192,260206,1,8,0:0:0:0:
256,192,260273,1,8,0:0:0:0:
256,192,260339,1,8,0:0:0:0:
256,192,260406,1,0,0:0:0:0:
256,192,260539,1,8,0:0:0:0:
256,192,260606,1,8,0:0:0:0:
256,192,260673,1,0,0:0:0:0:
256,192,260717,1,0,0:0:0:0:
256,192,260761,1,0,0:0:0:0:
256,192,260806,1,8,0:0:0:0:
256,192,260939,1,0,0:0:0:0:
256,192,261006,1,0,0:0:0:0:
256,192,261073,1,8,0:0:0:0:
256,192,261139,1,8,0:0:0:0:
256,192,261206,1,0,0:0:0:0:
256,192,261339,1,0,0:0:0:0:
256,192,261406,1,8,0:0:0:0:
256,192,261473,1,0,0:0:0:0:
256,192,261539,1,0,0:0:0:0:
256,192,261606,1,8,0:0:0:0:
256,192,261673,1,0,0:0:0:0:
256,192,261739,1,8,0:0:0:0:
256,192,261806,1,8,0:0:0:0:
256,192,261873,1,0,0:0:0:0:
256,192,261939,1,8,0:0:0:0:
256,192,262006,1,0,0:0:0:0:
256,192,262139,1,0,0:0:0:0:
256,192,262206,1,0,0:0:0:0:
256,192,262273,1,8,0:0:0:0:
256,192,262406,1,8,0:0:0:0:
256,192,262539,1,0,0:0:0:0:
256,192,262673,1,0,0:0:0:0:
256,192,262739,1,0,0:0:0:0:
256,192,262873,1,8,0:0:0:0:
256,192,263006,1,0,0:0:0:0:
256,192,263073,1,0,0:0:0:0:
256,192,263139,1,8,0:0:0:0:
256,192,263206,1,8,0:0:0:0:
256,192,263339,1,8,0:0:0:0:
256,192,263406,1,8,0:0:0:0:
256,192,263473,1,0,0:0:0:0:
256,192,263539,1,0,0:0:0:0:
256,192,263606,1,0,0:0:0:0:
256,192,263673,1,0,0:0:0:0:
256,192,263739,1,8,0:0:0:0:
256,192,263784,1,8,0:0:0:0:
256,192,263828,1,8,0:0:0:0:
256,192,263873,1,0,0:0:0:0:
256,192,263939,1,0,0:0:0:0:
256,192,264006,1,0,0:0:0:0:
256,192,264073,1,0,0:0:0:0:
256,192,264139,1,8,0:0:0:0:
256,192,264184,1,8,0:0:0:0:
256,192,264228,1,8,0:0:0:0:
256,192,264273,1,0,0:0:0:0:
256,192,264317,1,0,0:0:0:0:
256,192,264361,1,0,0:0:0:0:
256,192,264406,1,8,0:0:0:0:
256,192,264606,1,0,0:0:0:0:
256,192,264673,1,8,0:0:0:0:
256,192,264739,1,8,0:0:0:0:
256,192,264806,1,0,0:0:0:0:
256,192,264939,1,8,0:0:0:0:
256,192,265006,1,0,0:0:0:0:
256,192,265073,1,0,0:0:0:0:
256,192,265139,1,0,0:0:0:0:
256,192,265206,1,8,0:0:0:0:
256,192,265339,1,0,0:0:0:0:
256,192,265406,1,0,0:0:0:0:
256,192,265473,1,8,0:0:0:0:
256,192,265517,1,8,0:0:0:0:
256,192,265561,1,8,0:0:0:0:
256,192,265606,1,0,0:0:0:0:
256,192,265673,1,0,0:0:0:0:
256,192,265739,1,0,0:0:0:0:
256,192,265806,1,0,0:0:0:0:
256,192,265873,1,8,0:0:0:0:
256,192,265917,1,8,0:0:0:0:
256,192,265961,1,8,0:0:0:0:
256,192,266006,1,0,0:0:0:0:
256,192,266073,1,0,0:0:0:0:
256,192,266139,1,8,0:0:0:0:
256,192,266206,1,8,0:0:0:0:
256,192,266273,1,0,0:0:0:0:
256,192,266406,1,0,0:0:0:0:
256,192,266473,1,0,0:0:0:0:
256,192,266539,1,8,0:0:0:0:
256,192,266673,1,8,0:0:0:0:
256,192,266717,1,8,0:0:0:0:
256,192,266761,1,8,0:0:0:0:
256,192,266806,1,0,0:0:0:0:
256,192,266873,1,0,0:0:0:0:
256,192,266939,1,8,0:0:0:0:
256,192,266984,1,8,0:0:0:0:
256,192,267028,1,8,0:0:0:0:
256,192,267073,1,0,0:0:0:0:
256,192,267250,1,0,0:0:0:0:
256,192,267428,1,0,0:0:0:0:
256,192,267606,1,8,0:0:0:0:
256,192,267873,1,8,0:0:0:0:
256,192,267939,1,8,0:0:0:0:
256,192,268006,1,8,0:0:0:0:
256,192,268073,1,8,0:0:0:0:
256,192,268139,1,0,0:0:0:0:
256,192,268273,1,0,0:0:0:0:
256,192,268339,1,0,0:0:0:0:
256,192,268406,1,8,0:0:0:0:
256,192,268473,1,0,0:0:0:0:
256,192,268539,1,8,0:0:0:0:
256,192,268606,1,8,0:0:0:0:
256,192,268673,1,0,0:0:0:0:
256,192,268739,1,0,0:0:0:0:
256,192,268806,1,0,0:0:0:0:
256,192,268873,1,0,0:0:0:0:
256,192,268939,1,8,0:0:0:0:
256,192,269006,1,8,0:0:0:0:
256,192,269073,1,8,0:0:0:0:
256,192,269139,1,8,0:0:0:0:
256,192,269206,1,0,0:0:0:0:
256,192,269295,1,0,0:0:0:0:
256,192,269384,1,8,0:0:0:0:
256,192,269473,1,8,0:0:0:0:
256,192,269561,1,0,0:0:0:0:
256,192,269650,1,0,0:0:0:0:
256,192,269739,1,12,0:0:0:0:
256,192,269873,1,0,0:0:0:0:
256,192,269939,1,0,0:0:0:0:
256,192,270006,1,0,0:0:0:0:
256,192,270073,1,0,0:0:0:0:
256,192,270139,1,12,0:0:0:0:
256,192,270273,1,0,0:0:0:0:
256,192,270339,1,0,0:0:0:0:
256,192,270406,1,0,0:0:0:0:
256,192,270473,1,0,0:0:0:0:
256,192,270539,1,12,0:0:0:0:
256,192,270673,1,0,0:0:0:0:
256,192,270739,1,0,0:0:0:0:
256,192,270806,1,8,0:0:0:0:
256,192,270873,1,8,0:0:0:0:
256,192,270939,1,0,0:0:0:0:
256,192,271006,1,0,0:0:0:0:
256,192,271073,1,12,0:0:0:0:
256,192,271473,1,8,0:0:0:0:
256,192,271539,1,8,0:0:0:0:
256,192,271606,1,0,0:0:0:0:
256,192,271673,1,0,0:0:0:0:
256,192,271739,1,8,0:0:0:0:
256,192,271806,1,8,0:0:0:0:
256,192,271873,1,0,0:0:0:0:
256,192,272006,1,0,0:0:0:0:
256,192,272073,1,8,0:0:0:0:
256,192,272139,1,0,0:0:0:0:
256,192,272206,1,0,0:0:0:0:
256,192,272273,1,8,0:0:0:0:
256,192,272339,1,0,0:0:0:0:
256,192,272406,1,8,0:0:0:0:
256,192,272539,1,0,0:0:0:0:
256,192,272606,1,8,0:0:0:0:
256,192,272673,1,0,0:0:0:0:
256,192,272739,1,8,0:0:0:0:
256,192,272806,1,8,0:0:0:0:
256,192,272939,1,0,0:0:0:0:
256,192,273006,1,8,0:0:0:0:
256,192,273073,1,8,0:0:0:0:
256,192,273139,1,8,0:0:0:0:
256,192,273206,1,0,0:0:0:0:
256,192,273339,1,8,0:0:0:0:
256,192,273406,1,0,0:0:0:0:
256,192,273473,1,8,0:0:0:0:
256,192,273539,1,8,0:0:0:0:
256,192,273606,1,0,0:0:0:0:
256,192,273739,1,0,0:0:0:0:
256,192,273806,1,0,0:0:0:0:
256,192,273873,1,0,0:0:0:0:
256,192,273939,1,0,0:0:0:0:
256,192,274006,1,8,0:0:0:0:
256,192,274139,1,0,0:0:0:0:
256,192,274206,1,0,0:0:0:0:
256,192,274273,1,8,0:0:0:0:
256,192,274339,1,0,0:0:0:0:
256,192,274406,1,0,0:0:0:0:
256,192,274473,1,0,0:0:0:0:
256,192,274539,1,8,0:0:0:0:
256,192,274673,1,0,0:0:0:0:
256,192,274739,1,8,0:0:0:0:
256,192,274806,1,0,0:0:0:0:
256,192,274873,1,0,0:0:0:0:
256,192,274939,1,8,0:0:0:0:
256,192,275073,1,8,0:0:0:0:
256,192,275139,1,8,0:0:0:0:
256,192,275206,1,0,0:0:0:0:
256,192,275273,1,8,0:0:0:0:
256,192,275339,1,8,0:0:0:0:
256,192,275473,1,8,0:0:0:0:
256,192,275539,1,8,0:0:0:0:
256,192,275606,1,0,0:0:0:0:
256,192,275784,1,0,0:0:0:0:
256,192,275961,1,0,0:0:0:0:
256,192,276139,1,12,0:0:0:0:
256,192,276273,1,0,0:0:0:0:
256,192,276339,1,0,0:0:0:0:
256,192,276406,1,8,0:0:0:0:
256,192,276473,1,8,0:0:0:0:
256,192,276539,1,0,0:0:0:0:
256,192,276606,1,0,0:0:0:0:
256,192,276673,1,8,0:0:0:0:
256,192,276806,1,0,0:0:0:0:
256,192,276873,1,8,0:0:0:0:
256,192,276939,1,0,0:0:0:0:
256,192,277006,1,8,0:0:0:0:
256,192,277073,1,8,0:0:0:0:
256,192,277206,1,8,0:0:0:0:
256,192,277273,1,0,0:0:0:0:
256,192,277339,1,0,0:0:0:0:
256,192,277406,1,0,0:0:0:0:
256,192,277473,1,8,0:0:0:0:
256,192,277606,1,0,0:0:0:0:
256,192,277673,1,0,0:0:0:0:
256,192,277739,1,0,0:0:0:0:
256,192,277806,1,0,0:0:0:0:
256,192,277873,1,8,0:0:0:0:
256,192,278006,1,8,0:0:0:0:
256,192,278073,1,8,0:0:0:0:
256,192,278139,1,0,0:0:0:0:
256,192,278206,1,8,0:0:0:0:
256,192,278273,1,0,0:0:0:0:
256,192,278406,1,0,0:0:0:0:
256,192,278473,1,0,0:0:0:0:
256,192,278539,1,8,0:0:0:0:
256,192,278606,1,8,0:0:0:0:
256,192,278673,1,0,0:0:0:0:
256,192,278739,1,0,0:0:0:0:
256,192,278806,1,8,0:0:0:0:
256,192,278873,1,0,0:0:0:0:
256,192,278939,1,0,0:0:0:0:
256,192,279006,1,0,0:0:0:0:
256,192,279073,1,8,0:0:0:0:
256,192,279161,1,8,0:0:0:0:
256,192,279250,1,8,0:0:0:0:
256,192,279339,1,4,0:0:0:0:
256,192,279539,1,4,0:0:0:0:
256,192,279739,1,4,0:0:0:0:
256,192,279873,1,4,0:0:0:0:
256,192,280073,1,4,0:0:0:0:
256,192,280273,1,4,0:0:0:0:
256,192,280406,1,4,0:0:0:0:
256,192,280606,1,4,0:0:0:0:
256,192,280806,1,12,0:0:0:0:
256,192,280873,8,0,283606,0:0:0:0:
