osu file format v14

[General]
AudioFilename: audio.ogg
AudioLeadIn: 0
PreviewTime: 85735
Countdown: 0
SampleSet: Soft
StackLeniency: 0.7
Mode: 3
LetterboxInBreaks: 0
SpecialStyle: 0
WidescreenStoryboard: 0

[Editor]
Bookmarks: 37601,162535
DistanceSpacing: 1
BeatDivisor: 16
GridSize: 32
TimelineZoom: 4.299998

[Metadata]
Title:finorza
TitleUnicode:⨍iиorzᾶ
Artist:Camellia feat. Nanahira
ArtistUnicode:かめりあ feat. ななひら
Creator:DenYi
Version:The End
Source:
Tags:Keksikosu Niks My angel RangE MARE GungunK Nicknem_ electronic vocal japanese xronial xero xroniàl xéro cametek ft. utaite かめるかめりあ KamelCamellia 大箭将也 speedcore hardcore bass hardstyle PCCA-04883 EDP
BeatmapID:3987715
BeatmapSetID:1930425

[Difficulty]
HPDrainRate:8.5
CircleSize:4
OverallDifficulty:7.8
ApproachRate:5
SliderMultiplier:1.4
SliderTickRate:1

[Events]
//Background and Video events
0,0,"bg5.jpg",0,0
//Break Periods
//Storyboard Layer 0 (Background)
//Storyboard Layer 1 (Fail)
//Storyboard Layer 2 (Pass)
//Storyboard Layer 3 (Foreground)
//Storyboard Layer 4 (Overlay)
//Storyboard Sound Samples

[TimingPoints]
4135,266.666666666667,4,2,1,50,1,0
86268,-100,4,2,1,50,0,1
106535,-100,4,2,1,50,0,0
215335,-100,4,2,1,50,0,1
227468,-100,4,2,1,50,0,0
228401,-100,4,2,1,50,0,1
236668,-100,4,2,1,50,0,0
236935,-100,4,2,1,50,0,1
252668,-100,4,2,1,50,0,0

[HitObjects]
448,192,4135,128,0,4401:0:0:0:0:
64,192,4135,128,0,4401:0:0:0:0:
192,192,4168,1,0,0:0:0:0:
448,192,4668,128,0,7201:0:0:0:0:
64,192,5201,128,0,7735:0:0:0:0:
320,192,5735,128,0,7735:0:0:0:0:
192,192,6268,128,0,7735:0:0:0:0:
448,192,7335,128,0,8268:0:0:0:0:
192,192,7868,128,0,8668:0:0:0:0:
64,192,7868,128,0,8668:0:0:0:0:
320,192,8401,128,0,8668:0:0:0:0:
448,192,8401,128,0,8668:0:0:0:0:
64,192,8935,128,0,11601:0:0:0:0:
448,192,9468,128,0,11601:0:0:0:0:
192,192,10001,128,0,11601:0:0:0:0:
320,192,10535,128,0,11601:0:0:0:0:
320,192,12135,128,0,13735:0:0:0:0:
448,192,12668,128,0,14268:0:0:0:0:
64,192,12668,128,0,12735:0:0:0:0:
192,192,12801,128,0,12868:0:0:0:0:
64,192,12935,128,0,13001:0:0:0:0:
192,192,13068,128,0,13135:0:0:0:0:
64,192,13735,1,0,0:0:0:0:
192,192,13735,128,0,13801:0:0:0:0:
320,192,13868,128,0,13935:0:0:0:0:
192,192,14001,128,0,14068:0:0:0:0:
320,192,14135,128,0,14201:0:0:0:0:
64,192,14535,128,0,15135:0:0:0:0:
448,192,14801,128,0,14868:0:0:0:0:
192,192,14801,128,0,15001:0:0:0:0:
320,192,14935,128,0,15001:0:0:0:0:
448,192,15068,128,0,15201:0:0:0:0:
192,192,15068,128,0,15135:0:0:0:0:
64,192,15201,128,0,15268:0:0:0:0:
448,192,15335,128,0,15735:0:0:0:0:
64,192,15601,128,0,16268:0:0:0:0:
448,192,15868,128,0,16801:0:0:0:0:
320,192,15868,128,0,15935:0:0:0:0:
192,192,16001,128,0,16068:0:0:0:0:
320,192,16135,128,0,16201:0:0:0:0:
192,192,16268,128,0,16335:0:0:0:0:
64,192,16401,128,0,17868:0:0:0:0:
192,192,16668,128,0,17868:0:0:0:0:
448,192,16935,128,0,18268:0:0:0:0:
320,192,16935,128,0,18268:0:0:0:0:
192,192,18001,128,0,18068:0:0:0:0:
64,192,18001,1,0,0:0:0:0:
64,192,18135,128,0,18201:0:0:0:0:
192,192,18268,128,0,18335:0:0:0:0:
64,192,18401,128,0,18468:0:0:0:0:
448,192,18801,128,0,19201:0:0:0:0:
64,192,19068,128,0,20468:0:0:0:0:
320,192,19068,128,0,19135:0:0:0:0:
192,192,19201,128,0,19268:0:0:0:0:
448,192,19335,128,0,20001:0:0:0:0:
320,192,19335,128,0,19401:0:0:0:0:
192,192,19468,128,0,19535:0:0:0:0:
320,192,19601,128,0,20001:0:0:0:0:
192,192,19868,128,0,20468:0:0:0:0:
320,192,20135,128,0,20535:0:0:0:0:
448,192,20135,128,0,20601:0:0:0:0:
192,192,20535,128,0,20601:0:0:0:0:
320,192,20601,128,0,20668:0:0:0:0:
64,192,20668,128,0,22268:0:0:0:0:
448,192,20668,128,0,20868:0:0:0:0:
192,192,20801,128,0,21001:0:0:0:0:
320,192,20935,128,0,21135:0:0:0:0:
448,192,21068,128,0,21268:0:0:0:0:
192,192,21201,128,0,22668:0:0:0:0:
320,192,21201,128,0,21268:0:0:0:0:
448,192,21335,128,0,21401:0:0:0:0:
320,192,21468,128,0,21535:0:0:0:0:
448,192,21601,128,0,21668:0:0:0:0:
320,192,22268,1,0,0:0:0:0:
448,192,22268,128,0,22335:0:0:0:0:
64,192,22401,128,0,22468:0:0:0:0:
448,192,22535,128,0,22601:0:0:0:0:
64,192,22668,128,0,22735:0:0:0:0:
448,192,23068,128,0,23601:0:0:0:0:
64,192,23335,128,0,23401:0:0:0:0:
320,192,23335,128,0,23535:0:0:0:0:
192,192,23468,128,0,23535:0:0:0:0:
64,192,23601,128,0,24401:0:0:0:0:
320,192,23601,128,0,23668:0:0:0:0:
192,192,23735,128,0,23801:0:0:0:0:
448,192,23868,128,0,24268:0:0:0:0:
192,192,24135,128,0,24535:0:0:0:0:
320,192,24401,128,0,24668:0:0:0:0:
448,192,24401,128,0,24801:0:0:0:0:
64,192,24535,128,0,24601:0:0:0:0:
192,192,24668,128,0,24735:0:0:0:0:
64,192,24801,128,0,26801:0:0:0:0:
320,192,24801,128,0,24868:0:0:0:0:
192,192,24935,1,0,0:0:0:0:
448,192,24935,128,0,25001:0:0:0:0:
320,192,25068,128,0,25135:0:0:0:0:
192,192,25201,128,0,26401:0:0:0:0:
320,192,25468,128,0,26401:0:0:0:0:
448,192,25468,128,0,26801:0:0:0:0:
320,192,26535,128,0,26601:0:0:0:0:
192,192,26535,1,0,0:0:0:0:
192,192,26668,128,0,26735:0:0:0:0:
320,192,26801,128,0,26868:0:0:0:0:
192,192,26935,128,0,27001:0:0:0:0:
448,192,27068,128,0,27335:0:0:0:0:
64,192,27068,128,0,27335:0:0:0:0:
192,192,27335,128,0,27401:0:0:0:0:
320,192,27401,128,0,27468:0:0:0:0:
192,192,27468,128,0,27535:0:0:0:0:
320,192,27535,128,0,27601:0:0:0:0:
64,192,27601,128,0,27868:0:0:0:0:
448,192,27601,128,0,27868:0:0:0:0:
192,192,27601,128,0,27868:0:0:0:0:
448,192,28001,128,0,28268:0:0:0:0:
64,192,28001,128,0,28268:0:0:0:0:
320,192,28001,128,0,28268:0:0:0:0:
64,192,28535,128,0,30068:0:0:0:0:
192,192,28535,128,0,30135:0:0:0:0:
320,192,28535,128,0,30201:0:0:0:0:
448,192,28535,128,0,30268:0:0:0:0:
64,192,30135,128,0,30335:0:0:0:0:
192,192,30201,128,0,30401:0:0:0:0:
320,192,30268,128,0,30468:0:0:0:0:
448,192,30335,128,0,30535:0:0:0:0:
64,192,30401,128,0,30601:0:0:0:0:
192,192,30468,128,0,30668:0:0:0:0:
320,192,30535,128,0,30735:0:0:0:0:
448,192,30601,128,0,30735:0:0:0:0:
64,192,30668,128,0,30735:0:0:0:0:
192,192,30735,1,0,0:0:0:0:
64,192,30801,1,0,0:0:0:0:
448,192,30801,128,0,32801:0:0:0:0:
320,192,30801,1,0,0:0:0:0:
64,192,31335,128,0,31601:0:0:0:0:
192,192,31335,1,0,0:0:0:0:
320,192,31601,128,0,31668:0:0:0:0:
192,192,31735,128,0,31801:0:0:0:0:
64,192,31868,128,0,32201:0:0:0:0:
320,192,32001,128,0,32068:0:0:0:0:
192,192,32135,128,0,32201:0:0:0:0:
320,192,32268,128,0,32335:0:0:0:0:
64,192,32401,128,0,32801:0:0:0:0:
192,192,32401,128,0,32468:0:0:0:0:
320,192,32535,128,0,32601:0:0:0:0:
192,192,32668,128,0,32735:0:0:0:0:
320,192,32801,128,0,32868:0:0:0:0:
448,192,32935,1,0,0:0:0:0:
64,192,32935,128,0,34401:0:0:0:0:
192,192,33068,1,0,0:0:0:0:
320,192,33201,1,0,0:0:0:0:
448,192,33468,128,0,34535:0:0:0:0:
320,192,33468,1,0,0:0:0:0:
192,192,33601,1,0,0:0:0:0:
320,192,33868,128,0,34001:0:0:0:0:
192,192,34001,128,0,34135:0:0:0:0:
320,192,34135,128,0,34268:0:0:0:0:
192,192,34268,128,0,34401:0:0:0:0:
320,192,34401,128,0,34535:0:0:0:0:
64,192,34535,1,0,0:0:0:0:
192,192,34535,1,0,0:0:0:0:
320,192,34668,1,0,0:0:0:0:
192,192,34801,1,0,0:0:0:0:
64,192,34801,128,0,35068:0:0:0:0:
320,192,35068,1,0,0:0:0:0:
448,192,35068,1,0,0:0:0:0:
192,192,35201,1,0,0:0:0:0:
320,192,35335,1,0,0:0:0:0:
448,192,35601,128,0,35868:0:0:0:0:
64,192,35601,1,0,0:0:0:0:
192,192,35868,128,0,35935:0:0:0:0:
320,192,36001,128,0,36068:0:0:0:0:
448,192,36135,128,0,36468:0:0:0:0:
64,192,36268,128,0,36335:0:0:0:0:
320,192,36401,128,0,36468:0:0:0:0:
192,192,36535,128,0,36601:0:0:0:0:
448,192,36668,128,0,37068:0:0:0:0:
64,192,36668,128,0,36735:0:0:0:0:
320,192,36801,128,0,36868:0:0:0:0:
64,192,36935,128,0,37001:0:0:0:0:
192,192,37068,128,0,37135:0:0:0:0:
448,192,37201,128,0,38735:0:0:0:0:
320,192,37201,1,0,0:0:0:0:
64,192,37335,1,0,0:0:0:0:
192,192,37468,1,0,0:0:0:0:
320,192,37735,1,0,0:0:0:0:
64,192,37735,128,0,38735:0:0:0:0:
192,192,37868,1,0,0:0:0:0:
320,192,38135,128,0,38268:0:0:0:0:
192,192,38268,128,0,38401:0:0:0:0:
320,192,38401,128,0,38535:0:0:0:0:
192,192,38535,128,0,38735:0:0:0:0:
320,192,38668,128,0,38735:0:0:0:0:
64,192,38801,1,0,0:0:0:0:
448,192,38801,128,0,39001:0:0:0:0:
320,192,38868,128,0,39068:0:0:0:0:
192,192,38935,128,0,39135:0:0:0:0:
64,192,39001,128,0,39201:0:0:0:0:
448,192,39068,128,0,39268:0:0:0:0:
320,192,39135,128,0,39268:0:0:0:0:
192,192,39201,128,0,39335:0:0:0:0:
64,192,39268,128,0,39335:0:0:0:0:
320,192,39335,1,0,0:0:0:0:
448,192,39335,1,0,0:0:0:0:
64,192,39401,1,0,0:0:0:0:
192,192,39401,1,0,0:0:0:0:
320,192,39468,1,0,0:0:0:0:
448,192,39468,1,0,0:0:0:0:
64,192,39535,1,0,0:0:0:0:
192,192,39535,1,0,0:0:0:0:
64,192,39735,1,0,0:0:0:0:
192,192,39735,1,0,0:0:0:0:
448,192,39801,1,0,0:0:0:0:
320,192,39801,1,0,0:0:0:0:
64,192,39868,1,0,0:0:0:0:
192,192,39868,1,0,0:0:0:0:
448,192,39935,1,0,0:0:0:0:
320,192,39935,1,0,0:0:0:0:
192,192,40135,128,0,40201:0:0:0:0:
448,192,40268,128,0,40335:0:0:0:0:
192,192,40401,1,0,0:0:0:0:
64,192,40401,128,0,40468:0:0:0:0:
320,192,40535,128,0,40601:0:0:0:0:
192,192,40668,128,0,40735:0:0:0:0:
64,192,40668,1,0,0:0:0:0:
448,192,40801,128,0,40868:0:0:0:0:
320,192,40868,1,0,0:0:0:0:
192,192,40935,1,0,0:0:0:0:
64,192,40935,128,0,41001:0:0:0:0:
320,192,41068,1,0,0:0:0:0:
448,192,41068,128,0,41135:0:0:0:0:
64,192,41201,1,0,0:0:0:0:
192,192,41201,128,0,41268:0:0:0:0:
320,192,41335,128,0,41401:0:0:0:0:
64,192,41468,1,0,0:0:0:0:
448,192,41468,1,0,0:0:0:0:
192,192,41535,1,0,0:0:0:0:
320,192,41535,1,0,0:0:0:0:
64,192,41601,1,0,0:0:0:0:
448,192,41601,1,0,0:0:0:0:
192,192,41668,1,0,0:0:0:0:
320,192,41668,1,0,0:0:0:0:
192,192,41868,1,0,0:0:0:0:
320,192,41868,1,0,0:0:0:0:
64,192,41935,1,0,0:0:0:0:
448,192,41935,1,0,0:0:0:0:
192,192,42001,1,0,0:0:0:0:
320,192,42001,1,0,0:0:0:0:
64,192,42068,1,0,0:0:0:0:
448,192,42068,1,0,0:0:0:0:
192,192,42268,128,0,42401:0:0:0:0:
320,192,42401,128,0,42535:0:0:0:0:
448,192,42535,1,0,0:0:0:0:
64,192,42535,128,0,42668:0:0:0:0:
192,192,42601,1,0,0:0:0:0:
448,192,42668,128,0,42801:0:0:0:0:
320,192,42735,1,0,0:0:0:0:
64,192,42801,1,0,0:0:0:0:
192,192,42801,128,0,42935:0:0:0:0:
448,192,42868,1,0,0:0:0:0:
320,192,42935,128,0,43068:0:0:0:0:
192,192,43001,1,0,0:0:0:0:
448,192,43068,1,0,0:0:0:0:
64,192,43068,128,0,43201:0:0:0:0:
448,192,43201,1,0,0:0:0:0:
192,192,43201,1,0,0:0:0:0:
320,192,43201,1,0,0:0:0:0:
64,192,43401,1,0,0:0:0:0:
192,192,43401,1,0,0:0:0:0:
320,192,43401,1,0,0:0:0:0:
64,192,43601,1,0,0:0:0:0:
448,192,43601,1,0,0:0:0:0:
192,192,43668,1,0,0:0:0:0:
320,192,43668,1,0,0:0:0:0:
64,192,43735,1,0,0:0:0:0:
448,192,43735,1,0,0:0:0:0:
192,192,43801,1,0,0:0:0:0:
320,192,43801,1,0,0:0:0:0:
64,192,44001,1,0,0:0:0:0:
192,192,44001,1,0,0:0:0:0:
320,192,44068,1,0,0:0:0:0:
448,192,44068,1,0,0:0:0:0:
64,192,44135,1,0,0:0:0:0:
192,192,44135,1,0,0:0:0:0:
320,192,44201,1,0,0:0:0:0:
448,192,44201,1,0,0:0:0:0:
64,192,44268,1,0,0:0:0:0:
192,192,44335,1,0,0:0:0:0:
448,192,44401,1,0,0:0:0:0:
320,192,44401,1,0,0:0:0:0:
192,192,44468,1,0,0:0:0:0:
64,192,44468,1,0,0:0:0:0:
448,192,44535,1,0,0:0:0:0:
320,192,44535,1,0,0:0:0:0:
64,192,44601,1,0,0:0:0:0:
192,192,44601,1,0,0:0:0:0:
320,192,44668,1,0,0:0:0:0:
448,192,44735,1,0,0:0:0:0:
64,192,44801,1,0,0:0:0:0:
192,192,44801,1,0,0:0:0:0:
448,192,44868,1,0,0:0:0:0:
320,192,44868,1,0,0:0:0:0:
64,192,44935,1,0,0:0:0:0:
192,192,44935,1,0,0:0:0:0:
448,192,45001,1,0,0:0:0:0:
320,192,45001,1,0,0:0:0:0:
192,192,45068,1,0,0:0:0:0:
64,192,45135,1,0,0:0:0:0:
448,192,45201,1,0,0:0:0:0:
320,192,45201,1,0,0:0:0:0:
448,192,45290,1,0,0:0:0:0:
320,192,45290,1,0,0:0:0:0:
192,192,45379,1,0,0:0:0:0:
64,192,45379,1,0,0:0:0:0:
448,192,45468,1,0,0:0:0:0:
320,192,45468,1,0,0:0:0:0:
192,192,45557,1,0,0:0:0:0:
64,192,45557,1,0,0:0:0:0:
64,192,45646,1,0,0:0:0:0:
192,192,45646,1,0,0:0:0:0:
448,192,45735,1,0,0:0:0:0:
320,192,45735,1,0,0:0:0:0:
64,192,45935,128,0,46601:0:0:0:0:
448,192,46201,128,0,46735:0:0:0:0:
192,192,46468,128,0,46735:0:0:0:0:
320,192,46601,128,0,46735:0:0:0:0:
64,192,46668,128,0,46735:0:0:0:0:
64,192,46801,1,0,0:0:0:0:
448,192,46801,1,0,0:0:0:0:
320,192,46868,1,0,0:0:0:0:
192,192,46935,1,0,0:0:0:0:
448,192,47001,1,0,0:0:0:0:
320,192,47068,1,0,0:0:0:0:
192,192,47135,1,0,0:0:0:0:
448,192,47201,1,0,0:0:0:0:
320,192,47268,1,0,0:0:0:0:
192,192,47335,1,0,0:0:0:0:
64,192,47401,1,0,0:0:0:0:
320,192,47468,1,0,0:0:0:0:
192,192,47535,1,0,0:0:0:0:
320,192,47601,128,0,47801:0:0:0:0:
448,192,47601,128,0,47801:0:0:0:0:
64,192,47601,128,0,47801:0:0:0:0:
192,192,47668,128,0,47801:0:0:0:0:
64,192,47868,1,0,0:0:0:0:
192,192,47868,1,0,0:0:0:0:
448,192,47868,128,0,48068:0:0:0:0:
64,192,48001,128,0,48335:0:0:0:0:
320,192,48135,1,0,0:0:0:0:
448,192,48135,1,0,0:0:0:0:
192,192,48135,1,0,0:0:0:0:
192,192,48268,128,0,48335:0:0:0:0:
320,192,48268,128,0,48335:0:0:0:0:
64,192,48401,1,0,0:0:0:0:
448,192,48401,1,0,0:0:0:0:
320,192,48401,1,0,0:0:0:0:
192,192,48535,128,0,48735:0:0:0:0:
64,192,48668,1,0,0:0:0:0:
448,192,48668,1,0,0:0:0:0:
320,192,48668,128,0,48868:0:0:0:0:
192,192,48801,128,0,48868:0:0:0:0:
64,192,48801,128,0,48868:0:0:0:0:
320,192,48935,1,0,0:0:0:0:
448,192,48935,1,0,0:0:0:0:
64,192,48935,128,0,49135:0:0:0:0:
448,192,49068,128,0,49401:0:0:0:0:
64,192,49201,1,0,0:0:0:0:
320,192,49201,1,0,0:0:0:0:
192,192,49201,1,0,0:0:0:0:
192,192,49335,128,0,49401:0:0:0:0:
320,192,49335,128,0,49401:0:0:0:0:
64,192,49468,1,0,0:0:0:0:
192,192,49468,1,0,0:0:0:0:
448,192,49468,1,0,0:0:0:0:
320,192,49601,128,0,49801:0:0:0:0:
192,192,49735,128,0,49935:0:0:0:0:
64,192,49735,1,0,0:0:0:0:
448,192,49735,1,0,0:0:0:0:
320,192,49868,128,0,49935:0:0:0:0:
448,192,49868,128,0,49935:0:0:0:0:
64,192,49868,1,0,0:0:0:0:
64,192,50001,1,0,0:0:0:0:
192,192,50001,1,0,0:0:0:0:
448,192,50001,128,0,50201:0:0:0:0:
192,192,50135,128,0,50468:0:0:0:0:
320,192,50268,1,0,0:0:0:0:
448,192,50268,1,0,0:0:0:0:
64,192,50268,1,0,0:0:0:0:
64,192,50401,128,0,50468:0:0:0:0:
320,192,50401,128,0,50468:0:0:0:0:
192,192,50535,1,0,0:0:0:0:
448,192,50535,1,0,0:0:0:0:
320,192,50535,1,0,0:0:0:0:
64,192,50668,128,0,50868:0:0:0:0:
448,192,50801,128,0,51001:0:0:0:0:
192,192,50801,1,0,0:0:0:0:
320,192,50801,1,0,0:0:0:0:
64,192,50935,128,0,51001:0:0:0:0:
192,192,50935,128,0,51001:0:0:0:0:
192,192,51068,128,0,51268:0:0:0:0:
320,192,51068,1,0,0:0:0:0:
448,192,51068,1,0,0:0:0:0:
320,192,51201,128,0,51535:0:0:0:0:
64,192,51335,1,0,0:0:0:0:
192,192,51335,1,0,0:0:0:0:
448,192,51335,1,0,0:0:0:0:
64,192,51468,128,0,51535:0:0:0:0:
448,192,51468,128,0,51535:0:0:0:0:
192,192,51535,1,0,0:0:0:0:
64,192,51601,1,0,0:0:0:0:
448,192,51601,1,0,0:0:0:0:
320,192,51601,1,0,0:0:0:0:
64,192,51735,1,0,0:0:0:0:
448,192,51735,1,0,0:0:0:0:
192,192,51735,1,0,0:0:0:0:
448,192,51868,1,0,0:0:0:0:
320,192,51868,1,0,0:0:0:0:
64,192,51868,128,0,51912:0:0:0:0:
192,192,51912,128,0,51957:0:0:0:0:
320,192,51957,128,0,52001:0:0:0:0:
448,192,52001,128,0,52046:0:0:0:0:
192,192,52046,128,0,52090:0:0:0:0:
320,192,52090,128,0,52135:0:0:0:0:
448,192,52135,1,0,0:0:0:0:
64,192,52135,1,0,0:0:0:0:
192,192,52135,1,0,0:0:0:0:
64,192,52268,1,0,0:0:0:0:
320,192,52268,128,0,52401:0:0:0:0:
64,192,52401,1,0,0:0:0:0:
192,192,52401,1,0,0:0:0:0:
448,192,52401,1,0,0:0:0:0:
320,192,52535,1,0,0:0:0:0:
192,192,52535,128,0,52668:0:0:0:0:
64,192,52668,1,0,0:0:0:0:
448,192,52668,1,0,0:0:0:0:
320,192,52668,1,0,0:0:0:0:
320,192,52801,128,0,53001:0:0:0:0:
448,192,52935,1,0,0:0:0:0:
64,192,52935,1,0,0:0:0:0:
192,192,52935,128,0,53068:0:0:0:0:
64,192,53068,1,0,0:0:0:0:
448,192,53068,1,0,0:0:0:0:
320,192,53135,1,0,0:0:0:0:
448,192,53201,1,0,0:0:0:0:
192,192,53201,1,0,0:0:0:0:
64,192,53201,1,0,0:0:0:0:
192,192,53335,128,0,53468:0:0:0:0:
320,192,53468,1,0,0:0:0:0:
448,192,53468,1,0,0:0:0:0:
64,192,53468,1,0,0:0:0:0:
320,192,53601,128,0,53735:0:0:0:0:
64,192,53735,1,0,0:0:0:0:
192,192,53735,1,0,0:0:0:0:
320,192,53801,1,0,0:0:0:0:
448,192,53801,1,0,0:0:0:0:
64,192,53868,1,0,0:0:0:0:
192,192,53935,1,0,0:0:0:0:
320,192,53935,1,0,0:0:0:0:
448,192,54001,1,0,0:0:0:0:
64,192,54001,1,0,0:0:0:0:
192,192,54135,1,0,0:0:0:0:
320,192,54135,1,0,0:0:0:0:
64,192,54268,1,0,0:0:0:0:
192,192,54268,1,0,0:0:0:0:
448,192,54268,1,0,0:0:0:0:
448,192,54401,1,0,0:0:0:0:
320,192,54401,1,0,0:0:0:0:
64,192,54401,1,0,0:0:0:0:
320,192,54535,1,0,0:0:0:0:
192,192,54668,1,0,0:0:0:0:
64,192,54801,1,0,0:0:0:0:
320,192,54801,1,0,0:0:0:0:
448,192,54801,1,0,0:0:0:0:
448,192,54935,1,0,0:0:0:0:
192,192,54935,1,0,0:0:0:0:
64,192,54935,1,0,0:0:0:0:
192,192,55068,1,0,0:0:0:0:
320,192,55068,1,0,0:0:0:0:
448,192,55135,1,0,0:0:0:0:
64,192,55201,1,0,0:0:0:0:
192,192,55268,1,0,0:0:0:0:
64,192,55335,1,0,0:0:0:0:
320,192,55335,1,0,0:0:0:0:
448,192,55335,1,0,0:0:0:0:
192,192,55468,1,0,0:0:0:0:
320,192,55535,1,0,0:0:0:0:
448,192,55601,1,0,0:0:0:0:
64,192,55668,1,0,0:0:0:0:
320,192,55735,1,0,0:0:0:0:
64,192,55801,1,0,0:0:0:0:
192,192,55801,1,0,0:0:0:0:
448,192,55868,1,0,0:0:0:0:
192,192,55935,1,0,0:0:0:0:
320,192,55935,1,0,0:0:0:0:
64,192,56001,1,0,0:0:0:0:
448,192,56068,128,0,56135:0:0:0:0:
320,192,56135,128,0,56201:0:0:0:0:
64,192,56201,128,0,56268:0:0:0:0:
192,192,56268,128,0,56335:0:0:0:0:
320,192,56335,128,0,56401:0:0:0:0:
64,192,56401,1,0,0:0:0:0:
192,192,56401,1,0,0:0:0:0:
320,192,56468,1,0,0:0:0:0:
448,192,56468,1,0,0:0:0:0:
64,192,56535,1,0,0:0:0:0:
192,192,56535,1,0,0:0:0:0:
320,192,56601,1,0,0:0:0:0:
448,192,56601,1,0,0:0:0:0:
64,192,56668,1,0,0:0:0:0:
192,192,56668,1,0,0:0:0:0:
320,192,56801,128,0,56935:0:0:0:0:
64,192,56935,1,0,0:0:0:0:
192,192,56935,1,0,0:0:0:0:
448,192,56935,1,0,0:0:0:0:
320,192,57068,1,0,0:0:0:0:
192,192,57068,128,0,57401:0:0:0:0:
448,192,57201,1,0,0:0:0:0:
64,192,57201,1,0,0:0:0:0:
320,192,57201,128,0,57401:0:0:0:0:
64,192,57335,128,0,57401:0:0:0:0:
448,192,57335,128,0,57401:0:0:0:0:
64,192,57468,1,0,0:0:0:0:
192,192,57468,1,0,0:0:0:0:
448,192,57468,1,0,0:0:0:0:
192,192,57601,128,0,57735:0:0:0:0:
320,192,57735,1,0,0:0:0:0:
448,192,57735,1,0,0:0:0:0:
64,192,57735,1,0,0:0:0:0:
320,192,57868,128,0,58001:0:0:0:0:
64,192,58001,1,0,0:0:0:0:
192,192,58001,1,0,0:0:0:0:
448,192,58001,1,0,0:0:0:0:
320,192,58201,1,0,0:0:0:0:
448,192,58201,1,0,0:0:0:0:
64,192,58201,1,0,0:0:0:0:
448,192,58401,1,0,0:0:0:0:
192,192,58401,1,0,0:0:0:0:
320,192,58401,1,0,0:0:0:0:
64,192,58535,1,0,0:0:0:0:
320,192,58535,1,0,0:0:0:0:
192,192,58535,1,0,0:0:0:0:
448,192,58668,1,0,0:0:0:0:
320,192,58701,1,0,0:0:0:0:
192,192,58735,1,0,0:0:0:0:
64,192,58768,1,0,0:0:0:0:
448,192,58801,1,0,0:0:0:0:
320,192,58801,1,0,0:0:0:0:
192,192,58935,1,0,0:0:0:0:
64,192,58935,1,0,0:0:0:0:
448,192,59001,1,0,0:0:0:0:
320,192,59001,1,0,0:0:0:0:
192,192,59068,1,0,0:0:0:0:
64,192,59068,1,0,0:0:0:0:
320,192,59201,128,0,59535:0:0:0:0:
448,192,59335,1,0,0:0:0:0:
64,192,59335,1,0,0:0:0:0:
192,192,59335,128,0,59535:0:0:0:0:
64,192,59468,128,0,59535:0:0:0:0:
448,192,59468,128,0,59535:0:0:0:0:
320,192,59601,1,0,0:0:0:0:
448,192,59601,1,0,0:0:0:0:
64,192,59601,1,0,0:0:0:0:
192,192,59735,1,0,0:0:0:0:
320,192,59801,1,0,0:0:0:0:
448,192,59801,1,0,0:0:0:0:
192,192,59868,1,0,0:0:0:0:
64,192,59868,1,0,0:0:0:0:
320,192,59935,1,0,0:0:0:0:
448,192,59935,1,0,0:0:0:0:
192,192,60001,1,0,0:0:0:0:
64,192,60001,1,0,0:0:0:0:
448,192,60068,1,0,0:0:0:0:
192,192,60135,1,0,0:0:0:0:
320,192,60135,1,0,0:0:0:0:
192,192,60223,1,0,0:0:0:0:
320,192,60223,1,0,0:0:0:0:
64,192,60312,1,0,0:0:0:0:
448,192,60312,1,0,0:0:0:0:
448,192,60401,1,0,0:0:0:0:
64,192,60401,1,0,0:0:0:0:
320,192,60468,1,0,0:0:0:0:
192,192,60535,1,0,0:0:0:0:
320,192,60601,1,0,0:0:0:0:
64,192,60668,1,0,0:0:0:0:
448,192,60668,1,0,0:0:0:0:
192,192,60668,1,0,0:0:0:0:
448,192,60801,1,0,0:0:0:0:
320,192,60801,128,0,60935:0:0:0:0:
192,192,60935,1,0,0:0:0:0:
64,192,60935,1,0,0:0:0:0:
448,192,60935,1,0,0:0:0:0:
64,192,61068,128,0,61201:0:0:0:0:
192,192,61201,1,0,0:0:0:0:
448,192,61201,1,0,0:0:0:0:
320,192,61201,1,0,0:0:0:0:
448,192,61335,128,0,61668:0:0:0:0:
64,192,61468,1,0,0:0:0:0:
192,192,61468,1,0,0:0:0:0:
320,192,61468,128,0,61668:0:0:0:0:
192,192,61601,128,0,61668:0:0:0:0:
64,192,61601,128,0,61668:0:0:0:0:
320,192,61735,1,0,0:0:0:0:
448,192,61735,1,0,0:0:0:0:
64,192,61735,1,0,0:0:0:0:
448,192,61868,1,0,0:0:0:0:
320,192,61868,1,0,0:0:0:0:
192,192,61868,1,0,0:0:0:0:
64,192,62001,1,0,0:0:0:0:
192,192,62001,1,0,0:0:0:0:
320,192,62001,1,0,0:0:0:0:
448,192,62135,1,0,0:0:0:0:
192,192,62135,1,0,0:0:0:0:
64,192,62135,1,0,0:0:0:0:
448,192,62268,1,0,0:0:0:0:
320,192,62268,1,0,0:0:0:0:
448,192,62357,1,0,0:0:0:0:
64,192,62357,1,0,0:0:0:0:
192,192,62446,1,0,0:0:0:0:
448,192,62535,1,0,0:0:0:0:
64,192,62535,1,0,0:0:0:0:
320,192,62623,1,0,0:0:0:0:
448,192,62623,1,0,0:0:0:0:
192,192,62712,1,0,0:0:0:0:
320,192,62801,128,0,62935:0:0:0:0:
64,192,62801,128,0,63001:0:0:0:0:
448,192,62801,128,0,63001:0:0:0:0:
192,192,62935,1,0,0:0:0:0:
320,192,63001,1,0,0:0:0:0:
448,192,63068,1,0,0:0:0:0:
64,192,63068,1,0,0:0:0:0:
64,192,63201,128,0,63401:0:0:0:0:
448,192,63201,128,0,63401:0:0:0:0:
192,192,63201,128,0,63335:0:0:0:0:
320,192,63335,1,0,0:0:0:0:
192,192,63401,1,0,0:0:0:0:
64,192,63468,1,0,0:0:0:0:
448,192,63468,1,0,0:0:0:0:
320,192,63601,128,0,63735:0:0:0:0:
448,192,63601,128,0,63801:0:0:0:0:
64,192,63601,128,0,63801:0:0:0:0:
192,192,63735,1,0,0:0:0:0:
320,192,63801,1,0,0:0:0:0:
64,192,63868,1,0,0:0:0:0:
448,192,63868,1,0,0:0:0:0:
192,192,63935,1,0,0:0:0:0:
320,192,64001,1,0,0:0:0:0:
448,192,64001,1,0,0:0:0:0:
64,192,64068,1,0,0:0:0:0:
192,192,64068,1,0,0:0:0:0:
320,192,64135,128,0,64268:0:0:0:0:
448,192,64135,128,0,64335:0:0:0:0:
64,192,64201,1,0,0:0:0:0:
192,192,64268,1,0,0:0:0:0:
320,192,64335,1,0,0:0:0:0:
448,192,64401,1,0,0:0:0:0:
64,192,64401,1,0,0:0:0:0:
192,192,64468,1,0,0:0:0:0:
448,192,64535,1,0,0:0:0:0:
320,192,64601,1,0,0:0:0:0:
64,192,64668,1,0,0:0:0:0:
192,192,64668,1,0,0:0:0:0:
448,192,64735,1,0,0:0:0:0:
64,192,64801,1,0,0:0:0:0:
192,192,64868,1,0,0:0:0:0:
448,192,64935,128,0,65135:0:0:0:0:
64,192,64935,128,0,65135:0:0:0:0:
320,192,64935,128,0,65135:0:0:0:0:
320,192,65201,1,0,0:0:0:0:
192,192,65201,128,0,65735:0:0:0:0:
64,192,65468,1,0,0:0:0:0:
320,192,65468,128,0,66001:0:0:0:0:
448,192,65735,128,0,66268:0:0:0:0:
64,192,66001,128,0,67068:0:0:0:0:
320,192,66535,1,0,0:0:0:0:
448,192,66535,1,0,0:0:0:0:
192,192,66668,128,0,67068:0:0:0:0:
448,192,66935,1,0,0:0:0:0:
320,192,67068,1,0,0:0:0:0:
448,192,67068,128,0,68001:0:0:0:0:
64,192,67201,1,0,0:0:0:0:
320,192,67335,1,0,0:0:0:0:
192,192,67468,1,0,0:0:0:0:
64,192,67601,1,0,0:0:0:0:
320,192,67601,1,0,0:0:0:0:
192,192,67735,1,0,0:0:0:0:
64,192,67868,128,0,68268:0:0:0:0:
320,192,68001,1,0,0:0:0:0:
448,192,68135,128,0,68668:0:0:0:0:
192,192,68401,1,0,0:0:0:0:
64,192,68401,1,0,0:0:0:0:
64,192,68535,128,0,68668:0:0:0:0:
192,192,68668,1,0,0:0:0:0:
320,192,68668,1,0,0:0:0:0:
448,192,68801,1,0,0:0:0:0:
64,192,68801,1,0,0:0:0:0:
320,192,68868,1,0,0:0:0:0:
64,192,68935,1,0,0:0:0:0:
192,192,68935,1,0,0:0:0:0:
448,192,69001,1,0,0:0:0:0:
192,192,69068,1,0,0:0:0:0:
320,192,69135,1,0,0:0:0:0:
448,192,69201,1,0,0:0:0:0:
64,192,69201,1,0,0:0:0:0:
192,192,69268,1,0,0:0:0:0:
320,192,69268,1,0,0:0:0:0:
64,192,69335,1,0,0:0:0:0:
448,192,69335,1,0,0:0:0:0:
192,192,69401,1,0,0:0:0:0:
320,192,69401,1,0,0:0:0:0:
64,192,69601,1,0,0:0:0:0:
192,192,69601,1,0,0:0:0:0:
320,192,69668,1,0,0:0:0:0:
448,192,69668,1,0,0:0:0:0:
64,192,69735,1,0,0:0:0:0:
192,192,69735,1,0,0:0:0:0:
320,192,69801,1,0,0:0:0:0:
448,192,69801,1,0,0:0:0:0:
192,192,70001,1,0,0:0:0:0:
320,192,70001,1,0,0:0:0:0:
64,192,70068,1,0,0:0:0:0:
448,192,70068,1,0,0:0:0:0:
192,192,70135,1,0,0:0:0:0:
320,192,70135,1,0,0:0:0:0:
64,192,70201,1,0,0:0:0:0:
448,192,70201,1,0,0:0:0:0:
320,192,70401,1,0,0:0:0:0:
448,192,70401,1,0,0:0:0:0:
64,192,70468,1,0,0:0:0:0:
192,192,70468,1,0,0:0:0:0:
320,192,70535,1,0,0:0:0:0:
448,192,70535,1,0,0:0:0:0:
64,192,70601,1,0,0:0:0:0:
192,192,70601,1,0,0:0:0:0:
320,192,70801,128,0,70868:0:0:0:0:
448,192,70801,128,0,70935:0:0:0:0:
64,192,70868,128,0,71068:0:0:0:0:
192,192,70935,128,0,71135:0:0:0:0:
320,192,71001,128,0,71201:0:0:0:0:
448,192,71068,128,0,71268:0:0:0:0:
64,192,71135,1,0,0:0:0:0:
192,192,71201,1,0,0:0:0:0:
320,192,71268,1,0,0:0:0:0:
64,192,71335,1,0,0:0:0:0:
192,192,71335,1,0,0:0:0:0:
320,192,71401,1,0,0:0:0:0:
448,192,71401,1,0,0:0:0:0:
64,192,71468,1,0,0:0:0:0:
192,192,71468,1,0,0:0:0:0:
320,192,71535,1,0,0:0:0:0:
448,192,71535,1,0,0:0:0:0:
64,192,71735,1,0,0:0:0:0:
448,192,71735,1,0,0:0:0:0:
192,192,71801,1,0,0:0:0:0:
320,192,71801,1,0,0:0:0:0:
64,192,71868,1,0,0:0:0:0:
448,192,71868,1,0,0:0:0:0:
192,192,71935,1,0,0:0:0:0:
320,192,71935,1,0,0:0:0:0:
320,192,72135,1,0,0:0:0:0:
448,192,72135,1,0,0:0:0:0:
64,192,72201,1,0,0:0:0:0:
192,192,72201,1,0,0:0:0:0:
320,192,72268,1,0,0:0:0:0:
448,192,72268,1,0,0:0:0:0:
64,192,72335,1,0,0:0:0:0:
192,192,72335,1,0,0:0:0:0:
192,192,72535,1,0,0:0:0:0:
320,192,72535,1,0,0:0:0:0:
64,192,72601,1,0,0:0:0:0:
448,192,72601,1,0,0:0:0:0:
192,192,72668,1,0,0:0:0:0:
320,192,72668,1,0,0:0:0:0:
448,192,72735,1,0,0:0:0:0:
64,192,72735,1,0,0:0:0:0:
64,192,72935,128,0,73135:0:0:0:0:
192,192,72935,128,0,73068:0:0:0:0:
448,192,72935,128,0,73201:0:0:0:0:
320,192,73068,128,0,73268:0:0:0:0:
192,192,73135,128,0,73335:0:0:0:0:
64,192,73201,128,0,73401:0:0:0:0:
448,192,73335,1,0,0:0:0:0:
320,192,73379,1,0,0:0:0:0:
192,192,73423,1,0,0:0:0:0:
320,192,73468,128,0,73668:0:0:0:0:
448,192,73468,128,0,73668:0:0:0:0:
64,192,73468,128,0,73668:0:0:0:0:
192,192,73735,128,0,74268:0:0:0:0:
320,192,73735,1,0,0:0:0:0:
64,192,74001,1,0,0:0:0:0:
320,192,74001,128,0,74535:0:0:0:0:
448,192,74268,128,0,74801:0:0:0:0:
64,192,74535,128,0,75601:0:0:0:0:
448,192,75068,1,0,0:0:0:0:
320,192,75068,1,0,0:0:0:0:
448,192,75201,128,0,75601:0:0:0:0:
192,192,75468,1,0,0:0:0:0:
320,192,75601,128,0,76535:0:0:0:0:
192,192,75601,1,0,0:0:0:0:
64,192,75735,1,0,0:0:0:0:
448,192,75868,1,0,0:0:0:0:
192,192,76001,1,0,0:0:0:0:
64,192,76135,1,0,0:0:0:0:
448,192,76135,1,0,0:0:0:0:
192,192,76268,1,0,0:0:0:0:
64,192,76401,128,0,76935:0:0:0:0:
448,192,76535,1,0,0:0:0:0:
448,192,76668,128,0,77068:0:0:0:0:
192,192,76935,1,0,0:0:0:0:
320,192,77001,1,0,0:0:0:0:
64,192,77068,1,0,0:0:0:0:
192,192,77068,1,0,0:0:0:0:
320,192,77135,1,0,0:0:0:0:
192,192,77201,1,0,0:0:0:0:
64,192,77201,1,0,0:0:0:0:
448,192,77201,1,0,0:0:0:0:
320,192,77335,1,0,0:0:0:0:
448,192,77335,1,0,0:0:0:0:
64,192,77401,1,0,0:0:0:0:
192,192,77468,1,0,0:0:0:0:
320,192,77468,1,0,0:0:0:0:
448,192,77535,1,0,0:0:0:0:
64,192,77601,1,0,0:0:0:0:
192,192,77668,1,0,0:0:0:0:
320,192,77735,1,0,0:0:0:0:
448,192,77735,1,0,0:0:0:0:
64,192,77801,1,0,0:0:0:0:
192,192,77801,1,0,0:0:0:0:
320,192,77868,1,0,0:0:0:0:
448,192,77868,1,0,0:0:0:0:
64,192,77935,1,0,0:0:0:0:
192,192,77935,1,0,0:0:0:0:
64,192,78135,1,0,0:0:0:0:
448,192,78135,1,0,0:0:0:0:
192,192,78201,1,0,0:0:0:0:
320,192,78201,1,0,0:0:0:0:
64,192,78268,1,0,0:0:0:0:
448,192,78268,1,0,0:0:0:0:
192,192,78335,1,0,0:0:0:0:
320,192,78335,1,0,0:0:0:0:
64,192,78535,1,0,0:0:0:0:
192,192,78535,1,0,0:0:0:0:
320,192,78601,1,0,0:0:0:0:
448,192,78601,1,0,0:0:0:0:
64,192,78668,1,0,0:0:0:0:
192,192,78668,1,0,0:0:0:0:
320,192,78735,1,0,0:0:0:0:
448,192,78735,1,0,0:0:0:0:
192,192,78935,1,0,0:0:0:0:
320,192,78935,1,0,0:0:0:0:
64,192,79001,1,0,0:0:0:0:
448,192,79001,1,0,0:0:0:0:
192,192,79068,1,0,0:0:0:0:
320,192,79068,1,0,0:0:0:0:
64,192,79135,1,0,0:0:0:0:
448,192,79135,1,0,0:0:0:0:
448,192,79335,128,0,79468:0:0:0:0:
64,192,79335,128,0,79468:0:0:0:0:
192,192,79401,128,0,79535:0:0:0:0:
320,192,79468,128,0,79601:0:0:0:0:
448,192,79535,128,0,79601:0:0:0:0:
64,192,79601,1,0,0:0:0:0:
64,192,79690,1,0,0:0:0:0:
64,192,79779,128,0,79868:0:0:0:0:
320,192,79868,1,0,0:0:0:0:
448,192,79868,1,0,0:0:0:0:
192,192,79935,1,0,0:0:0:0:
64,192,79935,1,0,0:0:0:0:
320,192,80001,1,0,0:0:0:0:
448,192,80001,1,0,0:0:0:0:
64,192,80068,1,0,0:0:0:0:
192,192,80068,1,0,0:0:0:0:
192,192,80268,1,0,0:0:0:0:
320,192,80268,1,0,0:0:0:0:
64,192,80335,1,0,0:0:0:0:
448,192,80335,1,0,0:0:0:0:
320,192,80401,1,0,0:0:0:0:
192,192,80401,1,0,0:0:0:0:
64,192,80468,1,0,0:0:0:0:
448,192,80468,1,0,0:0:0:0:
192,192,80668,1,0,0:0:0:0:
64,192,80668,1,0,0:0:0:0:
320,192,80735,1,0,0:0:0:0:
448,192,80735,1,0,0:0:0:0:
192,192,80801,1,0,0:0:0:0:
64,192,80801,1,0,0:0:0:0:
448,192,80868,1,0,0:0:0:0:
320,192,80868,1,0,0:0:0:0:
64,192,81068,1,0,0:0:0:0:
448,192,81068,1,0,0:0:0:0:
192,192,81135,1,0,0:0:0:0:
320,192,81135,1,0,0:0:0:0:
64,192,81201,1,0,0:0:0:0:
448,192,81201,1,0,0:0:0:0:
192,192,81268,1,0,0:0:0:0:
320,192,81268,1,0,0:0:0:0:
64,192,81468,1,0,0:0:0:0:
192,192,81468,1,0,0:0:0:0:
448,192,81535,1,0,0:0:0:0:
192,192,81601,1,0,0:0:0:0:
320,192,81601,1,0,0:0:0:0:
64,192,81668,1,0,0:0:0:0:
448,192,81735,1,0,0:0:0:0:
320,192,81735,1,0,0:0:0:0:
192,192,81801,1,0,0:0:0:0:
448,192,81868,1,0,0:0:0:0:
64,192,81868,1,0,0:0:0:0:
320,192,81935,1,0,0:0:0:0:
448,192,82001,128,0,82068:0:0:0:0:
192,192,82001,128,0,82068:0:0:0:0:
64,192,82001,128,0,82068:0:0:0:0:
320,192,82068,1,0,0:0:0:0:
64,192,82135,128,0,82201:0:0:0:0:
192,192,82135,128,0,82201:0:0:0:0:
448,192,82135,128,0,82201:0:0:0:0:
320,192,82201,1,0,0:0:0:0:
64,192,82401,128,0,82468:0:0:0:0:
320,192,82401,128,0,82468:0:0:0:0:
448,192,82401,128,0,82468:0:0:0:0:
192,192,82468,1,0,0:0:0:0:
448,192,82535,128,0,82601:0:0:0:0:
320,192,82535,128,0,82601:0:0:0:0:
64,192,82535,128,0,82601:0:0:0:0:
192,192,82601,1,0,0:0:0:0:
192,192,82801,128,0,82868:0:0:0:0:
64,192,82801,128,0,82868:0:0:0:0:
320,192,82801,128,0,82868:0:0:0:0:
448,192,82868,1,0,0:0:0:0:
64,192,82935,128,0,83001:0:0:0:0:
192,192,82935,128,0,83001:0:0:0:0:
320,192,82935,128,0,83001:0:0:0:0:
448,192,83001,1,0,0:0:0:0:
192,192,83201,128,0,83268:0:0:0:0:
320,192,83201,128,0,83268:0:0:0:0:
448,192,83201,128,0,83268:0:0:0:0:
64,192,83268,1,0,0:0:0:0:
320,192,83335,128,0,83401:0:0:0:0:
448,192,83335,128,0,83401:0:0:0:0:
192,192,83335,128,0,83401:0:0:0:0:
64,192,83401,1,0,0:0:0:0:
64,192,83601,128,0,83779:0:0:0:0:
192,192,83601,128,0,83690:0:0:0:0:
320,192,83601,1,0,0:0:0:0:
448,192,83690,128,0,83868:0:0:0:0:
320,192,83779,128,0,83868:0:0:0:0:
192,192,83779,128,0,83957:0:0:0:0:
64,192,83868,128,0,83957:0:0:0:0:
320,192,83957,128,0,84046:0:0:0:0:
448,192,83957,128,0,84046:0:0:0:0:
192,192,84046,128,0,84135:0:0:0:0:
64,192,84046,128,0,84135:0:0:0:0:
320,192,84135,128,0,84335:0:0:0:0:
448,192,84135,128,0,84401:0:0:0:0:
64,192,84335,128,0,84735:0:0:0:0:
192,192,84401,128,0,84668:0:0:0:0:
320,192,84468,128,0,84601:0:0:0:0:
448,192,84601,128,0,84935:0:0:0:0:
64,192,84801,128,0,85135:0:0:0:0:
320,192,84801,128,0,84935:0:0:0:0:
192,192,84935,128,0,85135:0:0:0:0:
320,192,85001,128,0,85135:0:0:0:0:
448,192,85068,128,0,85135:0:0:0:0:
320,192,85201,128,0,85268:0:0:0:0:
448,192,85268,128,0,85335:0:0:0:0:
192,192,85335,128,0,85401:0:0:0:0:
320,192,85401,128,0,85468:0:0:0:0:
64,192,85468,128,0,85535:0:0:0:0:
448,192,85535,128,0,85601:0:0:0:0:
64,192,85601,128,0,85668:0:0:0:0:
448,192,85668,128,0,85735:0:0:0:0:
192,192,85735,128,0,85801:0:0:0:0:
320,192,85801,128,0,85868:0:0:0:0:
192,192,85868,128,0,85935:0:0:0:0:
320,192,85935,128,0,86001:0:0:0:0:
64,192,86001,128,0,86201:0:0:0:0:
448,192,86001,128,0,86201:0:0:0:0:
192,192,86001,128,0,86201:0:0:0:0:
320,192,86068,128,0,86201:0:0:0:0:
64,192,86268,5,0,0:0:0:0:
192,192,86268,1,0,0:0:0:0:
448,192,86268,1,0,0:0:0:0:
320,192,86268,1,0,0:0:0:0:
448,192,86401,1,0,0:0:0:0:
64,192,86401,1,0,0:0:0:0:
192,192,86468,1,0,0:0:0:0:
64,192,86535,1,0,0:0:0:0:
320,192,86535,1,0,0:0:0:0:
448,192,86535,1,0,0:0:0:0:
192,192,86668,1,0,0:0:0:0:
320,192,86668,1,0,0:0:0:0:
448,192,86735,1,0,0:0:0:0:
64,192,86801,1,0,0:0:0:0:
192,192,86801,1,0,0:0:0:0:
320,192,86801,1,0,0:0:0:0:
64,192,86935,1,0,0:0:0:0:
448,192,86935,1,0,0:0:0:0:
192,192,87001,1,0,0:0:0:0:
320,192,87068,1,0,0:0:0:0:
448,192,87068,1,0,0:0:0:0:
64,192,87068,1,0,0:0:0:0:
192,192,87201,1,0,0:0:0:0:
320,192,87201,1,0,0:0:0:0:
64,192,87268,1,0,0:0:0:0:
320,192,87335,1,0,0:0:0:0:
448,192,87335,1,0,0:0:0:0:
192,192,87335,1,0,0:0:0:0:
64,192,87468,1,0,0:0:0:0:
448,192,87468,1,0,0:0:0:0:
320,192,87535,1,0,0:0:0:0:
448,192,87601,1,0,0:0:0:0:
64,192,87601,1,0,0:0:0:0:
192,192,87601,1,0,0:0:0:0:
320,192,87735,1,0,0:0:0:0:
192,192,87735,1,0,0:0:0:0:
64,192,87801,1,0,0:0:0:0:
320,192,87868,1,0,0:0:0:0:
448,192,87868,1,0,0:0:0:0:
192,192,87868,1,0,0:0:0:0:
64,192,88001,1,0,0:0:0:0:
448,192,88001,1,0,0:0:0:0:
192,192,88068,1,0,0:0:0:0:
448,192,88135,128,0,88201:0:0:0:0:
320,192,88135,1,0,0:0:0:0:
64,192,88135,128,0,88201:0:0:0:0:
192,192,88268,1,0,0:0:0:0:
320,192,88268,1,0,0:0:0:0:
448,192,88335,1,0,0:0:0:0:
64,192,88401,128,0,88468:0:0:0:0:
192,192,88401,1,0,0:0:0:0:
320,192,88401,128,0,88468:0:0:0:0:
448,192,88535,1,0,0:0:0:0:
64,192,88535,1,0,0:0:0:0:
192,192,88601,1,0,0:0:0:0:
64,192,88668,1,0,0:0:0:0:
320,192,88668,128,0,88735:0:0:0:0:
448,192,88668,128,0,88735:0:0:0:0:
448,192,88801,1,0,0:0:0:0:
192,192,88801,1,0,0:0:0:0:
320,192,88868,1,0,0:0:0:0:
64,192,88935,1,0,0:0:0:0:
192,192,88935,128,0,89001:0:0:0:0:
448,192,88935,128,0,89001:0:0:0:0:
448,192,89068,1,0,0:0:0:0:
64,192,89068,1,0,0:0:0:0:
320,192,89135,1,0,0:0:0:0:
448,192,89201,1,0,0:0:0:0:
64,192,89201,128,0,89268:0:0:0:0:
192,192,89201,128,0,89268:0:0:0:0:
320,192,89335,1,0,0:0:0:0:
64,192,89335,1,0,0:0:0:0:
192,192,89401,1,0,0:0:0:0:
448,192,89468,128,0,89535:0:0:0:0:
64,192,89468,1,0,0:0:0:0:
320,192,89468,128,0,89535:0:0:0:0:
192,192,89601,1,0,0:0:0:0:
320,192,89601,1,0,0:0:0:0:
448,192,89668,1,0,0:0:0:0:
64,192,89735,1,0,0:0:0:0:
192,192,89735,1,0,0:0:0:0:
320,192,89735,1,0,0:0:0:0:
64,192,89868,128,0,89935:0:0:0:0:
448,192,89868,128,0,89935:0:0:0:0:
192,192,89935,1,0,0:0:0:0:
320,192,90001,1,0,0:0:0:0:
448,192,90001,1,0,0:0:0:0:
64,192,90001,1,0,0:0:0:0:
192,192,90135,1,0,0:0:0:0:
320,192,90135,1,0,0:0:0:0:
64,192,90201,1,0,0:0:0:0:
448,192,90268,1,0,0:0:0:0:
192,192,90268,128,0,90335:0:0:0:0:
320,192,90268,128,0,90335:0:0:0:0:
64,192,90401,1,0,0:0:0:0:
448,192,90401,1,0,0:0:0:0:
192,192,90468,1,0,0:0:0:0:
320,192,90535,1,0,0:0:0:0:
64,192,90535,128,0,90601:0:0:0:0:
448,192,90535,128,0,90601:0:0:0:0:
192,192,90668,1,0,0:0:0:0:
320,192,90668,1,0,0:0:0:0:
448,192,90735,1,0,0:0:0:0:
64,192,90801,1,0,0:0:0:0:
192,192,90801,1,0,0:0:0:0:
320,192,90801,1,0,0:0:0:0:
64,192,90935,1,0,0:0:0:0:
448,192,90935,1,0,0:0:0:0:
192,192,91001,1,0,0:0:0:0:
320,192,91068,1,0,0:0:0:0:
448,192,91068,1,0,0:0:0:0:
64,192,91068,1,0,0:0:0:0:
192,192,91201,1,0,0:0:0:0:
64,192,91201,1,0,0:0:0:0:
320,192,91268,1,0,0:0:0:0:
64,192,91335,1,0,0:0:0:0:
192,192,91335,1,0,0:0:0:0:
448,192,91335,1,0,0:0:0:0:
320,192,91468,1,0,0:0:0:0:
192,192,91468,1,0,0:0:0:0:
64,192,91535,1,0,0:0:0:0:
320,192,91601,1,0,0:0:0:0:
448,192,91601,1,0,0:0:0:0:
192,192,91601,1,0,0:0:0:0:
64,192,91735,1,0,0:0:0:0:
448,192,91735,1,0,0:0:0:0:
320,192,91801,1,0,0:0:0:0:
192,192,91868,1,0,0:0:0:0:
448,192,91868,1,0,0:0:0:0:
64,192,91868,1,0,0:0:0:0:
320,192,92001,1,0,0:0:0:0:
448,192,92001,1,0,0:0:0:0:
192,192,92068,1,0,0:0:0:0:
448,192,92135,1,0,0:0:0:0:
320,192,92135,1,0,0:0:0:0:
64,192,92135,1,0,0:0:0:0:
192,192,92268,1,0,0:0:0:0:
320,192,92268,1,0,0:0:0:0:
64,192,92335,1,0,0:0:0:0:
192,192,92401,1,0,0:0:0:0:
320,192,92401,128,0,92468:0:0:0:0:
448,192,92401,128,0,92468:0:0:0:0:
64,192,92535,1,0,0:0:0:0:
192,192,92535,1,0,0:0:0:0:
320,192,92601,1,0,0:0:0:0:
448,192,92601,1,0,0:0:0:0:
192,192,92668,1,0,0:0:0:0:
64,192,92668,128,0,92801:0:0:0:0:
448,192,92668,128,0,92801:0:0:0:0:
192,192,92801,1,0,0:0:0:0:
320,192,92801,1,0,0:0:0:0:
448,192,92935,1,0,0:0:0:0:
64,192,92935,1,0,0:0:0:0:
192,192,92935,128,0,93068:0:0:0:0:
320,192,92935,128,0,93068:0:0:0:0:
64,192,93068,1,0,0:0:0:0:
448,192,93068,1,0,0:0:0:0:
192,192,93201,1,0,0:0:0:0:
64,192,93201,1,0,0:0:0:0:
320,192,93201,128,0,93335:0:0:0:0:
448,192,93201,128,0,93335:0:0:0:0:
64,192,93335,1,0,0:0:0:0:
192,192,93335,1,0,0:0:0:0:
448,192,93468,1,0,0:0:0:0:
320,192,93468,1,0,0:0:0:0:
192,192,93468,128,0,93601:0:0:0:0:
64,192,93468,128,0,93601:0:0:0:0:
320,192,93601,1,0,0:0:0:0:
448,192,93601,1,0,0:0:0:0:
192,192,93735,128,0,93835:0:0:0:0:
320,192,93735,128,0,93868:0:0:0:0:
64,192,93735,128,0,93801:0:0:0:0:
448,192,93735,128,0,94001:0:0:0:0:
64,192,93935,128,0,94201:0:0:0:0:
192,192,93935,128,0,94068:0:0:0:0:
320,192,93935,128,0,94035:0:0:0:0:
192,192,94135,128,0,94235:0:0:0:0:
320,192,94135,128,0,94268:0:0:0:0:
448,192,94135,128,0,94401:0:0:0:0:
64,192,94335,128,0,94468:0:0:0:0:
192,192,94335,128,0,94468:0:0:0:0:
320,192,94335,128,0,94435:0:0:0:0:
448,192,94535,128,0,94585:0:0:0:0:
64,192,94535,128,0,94585:0:0:0:0:
192,192,94568,128,0,94618:0:0:0:0:
320,192,94601,128,0,94651:0:0:0:0:
448,192,94635,128,0,94685:0:0:0:0:
64,192,94668,128,0,94718:0:0:0:0:
192,192,94701,128,0,94751:0:0:0:0:
320,192,94735,128,0,94785:0:0:0:0:
448,192,94801,1,0,0:0:0:0:
64,192,94801,1,0,0:0:0:0:
192,192,94801,1,0,0:0:0:0:
64,192,94935,1,0,0:0:0:0:
448,192,94935,1,0,0:0:0:0:
320,192,95001,1,0,0:0:0:0:
448,192,95068,1,0,0:0:0:0:
192,192,95068,1,0,0:0:0:0:
64,192,95068,1,0,0:0:0:0:
320,192,95201,1,0,0:0:0:0:
192,192,95201,1,0,0:0:0:0:
64,192,95268,1,0,0:0:0:0:
448,192,95335,1,0,0:0:0:0:
320,192,95335,1,0,0:0:0:0:
192,192,95335,1,0,0:0:0:0:
448,192,95468,1,0,0:0:0:0:
64,192,95468,1,0,0:0:0:0:
320,192,95535,1,0,0:0:0:0:
192,192,95601,1,0,0:0:0:0:
64,192,95601,1,0,0:0:0:0:
448,192,95601,1,0,0:0:0:0:
192,192,95735,1,0,0:0:0:0:
320,192,95735,1,0,0:0:0:0:
192,192,95868,128,0,95935:0:0:0:0:
64,192,95868,128,0,95935:0:0:0:0:
448,192,95868,128,0,95935:0:0:0:0:
64,192,96001,128,0,96135:0:0:0:0:
320,192,96001,128,0,96101:0:0:0:0:
448,192,96001,128,0,96135:0:0:0:0:
192,192,96001,128,0,96068:0:0:0:0:
64,192,96268,128,0,96401:0:0:0:0:
448,192,96268,128,0,96401:0:0:0:0:
192,192,96268,128,0,96368:0:0:0:0:
320,192,96268,128,0,96335:0:0:0:0:
448,192,96535,128,0,96668:0:0:0:0:
64,192,96535,128,0,96668:0:0:0:0:
320,192,96535,128,0,96635:0:0:0:0:
192,192,96535,128,0,96601:0:0:0:0:
192,192,96801,1,0,0:0:0:0:
64,192,96801,1,0,0:0:0:0:
320,192,96868,1,0,0:0:0:0:
448,192,96868,1,0,0:0:0:0:
64,192,96935,128,0,97001:0:0:0:0:
192,192,96935,128,0,97001:0:0:0:0:
192,192,97068,1,0,0:0:0:0:
320,192,97068,1,0,0:0:0:0:
448,192,97135,1,0,0:0:0:0:
64,192,97201,1,0,0:0:0:0:
192,192,97201,128,0,97268:0:0:0:0:
320,192,97201,128,0,97268:0:0:0:0:
64,192,97335,1,0,0:0:0:0:
448,192,97335,1,0,0:0:0:0:
192,192,97401,1,0,0:0:0:0:
64,192,97468,1,0,0:0:0:0:
320,192,97468,128,0,97535:0:0:0:0:
448,192,97468,128,0,97535:0:0:0:0:
192,192,97601,1,0,0:0:0:0:
320,192,97601,1,0,0:0:0:0:
64,192,97668,1,0,0:0:0:0:
448,192,97735,1,0,0:0:0:0:
192,192,97735,128,0,97801:0:0:0:0:
320,192,97735,128,0,97801:0:0:0:0:
64,192,97868,1,0,0:0:0:0:
448,192,97868,1,0,0:0:0:0:
320,192,97935,1,0,0:0:0:0:
192,192,98001,128,0,98101:0:0:0:0:
64,192,98001,128,0,98101:0:0:0:0:
448,192,98001,128,0,98101:0:0:0:0:
320,192,98035,128,0,98135:0:0:0:0:
192,192,98201,128,0,98301:0:0:0:0:
64,192,98201,128,0,98301:0:0:0:0:
448,192,98201,128,0,98301:0:0:0:0:
320,192,98235,128,0,98335:0:0:0:0:
192,192,98401,128,0,98501:0:0:0:0:
64,192,98401,128,0,98501:0:0:0:0:
448,192,98401,128,0,98501:0:0:0:0:
320,192,98435,128,0,98535:0:0:0:0:
64,192,98668,128,0,98868:0:0:0:0:
448,192,98668,128,0,98868:0:0:0:0:
320,192,98668,1,0,0:0:0:0:
192,192,98735,128,0,98868:0:0:0:0:
320,192,98801,128,0,98868:0:0:0:0:
64,192,98935,1,0,0:0:0:0:
192,192,98935,1,0,0:0:0:0:
448,192,99001,1,0,0:0:0:0:
320,192,99001,1,0,0:0:0:0:
192,192,99068,1,0,0:0:0:0:
64,192,99068,1,0,0:0:0:0:
64,192,99201,1,0,0:0:0:0:
448,192,99201,1,0,0:0:0:0:
320,192,99268,1,0,0:0:0:0:
64,192,99335,1,0,0:0:0:0:
192,192,99335,1,0,0:0:0:0:
448,192,99335,1,0,0:0:0:0:
192,192,99468,1,0,0:0:0:0:
320,192,99468,1,0,0:0:0:0:
64,192,99535,1,0,0:0:0:0:
320,192,99601,1,0,0:0:0:0:
448,192,99601,1,0,0:0:0:0:
192,192,99601,1,0,0:0:0:0:
448,192,99735,1,0,0:0:0:0:
320,192,99735,1,0,0:0:0:0:
192,192,99735,1,0,0:0:0:0:
448,192,99868,1,0,0:0:0:0:
192,192,99868,1,0,0:0:0:0:
64,192,99868,1,0,0:0:0:0:
64,192,100001,1,0,0:0:0:0:
448,192,100001,1,0,0:0:0:0:
320,192,100068,1,0,0:0:0:0:
64,192,100135,1,0,0:0:0:0:
192,192,100135,1,0,0:0:0:0:
320,192,100201,1,0,0:0:0:0:
448,192,100201,1,0,0:0:0:0:
64,192,100268,1,0,0:0:0:0:
192,192,100268,1,0,0:0:0:0:
320,192,100335,1,0,0:0:0:0:
64,192,100401,1,0,0:0:0:0:
192,192,100401,1,0,0:0:0:0:
448,192,100401,1,0,0:0:0:0:
64,192,100535,1,0,0:0:0:0:
448,192,100535,1,0,0:0:0:0:
192,192,100601,1,0,0:0:0:0:
320,192,100601,1,0,0:0:0:0:
448,192,100668,1,0,0:0:0:0:
64,192,100668,1,0,0:0:0:0:
192,192,100801,1,0,0:0:0:0:
320,192,100801,1,0,0:0:0:0:
448,192,100935,1,0,0:0:0:0:
64,192,100935,1,0,0:0:0:0:
192,192,100935,1,0,0:0:0:0:
64,192,101068,1,0,0:0:0:0:
448,192,101068,1,0,0:0:0:0:
320,192,101101,1,0,0:0:0:0:
192,192,101135,1,0,0:0:0:0:
64,192,101168,1,0,0:0:0:0:
320,192,101201,128,0,101401:0:0:0:0:
448,192,101201,128,0,101401:0:0:0:0:
192,192,101335,128,0,101468:0:0:0:0:
320,192,101468,1,0,0:0:0:0:
448,192,101468,1,0,0:0:0:0:
64,192,101468,1,0,0:0:0:0:
192,192,101535,1,0,0:0:0:0:
320,192,101601,1,0,0:0:0:0:
64,192,101601,128,0,101868:0:0:0:0:
448,192,101601,128,0,101868:0:0:0:0:
192,192,101735,128,0,101868:0:0:0:0:
320,192,101868,1,0,0:0:0:0:
192,192,101935,1,0,0:0:0:0:
64,192,102001,1,0,0:0:0:0:
448,192,102001,1,0,0:0:0:0:
320,192,102001,1,0,0:0:0:0:
192,192,102135,1,0,0:0:0:0:
448,192,102135,1,0,0:0:0:0:
64,192,102135,1,0,0:0:0:0:
192,192,102268,1,0,0:0:0:0:
64,192,102401,1,0,0:0:0:0:
448,192,102401,1,0,0:0:0:0:
320,192,102401,1,0,0:0:0:0:
192,192,102535,1,0,0:0:0:0:
320,192,102535,1,0,0:0:0:0:
64,192,102668,1,0,0:0:0:0:
448,192,102668,1,0,0:0:0:0:
192,192,102735,1,0,0:0:0:0:
320,192,102735,1,0,0:0:0:0:
448,192,102801,1,0,0:0:0:0:
64,192,102801,1,0,0:0:0:0:
320,192,102935,128,0,103135:0:0:0:0:
448,192,103001,128,0,103135:0:0:0:0:
192,192,103068,128,0,103268:0:0:0:0:
64,192,103135,128,0,103268:0:0:0:0:
320,192,103201,128,0,103268:0:0:0:0:
448,192,103201,128,0,103268:0:0:0:0:
448,192,103335,128,0,103535:0:0:0:0:
64,192,103335,128,0,103535:0:0:0:0:
320,192,103335,1,0,0:0:0:0:
192,192,103468,128,0,103601:0:0:0:0:
448,192,103601,1,0,0:0:0:0:
64,192,103601,1,0,0:0:0:0:
320,192,103668,1,0,0:0:0:0:
192,192,103735,128,0,103935:0:0:0:0:
64,192,103735,128,0,104001:0:0:0:0:
448,192,103735,1,0,0:0:0:0:
320,192,103801,128,0,103868:0:0:0:0:
448,192,103935,128,0,104201:0:0:0:0:
320,192,104001,128,0,104201:0:0:0:0:
192,192,104068,128,0,104201:0:0:0:0:
64,192,104135,128,0,104201:0:0:0:0:
192,192,104268,1,0,0:0:0:0:
64,192,104268,1,0,0:0:0:0:
448,192,104268,1,0,0:0:0:0:
320,192,104335,1,0,0:0:0:0:
64,192,104401,1,0,0:0:0:0:
192,192,104401,1,0,0:0:0:0:
448,192,104468,1,0,0:0:0:0:
320,192,104535,1,0,0:0:0:0:
192,192,104535,1,0,0:0:0:0:
64,192,104601,1,0,0:0:0:0:
448,192,104668,1,0,0:0:0:0:
320,192,104668,1,0,0:0:0:0:
192,192,104735,1,0,0:0:0:0:
64,192,104801,1,0,0:0:0:0:
448,192,104801,1,0,0:0:0:0:
320,192,104868,1,0,0:0:0:0:
192,192,104935,1,0,0:0:0:0:
64,192,104935,1,0,0:0:0:0:
448,192,105001,1,0,0:0:0:0:
320,192,105068,1,0,0:0:0:0:
192,192,105068,1,0,0:0:0:0:
64,192,105135,1,0,0:0:0:0:
448,192,105201,1,0,0:0:0:0:
320,192,105201,1,0,0:0:0:0:
192,192,105268,1,0,0:0:0:0:
64,192,105335,1,0,0:0:0:0:
448,192,105335,1,0,0:0:0:0:
320,192,105401,1,0,0:0:0:0:
64,192,105468,1,0,0:0:0:0:
192,192,105468,1,0,0:0:0:0:
320,192,105535,1,0,0:0:0:0:
448,192,105535,1,0,0:0:0:0:
64,192,105601,1,0,0:0:0:0:
192,192,105601,1,0,0:0:0:0:
320,192,105668,1,0,0:0:0:0:
448,192,105668,1,0,0:0:0:0:
64,192,105735,1,0,0:0:0:0:
192,192,105735,1,0,0:0:0:0:
320,192,105801,1,0,0:0:0:0:
448,192,105801,1,0,0:0:0:0:
192,192,105868,1,0,0:0:0:0:
64,192,105868,1,0,0:0:0:0:
320,192,105935,1,0,0:0:0:0:
448,192,105935,1,0,0:0:0:0:
64,192,106001,1,0,0:0:0:0:
192,192,106001,1,0,0:0:0:0:
320,192,106068,1,0,0:0:0:0:
448,192,106068,1,0,0:0:0:0:
64,192,106135,1,0,0:0:0:0:
192,192,106135,1,0,0:0:0:0:
320,192,106201,1,0,0:0:0:0:
448,192,106201,1,0,0:0:0:0:
64,192,106268,1,0,0:0:0:0:
192,192,106301,1,0,0:0:0:0:
320,192,106335,1,0,0:0:0:0:
448,192,106368,1,0,0:0:0:0:
64,192,106401,1,0,0:0:0:0:
192,192,106435,1,0,0:0:0:0:
320,192,106468,1,0,0:0:0:0:
448,192,106501,1,0,0:0:0:0:
64,192,106535,128,0,108668:0:0:0:0:
192,192,106535,128,0,106601:0:0:0:0:
320,192,106801,128,0,106868:0:0:0:0:
448,192,107068,128,0,107135:0:0:0:0:
192,192,107068,1,0,0:0:0:0:
320,192,107335,128,0,107401:0:0:0:0:
448,192,107368,128,0,107435:0:0:0:0:
192,192,107601,128,0,107668:0:0:0:0:
448,192,107868,128,0,107935:0:0:0:0:
192,192,108135,128,0,108201:0:0:0:0:
448,192,108201,128,0,108268:0:0:0:0:
320,192,108268,128,0,108335:0:0:0:0:
192,192,108401,128,0,108468:0:0:0:0:
320,192,108535,128,0,108601:0:0:0:0:
448,192,108668,1,0,0:0:0:0:
192,192,108668,128,0,108735:0:0:0:0:
320,192,108735,128,0,108801:0:0:0:0:
192,192,108801,128,0,108868:0:0:0:0:
320,192,108868,128,0,108935:0:0:0:0:
192,192,108935,1,0,0:0:0:0:
64,192,108935,128,0,109001:0:0:0:0:
448,192,109001,128,0,109068:0:0:0:0:
64,192,109068,128,0,109135:0:0:0:0:
448,192,109135,128,0,109201:0:0:0:0:
320,192,109201,1,0,0:0:0:0:
64,192,109201,128,0,109268:0:0:0:0:
192,192,109268,128,0,109335:0:0:0:0:
448,192,109335,128,0,109401:0:0:0:0:
320,192,109401,128,0,109468:0:0:0:0:
192,192,109468,1,0,0:0:0:0:
64,192,109468,128,0,109535:0:0:0:0:
448,192,109535,128,0,109601:0:0:0:0:
192,192,109601,128,0,109668:0:0:0:0:
320,192,109668,128,0,109735:0:0:0:0:
448,192,109735,1,0,0:0:0:0:
64,192,109735,128,0,109801:0:0:0:0:
192,192,109801,128,0,109868:0:0:0:0:
320,192,109868,128,0,109935:0:0:0:0:
64,192,109935,128,0,110001:0:0:0:0:
320,192,110001,1,0,0:0:0:0:
448,192,110001,128,0,110068:0:0:0:0:
192,192,110068,128,0,110135:0:0:0:0:
448,192,110135,128,0,110201:0:0:0:0:
64,192,110201,128,0,110268:0:0:0:0:
320,192,110268,1,0,0:0:0:0:
192,192,110268,1,0,0:0:0:0:
320,192,110401,128,0,110468:0:0:0:0:
448,192,110535,1,0,0:0:0:0:
192,192,110535,1,0,0:0:0:0:
64,192,110535,1,0,0:0:0:0:
192,192,110668,128,0,110735:0:0:0:0:
320,192,110801,1,0,0:0:0:0:
448,192,110801,128,0,111001:0:0:0:0:
64,192,110801,128,0,111001:0:0:0:0:
192,192,110868,1,0,0:0:0:0:
320,192,110935,1,0,0:0:0:0:
192,192,111001,1,0,0:0:0:0:
320,192,111068,1,0,0:0:0:0:
448,192,111068,1,0,0:0:0:0:
64,192,111135,1,0,0:0:0:0:
192,192,111201,1,0,0:0:0:0:
448,192,111268,1,0,0:0:0:0:
320,192,111335,1,0,0:0:0:0:
192,192,111335,1,0,0:0:0:0:
64,192,111401,1,0,0:0:0:0:
320,192,111468,1,0,0:0:0:0:
448,192,111535,1,0,0:0:0:0:
64,192,111601,1,0,0:0:0:0:
192,192,111601,1,0,0:0:0:0:
320,192,111668,1,0,0:0:0:0:
64,192,111735,1,0,0:0:0:0:
448,192,111801,1,0,0:0:0:0:
320,192,111868,128,0,111901:0:0:0:0:
192,192,111868,128,0,111901:0:0:0:0:
64,192,111935,128,0,111968:0:0:0:0:
320,192,112001,128,0,112035:0:0:0:0:
448,192,112001,128,0,112035:0:0:0:0:
192,192,112068,128,0,112101:0:0:0:0:
64,192,112135,128,0,112168:0:0:0:0:
448,192,112135,128,0,112168:0:0:0:0:
320,192,112201,128,0,112235:0:0:0:0:
192,192,112268,128,0,112301:0:0:0:0:
64,192,112268,128,0,112301:0:0:0:0:
320,192,112335,128,0,112368:0:0:0:0:
64,192,112401,128,0,112468:0:0:0:0:
192,192,112401,128,0,112468:0:0:0:0:
448,192,112401,128,0,112468:0:0:0:0:
320,192,112468,128,0,112535:0:0:0:0:
448,192,112535,128,0,112601:0:0:0:0:
64,192,112535,128,0,112601:0:0:0:0:
192,192,112601,128,0,112668:0:0:0:0:
64,192,112668,128,0,112735:0:0:0:0:
320,192,112668,128,0,112735:0:0:0:0:
448,192,112668,128,0,112735:0:0:0:0:
192,192,112735,128,0,112801:0:0:0:0:
448,192,112801,128,0,112868:0:0:0:0:
320,192,112801,128,0,112868:0:0:0:0:
192,192,112868,128,0,112935:0:0:0:0:
64,192,112868,128,0,112935:0:0:0:0:
448,192,113068,128,0,113268:0:0:0:0:
320,192,113135,128,0,113335:0:0:0:0:
192,192,113201,128,0,113401:0:0:0:0:
64,192,113335,128,0,113735:0:0:0:0:
192,192,113468,128,0,113668:0:0:0:0:
320,192,113535,128,0,113601:0:0:0:0:
448,192,113601,128,0,113935:0:0:0:0:
320,192,113735,128,0,113935:0:0:0:0:
64,192,113801,128,0,113935:0:0:0:0:
192,192,113801,128,0,113935:0:0:0:0:
448,192,114001,5,0,0:0:0:0:
64,192,114068,1,0,0:0:0:0:
448,192,114135,1,0,0:0:0:0:
64,192,114201,1,0,0:0:0:0:
320,192,114268,1,0,0:0:0:0:
192,192,114335,1,0,0:0:0:0:
320,192,114401,1,0,0:0:0:0:
192,192,114468,1,0,0:0:0:0:
448,192,114535,1,0,0:0:0:0:
64,192,114601,1,0,0:0:0:0:
448,192,114668,1,0,0:0:0:0:
64,192,114735,1,0,0:0:0:0:
448,192,114801,128,0,115001:0:0:0:0:
320,192,114801,128,0,115001:0:0:0:0:
192,192,114801,128,0,115001:0:0:0:0:
64,192,114868,128,0,115001:0:0:0:0:
64,192,115068,128,0,115135:0:0:0:0:
448,192,115068,128,0,115135:0:0:0:0:
320,192,115068,128,0,115135:0:0:0:0:
64,192,115201,128,0,115268:0:0:0:0:
320,192,115201,128,0,115268:0:0:0:0:
448,192,115201,128,0,115268:0:0:0:0:
448,192,115335,128,0,115401:0:0:0:0:
320,192,115335,128,0,115401:0:0:0:0:
64,192,115335,128,0,115401:0:0:0:0:
64,192,115468,128,0,115535:0:0:0:0:
320,192,115468,128,0,115535:0:0:0:0:
448,192,115468,128,0,115535:0:0:0:0:
64,192,115601,128,0,115668:0:0:0:0:
192,192,115601,128,0,115668:0:0:0:0:
448,192,115601,128,0,115668:0:0:0:0:
448,192,115735,128,0,115801:0:0:0:0:
192,192,115735,128,0,115801:0:0:0:0:
64,192,115735,128,0,115801:0:0:0:0:
64,192,115868,128,0,115935:0:0:0:0:
192,192,115868,128,0,115935:0:0:0:0:
448,192,115868,128,0,115935:0:0:0:0:
320,192,116001,1,0,0:0:0:0:
192,192,116068,1,0,0:0:0:0:
448,192,116135,128,0,116268:0:0:0:0:
320,192,116135,1,0,0:0:0:0:
64,192,116135,1,0,0:0:0:0:
192,192,116201,128,0,116335:0:0:0:0:
64,192,116268,1,0,0:0:0:0:
320,192,116335,1,0,0:0:0:0:
192,192,116401,1,0,0:0:0:0:
448,192,116401,1,0,0:0:0:0:
64,192,116401,128,0,116535:0:0:0:0:
320,192,116468,128,0,116601:0:0:0:0:
192,192,116535,1,0,0:0:0:0:
448,192,116601,1,0,0:0:0:0:
64,192,116668,1,0,0:0:0:0:
320,192,116668,1,0,0:0:0:0:
192,192,116668,128,0,116801:0:0:0:0:
448,192,116735,128,0,116868:0:0:0:0:
64,192,116801,1,0,0:0:0:0:
320,192,116868,1,0,0:0:0:0:
64,192,116935,128,0,117135:0:0:0:0:
448,192,116935,128,0,117035:0:0:0:0:
192,192,116968,128,0,117101:0:0:0:0:
320,192,117001,128,0,117068:0:0:0:0:
64,192,117201,1,0,0:0:0:0:
448,192,117201,128,0,117335:0:0:0:0:
320,192,117201,1,0,0:0:0:0:
192,192,117268,128,0,117401:0:0:0:0:
64,192,117335,1,0,0:0:0:0:
320,192,117401,1,0,0:0:0:0:
448,192,117468,1,0,0:0:0:0:
192,192,117468,1,0,0:0:0:0:
64,192,117468,128,0,117601:0:0:0:0:
320,192,117535,128,0,117668:0:0:0:0:
448,192,117601,1,0,0:0:0:0:
192,192,117668,1,0,0:0:0:0:
64,192,117735,1,0,0:0:0:0:
320,192,117735,1,0,0:0:0:0:
448,192,117735,1,0,0:0:0:0:
192,192,117868,1,0,0:0:0:0:
64,192,117868,1,0,0:0:0:0:
320,192,117868,1,0,0:0:0:0:
448,192,118001,1,0,0:0:0:0:
320,192,118001,1,0,0:0:0:0:
192,192,118001,1,0,0:0:0:0:
64,192,118135,1,0,0:0:0:0:
192,192,118135,1,0,0:0:0:0:
320,192,118201,1,0,0:0:0:0:
448,192,118201,1,0,0:0:0:0:
64,192,118268,1,0,0:0:0:0:
192,192,118268,128,0,118401:0:0:0:0:
320,192,118335,128,0,118468:0:0:0:0:
448,192,118401,1,0,0:0:0:0:
64,192,118468,1,0,0:0:0:0:
192,192,118535,1,0,0:0:0:0:
320,192,118535,1,0,0:0:0:0:
448,192,118535,128,0,118668:0:0:0:0:
64,192,118601,128,0,118735:0:0:0:0:
320,192,118668,128,0,118801:0:0:0:0:
192,192,118735,128,0,118868:0:0:0:0:
64,192,118801,128,0,118868:0:0:0:0:
448,192,118801,128,0,118935:0:0:0:0:
320,192,118868,128,0,119001:0:0:0:0:
192,192,118935,128,0,119001:0:0:0:0:
64,192,118935,128,0,119068:0:0:0:0:
448,192,119001,128,0,119135:0:0:0:0:
192,192,119068,128,0,119201:0:0:0:0:
320,192,119068,128,0,119135:0:0:0:0:
64,192,119135,128,0,119268:0:0:0:0:
448,192,119201,128,0,119335:0:0:0:0:
320,192,119268,128,0,119335:0:0:0:0:
192,192,119335,128,0,119468:0:0:0:0:
64,192,119335,128,0,119468:0:0:0:0:
448,192,119468,1,0,0:0:0:0:
320,192,119468,1,0,0:0:0:0:
64,192,119601,1,0,0:0:0:0:
320,192,119601,1,0,0:0:0:0:
448,192,119601,128,0,119668:0:0:0:0:
192,192,119668,128,0,119735:0:0:0:0:
320,192,119735,128,0,119801:0:0:0:0:
64,192,119801,128,0,119868:0:0:0:0:
448,192,119868,1,0,0:0:0:0:
192,192,119868,1,0,0:0:0:0:
320,192,119868,128,0,120001:0:0:0:0:
64,192,119935,128,0,120068:0:0:0:0:
448,192,120001,128,0,120068:0:0:0:0:
192,192,120068,128,0,120135:0:0:0:0:
64,192,120135,1,0,0:0:0:0:
448,192,120135,1,0,0:0:0:0:
320,192,120135,128,0,120268:0:0:0:0:
192,192,120201,128,0,120335:0:0:0:0:
448,192,120268,128,0,120335:0:0:0:0:
64,192,120335,128,0,120401:0:0:0:0:
320,192,120401,1,0,0:0:0:0:
192,192,120401,1,0,0:0:0:0:
448,192,120401,128,0,120535:0:0:0:0:
64,192,120468,128,0,120601:0:0:0:0:
320,192,120535,1,0,0:0:0:0:
192,192,120601,1,0,0:0:0:0:
64,192,120668,1,0,0:0:0:0:
320,192,120668,1,0,0:0:0:0:
448,192,120668,128,0,120801:0:0:0:0:
192,192,120735,128,0,120868:0:0:0:0:
64,192,120801,1,0,0:0:0:0:
320,192,120868,1,0,0:0:0:0:
64,192,120935,1,0,0:0:0:0:
192,192,120935,1,0,0:0:0:0:
448,192,120935,128,0,121068:0:0:0:0:
320,192,121001,128,0,121135:0:0:0:0:
192,192,121068,1,0,0:0:0:0:
448,192,121135,1,0,0:0:0:0:
64,192,121201,1,0,0:0:0:0:
192,192,121201,1,0,0:0:0:0:
320,192,121246,1,0,0:0:0:0:
192,192,121290,1,0,0:0:0:0:
448,192,121335,1,0,0:0:0:0:
64,192,121335,1,0,0:0:0:0:
320,192,121379,1,0,0:0:0:0:
192,192,121423,1,0,0:0:0:0:
320,192,121468,128,0,121557:0:0:0:0:
448,192,121468,128,0,121557:0:0:0:0:
64,192,121468,128,0,121557:0:0:0:0:
448,192,121646,128,0,121735:0:0:0:0:
320,192,121646,128,0,121735:0:0:0:0:
192,192,121646,128,0,121735:0:0:0:0:
64,192,121823,128,0,121912:0:0:0:0:
192,192,121823,128,0,121912:0:0:0:0:
320,192,121823,128,0,121912:0:0:0:0:
192,192,122001,128,0,122090:0:0:0:0:
64,192,122001,128,0,122090:0:0:0:0:
448,192,122001,128,0,122090:0:0:0:0:
320,192,122179,128,0,122357:0:0:0:0:
448,192,122179,128,0,122357:0:0:0:0:
192,192,122268,128,0,122357:0:0:0:0:
64,192,122268,128,0,122357:0:0:0:0:
64,192,122446,128,0,122535:0:0:0:0:
448,192,122446,128,0,122535:0:0:0:0:
320,192,122446,128,0,122535:0:0:0:0:
192,192,122535,128,0,122601:0:0:0:0:
64,192,122601,128,0,122668:0:0:0:0:
320,192,122668,128,0,122735:0:0:0:0:
192,192,122735,128,0,122801:0:0:0:0:
448,192,122801,128,0,122935:0:0:0:0:
64,192,122801,128,0,122868:0:0:0:0:
320,192,122868,128,0,123001:0:0:0:0:
192,192,122935,128,0,123068:0:0:0:0:
64,192,123001,128,0,123135:0:0:0:0:
448,192,123001,128,0,123268:0:0:0:0:
320,192,123068,128,0,123268:0:0:0:0:
192,192,123135,128,0,123268:0:0:0:0:
64,192,123201,128,0,123268:0:0:0:0:
320,192,123335,128,0,123401:0:0:0:0:
448,192,123335,128,0,123401:0:0:0:0:
64,192,123335,128,0,123401:0:0:0:0:
64,192,123601,1,0,0:0:0:0:
192,192,123601,1,0,0:0:0:0:
320,192,123601,1,0,0:0:0:0:
448,192,123601,1,0,0:0:0:0:
64,192,123735,1,0,0:0:0:0:
192,192,123735,1,0,0:0:0:0:
448,192,123735,1,0,0:0:0:0:
64,192,123868,1,0,0:0:0:0:
448,192,123868,128,0,123901:0:0:0:0:
320,192,123901,128,0,123935:0:0:0:0:
192,192,123935,128,0,123968:0:0:0:0:
448,192,124001,1,0,0:0:0:0:
64,192,124001,128,0,124035:0:0:0:0:
192,192,124035,128,0,124068:0:0:0:0:
320,192,124068,128,0,124101:0:0:0:0:
64,192,124135,1,0,0:0:0:0:
192,192,124135,1,0,0:0:0:0:
448,192,124135,128,0,124201:0:0:0:0:
320,192,124201,128,0,124268:0:0:0:0:
64,192,124268,128,0,124335:0:0:0:0:
192,192,124335,128,0,124401:0:0:0:0:
448,192,124401,1,0,0:0:0:0:
64,192,124401,1,0,0:0:0:0:
320,192,124401,128,0,124468:0:0:0:0:
192,192,124468,1,0,0:0:0:0:
448,192,124535,128,0,124601:0:0:0:0:
320,192,124601,1,0,0:0:0:0:
64,192,124668,1,0,0:0:0:0:
448,192,124668,1,0,0:0:0:0:
192,192,124668,128,0,124735:0:0:0:0:
320,192,124735,1,0,0:0:0:0:
64,192,124801,128,0,124868:0:0:0:0:
448,192,124868,1,0,0:0:0:0:
64,192,124935,1,0,0:0:0:0:
192,192,124935,1,0,0:0:0:0:
320,192,124935,128,0,125001:0:0:0:0:
448,192,125001,1,0,0:0:0:0:
192,192,125068,128,0,125135:0:0:0:0:
320,192,125135,1,0,0:0:0:0:
64,192,125201,1,0,0:0:0:0:
192,192,125201,1,0,0:0:0:0:
448,192,125201,128,0,125268:0:0:0:0:
320,192,125268,1,0,0:0:0:0:
64,192,125335,1,0,0:0:0:0:
192,192,125401,1,0,0:0:0:0:
448,192,125468,1,0,0:0:0:0:
320,192,125468,1,0,0:0:0:0:
64,192,125468,128,0,125535:0:0:0:0:
320,192,125601,1,0,0:0:0:0:
192,192,125601,1,0,0:0:0:0:
448,192,125601,128,0,125668:0:0:0:0:
192,192,125735,1,0,0:0:0:0:
320,192,125735,1,0,0:0:0:0:
64,192,125735,1,0,0:0:0:0:
64,192,125868,1,0,0:0:0:0:
448,192,125868,1,0,0:0:0:0:
192,192,125935,1,0,0:0:0:0:
320,192,125935,1,0,0:0:0:0:
64,192,126001,1,0,0:0:0:0:
448,192,126001,1,0,0:0:0:0:
320,192,126068,1,0,0:0:0:0:
192,192,126135,1,0,0:0:0:0:
320,192,126201,1,0,0:0:0:0:
448,192,126268,1,0,0:0:0:0:
192,192,126268,1,0,0:0:0:0:
64,192,126268,1,0,0:0:0:0:
320,192,126335,1,0,0:0:0:0:
64,192,126401,1,0,0:0:0:0:
192,192,126468,1,0,0:0:0:0:
320,192,126535,1,0,0:0:0:0:
448,192,126535,1,0,0:0:0:0:
64,192,126535,1,0,0:0:0:0:
192,192,126601,1,0,0:0:0:0:
448,192,126668,1,0,0:0:0:0:
320,192,126735,1,0,0:0:0:0:
192,192,126801,1,0,0:0:0:0:
64,192,126801,1,0,0:0:0:0:
448,192,126801,1,0,0:0:0:0:
64,192,126935,1,0,0:0:0:0:
320,192,126935,1,0,0:0:0:0:
192,192,126935,1,0,0:0:0:0:
192,192,127068,1,0,0:0:0:0:
320,192,127068,1,0,0:0:0:0:
448,192,127068,1,0,0:0:0:0:
448,192,127201,128,0,127268:0:0:0:0:
64,192,127201,128,0,127335:0:0:0:0:
192,192,127268,128,0,127535:0:0:0:0:
448,192,127335,128,0,127401:0:0:0:0:
320,192,127335,128,0,127468:0:0:0:0:
64,192,127401,128,0,127601:0:0:0:0:
448,192,127468,1,0,0:0:0:0:
448,192,127601,128,0,127801:0:0:0:0:
320,192,127601,128,0,127735:0:0:0:0:
192,192,127601,128,0,127668:0:0:0:0:
64,192,127668,128,0,127735:0:0:0:0:
192,192,127735,128,0,127801:0:0:0:0:
320,192,127801,128,0,127868:0:0:0:0:
64,192,127868,1,0,0:0:0:0:
192,192,127868,1,0,0:0:0:0:
448,192,127868,1,0,0:0:0:0:
320,192,127935,1,0,0:0:0:0:
448,192,128001,1,0,0:0:0:0:
64,192,128068,1,0,0:0:0:0:
192,192,128135,1,0,0:0:0:0:
320,192,128135,1,0,0:0:0:0:
448,192,128135,1,0,0:0:0:0:
64,192,128201,1,0,0:0:0:0:
320,192,128268,1,0,0:0:0:0:
64,192,128335,1,0,0:0:0:0:
192,192,128335,1,0,0:0:0:0:
448,192,128401,1,0,0:0:0:0:
320,192,128401,1,0,0:0:0:0:
192,192,128468,1,0,0:0:0:0:
64,192,128535,1,0,0:0:0:0:
320,192,128601,1,0,0:0:0:0:
192,192,128668,1,0,0:0:0:0:
64,192,128668,1,0,0:0:0:0:
448,192,128668,1,0,0:0:0:0:
320,192,128735,1,0,0:0:0:0:
448,192,128801,1,0,0:0:0:0:
64,192,128801,1,0,0:0:0:0:
320,192,128868,1,0,0:0:0:0:
192,192,128868,1,0,0:0:0:0:
64,192,128935,1,0,0:0:0:0:
448,192,128935,1,0,0:0:0:0:
192,192,129001,1,0,0:0:0:0:
320,192,129068,1,0,0:0:0:0:
448,192,129135,1,0,0:0:0:0:
64,192,129201,1,0,0:0:0:0:
192,192,129201,1,0,0:0:0:0:
320,192,129201,1,0,0:0:0:0:
448,192,129268,1,0,0:0:0:0:
64,192,129335,1,0,0:0:0:0:
192,192,129401,1,0,0:0:0:0:
320,192,129468,1,0,0:0:0:0:
448,192,129468,1,0,0:0:0:0:
64,192,129468,1,0,0:0:0:0:
192,192,129601,1,0,0:0:0:0:
320,192,129601,1,0,0:0:0:0:
448,192,129601,1,0,0:0:0:0:
64,192,129735,1,0,0:0:0:0:
192,192,129735,1,0,0:0:0:0:
320,192,129735,1,0,0:0:0:0:
64,192,129868,1,0,0:0:0:0:
448,192,129868,1,0,0:0:0:0:
320,192,129935,1,0,0:0:0:0:
64,192,130001,128,0,130135:0:0:0:0:
192,192,130001,128,0,130135:0:0:0:0:
448,192,130001,128,0,130135:0:0:0:0:
320,192,130135,1,0,0:0:0:0:
192,192,130268,1,0,0:0:0:0:
320,192,130268,1,0,0:0:0:0:
448,192,130401,128,0,130535:0:0:0:0:
320,192,130401,128,0,130535:0:0:0:0:
64,192,130401,128,0,130535:0:0:0:0:
192,192,130535,1,0,0:0:0:0:
320,192,130668,1,0,0:0:0:0:
192,192,130668,1,0,0:0:0:0:
64,192,130801,128,0,130935:0:0:0:0:
192,192,130801,128,0,130935:0:0:0:0:
448,192,130801,128,0,130935:0:0:0:0:
320,192,130935,1,0,0:0:0:0:
64,192,131068,1,0,0:0:0:0:
448,192,131068,1,0,0:0:0:0:
64,192,131201,128,0,131335:0:0:0:0:
448,192,131201,128,0,131335:0:0:0:0:
320,192,131201,128,0,131335:0:0:0:0:
192,192,131201,128,0,131535:0:0:0:0:
448,192,131401,128,0,131535:0:0:0:0:
64,192,131401,128,0,131535:0:0:0:0:
320,192,131401,128,0,131735:0:0:0:0:
64,192,131601,128,0,131868:0:0:0:0:
448,192,131601,128,0,131868:0:0:0:0:
192,192,131601,128,0,131801:0:0:0:0:
320,192,132135,1,0,0:0:0:0:
448,192,132135,1,0,0:0:0:0:
192,192,132201,1,0,0:0:0:0:
64,192,132201,1,0,0:0:0:0:
320,192,132268,1,0,0:0:0:0:
448,192,132268,1,0,0:0:0:0:
64,192,132335,1,0,0:0:0:0:
192,192,132335,1,0,0:0:0:0:
320,192,132401,1,0,0:0:0:0:
448,192,132401,1,0,0:0:0:0:
64,192,132535,1,0,0:0:0:0:
192,192,132535,1,0,0:0:0:0:
320,192,132601,1,0,0:0:0:0:
64,192,132668,1,0,0:0:0:0:
192,192,132668,1,0,0:0:0:0:
448,192,132668,1,0,0:0:0:0:
320,192,132801,1,0,0:0:0:0:
64,192,132868,1,0,0:0:0:0:
192,192,132868,1,0,0:0:0:0:
320,192,132935,1,0,0:0:0:0:
448,192,132935,1,0,0:0:0:0:
64,192,133001,1,0,0:0:0:0:
192,192,133068,1,0,0:0:0:0:
320,192,133135,1,0,0:0:0:0:
64,192,133201,1,0,0:0:0:0:
192,192,133201,1,0,0:0:0:0:
448,192,133201,1,0,0:0:0:0:
320,192,133268,1,0,0:0:0:0:
64,192,133335,1,0,0:0:0:0:
192,192,133401,1,0,0:0:0:0:
64,192,133468,1,0,0:0:0:0:
320,192,133468,1,0,0:0:0:0:
448,192,133468,1,0,0:0:0:0:
192,192,133535,1,0,0:0:0:0:
448,192,133601,1,0,0:0:0:0:
320,192,133668,1,0,0:0:0:0:
64,192,133735,1,0,0:0:0:0:
192,192,133735,1,0,0:0:0:0:
448,192,133735,1,0,0:0:0:0:
320,192,133801,1,0,0:0:0:0:
64,192,133868,1,0,0:0:0:0:
448,192,133935,1,0,0:0:0:0:
192,192,134001,1,0,0:0:0:0:
64,192,134001,1,0,0:0:0:0:
320,192,134001,1,0,0:0:0:0:
448,192,134068,1,0,0:0:0:0:
192,192,134135,1,0,0:0:0:0:
448,192,134201,1,0,0:0:0:0:
192,192,134268,1,0,0:0:0:0:
320,192,134268,1,0,0:0:0:0:
64,192,134268,1,0,0:0:0:0:
448,192,134335,1,0,0:0:0:0:
64,192,134401,1,0,0:0:0:0:
192,192,134468,1,0,0:0:0:0:
320,192,134535,1,0,0:0:0:0:
448,192,134535,1,0,0:0:0:0:
64,192,134535,1,0,0:0:0:0:
192,192,134601,1,0,0:0:0:0:
448,192,134668,1,0,0:0:0:0:
64,192,134735,1,0,0:0:0:0:
320,192,134801,1,0,0:0:0:0:
192,192,134801,1,0,0:0:0:0:
448,192,134801,1,0,0:0:0:0:
64,192,134868,1,0,0:0:0:0:
320,192,134935,1,0,0:0:0:0:
192,192,135001,1,0,0:0:0:0:
320,192,135068,1,0,0:0:0:0:
448,192,135068,1,0,0:0:0:0:
64,192,135068,1,0,0:0:0:0:
192,192,135135,1,0,0:0:0:0:
448,192,135201,1,0,0:0:0:0:
320,192,135268,1,0,0:0:0:0:
192,192,135335,1,0,0:0:0:0:
64,192,135335,1,0,0:0:0:0:
448,192,135335,1,0,0:0:0:0:
320,192,135401,1,0,0:0:0:0:
64,192,135468,1,0,0:0:0:0:
448,192,135535,1,0,0:0:0:0:
320,192,135601,1,0,0:0:0:0:
64,192,135601,1,0,0:0:0:0:
192,192,135601,1,0,0:0:0:0:
448,192,135668,1,0,0:0:0:0:
192,192,135735,1,0,0:0:0:0:
64,192,135801,1,0,0:0:0:0:
448,192,135868,1,0,0:0:0:0:
192,192,135868,1,0,0:0:0:0:
320,192,135868,1,0,0:0:0:0:
64,192,136001,1,0,0:0:0:0:
320,192,136001,1,0,0:0:0:0:
448,192,136001,1,0,0:0:0:0:
64,192,136135,1,0,0:0:0:0:
192,192,136135,1,0,0:0:0:0:
448,192,136135,1,0,0:0:0:0:
320,192,136201,1,0,0:0:0:0:
64,192,136268,1,0,0:0:0:0:
448,192,136268,1,0,0:0:0:0:
192,192,136335,1,0,0:0:0:0:
64,192,136401,128,0,136668:0:0:0:0:
320,192,136401,128,0,136535:0:0:0:0:
448,192,136401,128,0,136601:0:0:0:0:
192,192,136668,1,0,0:0:0:0:
448,192,136668,1,0,0:0:0:0:
320,192,136668,1,0,0:0:0:0:
64,192,136801,1,0,0:0:0:0:
448,192,136801,1,0,0:0:0:0:
320,192,136935,128,0,137135:0:0:0:0:
192,192,136935,128,0,137001:0:0:0:0:
64,192,136935,128,0,137001:0:0:0:0:
448,192,137001,128,0,137068:0:0:0:0:
192,192,137068,128,0,137268:0:0:0:0:
64,192,137135,128,0,137201:0:0:0:0:
320,192,137201,128,0,137335:0:0:0:0:
448,192,137201,128,0,137401:0:0:0:0:
64,192,137335,1,0,0:0:0:0:
448,192,137468,1,0,0:0:0:0:
320,192,137468,1,0,0:0:0:0:
192,192,137468,128,0,137601:0:0:0:0:
64,192,137535,128,0,137668:0:0:0:0:
320,192,137601,128,0,137668:0:0:0:0:
192,192,137668,128,0,137801:0:0:0:0:
64,192,137735,1,0,0:0:0:0:
448,192,137735,128,0,137801:0:0:0:0:
320,192,137735,128,0,137868:0:0:0:0:
192,192,137868,1,0,0:0:0:0:
448,192,137868,1,0,0:0:0:0:
192,192,138001,1,0,0:0:0:0:
64,192,138135,1,0,0:0:0:0:
448,192,138135,1,0,0:0:0:0:
320,192,138135,1,0,0:0:0:0:
192,192,138268,1,0,0:0:0:0:
448,192,138268,1,0,0:0:0:0:
192,192,138401,1,0,0:0:0:0:
64,192,138535,128,0,138735:0:0:0:0:
320,192,138535,128,0,138668:0:0:0:0:
448,192,138535,128,0,138801:0:0:0:0:
64,192,138801,1,0,0:0:0:0:
192,192,138801,1,0,0:0:0:0:
320,192,138801,1,0,0:0:0:0:
64,192,138935,1,0,0:0:0:0:
448,192,138935,1,0,0:0:0:0:
192,192,139068,128,0,139268:0:0:0:0:
320,192,139068,128,0,139135:0:0:0:0:
448,192,139068,128,0,139135:0:0:0:0:
64,192,139135,128,0,139201:0:0:0:0:
320,192,139201,128,0,139401:0:0:0:0:
448,192,139268,128,0,139335:0:0:0:0:
192,192,139335,128,0,139468:0:0:0:0:
64,192,139335,128,0,139535:0:0:0:0:
448,192,139468,1,0,0:0:0:0:
64,192,139601,1,0,0:0:0:0:
320,192,139601,1,0,0:0:0:0:
192,192,139601,128,0,139801:0:0:0:0:
320,192,139735,128,0,139935:0:0:0:0:
64,192,139868,1,0,0:0:0:0:
192,192,139868,1,0,0:0:0:0:
448,192,139868,128,0,140135:0:0:0:0:
320,192,140001,1,0,0:0:0:0:
192,192,140001,128,0,140135:0:0:0:0:
64,192,140135,1,0,0:0:0:0:
320,192,140268,1,0,0:0:0:0:
64,192,140268,128,0,140535:0:0:0:0:
448,192,140268,128,0,140401:0:0:0:0:
192,192,140401,1,0,0:0:0:0:
320,192,140401,128,0,140601:0:0:0:0:
192,192,140535,1,0,0:0:0:0:
64,192,140668,1,0,0:0:0:0:
320,192,140668,1,0,0:0:0:0:
448,192,140668,1,0,0:0:0:0:
192,192,140801,1,0,0:0:0:0:
64,192,140801,1,0,0:0:0:0:
320,192,140801,1,0,0:0:0:0:
192,192,140935,1,0,0:0:0:0:
448,192,140935,1,0,0:0:0:0:
320,192,140935,1,0,0:0:0:0:
64,192,141068,1,0,0:0:0:0:
448,192,141068,1,0,0:0:0:0:
192,192,141135,1,0,0:0:0:0:
64,192,141201,1,0,0:0:0:0:
320,192,141201,1,0,0:0:0:0:
448,192,141201,1,0,0:0:0:0:
192,192,141268,1,0,0:0:0:0:
320,192,141335,1,0,0:0:0:0:
192,192,141401,1,0,0:0:0:0:
320,192,141468,1,0,0:0:0:0:
448,192,141468,1,0,0:0:0:0:
64,192,141468,1,0,0:0:0:0:
192,192,141535,1,0,0:0:0:0:
320,192,141601,1,0,0:0:0:0:
448,192,141601,1,0,0:0:0:0:
64,192,141668,1,0,0:0:0:0:
192,192,141668,1,0,0:0:0:0:
320,192,141735,1,0,0:0:0:0:
448,192,141735,1,0,0:0:0:0:
64,192,141868,1,0,0:0:0:0:
192,192,141868,1,0,0:0:0:0:
320,192,141935,1,0,0:0:0:0:
64,192,142001,1,0,0:0:0:0:
192,192,142001,1,0,0:0:0:0:
448,192,142001,1,0,0:0:0:0:
320,192,142068,1,0,0:0:0:0:
64,192,142135,1,0,0:0:0:0:
192,192,142201,1,0,0:0:0:0:
64,192,142268,1,0,0:0:0:0:
320,192,142268,1,0,0:0:0:0:
448,192,142268,1,0,0:0:0:0:
192,192,142335,1,0,0:0:0:0:
448,192,142401,1,0,0:0:0:0:
320,192,142468,1,0,0:0:0:0:
192,192,142535,1,0,0:0:0:0:
448,192,142535,1,0,0:0:0:0:
64,192,142535,1,0,0:0:0:0:
320,192,142601,1,0,0:0:0:0:
64,192,142668,1,0,0:0:0:0:
192,192,142735,1,0,0:0:0:0:
320,192,142801,1,0,0:0:0:0:
448,192,142801,1,0,0:0:0:0:
64,192,142801,1,0,0:0:0:0:
448,192,142935,1,0,0:0:0:0:
192,192,142935,1,0,0:0:0:0:
320,192,142935,1,0,0:0:0:0:
192,192,143068,1,0,0:0:0:0:
320,192,143068,1,0,0:0:0:0:
64,192,143068,1,0,0:0:0:0:
448,192,143135,1,0,0:0:0:0:
64,192,143201,1,0,0:0:0:0:
192,192,143268,1,0,0:0:0:0:
320,192,143335,1,0,0:0:0:0:
64,192,143335,1,0,0:0:0:0:
448,192,143335,1,0,0:0:0:0:
192,192,143401,1,0,0:0:0:0:
320,192,143468,1,0,0:0:0:0:
64,192,143535,1,0,0:0:0:0:
192,192,143601,1,0,0:0:0:0:
320,192,143601,1,0,0:0:0:0:
448,192,143601,1,0,0:0:0:0:
64,192,143668,1,0,0:0:0:0:
448,192,143735,1,0,0:0:0:0:
320,192,143801,1,0,0:0:0:0:
64,192,143868,1,0,0:0:0:0:
192,192,143868,1,0,0:0:0:0:
448,192,143868,1,0,0:0:0:0:
320,192,143935,1,0,0:0:0:0:
64,192,144001,1,0,0:0:0:0:
192,192,144068,1,0,0:0:0:0:
320,192,144135,1,0,0:0:0:0:
448,192,144135,1,0,0:0:0:0:
64,192,144135,1,0,0:0:0:0:
448,192,144268,1,0,0:0:0:0:
192,192,144268,1,0,0:0:0:0:
320,192,144268,1,0,0:0:0:0:
192,192,144401,1,0,0:0:0:0:
320,192,144401,1,0,0:0:0:0:
64,192,144401,1,0,0:0:0:0:
448,192,144468,1,0,0:0:0:0:
64,192,144535,1,0,0:0:0:0:
448,192,144601,1,0,0:0:0:0:
64,192,144668,1,0,0:0:0:0:
320,192,144668,128,0,144801:0:0:0:0:
192,192,144668,128,0,144735:0:0:0:0:
448,192,144735,128,0,144868:0:0:0:0:
192,192,144801,128,0,144868:0:0:0:0:
320,192,144868,128,0,144935:0:0:0:0:
448,192,144935,128,0,145201:0:0:0:0:
64,192,144935,128,0,145135:0:0:0:0:
192,192,144935,128,0,145068:0:0:0:0:
320,192,145068,1,0,0:0:0:0:
192,192,145201,1,0,0:0:0:0:
320,192,145201,1,0,0:0:0:0:
64,192,145201,1,0,0:0:0:0:
192,192,145335,1,0,0:0:0:0:
448,192,145335,1,0,0:0:0:0:
320,192,145468,128,0,145535:0:0:0:0:
448,192,145468,128,0,145535:0:0:0:0:
64,192,145468,128,0,145535:0:0:0:0:
192,192,145601,1,0,0:0:0:0:
320,192,145601,1,0,0:0:0:0:
448,192,145735,128,0,145801:0:0:0:0:
192,192,145735,128,0,145801:0:0:0:0:
64,192,145735,128,0,145801:0:0:0:0:
320,192,145868,1,0,0:0:0:0:
64,192,146001,128,0,146268:0:0:0:0:
448,192,146001,128,0,146201:0:0:0:0:
320,192,146001,128,0,146135:0:0:0:0:
192,192,146135,1,0,0:0:0:0:
192,192,146268,1,0,0:0:0:0:
320,192,146268,1,0,0:0:0:0:
448,192,146268,1,0,0:0:0:0:
64,192,146401,1,0,0:0:0:0:
320,192,146401,1,0,0:0:0:0:
64,192,146535,128,0,146601:0:0:0:0:
192,192,146535,128,0,146601:0:0:0:0:
448,192,146535,128,0,146601:0:0:0:0:
192,192,146668,1,0,0:0:0:0:
320,192,146668,1,0,0:0:0:0:
64,192,146801,128,0,146868:0:0:0:0:
448,192,146801,128,0,146868:0:0:0:0:
320,192,146801,128,0,146868:0:0:0:0:
192,192,146935,1,0,0:0:0:0:
448,192,147068,5,0,0:0:0:0:
64,192,147068,1,0,0:0:0:0:
320,192,147068,1,0,0:0:0:0:
192,192,147135,1,0,0:0:0:0:
448,192,147201,1,0,0:0:0:0:
320,192,147201,1,0,0:0:0:0:
192,192,147268,1,0,0:0:0:0:
64,192,147268,1,0,0:0:0:0:
448,192,147335,1,0,0:0:0:0:
320,192,147335,1,0,0:0:0:0:
192,192,147401,1,0,0:0:0:0:
64,192,147468,1,0,0:0:0:0:
448,192,147468,1,0,0:0:0:0:
320,192,147468,1,0,0:0:0:0:
192,192,147535,1,0,0:0:0:0:
448,192,147601,1,0,0:0:0:0:
64,192,147601,1,0,0:0:0:0:
320,192,147668,1,0,0:0:0:0:
192,192,147668,1,0,0:0:0:0:
448,192,147735,1,0,0:0:0:0:
64,192,147735,1,0,0:0:0:0:
320,192,147801,1,0,0:0:0:0:
64,192,147868,1,0,0:0:0:0:
448,192,147868,1,0,0:0:0:0:
192,192,147868,1,0,0:0:0:0:
320,192,147935,1,0,0:0:0:0:
64,192,148001,1,0,0:0:0:0:
192,192,148001,1,0,0:0:0:0:
320,192,148068,1,0,0:0:0:0:
448,192,148068,1,0,0:0:0:0:
64,192,148135,1,0,0:0:0:0:
192,192,148135,1,0,0:0:0:0:
320,192,148201,1,0,0:0:0:0:
448,192,148268,1,0,0:0:0:0:
64,192,148268,1,0,0:0:0:0:
192,192,148335,1,0,0:0:0:0:
448,192,148401,1,0,0:0:0:0:
320,192,148401,1,0,0:0:0:0:
64,192,148468,1,0,0:0:0:0:
192,192,148535,1,0,0:0:0:0:
320,192,148535,1,0,0:0:0:0:
448,192,148601,1,0,0:0:0:0:
64,192,148668,1,0,0:0:0:0:
192,192,148668,1,0,0:0:0:0:
320,192,148735,1,0,0:0:0:0:
192,192,148801,1,0,0:0:0:0:
320,192,148868,1,0,0:0:0:0:
448,192,148935,1,0,0:0:0:0:
192,192,148935,1,0,0:0:0:0:
64,192,149001,1,0,0:0:0:0:
448,192,149068,1,0,0:0:0:0:
64,192,149135,1,0,0:0:0:0:
320,192,149201,1,0,0:0:0:0:
448,192,149201,1,0,0:0:0:0:
192,192,149201,128,0,151535:0:0:0:0:
320,192,150801,128,0,151535:0:0:0:0:
448,192,151335,128,0,151535:0:0:0:0:
64,192,151535,128,0,152935:0:0:0:0:
320,192,151868,128,0,151935:0:0:0:0:
448,192,152001,128,0,152068:0:0:0:0:
192,192,152135,128,0,152201:0:0:0:0:
320,192,152268,128,0,152335:0:0:0:0:
448,192,152490,128,0,152579:0:0:0:0:
320,192,152668,128,0,152757:0:0:0:0:
192,192,152846,128,0,152935:0:0:0:0:
448,192,152935,128,0,153601:0:0:0:0:
320,192,152968,1,0,0:0:0:0:
64,192,153201,1,0,0:0:0:0:
320,192,153468,128,0,153601:0:0:0:0:
192,192,153501,1,0,0:0:0:0:
64,192,153601,128,0,155001:0:0:0:0:
192,192,154401,128,0,154468:0:0:0:0:
320,192,154535,128,0,154601:0:0:0:0:
448,192,154668,128,0,154735:0:0:0:0:
320,192,154801,128,0,154868:0:0:0:0:
192,192,154935,128,0,155001:0:0:0:0:
448,192,155001,128,0,155601:0:0:0:0:
320,192,155068,128,0,155135:0:0:0:0:
192,192,155335,128,0,155401:0:0:0:0:
320,192,155468,128,0,155535:0:0:0:0:
64,192,155601,128,0,157468:0:0:0:0:
448,192,156668,128,0,156712:0:0:0:0:
320,192,156757,128,0,156801:0:0:0:0:
192,192,156846,128,0,156890:0:0:0:0:
448,192,156935,128,0,156979:0:0:0:0:
320,192,157023,128,0,157068:0:0:0:0:
192,192,157112,128,0,157157:0:0:0:0:
320,192,157201,128,0,157290:0:0:0:0:
448,192,157290,128,0,157379:0:0:0:0:
192,192,157379,128,0,157468:0:0:0:0:
448,192,157468,128,0,157557:0:0:0:0:
320,192,157557,128,0,157646:0:0:0:0:
192,192,157646,128,0,157735:0:0:0:0:
64,192,157735,128,0,158201:0:0:0:0:
320,192,157735,128,0,158201:0:0:0:0:
448,192,157735,128,0,158201:0:0:0:0:
192,192,158001,128,0,158201:0:0:0:0:
448,192,158268,128,0,159068:0:0:0:0:
64,192,158285,1,0,0:0:0:0:
320,192,158535,128,0,158601:0:0:0:0:
64,192,158668,128,0,158735:0:0:0:0:
192,192,158801,128,0,159601:0:0:0:0:
320,192,158935,128,0,159001:0:0:0:0:
64,192,159068,128,0,159135:0:0:0:0:
448,192,159201,128,0,159268:0:0:0:0:
320,192,159335,128,0,160135:0:0:0:0:
64,192,159351,1,0,0:0:0:0:
448,192,159468,128,0,159535:0:0:0:0:
64,192,159601,128,0,159668:0:0:0:0:
192,192,159735,128,0,159801:0:0:0:0:
64,192,159868,128,0,161468:0:0:0:0:
448,192,159868,128,0,160135:0:0:0:0:
192,192,160135,1,0,0:0:0:0:
320,192,160401,1,0,0:0:0:0:
448,192,160418,1,0,0:0:0:0:
448,192,160935,128,0,161468:0:0:0:0:
192,192,161468,1,0,0:0:0:0:
320,192,161485,1,0,0:0:0:0:
64,192,161735,1,0,0:0:0:0:
448,192,161735,1,0,0:0:0:0:
320,192,161735,1,0,0:0:0:0:
64,192,162001,128,0,162468:0:0:0:0:
192,192,162001,128,0,162468:0:0:0:0:
64,192,162535,128,0,163335:0:0:0:0:
448,192,162551,1,0,0:0:0:0:
192,192,162801,128,0,162868:0:0:0:0:
448,192,162935,128,0,163001:0:0:0:0:
320,192,163068,128,0,163868:0:0:0:0:
192,192,163201,128,0,163268:0:0:0:0:
448,192,163335,128,0,163401:0:0:0:0:
64,192,163468,128,0,163535:0:0:0:0:
192,192,163601,128,0,164401:0:0:0:0:
448,192,163618,1,0,0:0:0:0:
64,192,163735,128,0,163801:0:0:0:0:
448,192,163868,128,0,163935:0:0:0:0:
320,192,164001,128,0,164068:0:0:0:0:
448,192,164135,128,0,165668:0:0:0:0:
64,192,164135,128,0,164401:0:0:0:0:
320,192,164401,1,0,0:0:0:0:
192,192,164668,1,0,0:0:0:0:
64,192,164685,1,0,0:0:0:0:
64,192,165201,128,0,165668:0:0:0:0:
448,192,165735,1,0,0:0:0:0:
64,192,165735,128,0,165935:0:0:0:0:
192,192,165801,128,0,165935:0:0:0:0:
448,192,165868,128,0,166068:0:0:0:0:
320,192,165935,128,0,166068:0:0:0:0:
192,192,166001,128,0,166201:0:0:0:0:
64,192,166068,128,0,166201:0:0:0:0:
320,192,166135,128,0,166268:0:0:0:0:
448,192,166201,128,0,166268:0:0:0:0:
64,192,166268,1,0,0:0:0:0:
192,192,166268,1,0,0:0:0:0:
320,192,166335,1,0,0:0:0:0:
448,192,166335,1,0,0:0:0:0:
64,192,166401,1,0,0:0:0:0:
192,192,166401,1,0,0:0:0:0:
320,192,166468,1,0,0:0:0:0:
448,192,166468,1,0,0:0:0:0:
320,192,166668,1,0,0:0:0:0:
448,192,166668,1,0,0:0:0:0:
64,192,166735,1,0,0:0:0:0:
192,192,166735,1,0,0:0:0:0:
320,192,166801,1,0,0:0:0:0:
448,192,166801,1,0,0:0:0:0:
64,192,166868,1,0,0:0:0:0:
192,192,166868,1,0,0:0:0:0:
448,192,167068,1,0,0:0:0:0:
64,192,167068,128,0,167135:0:0:0:0:
320,192,167201,128,0,167268:0:0:0:0:
192,192,167335,128,0,167401:0:0:0:0:
448,192,167468,128,0,167535:0:0:0:0:
192,192,167601,1,0,0:0:0:0:
64,192,167601,128,0,167668:0:0:0:0:
448,192,167735,128,0,167801:0:0:0:0:
320,192,167801,1,0,0:0:0:0:
64,192,167868,1,0,0:0:0:0:
192,192,167868,128,0,167935:0:0:0:0:
448,192,168001,1,0,0:0:0:0:
320,192,168001,128,0,168068:0:0:0:0:
448,192,168135,1,0,0:0:0:0:
64,192,168135,128,0,168201:0:0:0:0:
192,192,168268,128,0,168335:0:0:0:0:
320,192,168401,1,0,0:0:0:0:
448,192,168401,1,0,0:0:0:0:
64,192,168468,1,0,0:0:0:0:
192,192,168468,1,0,0:0:0:0:
320,192,168535,1,0,0:0:0:0:
448,192,168535,1,0,0:0:0:0:
64,192,168601,1,0,0:0:0:0:
192,192,168601,1,0,0:0:0:0:
64,192,168801,1,0,0:0:0:0:
192,192,168801,1,0,0:0:0:0:
320,192,168868,1,0,0:0:0:0:
448,192,168868,1,0,0:0:0:0:
64,192,168935,1,0,0:0:0:0:
192,192,168935,1,0,0:0:0:0:
320,192,169001,1,0,0:0:0:0:
448,192,169001,1,0,0:0:0:0:
64,192,169201,1,0,0:0:0:0:
448,192,169201,1,0,0:0:0:0:
192,192,169268,1,0,0:0:0:0:
448,192,169335,1,0,0:0:0:0:
320,192,169401,1,0,0:0:0:0:
64,192,169468,1,0,0:0:0:0:
192,192,169468,1,0,0:0:0:0:
448,192,169535,1,0,0:0:0:0:
64,192,169601,1,0,0:0:0:0:
192,192,169668,1,0,0:0:0:0:
320,192,169735,1,0,0:0:0:0:
448,192,169735,1,0,0:0:0:0:
64,192,169801,1,0,0:0:0:0:
320,192,169868,1,0,0:0:0:0:
192,192,169935,1,0,0:0:0:0:
448,192,170001,1,0,0:0:0:0:
64,192,170001,1,0,0:0:0:0:
320,192,170068,1,0,0:0:0:0:
448,192,170135,128,0,170201:0:0:0:0:
192,192,170135,128,0,170201:0:0:0:0:
64,192,170135,128,0,170201:0:0:0:0:
64,192,170335,128,0,170401:0:0:0:0:
320,192,170335,128,0,170401:0:0:0:0:
448,192,170335,128,0,170401:0:0:0:0:
64,192,170535,1,0,0:0:0:0:
448,192,170535,1,0,0:0:0:0:
192,192,170601,1,0,0:0:0:0:
320,192,170601,1,0,0:0:0:0:
64,192,170668,1,0,0:0:0:0:
448,192,170668,1,0,0:0:0:0:
192,192,170735,1,0,0:0:0:0:
320,192,170735,1,0,0:0:0:0:
192,192,170935,1,0,0:0:0:0:
320,192,170935,1,0,0:0:0:0:
64,192,171001,1,0,0:0:0:0:
448,192,171001,1,0,0:0:0:0:
192,192,171068,1,0,0:0:0:0:
320,192,171068,1,0,0:0:0:0:
64,192,171135,1,0,0:0:0:0:
448,192,171135,1,0,0:0:0:0:
64,192,171335,1,0,0:0:0:0:
192,192,171335,1,0,0:0:0:0:
320,192,171401,1,0,0:0:0:0:
448,192,171401,1,0,0:0:0:0:
64,192,171468,1,0,0:0:0:0:
192,192,171468,1,0,0:0:0:0:
320,192,171535,1,0,0:0:0:0:
448,192,171535,1,0,0:0:0:0:
320,192,171735,1,0,0:0:0:0:
448,192,171735,1,0,0:0:0:0:
64,192,171801,1,0,0:0:0:0:
192,192,171801,1,0,0:0:0:0:
320,192,171868,1,0,0:0:0:0:
448,192,171868,1,0,0:0:0:0:
64,192,171935,1,0,0:0:0:0:
192,192,171935,1,0,0:0:0:0:
320,192,172135,1,0,0:0:0:0:
448,192,172135,1,0,0:0:0:0:
320,192,172223,1,0,0:0:0:0:
448,192,172223,1,0,0:0:0:0:
64,192,172312,1,0,0:0:0:0:
192,192,172312,1,0,0:0:0:0:
64,192,172401,1,0,0:0:0:0:
192,192,172401,1,0,0:0:0:0:
320,192,172490,1,0,0:0:0:0:
448,192,172490,1,0,0:0:0:0:
64,192,172579,1,0,0:0:0:0:
192,192,172579,1,0,0:0:0:0:
448,192,172668,1,0,0:0:0:0:
64,192,172668,1,0,0:0:0:0:
192,192,172735,1,0,0:0:0:0:
320,192,172735,1,0,0:0:0:0:
448,192,172801,1,0,0:0:0:0:
64,192,172801,1,0,0:0:0:0:
320,192,172868,1,0,0:0:0:0:
192,192,172868,1,0,0:0:0:0:
192,192,173068,1,0,0:0:0:0:
320,192,173068,1,0,0:0:0:0:
64,192,173135,1,0,0:0:0:0:
448,192,173135,1,0,0:0:0:0:
192,192,173201,1,0,0:0:0:0:
320,192,173201,1,0,0:0:0:0:
64,192,173268,1,0,0:0:0:0:
448,192,173268,1,0,0:0:0:0:
448,192,173468,1,0,0:0:0:0:
320,192,173468,1,0,0:0:0:0:
192,192,173535,1,0,0:0:0:0:
64,192,173535,1,0,0:0:0:0:
448,192,173601,1,0,0:0:0:0:
320,192,173601,1,0,0:0:0:0:
192,192,173668,1,0,0:0:0:0:
64,192,173668,1,0,0:0:0:0:
192,192,173868,1,0,0:0:0:0:
64,192,173868,1,0,0:0:0:0:
320,192,173935,1,0,0:0:0:0:
448,192,173935,1,0,0:0:0:0:
192,192,174001,1,0,0:0:0:0:
64,192,174001,1,0,0:0:0:0:
448,192,174068,1,0,0:0:0:0:
320,192,174068,1,0,0:0:0:0:
64,192,174268,1,0,0:0:0:0:
448,192,174268,1,0,0:0:0:0:
448,192,174357,1,0,0:0:0:0:
64,192,174357,1,0,0:0:0:0:
192,192,174446,1,0,0:0:0:0:
320,192,174446,1,0,0:0:0:0:
192,192,174535,1,0,0:0:0:0:
320,192,174535,1,0,0:0:0:0:
64,192,174623,1,0,0:0:0:0:
448,192,174623,1,0,0:0:0:0:
320,192,174712,1,0,0:0:0:0:
448,192,174712,1,0,0:0:0:0:
64,192,174801,1,0,0:0:0:0:
192,192,174801,1,0,0:0:0:0:
320,192,174868,1,0,0:0:0:0:
448,192,174868,1,0,0:0:0:0:
64,192,174935,1,0,0:0:0:0:
192,192,174935,1,0,0:0:0:0:
320,192,175001,1,0,0:0:0:0:
448,192,175001,1,0,0:0:0:0:
320,192,175201,1,0,0:0:0:0:
448,192,175201,1,0,0:0:0:0:
64,192,175268,1,0,0:0:0:0:
192,192,175268,1,0,0:0:0:0:
448,192,175335,1,0,0:0:0:0:
320,192,175335,1,0,0:0:0:0:
64,192,175401,1,0,0:0:0:0:
192,192,175401,1,0,0:0:0:0:
64,192,175601,1,0,0:0:0:0:
448,192,175601,1,0,0:0:0:0:
192,192,175668,1,0,0:0:0:0:
320,192,175668,1,0,0:0:0:0:
64,192,175735,1,0,0:0:0:0:
448,192,175735,1,0,0:0:0:0:
192,192,175801,1,0,0:0:0:0:
320,192,175801,1,0,0:0:0:0:
192,192,176001,1,0,0:0:0:0:
320,192,176001,1,0,0:0:0:0:
64,192,176068,1,0,0:0:0:0:
448,192,176068,1,0,0:0:0:0:
192,192,176135,1,0,0:0:0:0:
320,192,176135,1,0,0:0:0:0:
448,192,176201,1,0,0:0:0:0:
64,192,176201,1,0,0:0:0:0:
64,192,176401,1,0,0:0:0:0:
192,192,176401,1,0,0:0:0:0:
64,192,176490,1,0,0:0:0:0:
192,192,176490,1,0,0:0:0:0:
320,192,176579,1,0,0:0:0:0:
448,192,176579,1,0,0:0:0:0:
320,192,176668,1,0,0:0:0:0:
448,192,176668,1,0,0:0:0:0:
64,192,176757,1,0,0:0:0:0:
192,192,176757,1,0,0:0:0:0:
320,192,176846,1,0,0:0:0:0:
448,192,176846,1,0,0:0:0:0:
64,192,176935,1,0,0:0:0:0:
192,192,176935,1,0,0:0:0:0:
320,192,176935,1,0,0:0:0:0:
448,192,176935,1,0,0:0:0:0:
64,192,177068,1,0,0:0:0:0:
192,192,177068,1,0,0:0:0:0:
448,192,177068,1,0,0:0:0:0:
320,192,177068,1,0,0:0:0:0:
192,192,177468,128,0,177935:0:0:0:0:
320,192,177735,1,0,0:0:0:0:
64,192,178001,1,0,0:0:0:0:
192,192,178001,1,0,0:0:0:0:
320,192,178001,1,0,0:0:0:0:
448,192,178001,1,0,0:0:0:0:
320,192,178135,1,0,0:0:0:0:
64,192,178135,1,0,0:0:0:0:
192,192,178135,1,0,0:0:0:0:
448,192,178135,128,0,179001:0:0:0:0:
64,192,178535,128,0,179001:0:0:0:0:
192,192,178668,1,0,0:0:0:0:
320,192,178801,1,0,0:0:0:0:
64,192,179068,1,0,0:0:0:0:
192,192,179068,1,0,0:0:0:0:
320,192,179068,1,0,0:0:0:0:
448,192,179068,1,0,0:0:0:0:
448,192,179201,1,0,0:0:0:0:
320,192,179201,1,0,0:0:0:0:
64,192,179201,1,0,0:0:0:0:
192,192,179201,128,0,180068:0:0:0:0:
320,192,179601,128,0,180068:0:0:0:0:
64,192,179735,1,0,0:0:0:0:
448,192,179868,1,0,0:0:0:0:
64,192,180135,1,0,0:0:0:0:
192,192,180135,1,0,0:0:0:0:
320,192,180135,1,0,0:0:0:0:
448,192,180135,1,0,0:0:0:0:
448,192,180268,1,0,0:0:0:0:
320,192,180268,1,0,0:0:0:0:
192,192,180268,1,0,0:0:0:0:
64,192,180268,1,0,0:0:0:0:
448,192,180579,128,0,180623:0:0:0:0:
64,192,180579,128,0,180623:0:0:0:0:
192,192,180623,128,0,180668:0:0:0:0:
320,192,180668,128,0,180712:0:0:0:0:
448,192,180757,128,0,180801:0:0:0:0:
192,192,180801,128,0,180846:0:0:0:0:
320,192,180846,128,0,180890:0:0:0:0:
64,192,180935,128,0,180979:0:0:0:0:
448,192,180935,128,0,180979:0:0:0:0:
320,192,181023,128,0,181068:0:0:0:0:
192,192,181112,128,0,181157:0:0:0:0:
64,192,181201,128,0,182535:0:0:0:0:
448,192,181201,128,0,182135:0:0:0:0:
320,192,181201,128,0,182135:0:0:0:0:
448,192,182268,128,0,182935:0:0:0:0:
64,192,182668,128,0,183268:0:0:0:0:
320,192,182801,128,0,183268:0:0:0:0:
192,192,182935,128,0,183268:0:0:0:0:
448,192,183068,128,0,183268:0:0:0:0:
64,192,183335,1,0,0:0:0:0:
448,192,183335,1,0,0:0:0:0:
192,192,183401,1,0,0:0:0:0:
448,192,183468,1,0,0:0:0:0:
320,192,183535,1,0,0:0:0:0:
192,192,183601,1,0,0:0:0:0:
64,192,183601,1,0,0:0:0:0:
320,192,183668,1,0,0:0:0:0:
448,192,183735,1,0,0:0:0:0:
64,192,183801,1,0,0:0:0:0:
192,192,183868,1,0,0:0:0:0:
320,192,183868,1,0,0:0:0:0:
448,192,183935,1,0,0:0:0:0:
64,192,184001,1,0,0:0:0:0:
192,192,184068,1,0,0:0:0:0:
320,192,184135,1,0,0:0:0:0:
448,192,184135,1,0,0:0:0:0:
64,192,184201,1,0,0:0:0:0:
448,192,184268,1,0,0:0:0:0:
320,192,184335,1,0,0:0:0:0:
64,192,184401,128,0,184435:0:0:0:0:
192,192,184401,128,0,184435:0:0:0:0:
320,192,184468,128,0,184501:0:0:0:0:
64,192,184535,128,0,184568:0:0:0:0:
448,192,184535,128,0,184568:0:0:0:0:
192,192,184601,128,0,184635:0:0:0:0:
320,192,184668,128,0,184701:0:0:0:0:
448,192,184668,128,0,184701:0:0:0:0:
64,192,184735,128,0,184768:0:0:0:0:
192,192,184801,128,0,184835:0:0:0:0:
320,192,184801,128,0,184835:0:0:0:0:
448,192,184868,128,0,184901:0:0:0:0:
64,192,184935,128,0,185001:0:0:0:0:
192,192,184935,128,0,185001:0:0:0:0:
320,192,185001,128,0,185068:0:0:0:0:
448,192,185068,128,0,185135:0:0:0:0:
64,192,185068,128,0,185135:0:0:0:0:
192,192,185135,128,0,185201:0:0:0:0:
320,192,185201,128,0,185268:0:0:0:0:
448,192,185201,128,0,185301:0:0:0:0:
64,192,185268,128,0,185335:0:0:0:0:
192,192,185335,128,0,185401:0:0:0:0:
320,192,185335,128,0,185401:0:0:0:0:
448,192,185401,128,0,185468:0:0:0:0:
64,192,185468,1,0,0:0:0:0:
192,192,185468,128,0,185768:0:0:0:0:
320,192,185535,128,0,185701:0:0:0:0:
448,192,185601,128,0,185668:0:0:0:0:
64,192,185668,128,0,185735:0:0:0:0:
448,192,185735,128,0,185801:0:0:0:0:
320,192,185768,128,0,185835:0:0:0:0:
64,192,185801,128,0,185868:0:0:0:0:
192,192,185835,128,0,185901:0:0:0:0:
448,192,185868,128,0,186001:0:0:0:0:
320,192,185935,128,0,186135:0:0:0:0:
192,192,186001,128,0,186135:0:0:0:0:
448,192,186068,128,0,186135:0:0:0:0:
64,192,186135,128,0,186357:0:0:0:0:
192,192,186223,128,0,186357:0:0:0:0:
448,192,186268,128,0,186357:0:0:0:0:
320,192,186357,1,0,0:0:0:0:
192,192,186446,1,0,0:0:0:0:
320,192,186535,128,0,186601:0:0:0:0:
448,192,186535,128,0,186601:0:0:0:0:
64,192,186535,128,0,186601:0:0:0:0:
64,192,186668,128,0,186735:0:0:0:0:
320,192,186668,128,0,186735:0:0:0:0:
448,192,186668,128,0,186735:0:0:0:0:
64,192,186935,128,0,187001:0:0:0:0:
192,192,186935,128,0,187001:0:0:0:0:
448,192,186935,128,0,187001:0:0:0:0:
448,192,187068,128,0,187135:0:0:0:0:
64,192,187068,128,0,187135:0:0:0:0:
192,192,187068,128,0,187135:0:0:0:0:
64,192,187335,128,0,187535:0:0:0:0:
192,192,187335,128,0,187535:0:0:0:0:
448,192,187335,128,0,187535:0:0:0:0:
320,192,187401,128,0,187535:0:0:0:0:
64,192,187601,1,0,0:0:0:0:
192,192,187601,1,0,0:0:0:0:
448,192,187601,1,0,0:0:0:0:
320,192,187735,1,0,0:0:0:0:
64,192,187868,1,0,0:0:0:0:
448,192,187868,1,0,0:0:0:0:
320,192,187868,128,0,188135:0:0:0:0:
192,192,188001,1,0,0:0:0:0:
448,192,188135,1,0,0:0:0:0:
192,192,188135,1,0,0:0:0:0:
64,192,188135,128,0,188401:0:0:0:0:
320,192,188268,1,0,0:0:0:0:
192,192,188401,1,0,0:0:0:0:
320,192,188401,1,0,0:0:0:0:
448,192,188401,128,0,188668:0:0:0:0:
64,192,188535,1,0,0:0:0:0:
64,192,188668,1,0,0:0:0:0:
320,192,188668,1,0,0:0:0:0:
192,192,188668,128,0,189201:0:0:0:0:
448,192,188801,1,0,0:0:0:0:
64,192,188935,1,0,0:0:0:0:
320,192,188935,1,0,0:0:0:0:
448,192,188935,1,0,0:0:0:0:
64,192,189068,1,0,0:0:0:0:
64,192,189201,1,0,0:0:0:0:
448,192,189201,1,0,0:0:0:0:
320,192,189201,128,0,189735:0:0:0:0:
192,192,189335,1,0,0:0:0:0:
64,192,189468,1,0,0:0:0:0:
192,192,189468,1,0,0:0:0:0:
448,192,189468,1,0,0:0:0:0:
448,192,189601,1,0,0:0:0:0:
448,192,189735,1,0,0:0:0:0:
64,192,189735,128,0,190268:0:0:0:0:
192,192,189735,128,0,189801:0:0:0:0:
320,192,189868,128,0,189935:0:0:0:0:
192,192,190001,1,0,0:0:0:0:
320,192,190001,1,0,0:0:0:0:
448,192,190001,128,0,190068:0:0:0:0:
192,192,190135,128,0,190201:0:0:0:0:
448,192,190268,1,0,0:0:0:0:
192,192,190268,1,0,0:0:0:0:
320,192,190268,128,0,190335:0:0:0:0:
64,192,190401,128,0,190468:0:0:0:0:
64,192,190535,1,0,0:0:0:0:
192,192,190535,1,0,0:0:0:0:
320,192,190535,128,0,190801:0:0:0:0:
448,192,190668,128,0,190735:0:0:0:0:
64,192,190801,1,0,0:0:0:0:
448,192,190801,1,0,0:0:0:0:
192,192,190801,128,0,191068:0:0:0:0:
320,192,190935,128,0,191001:0:0:0:0:
64,192,191068,1,0,0:0:0:0:
320,192,191068,1,0,0:0:0:0:
448,192,191068,1,0,0:0:0:0:
192,192,191201,128,0,191468:0:0:0:0:
320,192,191335,1,0,0:0:0:0:
448,192,191335,1,0,0:0:0:0:
64,192,191335,128,0,191401:0:0:0:0:
320,192,191468,1,0,0:0:0:0:
192,192,191535,1,0,0:0:0:0:
64,192,191601,1,0,0:0:0:0:
448,192,191601,1,0,0:0:0:0:
320,192,191601,1,0,0:0:0:0:
192,192,191668,1,0,0:0:0:0:
448,192,191735,1,0,0:0:0:0:
320,192,191801,1,0,0:0:0:0:
64,192,191868,1,0,0:0:0:0:
192,192,191868,1,0,0:0:0:0:
320,192,191935,1,0,0:0:0:0:
448,192,191935,1,0,0:0:0:0:
64,192,192001,1,0,0:0:0:0:
192,192,192001,1,0,0:0:0:0:
320,192,192068,1,0,0:0:0:0:
448,192,192068,1,0,0:0:0:0:
320,192,192268,1,0,0:0:0:0:
448,192,192268,1,0,0:0:0:0:
64,192,192335,1,0,0:0:0:0:
192,192,192335,1,0,0:0:0:0:
320,192,192401,1,0,0:0:0:0:
448,192,192401,1,0,0:0:0:0:
64,192,192468,1,0,0:0:0:0:
192,192,192468,1,0,0:0:0:0:
64,192,192668,1,0,0:0:0:0:
448,192,192668,1,0,0:0:0:0:
192,192,192735,1,0,0:0:0:0:
320,192,192735,1,0,0:0:0:0:
64,192,192801,1,0,0:0:0:0:
448,192,192801,1,0,0:0:0:0:
192,192,192868,1,0,0:0:0:0:
320,192,192868,1,0,0:0:0:0:
192,192,193068,1,0,0:0:0:0:
320,192,193068,1,0,0:0:0:0:
64,192,193135,1,0,0:0:0:0:
448,192,193135,1,0,0:0:0:0:
192,192,193201,1,0,0:0:0:0:
320,192,193201,1,0,0:0:0:0:
64,192,193268,1,0,0:0:0:0:
448,192,193268,1,0,0:0:0:0:
192,192,193468,1,0,0:0:0:0:
448,192,193468,128,0,193601:0:0:0:0:
64,192,193468,128,0,193601:0:0:0:0:
320,192,193535,128,0,193668:0:0:0:0:
192,192,193601,128,0,193735:0:0:0:0:
448,192,193668,128,0,193801:0:0:0:0:
64,192,193668,128,0,193801:0:0:0:0:
320,192,193735,128,0,193868:0:0:0:0:
192,192,193801,128,0,193935:0:0:0:0:
64,192,193868,128,0,193935:0:0:0:0:
448,192,193868,128,0,193935:0:0:0:0:
320,192,194001,1,0,0:0:0:0:
448,192,194001,1,0,0:0:0:0:
192,192,194068,1,0,0:0:0:0:
64,192,194068,1,0,0:0:0:0:
320,192,194135,1,0,0:0:0:0:
448,192,194135,1,0,0:0:0:0:
64,192,194201,1,0,0:0:0:0:
192,192,194201,1,0,0:0:0:0:
64,192,194401,1,0,0:0:0:0:
192,192,194401,1,0,0:0:0:0:
448,192,194468,1,0,0:0:0:0:
320,192,194468,1,0,0:0:0:0:
64,192,194535,1,0,0:0:0:0:
192,192,194535,1,0,0:0:0:0:
320,192,194601,1,0,0:0:0:0:
448,192,194601,1,0,0:0:0:0:
192,192,194801,1,0,0:0:0:0:
320,192,194801,1,0,0:0:0:0:
64,192,194868,1,0,0:0:0:0:
448,192,194868,1,0,0:0:0:0:
192,192,194935,1,0,0:0:0:0:
320,192,194935,1,0,0:0:0:0:
64,192,195001,1,0,0:0:0:0:
448,192,195001,1,0,0:0:0:0:
64,192,195201,1,0,0:0:0:0:
448,192,195201,1,0,0:0:0:0:
192,192,195268,1,0,0:0:0:0:
320,192,195268,1,0,0:0:0:0:
64,192,195335,1,0,0:0:0:0:
448,192,195335,1,0,0:0:0:0:
192,192,195401,1,0,0:0:0:0:
320,192,195401,1,0,0:0:0:0:
448,192,195535,128,0,195668:0:0:0:0:
64,192,195601,128,0,195735:0:0:0:0:
192,192,195601,128,0,195801:0:0:0:0:
320,192,195668,128,0,195868:0:0:0:0:
448,192,195735,128,0,195935:0:0:0:0:
64,192,195801,1,0,0:0:0:0:
192,192,195868,1,0,0:0:0:0:
320,192,195935,1,0,0:0:0:0:
448,192,196001,1,0,0:0:0:0:
64,192,196001,1,0,0:0:0:0:
192,192,196046,1,0,0:0:0:0:
320,192,196090,1,0,0:0:0:0:
448,192,196135,1,0,0:0:0:0:
64,192,196135,1,0,0:0:0:0:
192,192,196135,1,0,0:0:0:0:
320,192,196268,128,0,196335:0:0:0:0:
192,192,196401,128,0,196668:0:0:0:0:
320,192,196401,1,0,0:0:0:0:
64,192,196401,128,0,196468:0:0:0:0:
448,192,196535,128,0,196601:0:0:0:0:
448,192,196668,1,0,0:0:0:0:
64,192,196668,1,0,0:0:0:0:
320,192,196668,128,0,196935:0:0:0:0:
192,192,196801,128,0,196868:0:0:0:0:
448,192,196935,1,0,0:0:0:0:
192,192,196935,1,0,0:0:0:0:
64,192,196935,128,0,197201:0:0:0:0:
320,192,197068,128,0,197135:0:0:0:0:
192,192,197201,1,0,0:0:0:0:
320,192,197201,1,0,0:0:0:0:
448,192,197201,128,0,197735:0:0:0:0:
192,192,197335,1,0,0:0:0:0:
64,192,197468,1,0,0:0:0:0:
320,192,197468,1,0,0:0:0:0:
192,192,197468,1,0,0:0:0:0:
320,192,197601,1,0,0:0:0:0:
320,192,197735,1,0,0:0:0:0:
192,192,197735,128,0,198268:0:0:0:0:
64,192,197735,128,0,197801:0:0:0:0:
448,192,197868,1,0,0:0:0:0:
448,192,198001,1,0,0:0:0:0:
320,192,198001,1,0,0:0:0:0:
64,192,198001,1,0,0:0:0:0:
64,192,198135,1,0,0:0:0:0:
64,192,198268,1,0,0:0:0:0:
320,192,198268,128,0,198801:0:0:0:0:
448,192,198268,128,0,198335:0:0:0:0:
192,192,198401,128,0,198468:0:0:0:0:
192,192,198535,1,0,0:0:0:0:
448,192,198535,1,0,0:0:0:0:
64,192,198535,128,0,198601:0:0:0:0:
448,192,198668,128,0,198735:0:0:0:0:
64,192,198801,1,0,0:0:0:0:
448,192,198801,1,0,0:0:0:0:
192,192,198801,128,0,198868:0:0:0:0:
320,192,198935,128,0,199001:0:0:0:0:
320,192,199068,1,0,0:0:0:0:
448,192,199068,1,0,0:0:0:0:
64,192,199068,128,0,199335:0:0:0:0:
192,192,199201,128,0,199268:0:0:0:0:
192,192,199335,1,0,0:0:0:0:
320,192,199335,1,0,0:0:0:0:
448,192,199335,128,0,199601:0:0:0:0:
64,192,199468,128,0,199535:0:0:0:0:
64,192,199601,1,0,0:0:0:0:
192,192,199601,1,0,0:0:0:0:
320,192,199601,1,0,0:0:0:0:
320,192,199735,1,0,0:0:0:0:
448,192,199735,1,0,0:0:0:0:
192,192,199801,1,0,0:0:0:0:
64,192,199868,1,0,0:0:0:0:
448,192,199868,1,0,0:0:0:0:
320,192,199868,1,0,0:0:0:0:
64,192,200001,1,0,0:0:0:0:
448,192,200001,1,0,0:0:0:0:
192,192,200068,1,0,0:0:0:0:
448,192,200135,1,0,0:0:0:0:
64,192,200135,1,0,0:0:0:0:
320,192,200135,1,0,0:0:0:0:
192,192,200201,1,0,0:0:0:0:
320,192,200268,1,0,0:0:0:0:
448,192,200335,1,0,0:0:0:0:
64,192,200401,1,0,0:0:0:0:
192,192,200401,1,0,0:0:0:0:
320,192,200468,1,0,0:0:0:0:
448,192,200468,1,0,0:0:0:0:
64,192,200535,1,0,0:0:0:0:
192,192,200535,1,0,0:0:0:0:
320,192,200601,1,0,0:0:0:0:
448,192,200601,1,0,0:0:0:0:
320,192,200801,1,0,0:0:0:0:
448,192,200801,1,0,0:0:0:0:
64,192,200868,1,0,0:0:0:0:
192,192,200868,1,0,0:0:0:0:
320,192,200935,1,0,0:0:0:0:
448,192,200935,1,0,0:0:0:0:
64,192,201001,1,0,0:0:0:0:
192,192,201001,1,0,0:0:0:0:
64,192,201201,1,0,0:0:0:0:
448,192,201201,1,0,0:0:0:0:
192,192,201268,1,0,0:0:0:0:
320,192,201268,1,0,0:0:0:0:
64,192,201335,1,0,0:0:0:0:
448,192,201335,1,0,0:0:0:0:
192,192,201401,1,0,0:0:0:0:
320,192,201401,1,0,0:0:0:0:
192,192,201601,1,0,0:0:0:0:
320,192,201601,1,0,0:0:0:0:
64,192,201668,1,0,0:0:0:0:
448,192,201668,1,0,0:0:0:0:
192,192,201735,1,0,0:0:0:0:
320,192,201735,1,0,0:0:0:0:
64,192,201801,1,0,0:0:0:0:
448,192,201801,1,0,0:0:0:0:
64,192,202001,128,0,202135:0:0:0:0:
448,192,202001,128,0,202135:0:0:0:0:
192,192,202068,128,0,202201:0:0:0:0:
320,192,202135,128,0,202268:0:0:0:0:
448,192,202201,128,0,202268:0:0:0:0:
192,192,202268,1,0,0:0:0:0:
64,192,202268,1,0,0:0:0:0:
64,192,202357,1,0,0:0:0:0:
64,192,202446,128,0,202535:0:0:0:0:
320,192,202535,1,0,0:0:0:0:
448,192,202535,1,0,0:0:0:0:
64,192,202601,1,0,0:0:0:0:
192,192,202601,1,0,0:0:0:0:
320,192,202668,1,0,0:0:0:0:
448,192,202668,1,0,0:0:0:0:
64,192,202735,1,0,0:0:0:0:
192,192,202735,1,0,0:0:0:0:
64,192,202935,1,0,0:0:0:0:
192,192,202935,1,0,0:0:0:0:
320,192,203001,1,0,0:0:0:0:
448,192,203001,1,0,0:0:0:0:
64,192,203068,1,0,0:0:0:0:
192,192,203068,1,0,0:0:0:0:
320,192,203135,1,0,0:0:0:0:
448,192,203135,1,0,0:0:0:0:
192,192,203335,1,0,0:0:0:0:
320,192,203335,1,0,0:0:0:0:
448,192,203401,1,0,0:0:0:0:
64,192,203401,1,0,0:0:0:0:
320,192,203468,1,0,0:0:0:0:
192,192,203468,1,0,0:0:0:0:
448,192,203535,1,0,0:0:0:0:
64,192,203535,1,0,0:0:0:0:
64,192,203735,1,0,0:0:0:0:
448,192,203735,1,0,0:0:0:0:
192,192,203801,1,0,0:0:0:0:
320,192,203801,1,0,0:0:0:0:
64,192,203868,1,0,0:0:0:0:
448,192,203868,1,0,0:0:0:0:
192,192,203935,1,0,0:0:0:0:
320,192,203935,1,0,0:0:0:0:
448,192,204135,1,0,0:0:0:0:
320,192,204135,1,0,0:0:0:0:
64,192,204201,1,0,0:0:0:0:
192,192,204201,1,0,0:0:0:0:
320,192,204268,1,0,0:0:0:0:
448,192,204268,1,0,0:0:0:0:
192,192,204335,1,0,0:0:0:0:
64,192,204401,1,0,0:0:0:0:
448,192,204401,1,0,0:0:0:0:
320,192,204468,1,0,0:0:0:0:
64,192,204535,1,0,0:0:0:0:
192,192,204535,1,0,0:0:0:0:
320,192,204601,1,0,0:0:0:0:
448,192,204668,128,0,204735:0:0:0:0:
64,192,204668,128,0,204735:0:0:0:0:
192,192,204735,128,0,204801:0:0:0:0:
320,192,204735,128,0,204801:0:0:0:0:
64,192,204801,128,0,204868:0:0:0:0:
448,192,204801,128,0,204868:0:0:0:0:
192,192,204868,128,0,204935:0:0:0:0:
320,192,204868,128,0,204935:0:0:0:0:
192,192,205068,128,0,205135:0:0:0:0:
320,192,205068,128,0,205135:0:0:0:0:
448,192,205135,128,0,205201:0:0:0:0:
64,192,205135,128,0,205201:0:0:0:0:
192,192,205201,128,0,205268:0:0:0:0:
320,192,205201,128,0,205268:0:0:0:0:
64,192,205268,128,0,205335:0:0:0:0:
448,192,205268,128,0,205335:0:0:0:0:
64,192,205468,128,0,205535:0:0:0:0:
192,192,205468,128,0,205535:0:0:0:0:
320,192,205535,128,0,205601:0:0:0:0:
448,192,205535,128,0,205601:0:0:0:0:
192,192,205601,128,0,205668:0:0:0:0:
64,192,205601,128,0,205668:0:0:0:0:
320,192,205668,128,0,205735:0:0:0:0:
448,192,205668,128,0,205735:0:0:0:0:
320,192,205868,128,0,205935:0:0:0:0:
448,192,205868,128,0,205935:0:0:0:0:
192,192,205935,128,0,206001:0:0:0:0:
64,192,205935,128,0,206001:0:0:0:0:
320,192,206001,128,0,206068:0:0:0:0:
448,192,206001,128,0,206068:0:0:0:0:
192,192,206068,128,0,206135:0:0:0:0:
64,192,206068,128,0,206135:0:0:0:0:
320,192,206268,1,0,0:0:0:0:
448,192,206268,1,0,0:0:0:0:
320,192,206357,1,0,0:0:0:0:
448,192,206357,1,0,0:0:0:0:
64,192,206446,1,0,0:0:0:0:
192,192,206446,1,0,0:0:0:0:
320,192,206535,1,0,0:0:0:0:
448,192,206535,1,0,0:0:0:0:
64,192,206623,1,0,0:0:0:0:
192,192,206623,1,0,0:0:0:0:
64,192,206712,1,0,0:0:0:0:
192,192,206712,1,0,0:0:0:0:
320,192,206801,128,0,206868:0:0:0:0:
448,192,206801,128,0,206868:0:0:0:0:
64,192,206868,128,0,206935:0:0:0:0:
192,192,206868,128,0,206935:0:0:0:0:
320,192,206935,128,0,207068:0:0:0:0:
448,192,206935,128,0,207068:0:0:0:0:
64,192,207001,128,0,207068:0:0:0:0:
192,192,207001,128,0,207068:0:0:0:0:
64,192,207201,128,0,207268:0:0:0:0:
192,192,207201,128,0,207268:0:0:0:0:
320,192,207268,128,0,207335:0:0:0:0:
448,192,207268,128,0,207335:0:0:0:0:
64,192,207335,128,0,207468:0:0:0:0:
192,192,207335,128,0,207468:0:0:0:0:
320,192,207401,128,0,207468:0:0:0:0:
448,192,207401,128,0,207468:0:0:0:0:
64,192,207601,128,0,207668:0:0:0:0:
448,192,207601,128,0,207668:0:0:0:0:
192,192,207668,128,0,207735:0:0:0:0:
320,192,207668,128,0,207735:0:0:0:0:
448,192,207735,128,0,207868:0:0:0:0:
64,192,207735,128,0,207868:0:0:0:0:
320,192,207801,128,0,207868:0:0:0:0:
192,192,207801,128,0,207868:0:0:0:0:
192,192,208001,128,0,208068:0:0:0:0:
320,192,208001,128,0,208068:0:0:0:0:
64,192,208068,128,0,208135:0:0:0:0:
448,192,208068,128,0,208135:0:0:0:0:
320,192,208135,128,0,208268:0:0:0:0:
192,192,208135,128,0,208268:0:0:0:0:
64,192,208201,128,0,208268:0:0:0:0:
448,192,208201,128,0,208268:0:0:0:0:
64,192,208401,128,0,208490:0:0:0:0:
192,192,208401,128,0,208490:0:0:0:0:
448,192,208490,128,0,208579:0:0:0:0:
320,192,208490,128,0,208579:0:0:0:0:
64,192,208579,128,0,208757:0:0:0:0:
192,192,208579,128,0,208668:0:0:0:0:
448,192,208668,128,0,208757:0:0:0:0:
320,192,208668,128,0,208935:0:0:0:0:
192,192,208757,128,0,208935:0:0:0:0:
448,192,208846,128,0,208935:0:0:0:0:
64,192,208846,128,0,208935:0:0:0:0:
448,192,209001,128,0,209801:0:0:0:0:
64,192,209268,128,0,209535:0:0:0:0:
320,192,209535,128,0,209935:0:0:0:0:
64,192,209601,128,0,209935:0:0:0:0:
192,192,209735,128,0,209935:0:0:0:0:
448,192,209868,128,0,209935:0:0:0:0:
192,192,210001,1,0,0:0:0:0:
320,192,210001,128,0,210135:0:0:0:0:
448,192,210068,128,0,210201:0:0:0:0:
64,192,210135,128,0,210268:0:0:0:0:
192,192,210201,128,0,210335:0:0:0:0:
448,192,210268,128,0,210401:0:0:0:0:
320,192,210335,128,0,210468:0:0:0:0:
192,192,210401,128,0,210535:0:0:0:0:
64,192,210468,128,0,210601:0:0:0:0:
320,192,210535,128,0,210735:0:0:0:0:
448,192,210601,128,0,210735:0:0:0:0:
64,192,210668,128,0,210868:0:0:0:0:
192,192,210735,128,0,210868:0:0:0:0:
448,192,210801,128,0,210935:0:0:0:0:
320,192,210868,128,0,211001:0:0:0:0:
192,192,210935,128,0,211068:0:0:0:0:
64,192,211001,128,0,211068:0:0:0:0:
320,192,211068,1,0,0:0:0:0:
448,192,211068,128,0,212535:0:0:0:0:
192,192,212135,1,0,0:0:0:0:
64,192,212135,128,0,212535:0:0:0:0:
64,192,212668,1,0,0:0:0:0:
448,192,212668,1,0,0:0:0:0:
192,192,212935,128,0,213868:0:0:0:0:
320,192,213201,128,0,213601:0:0:0:0:
448,192,213201,128,0,213601:0:0:0:0:
64,192,213468,128,0,214201:0:0:0:0:
320,192,213735,128,0,214201:0:0:0:0:
448,192,213735,128,0,214201:0:0:0:0:
192,192,214001,128,0,214201:0:0:0:0:
64,192,214268,128,0,214535:0:0:0:0:
448,192,214268,128,0,214335:0:0:0:0:
192,192,214335,128,0,214401:0:0:0:0:
320,192,214401,128,0,214468:0:0:0:0:
448,192,214468,128,0,214535:0:0:0:0:
192,192,214535,128,0,214601:0:0:0:0:
320,192,214601,128,0,214668:0:0:0:0:
448,192,214668,128,0,214935:0:0:0:0:
64,192,214668,128,0,214801:0:0:0:0:
192,192,214735,128,0,214868:0:0:0:0:
320,192,214801,128,0,214935:0:0:0:0:
64,192,214868,128,0,215001:0:0:0:0:
192,192,214935,128,0,215001:0:0:0:0:
320,192,215001,128,0,215268:0:0:0:0:
192,192,215068,128,0,215268:0:0:0:0:
448,192,215068,128,0,215268:0:0:0:0:
64,192,215068,128,0,215268:0:0:0:0:
192,192,215335,1,0,0:0:0:0:
64,192,215335,128,0,215401:0:0:0:0:
320,192,215335,128,0,215401:0:0:0:0:
448,192,215335,128,0,215401:0:0:0:0:
192,192,215468,128,0,215535:0:0:0:0:
320,192,215468,128,0,215535:0:0:0:0:
448,192,215468,128,0,215535:0:0:0:0:
320,192,215601,128,0,215668:0:0:0:0:
192,192,215601,128,0,215668:0:0:0:0:
64,192,215601,128,0,215668:0:0:0:0:
64,192,215735,1,0,0:0:0:0:
448,192,215735,1,0,0:0:0:0:
192,192,215801,1,0,0:0:0:0:
64,192,215868,128,0,215935:0:0:0:0:
320,192,215868,128,0,215935:0:0:0:0:
448,192,215868,128,0,215935:0:0:0:0:
192,192,216001,1,0,0:0:0:0:
320,192,216001,1,0,0:0:0:0:
448,192,216068,1,0,0:0:0:0:
320,192,216135,128,0,216201:0:0:0:0:
192,192,216135,128,0,216201:0:0:0:0:
64,192,216135,128,0,216201:0:0:0:0:
64,192,216268,1,0,0:0:0:0:
448,192,216268,1,0,0:0:0:0:
192,192,216335,1,0,0:0:0:0:
64,192,216401,128,0,216468:0:0:0:0:
448,192,216401,128,0,216468:0:0:0:0:
320,192,216401,128,0,216468:0:0:0:0:
192,192,216535,1,0,0:0:0:0:
320,192,216535,1,0,0:0:0:0:
448,192,216601,1,0,0:0:0:0:
320,192,216668,128,0,216735:0:0:0:0:
192,192,216668,128,0,216735:0:0:0:0:
64,192,216668,128,0,216735:0:0:0:0:
64,192,216801,1,0,0:0:0:0:
448,192,216801,1,0,0:0:0:0:
192,192,216868,1,0,0:0:0:0:
64,192,216935,128,0,217001:0:0:0:0:
320,192,216935,128,0,217001:0:0:0:0:
448,192,216935,128,0,217001:0:0:0:0:
192,192,217068,1,0,0:0:0:0:
320,192,217068,1,0,0:0:0:0:
64,192,217135,1,0,0:0:0:0:
192,192,217201,128,0,217268:0:0:0:0:
320,192,217201,128,0,217335:0:0:0:0:
448,192,217201,128,0,217268:0:0:0:0:
64,192,217335,1,0,0:0:0:0:
192,192,217335,1,0,0:0:0:0:
448,192,217401,1,0,0:0:0:0:
192,192,217468,128,0,217535:0:0:0:0:
448,192,217468,128,0,217535:0:0:0:0:
64,192,217468,128,0,217601:0:0:0:0:
320,192,217468,128,0,217535:0:0:0:0:
320,192,217601,1,0,0:0:0:0:
192,192,217601,1,0,0:0:0:0:
448,192,217735,128,0,217801:0:0:0:0:
64,192,217735,128,0,217801:0:0:0:0:
320,192,217735,1,0,0:0:0:0:
192,192,217735,128,0,217868:0:0:0:0:
64,192,217868,1,0,0:0:0:0:
448,192,217868,1,0,0:0:0:0:
320,192,218001,1,0,0:0:0:0:
64,192,218001,128,0,218068:0:0:0:0:
192,192,218001,128,0,218068:0:0:0:0:
448,192,218001,128,0,218135:0:0:0:0:
192,192,218135,1,0,0:0:0:0:
320,192,218201,128,0,218268:0:0:0:0:
64,192,218201,128,0,218335:0:0:0:0:
448,192,218201,128,0,218268:0:0:0:0:
320,192,218335,1,0,0:0:0:0:
64,192,218401,128,0,218468:0:0:0:0:
192,192,218401,128,0,218468:0:0:0:0:
448,192,218401,128,0,218468:0:0:0:0:
448,192,218535,128,0,218601:0:0:0:0:
64,192,218535,128,0,218668:0:0:0:0:
192,192,218535,128,0,218668:0:0:0:0:
320,192,218535,128,0,218635:0:0:0:0:
64,192,218735,128,0,218801:0:0:0:0:
448,192,218735,128,0,218868:0:0:0:0:
320,192,218735,128,0,218868:0:0:0:0:
192,192,218735,128,0,218835:0:0:0:0:
192,192,218935,128,0,219001:0:0:0:0:
64,192,218935,128,0,219068:0:0:0:0:
320,192,218935,128,0,219035:0:0:0:0:
448,192,218935,128,0,219068:0:0:0:0:
64,192,219135,128,0,219268:0:0:0:0:
320,192,219135,128,0,219201:0:0:0:0:
448,192,219135,128,0,219268:0:0:0:0:
192,192,219135,128,0,219235:0:0:0:0:
448,192,219335,1,0,0:0:0:0:
320,192,219335,1,0,0:0:0:0:
192,192,219401,1,0,0:0:0:0:
320,192,219468,1,0,0:0:0:0:
192,192,219535,1,0,0:0:0:0:
64,192,219601,128,0,219668:0:0:0:0:
320,192,219601,128,0,219668:0:0:0:0:
448,192,219601,128,0,219668:0:0:0:0:
64,192,219735,1,0,0:0:0:0:
192,192,219735,1,0,0:0:0:0:
448,192,219801,1,0,0:0:0:0:
320,192,219868,128,0,219935:0:0:0:0:
192,192,219868,128,0,219935:0:0:0:0:
64,192,219868,128,0,219935:0:0:0:0:
320,192,220001,1,0,0:0:0:0:
448,192,220001,1,0,0:0:0:0:
64,192,220068,1,0,0:0:0:0:
192,192,220135,128,0,220201:0:0:0:0:
320,192,220135,128,0,220201:0:0:0:0:
448,192,220135,128,0,220201:0:0:0:0:
64,192,220268,1,0,0:0:0:0:
192,192,220268,1,0,0:0:0:0:
320,192,220335,1,0,0:0:0:0:
64,192,220401,128,0,220468:0:0:0:0:
192,192,220401,128,0,220468:0:0:0:0:
448,192,220401,128,0,220468:0:0:0:0:
448,192,220535,1,0,0:0:0:0:
320,192,220535,1,0,0:0:0:0:
192,192,220601,1,0,0:0:0:0:
64,192,220668,128,0,220735:0:0:0:0:
320,192,220668,128,0,220735:0:0:0:0:
448,192,220668,128,0,220735:0:0:0:0:
64,192,220801,128,0,220935:0:0:0:0:
448,192,220801,128,0,220935:0:0:0:0:
192,192,220801,128,0,220901:0:0:0:0:
320,192,220801,128,0,220868:0:0:0:0:
64,192,221068,128,0,221201:0:0:0:0:
448,192,221068,128,0,221201:0:0:0:0:
320,192,221068,128,0,221168:0:0:0:0:
192,192,221068,128,0,221135:0:0:0:0:
320,192,221335,128,0,221401:0:0:0:0:
64,192,221335,128,0,221468:0:0:0:0:
192,192,221335,128,0,221435:0:0:0:0:
448,192,221335,128,0,221468:0:0:0:0:
64,192,221601,1,0,0:0:0:0:
192,192,221601,1,0,0:0:0:0:
320,192,221668,1,0,0:0:0:0:
448,192,221668,1,0,0:0:0:0:
192,192,221735,128,0,221801:0:0:0:0:
448,192,221735,128,0,221801:0:0:0:0:
64,192,221735,128,0,221868:0:0:0:0:
320,192,221868,1,0,0:0:0:0:
448,192,221868,1,0,0:0:0:0:
192,192,221935,1,0,0:0:0:0:
320,192,222001,128,0,222068:0:0:0:0:
64,192,222001,128,0,222068:0:0:0:0:
448,192,222001,128,0,222135:0:0:0:0:
192,192,222135,1,0,0:0:0:0:
320,192,222135,1,0,0:0:0:0:
448,192,222201,1,0,0:0:0:0:
64,192,222268,128,0,222335:0:0:0:0:
192,192,222268,128,0,222335:0:0:0:0:
320,192,222268,128,0,222401:0:0:0:0:
64,192,222401,1,0,0:0:0:0:
448,192,222401,1,0,0:0:0:0:
192,192,222468,1,0,0:0:0:0:
448,192,222535,128,0,222601:0:0:0:0:
320,192,222535,128,0,222601:0:0:0:0:
64,192,222535,128,0,222668:0:0:0:0:
192,192,222668,1,0,0:0:0:0:
320,192,222668,1,0,0:0:0:0:
448,192,222735,1,0,0:0:0:0:
192,192,222801,128,0,222901:0:0:0:0:
64,192,222801,128,0,222901:0:0:0:0:
320,192,222801,128,0,222901:0:0:0:0:
448,192,222835,128,0,222935:0:0:0:0:
64,192,223001,128,0,223101:0:0:0:0:
192,192,223001,128,0,223101:0:0:0:0:
320,192,223001,128,0,223101:0:0:0:0:
448,192,223035,128,0,223135:0:0:0:0:
320,192,223201,128,0,223301:0:0:0:0:
192,192,223201,128,0,223301:0:0:0:0:
64,192,223201,128,0,223301:0:0:0:0:
448,192,223235,128,0,223335:0:0:0:0:
64,192,223468,128,0,223668:0:0:0:0:
448,192,223468,128,0,223668:0:0:0:0:
192,192,223468,1,0,0:0:0:0:
320,192,223535,128,0,223668:0:0:0:0:
192,192,223601,128,0,223668:0:0:0:0:
320,192,223735,1,0,0:0:0:0:
448,192,223735,1,0,0:0:0:0:
192,192,223801,1,0,0:0:0:0:
64,192,223801,1,0,0:0:0:0:
64,192,223868,1,0,0:0:0:0:
448,192,223868,1,0,0:0:0:0:
320,192,223868,1,0,0:0:0:0:
448,192,224001,1,0,0:0:0:0:
192,192,224001,1,0,0:0:0:0:
64,192,224001,1,0,0:0:0:0:
64,192,224135,128,0,224335:0:0:0:0:
448,192,224135,128,0,224335:0:0:0:0:
192,192,224135,128,0,224201:0:0:0:0:
320,192,224135,128,0,224268:0:0:0:0:
192,192,224268,1,0,0:0:0:0:
320,192,224335,1,0,0:0:0:0:
64,192,224401,1,0,0:0:0:0:
448,192,224401,1,0,0:0:0:0:
192,192,224401,1,0,0:0:0:0:
64,192,224535,1,0,0:0:0:0:
448,192,224535,1,0,0:0:0:0:
320,192,224535,1,0,0:0:0:0:
64,192,224668,128,0,224868:0:0:0:0:
448,192,224668,128,0,224868:0:0:0:0:
192,192,224668,128,0,224801:0:0:0:0:
320,192,224668,128,0,224735:0:0:0:0:
320,192,224801,1,0,0:0:0:0:
192,192,224868,1,0,0:0:0:0:
64,192,224935,1,0,0:0:0:0:
320,192,224935,1,0,0:0:0:0:
448,192,224935,1,0,0:0:0:0:
192,192,225068,1,0,0:0:0:0:
64,192,225068,1,0,0:0:0:0:
320,192,225068,1,0,0:0:0:0:
320,192,225201,1,0,0:0:0:0:
448,192,225201,1,0,0:0:0:0:
192,192,225201,1,0,0:0:0:0:
64,192,225335,1,0,0:0:0:0:
448,192,225335,1,0,0:0:0:0:
192,192,225401,1,0,0:0:0:0:
320,192,225468,1,0,0:0:0:0:
448,192,225468,1,0,0:0:0:0:
64,192,225468,1,0,0:0:0:0:
192,192,225535,1,0,0:0:0:0:
448,192,225601,1,0,0:0:0:0:
64,192,225601,1,0,0:0:0:0:
320,192,225668,1,0,0:0:0:0:
64,192,225735,1,0,0:0:0:0:
448,192,225735,1,0,0:0:0:0:
192,192,225735,1,0,0:0:0:0:
320,192,225868,1,0,0:0:0:0:
448,192,225868,1,0,0:0:0:0:
192,192,225868,1,0,0:0:0:0:
192,192,226001,128,0,226068:0:0:0:0:
320,192,226001,128,0,226068:0:0:0:0:
64,192,226001,128,0,226068:0:0:0:0:
448,192,226068,128,0,226135:0:0:0:0:
192,192,226135,128,0,226201:0:0:0:0:
64,192,226135,128,0,226201:0:0:0:0:
320,192,226201,128,0,226268:0:0:0:0:
448,192,226201,128,0,226268:0:0:0:0:
192,192,226401,128,0,226468:0:0:0:0:
320,192,226401,128,0,226468:0:0:0:0:
448,192,226401,128,0,226468:0:0:0:0:
64,192,226468,128,0,226535:0:0:0:0:
320,192,226535,128,0,226601:0:0:0:0:
448,192,226535,128,0,226601:0:0:0:0:
192,192,226601,128,0,226668:0:0:0:0:
64,192,226601,128,0,226668:0:0:0:0:
64,192,226801,128,0,226868:0:0:0:0:
192,192,226801,128,0,226868:0:0:0:0:
448,192,226801,128,0,226868:0:0:0:0:
320,192,226868,128,0,226935:0:0:0:0:
192,192,226935,128,0,227001:0:0:0:0:
64,192,226935,128,0,227001:0:0:0:0:
448,192,227001,128,0,227068:0:0:0:0:
320,192,227001,128,0,227068:0:0:0:0:
448,192,227201,128,0,227268:0:0:0:0:
320,192,227201,128,0,227268:0:0:0:0:
64,192,227201,128,0,227268:0:0:0:0:
192,192,227268,128,0,227335:0:0:0:0:
448,192,227335,128,0,227401:0:0:0:0:
320,192,227335,128,0,227401:0:0:0:0:
192,192,227401,128,0,227468:0:0:0:0:
64,192,227401,128,0,227468:0:0:0:0:
448,192,227468,128,0,227801:0:0:0:0:
320,192,227535,128,0,227668:0:0:0:0:
192,192,227601,128,0,227735:0:0:0:0:
64,192,227668,128,0,227801:0:0:0:0:
320,192,227735,128,0,227935:0:0:0:0:
192,192,227801,128,0,227868:0:0:0:0:
64,192,227868,128,0,228335:0:0:0:0:
448,192,227868,128,0,228001:0:0:0:0:
192,192,227935,128,0,228068:0:0:0:0:
320,192,228001,128,0,228135:0:0:0:0:
448,192,228068,128,0,228335:0:0:0:0:
192,192,228135,128,0,228201:0:0:0:0:
320,192,228201,128,0,228268:0:0:0:0:
192,192,228268,128,0,228335:0:0:0:0:
320,192,228335,128,0,228401:0:0:0:0:
64,192,228401,1,0,0:0:0:0:
448,192,228401,1,0,0:0:0:0:
192,192,228401,128,0,228468:0:0:0:0:
320,192,228468,128,0,228535:0:0:0:0:
64,192,228535,128,0,228601:0:0:0:0:
448,192,228601,128,0,228668:0:0:0:0:
192,192,228668,1,0,0:0:0:0:
320,192,228668,128,0,228735:0:0:0:0:
64,192,228735,128,0,228801:0:0:0:0:
448,192,228801,128,0,228868:0:0:0:0:
192,192,228868,128,0,228935:0:0:0:0:
448,192,228935,1,0,0:0:0:0:
64,192,228935,1,0,0:0:0:0:
320,192,228935,128,0,229001:0:0:0:0:
192,192,229001,128,0,229068:0:0:0:0:
448,192,229068,128,0,229135:0:0:0:0:
64,192,229135,128,0,229201:0:0:0:0:
448,192,229201,1,0,0:0:0:0:
192,192,229201,128,0,229335:0:0:0:0:
320,192,229268,128,0,229401:0:0:0:0:
64,192,229335,128,0,229401:0:0:0:0:
448,192,229401,128,0,229468:0:0:0:0:
320,192,229468,1,0,0:0:0:0:
192,192,229468,1,0,0:0:0:0:
64,192,229468,128,0,229535:0:0:0:0:
448,192,229535,128,0,229601:0:0:0:0:
192,192,229601,128,0,229735:0:0:0:0:
320,192,229668,128,0,229801:0:0:0:0:
64,192,229735,128,0,229801:0:0:0:0:
448,192,229735,1,0,0:0:0:0:
192,192,229801,128,0,229868:0:0:0:0:
320,192,229868,128,0,229935:0:0:0:0:
448,192,229935,128,0,230001:0:0:0:0:
64,192,230001,1,0,0:0:0:0:
192,192,230001,128,0,230135:0:0:0:0:
320,192,230001,1,0,0:0:0:0:
448,192,230068,128,0,230201:0:0:0:0:
64,192,230135,128,0,230201:0:0:0:0:
320,192,230201,128,0,230268:0:0:0:0:
448,192,230268,1,0,0:0:0:0:
192,192,230268,128,0,230335:0:0:0:0:
64,192,230335,128,0,230401:0:0:0:0:
320,192,230401,128,0,230535:0:0:0:0:
192,192,230468,128,0,230601:0:0:0:0:
448,192,230535,1,0,0:0:0:0:
64,192,230535,128,0,230668:0:0:0:0:
320,192,230601,128,0,230735:0:0:0:0:
448,192,230668,128,0,230801:0:0:0:0:
192,192,230735,128,0,230868:0:0:0:0:
64,192,230801,128,0,230935:0:0:0:0:
320,192,230801,1,0,0:0:0:0:
448,192,230868,128,0,231001:0:0:0:0:
192,192,230935,128,0,231068:0:0:0:0:
320,192,231001,128,0,231135:0:0:0:0:
448,192,231068,1,0,0:0:0:0:
64,192,231068,128,0,231201:0:0:0:0:
192,192,231135,128,0,231268:0:0:0:0:
320,192,231201,128,0,231335:0:0:0:0:
448,192,231268,128,0,231335:0:0:0:0:
192,192,231335,1,0,0:0:0:0:
64,192,231335,128,0,231535:0:0:0:0:
448,192,231401,128,0,231535:0:0:0:0:
192,192,231468,128,0,231535:0:0:0:0:
320,192,231535,128,0,231601:0:0:0:0:
448,192,231601,1,0,0:0:0:0:
64,192,231601,1,0,0:0:0:0:
192,192,231601,128,0,231668:0:0:0:0:
320,192,231668,128,0,231735:0:0:0:0:
64,192,231735,128,0,231868:0:0:0:0:
448,192,231801,128,0,231935:0:0:0:0:
192,192,231868,1,0,0:0:0:0:
320,192,231868,128,0,231935:0:0:0:0:
64,192,231935,128,0,232068:0:0:0:0:
448,192,232001,128,0,232068:0:0:0:0:
192,192,232046,128,0,232112:0:0:0:0:
320,192,232090,128,0,232157:0:0:0:0:
448,192,232135,128,0,232268:0:0:0:0:
64,192,232135,128,0,232268:0:0:0:0:
192,192,232201,128,0,232335:0:0:0:0:
320,192,232268,128,0,232335:0:0:0:0:
448,192,232335,128,0,232401:0:0:0:0:
192,192,232401,128,0,232468:0:0:0:0:
64,192,232401,128,0,232468:0:0:0:0:
320,192,232401,128,0,232468:0:0:0:0:
448,192,232535,128,0,232601:0:0:0:0:
192,192,232535,128,0,232601:0:0:0:0:
320,192,232535,128,0,232601:0:0:0:0:
192,192,232668,1,0,0:0:0:0:
448,192,232668,1,0,0:0:0:0:
64,192,232668,128,0,232801:0:0:0:0:
320,192,232735,128,0,232868:0:0:0:0:
192,192,232801,128,0,232935:0:0:0:0:
448,192,232868,128,0,233001:0:0:0:0:
320,192,232935,1,0,0:0:0:0:
64,192,232935,128,0,233068:0:0:0:0:
192,192,233001,128,0,233135:0:0:0:0:
320,192,233068,128,0,233201:0:0:0:0:
448,192,233135,128,0,233201:0:0:0:0:
64,192,233201,1,0,0:0:0:0:
192,192,233201,128,0,233268:0:0:0:0:
320,192,233268,128,0,233335:0:0:0:0:
64,192,233335,128,0,233401:0:0:0:0:
448,192,233401,128,0,233468:0:0:0:0:
320,192,233468,1,0,0:0:0:0:
192,192,233468,128,0,233601:0:0:0:0:
64,192,233535,128,0,233668:0:0:0:0:
448,192,233601,128,0,233735:0:0:0:0:
320,192,233668,128,0,233801:0:0:0:0:
192,192,233735,1,0,0:0:0:0:
64,192,233735,128,0,233801:0:0:0:0:
448,192,233801,128,0,233868:0:0:0:0:
192,192,233868,128,0,234001:0:0:0:0:
320,192,233935,128,0,234001:0:0:0:0:
448,192,234001,1,0,0:0:0:0:
64,192,234001,128,0,234135:0:0:0:0:
192,192,234068,128,0,234135:0:0:0:0:
448,192,234135,128,0,234201:0:0:0:0:
320,192,234179,128,0,234246:0:0:0:0:
192,192,234223,128,0,234290:0:0:0:0:
64,192,234268,128,0,234401:0:0:0:0:
448,192,234268,128,0,234401:0:0:0:0:
320,192,234335,128,0,234468:0:0:0:0:
192,192,234401,128,0,234468:0:0:0:0:
64,192,234468,128,0,234535:0:0:0:0:
192,192,234535,1,0,0:0:0:0:
320,192,234535,1,0,0:0:0:0:
448,192,234535,128,0,234668:0:0:0:0:
64,192,234601,128,0,234735:0:0:0:0:
192,192,234668,128,0,234735:0:0:0:0:
320,192,234735,128,0,234801:0:0:0:0:
64,192,234801,1,0,0:0:0:0:
448,192,234801,1,0,0:0:0:0:
192,192,234801,128,0,234935:0:0:0:0:
320,192,234868,128,0,235001:0:0:0:0:
64,192,234935,128,0,235001:0:0:0:0:
448,192,235001,128,0,235068:0:0:0:0:
192,192,235068,1,0,0:0:0:0:
320,192,235068,1,0,0:0:0:0:
64,192,235068,128,0,235201:0:0:0:0:
448,192,235135,128,0,235268:0:0:0:0:
320,192,235201,128,0,235268:0:0:0:0:
192,192,235268,128,0,235335:0:0:0:0:
64,192,235335,1,0,0:0:0:0:
448,192,235335,1,0,0:0:0:0:
320,192,235335,128,0,235535:0:0:0:0:
192,192,235401,128,0,235535:0:0:0:0:
448,192,235468,128,0,235535:0:0:0:0:
64,192,235535,128,0,235601:0:0:0:0:
192,192,235601,128,0,235668:0:0:0:0:
320,192,235601,128,0,235668:0:0:0:0:
448,192,235601,128,0,235668:0:0:0:0:
64,192,235801,128,0,235868:0:0:0:0:
192,192,235801,128,0,235868:0:0:0:0:
320,192,235801,128,0,235868:0:0:0:0:
64,192,236001,128,0,236068:0:0:0:0:
192,192,236001,128,0,236068:0:0:0:0:
448,192,236001,128,0,236068:0:0:0:0:
320,192,236068,128,0,236135:0:0:0:0:
192,192,236135,128,0,236201:0:0:0:0:
448,192,236201,128,0,236268:0:0:0:0:
320,192,236201,128,0,236268:0:0:0:0:
64,192,236201,128,0,236268:0:0:0:0:
192,192,236268,128,0,236335:0:0:0:0:
320,192,236335,128,0,236401:0:0:0:0:
448,192,236401,128,0,236468:0:0:0:0:
64,192,236401,128,0,236535:0:0:0:0:
192,192,236468,128,0,236601:0:0:0:0:
320,192,236535,128,0,236668:0:0:0:0:
448,192,236601,128,0,236668:0:0:0:0:
64,192,236668,128,0,236735:0:0:0:0:
448,192,236735,128,0,236801:0:0:0:0:
64,192,236801,128,0,236868:0:0:0:0:
448,192,236868,128,0,236935:0:0:0:0:
64,192,236935,128,0,237135:0:0:0:0:
192,192,236935,1,0,0:0:0:0:
320,192,236935,1,0,0:0:0:0:
448,192,237001,128,0,237135:0:0:0:0:
320,192,237068,128,0,237135:0:0:0:0:
192,192,237135,1,0,0:0:0:0:
448,192,237201,1,0,0:0:0:0:
64,192,237201,1,0,0:0:0:0:
192,192,237268,1,0,0:0:0:0:
320,192,237268,1,0,0:0:0:0:
64,192,237335,1,0,0:0:0:0:
448,192,237335,1,0,0:0:0:0:
320,192,237401,1,0,0:0:0:0:
192,192,237468,128,0,237535:0:0:0:0:
64,192,237468,128,0,237535:0:0:0:0:
448,192,237468,128,0,237535:0:0:0:0:
192,192,237601,128,0,237668:0:0:0:0:
320,192,237601,128,0,237668:0:0:0:0:
64,192,237735,128,0,237801:0:0:0:0:
320,192,237735,128,0,237801:0:0:0:0:
448,192,237735,128,0,237801:0:0:0:0:
192,192,237868,128,0,237935:0:0:0:0:
448,192,237868,128,0,238068:0:0:0:0:
64,192,237868,128,0,238068:0:0:0:0:
320,192,237935,128,0,238068:0:0:0:0:
192,192,238001,128,0,238068:0:0:0:0:
320,192,238135,128,0,238201:0:0:0:0:
64,192,238135,128,0,238335:0:0:0:0:
192,192,238135,128,0,238268:0:0:0:0:
448,192,238135,128,0,238335:0:0:0:0:
320,192,238268,1,0,0:0:0:0:
192,192,238335,1,0,0:0:0:0:
320,192,238401,128,0,238468:0:0:0:0:
448,192,238401,128,0,238468:0:0:0:0:
64,192,238401,128,0,238468:0:0:0:0:
192,192,238468,1,0,0:0:0:0:
320,192,238535,1,0,0:0:0:0:
64,192,238601,1,0,0:0:0:0:
320,192,238668,1,0,0:0:0:0:
448,192,238668,1,0,0:0:0:0:
64,192,238735,1,0,0:0:0:0:
192,192,238735,1,0,0:0:0:0:
320,192,238801,1,0,0:0:0:0:
448,192,238801,1,0,0:0:0:0:
192,192,238868,1,0,0:0:0:0:
448,192,238935,1,0,0:0:0:0:
320,192,239001,1,0,0:0:0:0:
64,192,239068,1,0,0:0:0:0:
192,192,239068,1,0,0:0:0:0:
448,192,239068,1,0,0:0:0:0:
320,192,239135,1,0,0:0:0:0:
64,192,239201,1,0,0:0:0:0:
192,192,239235,1,0,0:0:0:0:
320,192,239268,1,0,0:0:0:0:
448,192,239301,1,0,0:0:0:0:
64,192,239335,1,0,0:0:0:0:
192,192,239335,1,0,0:0:0:0:
320,192,239401,1,0,0:0:0:0:
64,192,239468,1,0,0:0:0:0:
448,192,239535,1,0,0:0:0:0:
320,192,239601,1,0,0:0:0:0:
192,192,239601,128,0,239801:0:0:0:0:
64,192,239668,128,0,239801:0:0:0:0:
448,192,239735,128,0,239801:0:0:0:0:
320,192,239801,1,0,0:0:0:0:
64,192,239868,128,0,240001:0:0:0:0:
192,192,239868,128,0,240001:0:0:0:0:
448,192,239868,128,0,240001:0:0:0:0:
320,192,239935,128,0,240001:0:0:0:0:
320,192,240068,128,0,240201:0:0:0:0:
192,192,240068,128,0,240201:0:0:0:0:
448,192,240068,128,0,240135:0:0:0:0:
64,192,240135,128,0,240201:0:0:0:0:
192,192,240268,128,0,240401:0:0:0:0:
64,192,240268,128,0,240335:0:0:0:0:
320,192,240268,128,0,240401:0:0:0:0:
448,192,240335,128,0,240401:0:0:0:0:
64,192,240535,128,0,240668:0:0:0:0:
192,192,240535,128,0,240601:0:0:0:0:
448,192,240535,128,0,240735:0:0:0:0:
320,192,240601,128,0,240735:0:0:0:0:
192,192,240668,128,0,240801:0:0:0:0:
64,192,240735,128,0,240801:0:0:0:0:
320,192,240801,128,0,240868:0:0:0:0:
448,192,240801,128,0,240868:0:0:0:0:
192,192,240868,128,0,240935:0:0:0:0:
64,192,240868,128,0,240935:0:0:0:0:
448,192,240935,128,0,240985:0:0:0:0:
320,192,240968,128,0,241018:0:0:0:0:
192,192,241001,128,0,241051:0:0:0:0:
64,192,241035,128,0,241085:0:0:0:0:
448,192,241068,128,0,241118:0:0:0:0:
320,192,241101,128,0,241151:0:0:0:0:
192,192,241135,128,0,241185:0:0:0:0:
64,192,241168,128,0,241218:0:0:0:0:
320,192,241201,128,0,241268:0:0:0:0:
448,192,241201,128,0,241268:0:0:0:0:
192,192,241268,128,0,241335:0:0:0:0:
64,192,241268,128,0,241335:0:0:0:0:
448,192,241335,128,0,241385:0:0:0:0:
320,192,241368,128,0,241418:0:0:0:0:
192,192,241401,128,0,241451:0:0:0:0:
64,192,241435,128,0,241485:0:0:0:0:
448,192,241468,128,0,241535:0:0:0:0:
320,192,241468,128,0,241535:0:0:0:0:
192,192,241535,128,0,241601:0:0:0:0:
64,192,241535,128,0,241601:0:0:0:0:
448,192,241601,128,0,241651:0:0:0:0:
320,192,241635,128,0,241685:0:0:0:0:
64,192,241668,128,0,241718:0:0:0:0:
192,192,241701,128,0,241751:0:0:0:0:
448,192,241735,128,0,241801:0:0:0:0:
320,192,241735,128,0,241801:0:0:0:0:
64,192,241801,128,0,241868:0:0:0:0:
192,192,241801,128,0,241868:0:0:0:0:
320,192,241868,128,0,241935:0:0:0:0:
448,192,241868,128,0,241935:0:0:0:0:
192,192,241935,128,0,242001:0:0:0:0:
64,192,241935,128,0,242001:0:0:0:0:
448,192,242001,128,0,242068:0:0:0:0:
320,192,242001,128,0,242068:0:0:0:0:
192,192,242068,128,0,242135:0:0:0:0:
64,192,242068,128,0,242135:0:0:0:0:
320,192,242135,128,0,242201:0:0:0:0:
448,192,242135,128,0,242201:0:0:0:0:
192,192,242201,128,0,242268:0:0:0:0:
64,192,242201,128,0,242268:0:0:0:0:
320,192,242268,128,0,242335:0:0:0:0:
448,192,242268,128,0,242335:0:0:0:0:
64,192,242335,128,0,242401:0:0:0:0:
192,192,242335,128,0,242401:0:0:0:0:
320,192,242401,128,0,242451:0:0:0:0:
448,192,242435,128,0,242485:0:0:0:0:
192,192,242468,128,0,242518:0:0:0:0:
64,192,242501,128,0,242551:0:0:0:0:
448,192,242535,128,0,242601:0:0:0:0:
320,192,242535,128,0,242601:0:0:0:0:
192,192,242601,128,0,242668:0:0:0:0:
64,192,242601,128,0,242668:0:0:0:0:
320,192,242668,128,0,242735:0:0:0:0:
448,192,242668,128,0,242735:0:0:0:0:
192,192,242735,128,0,242801:0:0:0:0:
64,192,242735,128,0,242801:0:0:0:0:
320,192,242801,128,0,242851:0:0:0:0:
448,192,242835,128,0,242885:0:0:0:0:
64,192,242868,128,0,242918:0:0:0:0:
192,192,242901,128,0,242951:0:0:0:0:
320,192,242935,128,0,242985:0:0:0:0:
448,192,242968,128,0,243018:0:0:0:0:
64,192,243001,128,0,243051:0:0:0:0:
192,192,243035,128,0,243085:0:0:0:0:
320,192,243068,128,0,243268:0:0:0:0:
448,192,243068,128,0,243268:0:0:0:0:
192,192,243135,128,0,243268:0:0:0:0:
64,192,243201,128,0,243268:0:0:0:0:
320,192,243335,1,0,0:0:0:0:
448,192,243335,1,0,0:0:0:0:
64,192,243335,1,0,0:0:0:0:
192,192,243468,128,0,243801:0:0:0:0:
64,192,243468,128,0,243801:0:0:0:0:
448,192,243468,1,0,0:0:0:0:
320,192,243535,128,0,243801:0:0:0:0:
448,192,243601,128,0,243801:0:0:0:0:
448,192,243868,1,0,0:0:0:0:
320,192,243868,1,0,0:0:0:0:
64,192,243868,1,0,0:0:0:0:
448,192,244001,1,0,0:0:0:0:
192,192,244001,128,0,244201:0:0:0:0:
320,192,244001,128,0,244201:0:0:0:0:
64,192,244068,128,0,244201:0:0:0:0:
448,192,244135,128,0,244201:0:0:0:0:
192,192,244268,1,0,0:0:0:0:
320,192,244268,1,0,0:0:0:0:
64,192,244268,1,0,0:0:0:0:
448,192,244401,1,0,0:0:0:0:
320,192,244401,1,0,0:0:0:0:
64,192,244401,1,0,0:0:0:0:
192,192,244535,1,0,0:0:0:0:
448,192,244535,1,0,0:0:0:0:
320,192,244601,1,0,0:0:0:0:
192,192,244668,1,0,0:0:0:0:
64,192,244668,1,0,0:0:0:0:
448,192,244668,128,0,245135:0:0:0:0:
320,192,244735,128,0,245068:0:0:0:0:
192,192,244801,128,0,245001:0:0:0:0:
64,192,244868,128,0,244935:0:0:0:0:
64,192,245001,128,0,245068:0:0:0:0:
192,192,245068,128,0,245135:0:0:0:0:
320,192,245135,128,0,245201:0:0:0:0:
64,192,245201,128,0,245401:0:0:0:0:
448,192,245201,128,0,245401:0:0:0:0:
192,192,245268,128,0,245401:0:0:0:0:
320,192,245335,128,0,245401:0:0:0:0:
64,192,245468,1,0,0:0:0:0:
448,192,245468,1,0,0:0:0:0:
320,192,245468,1,0,0:0:0:0:
192,192,245601,1,0,0:0:0:0:
64,192,245601,128,0,245935:0:0:0:0:
448,192,245601,128,0,245935:0:0:0:0:
320,192,245668,128,0,245868:0:0:0:0:
192,192,245735,128,0,245801:0:0:0:0:
192,192,245868,128,0,246001:0:0:0:0:
320,192,245935,128,0,246068:0:0:0:0:
64,192,246001,1,0,0:0:0:0:
448,192,246001,1,0,0:0:0:0:
192,192,246068,1,0,0:0:0:0:
64,192,246135,128,0,246201:0:0:0:0:
320,192,246135,128,0,246201:0:0:0:0:
448,192,246135,128,0,246201:0:0:0:0:
192,192,246268,1,0,0:0:0:0:
320,192,246268,1,0,0:0:0:0:
448,192,246401,128,0,246468:0:0:0:0:
64,192,246401,128,0,246468:0:0:0:0:
192,192,246401,128,0,246468:0:0:0:0:
320,192,246468,1,0,0:0:0:0:
64,192,246535,1,0,0:0:0:0:
192,192,246535,1,0,0:0:0:0:
448,192,246535,1,0,0:0:0:0:
448,192,246668,1,0,0:0:0:0:
64,192,246668,1,0,0:0:0:0:
192,192,246735,1,0,0:0:0:0:
320,192,246735,1,0,0:0:0:0:
64,192,246801,128,0,246935:0:0:0:0:
448,192,246801,128,0,246935:0:0:0:0:
192,192,246868,128,0,247068:0:0:0:0:
320,192,246935,128,0,247001:0:0:0:0:
448,192,247001,128,0,247135:0:0:0:0:
64,192,247001,128,0,247135:0:0:0:0:
320,192,247068,128,0,247201:0:0:0:0:
192,192,247135,128,0,247268:0:0:0:0:
64,192,247201,128,0,247335:0:0:0:0:
448,192,247201,128,0,247268:0:0:0:0:
448,192,247335,1,0,0:0:0:0:
320,192,247335,128,0,247535:0:0:0:0:
192,192,247335,128,0,247535:0:0:0:0:
64,192,247401,128,0,247535:0:0:0:0:
448,192,247468,128,0,247535:0:0:0:0:
64,192,247601,1,0,0:0:0:0:
192,192,247601,1,0,0:0:0:0:
448,192,247601,1,0,0:0:0:0:
64,192,247735,1,0,0:0:0:0:
320,192,247735,128,0,248068:0:0:0:0:
192,192,247735,128,0,248068:0:0:0:0:
448,192,247801,128,0,248068:0:0:0:0:
64,192,247868,128,0,248068:0:0:0:0:
64,192,248135,1,0,0:0:0:0:
448,192,248135,1,0,0:0:0:0:
320,192,248135,1,0,0:0:0:0:
448,192,248268,128,0,248335:0:0:0:0:
64,192,248268,128,0,248335:0:0:0:0:
192,192,248268,128,0,248335:0:0:0:0:
192,192,248401,1,0,0:0:0:0:
320,192,248401,1,0,0:0:0:0:
64,192,248535,128,0,248601:0:0:0:0:
448,192,248535,128,0,248601:0:0:0:0:
320,192,248535,128,0,248601:0:0:0:0:
192,192,248601,1,0,0:0:0:0:
448,192,248668,1,0,0:0:0:0:
64,192,248668,1,0,0:0:0:0:
320,192,248668,1,0,0:0:0:0:
64,192,248801,1,0,0:0:0:0:
192,192,248801,1,0,0:0:0:0:
448,192,248868,1,0,0:0:0:0:
320,192,248868,1,0,0:0:0:0:
64,192,248935,1,0,0:0:0:0:
192,192,248935,1,0,0:0:0:0:
448,192,249068,128,0,249268:0:0:0:0:
320,192,249068,128,0,249201:0:0:0:0:
192,192,249135,128,0,249401:0:0:0:0:
64,192,249201,128,0,249401:0:0:0:0:
320,192,249268,128,0,249401:0:0:0:0:
448,192,249335,128,0,249401:0:0:0:0:
64,192,249468,128,0,249668:0:0:0:0:
192,192,249468,128,0,249601:0:0:0:0:
320,192,249468,128,0,249535:0:0:0:0:
448,192,249468,128,0,249668:0:0:0:0:
320,192,249601,128,0,249735:0:0:0:0:
192,192,249668,128,0,249801:0:0:0:0:
64,192,249735,128,0,249801:0:0:0:0:
448,192,249868,128,0,250335:0:0:0:0:
192,192,249868,128,0,250135:0:0:0:0:
320,192,249868,128,0,250068:0:0:0:0:
64,192,249868,128,0,250335:0:0:0:0:
320,192,250135,128,0,250201:0:0:0:0:
192,192,250201,128,0,250268:0:0:0:0:
320,192,250268,128,0,250335:0:0:0:0:
192,192,250335,128,0,250401:0:0:0:0:
448,192,250401,5,0,0:0:0:0:
64,192,250401,1,0,0:0:0:0:
320,192,250468,1,0,0:0:0:0:
64,192,250535,128,0,250601:0:0:0:0:
192,192,250535,128,0,250601:0:0:0:0:
320,192,250601,128,0,250668:0:0:0:0:
448,192,250601,128,0,250668:0:0:0:0:
192,192,250668,1,0,0:0:0:0:
64,192,250668,1,0,0:0:0:0:
320,192,250735,1,0,0:0:0:0:
448,192,250735,1,0,0:0:0:0:
192,192,250801,128,0,250868:0:0:0:0:
64,192,250801,128,0,250868:0:0:0:0:
320,192,250868,128,0,250935:0:0:0:0:
448,192,250868,128,0,250935:0:0:0:0:
64,192,250935,1,0,0:0:0:0:
192,192,250935,1,0,0:0:0:0:
320,192,251001,1,0,0:0:0:0:
448,192,251001,1,0,0:0:0:0:
64,192,251068,128,0,251135:0:0:0:0:
192,192,251068,128,0,251135:0:0:0:0:
320,192,251135,128,0,251201:0:0:0:0:
448,192,251135,128,0,251201:0:0:0:0:
64,192,251201,1,0,0:0:0:0:
192,192,251201,1,0,0:0:0:0:
320,192,251268,1,0,0:0:0:0:
448,192,251268,1,0,0:0:0:0:
64,192,251335,128,0,251401:0:0:0:0:
192,192,251335,128,0,251401:0:0:0:0:
320,192,251401,128,0,251468:0:0:0:0:
448,192,251401,128,0,251468:0:0:0:0:
192,192,251468,128,0,251535:0:0:0:0:
64,192,251468,128,0,251535:0:0:0:0:
320,192,251535,128,0,251601:0:0:0:0:
448,192,251535,128,0,251601:0:0:0:0:
64,192,251601,128,0,251668:0:0:0:0:
192,192,251601,128,0,251668:0:0:0:0:
320,192,251668,128,0,251735:0:0:0:0:
448,192,251668,128,0,251735:0:0:0:0:
192,192,251735,128,0,251801:0:0:0:0:
64,192,251735,128,0,251801:0:0:0:0:
448,192,251801,128,0,251868:0:0:0:0:
320,192,251801,128,0,251868:0:0:0:0:
64,192,251868,128,0,251935:0:0:0:0:
192,192,251868,128,0,251935:0:0:0:0:
320,192,251935,128,0,252001:0:0:0:0:
448,192,251935,128,0,252001:0:0:0:0:
192,192,252001,128,0,252068:0:0:0:0:
64,192,252001,128,0,252068:0:0:0:0:
448,192,252068,128,0,252135:0:0:0:0:
320,192,252068,128,0,252135:0:0:0:0:
192,192,252135,128,0,252201:0:0:0:0:
64,192,252135,128,0,252201:0:0:0:0:
320,192,252201,128,0,252268:0:0:0:0:
448,192,252201,128,0,252268:0:0:0:0:
64,192,252268,128,0,252335:0:0:0:0:
192,192,252268,128,0,252335:0:0:0:0:
320,192,252335,128,0,252401:0:0:0:0:
448,192,252335,128,0,252401:0:0:0:0:
64,192,252401,128,0,252468:0:0:0:0:
192,192,252435,128,0,252501:0:0:0:0:
320,192,252468,128,0,252535:0:0:0:0:
448,192,252501,128,0,252568:0:0:0:0:
64,192,252535,128,0,252601:0:0:0:0:
192,192,252568,128,0,252635:0:0:0:0:
320,192,252601,128,0,252668:0:0:0:0:
448,192,252635,128,0,252701:0:0:0:0:
64,192,252668,128,0,253801:0:0:0:0:
448,192,253601,128,0,254001:0:0:0:0:
192,192,253735,1,0,0:0:0:0:
320,192,253801,1,0,0:0:0:0:
64,192,253868,128,0,254468:0:0:0:0:
192,192,253935,1,0,0:0:0:0:
320,192,254001,1,0,0:0:0:0:
448,192,254068,128,0,254468:0:0:0:0:
192,192,254135,1,0,0:0:0:0:
320,192,254201,128,0,254468:0:0:0:0:
192,192,254335,128,0,254468:0:0:0:0:
64,192,254535,128,0,254601:0:0:0:0:
192,192,254535,128,0,254601:0:0:0:0:
320,192,254535,128,0,254601:0:0:0:0:
448,192,254535,128,0,254601:0:0:0:0:
64,192,254801,128,0,254868:0:0:0:0:
448,192,254801,128,0,254868:0:0:0:0:
192,192,254801,128,0,254868:0:0:0:0:
64,192,254935,128,0,255001:0:0:0:0:
192,192,254935,128,0,255001:0:0:0:0:
448,192,254935,128,0,255001:0:0:0:0:
64,192,255068,128,0,255135:0:0:0:0:
192,192,255068,128,0,255135:0:0:0:0:
448,192,255068,128,0,255135:0:0:0:0:
64,192,255201,128,0,255268:0:0:0:0:
192,192,255201,128,0,255268:0:0:0:0:
448,192,255201,128,0,255268:0:0:0:0:
192,192,255335,128,0,255401:0:0:0:0:
64,192,255335,128,0,255401:0:0:0:0:
448,192,255335,128,0,255401:0:0:0:0:
320,192,255401,1,0,0:0:0:0:
192,192,255468,1,0,0:0:0:0:
320,192,255535,1,0,0:0:0:0:
64,192,255601,128,0,255668:0:0:0:0:
192,192,255601,128,0,255668:0:0:0:0:
448,192,255601,128,0,255668:0:0:0:0:
320,192,255668,1,0,0:0:0:0:
64,192,255735,1,0,0:0:0:0:
192,192,255801,1,0,0:0:0:0:
64,192,255868,128,0,255935:0:0:0:0:
448,192,255868,128,0,255935:0:0:0:0:
320,192,255868,128,0,255935:0:0:0:0:
320,192,256001,128,0,256068:0:0:0:0:
192,192,256001,128,0,256068:0:0:0:0:
64,192,256001,128,0,256068:0:0:0:0:
192,192,256135,128,0,256201:0:0:0:0:
320,192,256135,128,0,256201:0:0:0:0:
448,192,256135,128,0,256201:0:0:0:0:
64,192,256201,1,0,0:0:0:0:
448,192,256268,1,0,0:0:0:0:
64,192,256335,1,0,0:0:0:0:
192,192,256401,128,0,256468:0:0:0:0:
320,192,256401,128,0,256468:0:0:0:0:
448,192,256401,128,0,256468:0:0:0:0:
320,192,256535,128,0,256601:0:0:0:0:
192,192,256535,128,0,256601:0:0:0:0:
64,192,256535,128,0,256601:0:0:0:0:
64,192,256668,128,0,256735:0:0:0:0:
320,192,256668,128,0,256735:0:0:0:0:
448,192,256668,128,0,256735:0:0:0:0:
192,192,256735,1,0,0:0:0:0:
448,192,256801,1,0,0:0:0:0:
320,192,256846,1,0,0:0:0:0:
192,192,256890,1,0,0:0:0:0:
448,192,256935,128,0,257001:0:0:0:0:
64,192,256935,128,0,257001:0:0:0:0:
192,192,257001,128,0,257068:0:0:0:0:
320,192,257001,128,0,257068:0:0:0:0:
64,192,257068,1,0,0:0:0:0:
448,192,257135,128,0,257201:0:0:0:0:
320,192,257135,128,0,257201:0:0:0:0:
192,192,257201,128,0,257268:0:0:0:0:
64,192,257201,128,0,257268:0:0:0:0:
448,192,257268,1,0,0:0:0:0:
320,192,257335,1,0,0:0:0:0:
192,192,257401,1,0,0:0:0:0:
64,192,257468,128,0,257535:0:0:0:0:
320,192,257468,128,0,257535:0:0:0:0:
448,192,257468,128,0,257535:0:0:0:0:
448,192,257601,128,0,257668:0:0:0:0:
192,192,257601,128,0,257668:0:0:0:0:
64,192,257601,128,0,257668:0:0:0:0:
448,192,257735,1,0,0:0:0:0:
320,192,257735,128,0,257801:0:0:0:0:
192,192,257735,128,0,257801:0:0:0:0:
64,192,257868,1,0,0:0:0:0:
320,192,257868,128,0,257935:0:0:0:0:
192,192,257868,128,0,257935:0:0:0:0:
320,192,258001,128,0,258068:0:0:0:0:
448,192,258001,128,0,258068:0:0:0:0:
64,192,258001,128,0,258068:0:0:0:0:
192,192,258068,1,0,0:0:0:0:
320,192,258135,1,0,0:0:0:0:
64,192,258201,128,0,258268:0:0:0:0:
192,192,258201,128,0,258268:0:0:0:0:
448,192,258201,128,0,258268:0:0:0:0:
320,192,258268,1,0,0:0:0:0:
192,192,258335,1,0,0:0:0:0:
64,192,258401,128,0,258468:0:0:0:0:
320,192,258401,128,0,258468:0:0:0:0:
448,192,258401,128,0,258468:0:0:0:0:
192,192,258468,1,0,0:0:0:0:
320,192,258535,1,0,0:0:0:0:
448,192,258601,128,0,258668:0:0:0:0:
192,192,258601,128,0,258668:0:0:0:0:
64,192,258601,128,0,258668:0:0:0:0:
320,192,258668,1,0,0:0:0:0:
192,192,258735,1,0,0:0:0:0:
448,192,258801,128,0,258935:0:0:0:0:
64,192,258801,128,0,259001:0:0:0:0:
320,192,258801,128,0,258868:0:0:0:0:
192,192,258868,128,0,259001:0:0:0:0:
320,192,258935,128,0,259068:0:0:0:0:
448,192,259001,128,0,259068:0:0:0:0:
192,192,259068,128,0,259201:0:0:0:0:
64,192,259068,128,0,259201:0:0:0:0:
320,192,259201,1,0,0:0:0:0:
448,192,259201,1,0,0:0:0:0:
64,192,259268,1,0,0:0:0:0:
192,192,259268,1,0,0:0:0:0:
320,192,259335,128,0,259401:0:0:0:0:
448,192,259335,128,0,259401:0:0:0:0:
192,192,259401,1,0,0:0:0:0:
64,192,259468,1,0,0:0:0:0:
448,192,259535,1,0,0:0:0:0:
320,192,259601,128,0,259668:0:0:0:0:
192,192,259601,128,0,259668:0:0:0:0:
64,192,259601,128,0,259668:0:0:0:0:
448,192,259668,1,0,0:0:0:0:
192,192,259735,1,0,0:0:0:0:
320,192,259801,1,0,0:0:0:0:
64,192,259868,128,0,259935:0:0:0:0:
192,192,259868,128,0,259935:0:0:0:0:
448,192,259868,128,0,259935:0:0:0:0:
448,192,260001,128,0,260068:0:0:0:0:
320,192,260001,128,0,260068:0:0:0:0:
64,192,260001,128,0,260068:0:0:0:0:
192,192,260135,128,0,260201:0:0:0:0:
448,192,260135,128,0,260201:0:0:0:0:
64,192,260201,128,0,260268:0:0:0:0:
320,192,260201,128,0,260268:0:0:0:0:
448,192,260268,128,0,260335:0:0:0:0:
192,192,260268,128,0,260335:0:0:0:0:
320,192,260335,128,0,260401:0:0:0:0:
64,192,260401,128,0,260468:0:0:0:0:
192,192,260401,128,0,260468:0:0:0:0:
448,192,260401,128,0,260468:0:0:0:0:
320,192,260535,1,0,0:0:0:0:
64,192,260601,1,0,0:0:0:0:
192,192,260601,1,0,0:0:0:0:
448,192,260668,1,0,0:0:0:0:
320,192,260701,1,0,0:0:0:0:
192,192,260735,1,0,0:0:0:0:
64,192,260768,1,0,0:0:0:0:
448,192,260801,1,0,0:0:0:0:
320,192,260801,1,0,0:0:0:0:
192,192,260868,1,0,0:0:0:0:
320,192,260935,128,0,261001:0:0:0:0:
448,192,260935,128,0,261001:0:0:0:0:
64,192,260935,128,0,261001:0:0:0:0:
64,192,261068,128,0,261135:0:0:0:0:
192,192,261068,128,0,261135:0:0:0:0:
448,192,261068,128,0,261135:0:0:0:0:
64,192,261201,128,0,261268:0:0:0:0:
192,192,261201,128,0,261268:0:0:0:0:
320,192,261201,128,0,261268:0:0:0:0:
448,192,261201,128,0,261268:0:0:0:0:
320,192,261335,128,0,261401:0:0:0:0:
448,192,261335,128,0,261401:0:0:0:0:
64,192,261335,128,0,261401:0:0:0:0:
192,192,261468,1,0,0:0:0:0:
320,192,261468,1,0,0:0:0:0:
448,192,261535,1,0,0:0:0:0:
64,192,261601,1,0,0:0:0:0:
192,192,261668,1,0,0:0:0:0:
64,192,261735,128,0,261801:0:0:0:0:
320,192,261735,128,0,261801:0:0:0:0:
448,192,261735,128,0,261801:0:0:0:0:
448,192,261868,128,0,261935:0:0:0:0:
320,192,261868,128,0,261935:0:0:0:0:
192,192,261868,128,0,261935:0:0:0:0:
64,192,261935,1,0,0:0:0:0:
192,192,262001,1,0,0:0:0:0:
320,192,262001,1,0,0:0:0:0:
448,192,262068,1,0,0:0:0:0:
64,192,262135,1,0,0:0:0:0:
192,192,262201,5,0,0:0:0:0:
320,192,262268,128,0,262335:0:0:0:0:
64,192,262268,128,0,262335:0:0:0:0:
448,192,262268,128,0,262335:0:0:0:0:
192,192,262335,1,0,0:0:0:0:
448,192,262401,128,0,262535:0:0:0:0:
64,192,262401,128,0,262468:0:0:0:0:
320,192,262468,128,0,262601:0:0:0:0:
192,192,262535,128,0,262668:0:0:0:0:
64,192,262601,128,0,262668:0:0:0:0:
320,192,262668,128,0,262735:0:0:0:0:
64,192,262735,128,0,262801:0:0:0:0:
448,192,262735,128,0,262801:0:0:0:0:
192,192,262801,128,0,262868:0:0:0:0:
64,192,262868,128,0,262935:0:0:0:0:
448,192,262868,128,0,263001:0:0:0:0:
320,192,262935,128,0,263068:0:0:0:0:
192,192,263001,128,0,263135:0:0:0:0:
64,192,263068,128,0,263201:0:0:0:0:
448,192,263135,128,0,263268:0:0:0:0:
320,192,263201,128,0,263335:0:0:0:0:
192,192,263268,128,0,263335:0:0:0:0:
448,192,263335,5,0,0:0:0:0:
64,192,263335,1,0,0:0:0:0:
320,192,263401,1,0,0:0:0:0:
192,192,263401,1,0,0:0:0:0:
64,192,263468,1,0,0:0:0:0:
448,192,263468,1,0,0:0:0:0:
320,192,263535,1,0,0:0:0:0:
192,192,263535,1,0,0:0:0:0:
64,192,263601,1,0,0:0:0:0:
448,192,263601,1,0,0:0:0:0:
192,192,263668,1,0,0:0:0:0:
320,192,263668,1,0,0:0:0:0:
448,192,263735,1,0,0:0:0:0:
64,192,263735,1,0,0:0:0:0:
320,192,263768,1,0,0:0:0:0:
192,192,263801,1,0,0:0:0:0:
64,192,263835,1,0,0:0:0:0:
320,192,263868,1,0,0:0:0:0:
448,192,263868,1,0,0:0:0:0:
64,192,263935,1,0,0:0:0:0:
192,192,263935,1,0,0:0:0:0:
320,192,264001,1,0,0:0:0:0:
448,192,264001,1,0,0:0:0:0:
64,192,264068,1,0,0:0:0:0:
192,192,264068,1,0,0:0:0:0:
448,192,264135,1,0,0:0:0:0:
320,192,264135,1,0,0:0:0:0:
64,192,264168,1,0,0:0:0:0:
192,192,264201,1,0,0:0:0:0:
320,192,264235,1,0,0:0:0:0:
448,192,264268,1,0,0:0:0:0:
64,192,264301,1,0,0:0:0:0:
192,192,264335,1,0,0:0:0:0:
320,192,264368,1,0,0:0:0:0:
64,192,264401,128,0,264601:0:0:0:0:
448,192,264401,128,0,264601:0:0:0:0:
192,192,264468,128,0,264601:0:0:0:0:
320,192,264535,128,0,264601:0:0:0:0:
64,192,264668,1,0,0:0:0:0:
448,192,264668,1,0,0:0:0:0:
192,192,264735,1,0,0:0:0:0:
320,192,264735,1,0,0:0:0:0:
64,192,264801,1,0,0:0:0:0:
448,192,264801,1,0,0:0:0:0:
192,192,264868,1,0,0:0:0:0:
320,192,264935,128,0,265001:0:0:0:0:
448,192,264935,128,0,265001:0:0:0:0:
64,192,264935,128,0,265001:0:0:0:0:
64,192,265068,128,0,265135:0:0:0:0:
448,192,265068,128,0,265135:0:0:0:0:
320,192,265068,128,0,265135:0:0:0:0:
64,192,265201,128,0,265268:0:0:0:0:
320,192,265201,128,0,265268:0:0:0:0:
448,192,265201,128,0,265268:0:0:0:0:
192,192,265335,128,0,265435:0:0:0:0:
320,192,265401,128,0,265468:0:0:0:0:
64,192,265468,1,0,0:0:0:0:
448,192,265468,1,0,0:0:0:0:
192,192,265501,1,0,0:0:0:0:
320,192,265535,1,0,0:0:0:0:
448,192,265568,1,0,0:0:0:0:
64,192,265601,1,0,0:0:0:0:
192,192,265635,1,0,0:0:0:0:
320,192,265668,1,0,0:0:0:0:
448,192,265701,1,0,0:0:0:0:
64,192,265735,1,0,0:0:0:0:
192,192,265735,1,0,0:0:0:0:
320,192,265801,1,0,0:0:0:0:
448,192,265801,1,0,0:0:0:0:
64,192,265868,1,0,0:0:0:0:
192,192,265901,1,0,0:0:0:0:
448,192,265935,1,0,0:0:0:0:
320,192,265968,1,0,0:0:0:0:
64,192,266001,1,0,0:0:0:0:
192,192,266001,1,0,0:0:0:0:
320,192,266068,1,0,0:0:0:0:
448,192,266068,1,0,0:0:0:0:
64,192,266135,1,0,0:0:0:0:
192,192,266135,1,0,0:0:0:0:
320,192,266201,1,0,0:0:0:0:
448,192,266201,1,0,0:0:0:0:
64,192,266268,128,0,266401:0:0:0:0:
192,192,266268,128,0,266468:0:0:0:0:
320,192,266335,128,0,266468:0:0:0:0:
448,192,266401,128,0,266468:0:0:0:0:
64,192,266468,1,0,0:0:0:0:
192,192,266535,1,0,0:0:0:0:
320,192,266535,1,0,0:0:0:0:
448,192,266535,1,0,0:0:0:0:
320,192,266668,1,0,0:0:0:0:
448,192,266668,1,0,0:0:0:0:
64,192,266701,1,0,0:0:0:0:
192,192,266735,1,0,0:0:0:0:
320,192,266768,1,0,0:0:0:0:
448,192,266801,1,0,0:0:0:0:
64,192,266801,1,0,0:0:0:0:
64,192,266935,1,0,0:0:0:0:
192,192,266935,1,0,0:0:0:0:
448,192,266968,1,0,0:0:0:0:
320,192,267001,1,0,0:0:0:0:
192,192,267035,1,0,0:0:0:0:
448,192,267068,128,0,267268:0:0:0:0:
64,192,267068,128,0,267268:0:0:0:0:
320,192,267135,128,0,267268:0:0:0:0:
192,192,267201,128,0,267268:0:0:0:0:
64,192,267335,1,0,0:0:0:0:
448,192,267335,1,0,0:0:0:0:
192,192,267379,1,0,0:0:0:0:
320,192,267423,1,0,0:0:0:0:
448,192,267468,1,0,0:0:0:0:
192,192,267512,1,0,0:0:0:0:
320,192,267557,1,0,0:0:0:0:
64,192,267601,128,0,267735:0:0:0:0:
448,192,267601,128,0,267735:0:0:0:0:
192,192,267668,128,0,267801:0:0:0:0:
320,192,267735,128,0,267868:0:0:0:0:
448,192,267801,128,0,267868:0:0:0:0:
64,192,267868,1,0,0:0:0:0:
192,192,267868,1,0,0:0:0:0:
320,192,267935,1,0,0:0:0:0:
448,192,267935,1,0,0:0:0:0:
64,192,268001,1,0,0:0:0:0:
192,192,268001,1,0,0:0:0:0:
320,192,268068,1,0,0:0:0:0:
448,192,268135,128,0,268201:0:0:0:0:
192,192,268135,128,0,268201:0:0:0:0:
64,192,268135,128,0,268201:0:0:0:0:
64,192,268268,128,0,268335:0:0:0:0:
192,192,268268,128,0,268335:0:0:0:0:
448,192,268268,128,0,268335:0:0:0:0:
448,192,268401,128,0,268468:0:0:0:0:
192,192,268401,128,0,268468:0:0:0:0:
64,192,268401,128,0,268468:0:0:0:0:
320,192,268535,128,0,268668:0:0:0:0:
192,192,268601,128,0,268668:0:0:0:0:
64,192,268668,1,0,0:0:0:0:
448,192,268668,1,0,0:0:0:0:
192,192,268735,1,0,0:0:0:0:
320,192,268735,1,0,0:0:0:0:
64,192,268801,1,0,0:0:0:0:
448,192,268801,1,0,0:0:0:0:
192,192,268868,1,0,0:0:0:0:
320,192,268868,1,0,0:0:0:0:
64,192,268935,1,0,0:0:0:0:
320,192,269001,1,0,0:0:0:0:
448,192,269001,1,0,0:0:0:0:
192,192,269068,1,0,0:0:0:0:
64,192,269068,1,0,0:0:0:0:
448,192,269135,1,0,0:0:0:0:
320,192,269135,1,0,0:0:0:0:
192,192,269201,1,0,0:0:0:0:
64,192,269201,1,0,0:0:0:0:
64,192,269290,1,0,0:0:0:0:
192,192,269290,1,0,0:0:0:0:
320,192,269379,1,0,0:0:0:0:
448,192,269379,1,0,0:0:0:0:
64,192,269468,1,0,0:0:0:0:
192,192,269468,1,0,0:0:0:0:
320,192,269557,1,0,0:0:0:0:
192,192,269557,1,0,0:0:0:0:
320,192,269646,1,0,0:0:0:0:
448,192,269646,1,0,0:0:0:0:
64,192,269735,128,0,269935:0:0:0:0:
192,192,269735,128,0,269868:0:0:0:0:
448,192,269735,128,0,269935:0:0:0:0:
320,192,269868,1,0,0:0:0:0:
192,192,269935,1,0,0:0:0:0:
64,192,270001,1,0,0:0:0:0:
448,192,270001,1,0,0:0:0:0:
320,192,270068,1,0,0:0:0:0:
192,192,270135,128,0,270268:0:0:0:0:
64,192,270135,128,0,270335:0:0:0:0:
448,192,270135,128,0,270335:0:0:0:0:
320,192,270268,1,0,0:0:0:0:
192,192,270335,1,0,0:0:0:0:
448,192,270401,1,0,0:0:0:0:
64,192,270401,1,0,0:0:0:0:
320,192,270468,1,0,0:0:0:0:
192,192,270535,128,0,270601:0:0:0:0:
64,192,270535,128,0,270668:0:0:0:0:
448,192,270535,128,0,270735:0:0:0:0:
320,192,270601,1,0,0:0:0:0:
192,192,270668,1,0,0:0:0:0:
64,192,270735,1,0,0:0:0:0:
448,192,270801,1,0,0:0:0:0:
320,192,270801,1,0,0:0:0:0:
64,192,270868,1,0,0:0:0:0:
192,192,270868,1,0,0:0:0:0:
320,192,270935,1,0,0:0:0:0:
448,192,270935,1,0,0:0:0:0:
192,192,271001,1,0,0:0:0:0:
320,192,271068,1,0,0:0:0:0:
448,192,271068,1,0,0:0:0:0:
64,192,271068,128,0,271201:0:0:0:0:
192,192,271135,128,0,271201:0:0:0:0:
448,192,271201,128,0,271335:0:0:0:0:
320,192,271268,128,0,271335:0:0:0:0:
64,192,271335,128,0,271401:0:0:0:0:
192,192,271335,128,0,271468:0:0:0:0:
320,192,271401,128,0,271535:0:0:0:0:
448,192,271468,128,0,271535:0:0:0:0:
64,192,271468,128,0,271601:0:0:0:0:
192,192,271535,128,0,271668:0:0:0:0:
320,192,271601,128,0,271668:0:0:0:0:
448,192,271601,128,0,271735:0:0:0:0:
64,192,271668,128,0,271801:0:0:0:0:
192,192,271735,128,0,271801:0:0:0:0:
320,192,271735,128,0,271868:0:0:0:0:
448,192,271801,128,0,271935:0:0:0:0:
64,192,271868,128,0,271935:0:0:0:0:
192,192,271868,128,0,272001:0:0:0:0:
320,192,271935,128,0,272068:0:0:0:0:
448,192,272001,128,0,272068:0:0:0:0:
64,192,272001,128,0,272135:0:0:0:0:
192,192,272068,128,0,272135:0:0:0:0:
320,192,272135,128,0,272201:0:0:0:0:
448,192,272135,128,0,272201:0:0:0:0:
192,192,272201,128,0,272268:0:0:0:0:
64,192,272201,128,0,272268:0:0:0:0:
320,192,272268,128,0,272335:0:0:0:0:
448,192,272268,128,0,272335:0:0:0:0:
192,192,272335,128,0,272401:0:0:0:0:
320,192,272401,1,0,0:0:0:0:
448,192,272401,1,0,0:0:0:0:
64,192,272401,1,0,0:0:0:0:
64,192,272535,128,0,272601:0:0:0:0:
448,192,272535,128,0,272601:0:0:0:0:
320,192,272601,128,0,272668:0:0:0:0:
192,192,272601,128,0,272668:0:0:0:0:
64,192,272668,128,0,272735:0:0:0:0:
448,192,272668,128,0,272735:0:0:0:0:
320,192,272735,128,0,272801:0:0:0:0:
64,192,272801,1,0,0:0:0:0:
192,192,272801,1,0,0:0:0:0:
448,192,272801,1,0,0:0:0:0:
64,192,272935,128,0,273001:0:0:0:0:
192,192,272935,128,0,273001:0:0:0:0:
320,192,273001,128,0,273068:0:0:0:0:
448,192,273001,128,0,273068:0:0:0:0:
192,192,273068,128,0,273135:0:0:0:0:
64,192,273068,128,0,273135:0:0:0:0:
320,192,273135,128,0,273201:0:0:0:0:
448,192,273201,1,0,0:0:0:0:
192,192,273201,1,0,0:0:0:0:
64,192,273201,1,0,0:0:0:0:
448,192,273335,128,0,273401:0:0:0:0:
64,192,273335,128,0,273401:0:0:0:0:
192,192,273401,128,0,273468:0:0:0:0:
320,192,273401,128,0,273468:0:0:0:0:
448,192,273468,128,0,273535:0:0:0:0:
64,192,273468,128,0,273535:0:0:0:0:
192,192,273535,128,0,273601:0:0:0:0:
64,192,273601,1,0,0:0:0:0:
320,192,273601,1,0,0:0:0:0:
448,192,273601,1,0,0:0:0:0:
320,192,273735,128,0,273801:0:0:0:0:
448,192,273735,128,0,273801:0:0:0:0:
192,192,273801,128,0,273868:0:0:0:0:
64,192,273801,128,0,273868:0:0:0:0:
320,192,273868,128,0,273935:0:0:0:0:
448,192,273868,128,0,273935:0:0:0:0:
64,192,273935,128,0,274101:0:0:0:0:
192,192,273935,128,0,274135:0:0:0:0:
320,192,274001,128,0,274168:0:0:0:0:
448,192,274001,128,0,274201:0:0:0:0:
192,192,274268,128,0,274335:0:0:0:0:
64,192,274268,128,0,274335:0:0:0:0:
320,192,274335,128,0,274401:0:0:0:0:
448,192,274335,128,0,274401:0:0:0:0:
192,192,274401,128,0,274468:0:0:0:0:
64,192,274401,128,0,274468:0:0:0:0:
320,192,274468,128,0,274535:0:0:0:0:
192,192,274535,1,0,0:0:0:0:
64,192,274535,1,0,0:0:0:0:
448,192,274535,1,0,0:0:0:0:
448,192,274668,128,0,274735:0:0:0:0:
64,192,274668,128,0,274735:0:0:0:0:
192,192,274735,128,0,274801:0:0:0:0:
320,192,274735,128,0,274801:0:0:0:0:
448,192,274801,128,0,274868:0:0:0:0:
64,192,274801,128,0,274868:0:0:0:0:
192,192,274868,128,0,274935:0:0:0:0:
448,192,274935,1,0,0:0:0:0:
320,192,274935,1,0,0:0:0:0:
64,192,274935,1,0,0:0:0:0:
448,192,275068,128,0,275135:0:0:0:0:
320,192,275068,128,0,275135:0:0:0:0:
192,192,275135,128,0,275201:0:0:0:0:
64,192,275135,128,0,275201:0:0:0:0:
320,192,275201,128,0,275268:0:0:0:0:
448,192,275201,128,0,275268:0:0:0:0:
192,192,275268,128,0,275335:0:0:0:0:
64,192,275335,1,0,0:0:0:0:
320,192,275335,1,0,0:0:0:0:
448,192,275335,1,0,0:0:0:0:
64,192,275468,128,0,275535:0:0:0:0:
448,192,275468,128,0,275535:0:0:0:0:
320,192,275535,128,0,275601:0:0:0:0:
192,192,275535,128,0,275601:0:0:0:0:
64,192,275601,128,0,275668:0:0:0:0:
448,192,275601,128,0,275868:0:0:0:0:
192,192,275779,128,0,275868:0:0:0:0:
64,192,275779,128,0,276046:0:0:0:0:
320,192,275957,128,0,276046:0:0:0:0:
448,192,275957,128,0,276046:0:0:0:0:
448,192,276135,128,0,276335:0:0:0:0:
192,192,276135,128,0,276335:0:0:0:0:
64,192,276135,128,0,276335:0:0:0:0:
320,192,276401,128,0,276468:0:0:0:0:
448,192,276401,128,0,276468:0:0:0:0:
64,192,276468,128,0,276535:0:0:0:0:
192,192,276468,128,0,276535:0:0:0:0:
320,192,276535,128,0,276601:0:0:0:0:
448,192,276535,128,0,276601:0:0:0:0:
192,192,276601,128,0,276668:0:0:0:0:
64,192,276601,128,0,276668:0:0:0:0:
320,192,276668,1,0,0:0:0:0:
448,192,276668,1,0,0:0:0:0:
64,192,276801,128,0,276868:0:0:0:0:
448,192,276801,128,0,276868:0:0:0:0:
320,192,276868,128,0,276935:0:0:0:0:
192,192,276868,128,0,276935:0:0:0:0:
64,192,276935,128,0,277001:0:0:0:0:
448,192,276935,128,0,277001:0:0:0:0:
320,192,277001,128,0,277068:0:0:0:0:
192,192,277001,128,0,277068:0:0:0:0:
64,192,277068,1,0,0:0:0:0:
448,192,277068,1,0,0:0:0:0:
192,192,277201,128,0,277268:0:0:0:0:
64,192,277201,128,0,277268:0:0:0:0:
448,192,277268,128,0,277335:0:0:0:0:
320,192,277268,128,0,277335:0:0:0:0:
64,192,277335,128,0,277401:0:0:0:0:
192,192,277335,128,0,277401:0:0:0:0:
320,192,277401,128,0,277468:0:0:0:0:
448,192,277401,128,0,277468:0:0:0:0:
64,192,277468,1,0,0:0:0:0:
192,192,277468,1,0,0:0:0:0:
64,192,277601,128,0,277668:0:0:0:0:
448,192,277601,128,0,277668:0:0:0:0:
192,192,277668,128,0,277735:0:0:0:0:
320,192,277668,128,0,277735:0:0:0:0:
64,192,277735,128,0,277801:0:0:0:0:
448,192,277735,128,0,277801:0:0:0:0:
320,192,277801,128,0,277868:0:0:0:0:
192,192,277801,128,0,277868:0:0:0:0:
64,192,277868,1,0,0:0:0:0:
448,192,277868,1,0,0:0:0:0:
64,192,278001,128,0,278068:0:0:0:0:
192,192,278001,128,0,278068:0:0:0:0:
448,192,278068,128,0,278135:0:0:0:0:
320,192,278068,128,0,278135:0:0:0:0:
64,192,278135,128,0,278201:0:0:0:0:
192,192,278135,128,0,278201:0:0:0:0:
320,192,278201,128,0,278401:0:0:0:0:
448,192,278201,128,0,278368:0:0:0:0:
192,192,278268,128,0,278435:0:0:0:0:
64,192,278268,128,0,278468:0:0:0:0:
320,192,278535,128,0,278601:0:0:0:0:
448,192,278535,128,0,278601:0:0:0:0:
192,192,278601,128,0,278668:0:0:0:0:
64,192,278601,128,0,278668:0:0:0:0:
320,192,278668,128,0,278735:0:0:0:0:
448,192,278668,128,0,278735:0:0:0:0:
192,192,278735,128,0,278801:0:0:0:0:
64,192,278735,128,0,278801:0:0:0:0:
320,192,278801,1,0,0:0:0:0:
448,192,278801,1,0,0:0:0:0:
320,192,278935,1,0,0:0:0:0:
448,192,278935,1,0,0:0:0:0:
192,192,279001,1,0,0:0:0:0:
64,192,279001,1,0,0:0:0:0:
320,192,279068,1,0,0:0:0:0:
448,192,279068,1,0,0:0:0:0:
192,192,279157,1,0,0:0:0:0:
320,192,279157,1,0,0:0:0:0:
192,192,279246,1,0,0:0:0:0:
64,192,279246,1,0,0:0:0:0:
192,192,279335,128,0,279468:0:0:0:0:
64,192,279335,128,0,279468:0:0:0:0:
448,192,279335,128,0,279668:0:0:0:0:
320,192,279535,128,0,279668:0:0:0:0:
192,192,279535,128,0,279801:0:0:0:0:
64,192,279535,128,0,279668:0:0:0:0:
320,192,279735,128,0,279801:0:0:0:0:
448,192,279735,128,0,279801:0:0:0:0:
64,192,279735,128,0,279801:0:0:0:0:
64,192,279868,128,0,280001:0:0:0:0:
448,192,279868,128,0,280001:0:0:0:0:
192,192,279868,128,0,280201:0:0:0:0:
320,192,279868,128,0,280001:0:0:0:0:
448,192,280068,128,0,280201:0:0:0:0:
64,192,280068,128,0,280201:0:0:0:0:
320,192,280068,128,0,280335:0:0:0:0:
448,192,280268,128,0,280335:0:0:0:0:
64,192,280268,128,0,280335:0:0:0:0:
192,192,280268,128,0,280335:0:0:0:0:
64,192,280401,128,0,280535:0:0:0:0:
448,192,280401,128,0,280535:0:0:0:0:
320,192,280401,128,0,280535:0:0:0:0:
192,192,280401,128,0,280735:0:0:0:0:
64,192,280601,128,0,280735:0:0:0:0:
448,192,280601,128,0,280735:0:0:0:0:
320,192,280601,128,0,280735:0:0:0:0:
320,192,280801,128,0,281601:0:0:0:0:
448,192,280801,128,0,282135:0:0:0:0:
64,192,280801,128,0,282668:0:0:0:0:
192,192,281201,128,0,283601:0:0:0:0:
320,192,281735,128,0,283601:0:0:0:0:
448,192,282268,128,0,283601:0:0:0:0:
64,192,282801,128,0,283601:0:0:0:0:
