osu file format v14

[General]
AudioFilename: audio.ogg
AudioLeadIn: 0
PreviewTime: 85735
Countdown: 0
SampleSet: Soft
StackLeniency: 0.7
Mode: 3
LetterboxInBreaks: 0
SpecialStyle: 0
WidescreenStoryboard: 1

[Editor]
Bookmarks: 4135,30801,39335,70801,100135,115068,132135,140668,157735,166268,193468,241735,254801
DistanceSpacing: 1
BeatDivisor: 4
GridSize: 32
TimelineZoom: 1.5

[Metadata]
Title:finorza
TitleUnicode:⨍iиorzᾶ
Artist:Camellia feat. Nanahira
ArtistUnicode:かめりあ feat. ななひら
Creator:DenYi
Version:Niks' Normal
Source:
Tags:Keksikosu Niks My angel RangE MARE GungunK Nicknem_ electronic vocal japanese xronial xero xroniàl xéro cametek ft. utaite かめるかめりあ KamelCamellia 大箭将也 speedcore hardcore bass hardstyle PCCA-04883 EDP
BeatmapID:3987714
BeatmapSetID:1930425

[Difficulty]
HPDrainRate:7
CircleSize:4
OverallDifficulty:7
ApproachRate:5
SliderMultiplier:1.4
SliderTickRate:1

[Events]
//Background and Video events
0,0,"bg4.jpg",0,0
//Break Periods
//Storyboard Layer 0 (Background)
//Storyboard Layer 1 (Fail)
//Storyboard Layer 2 (Pass)
//Storyboard Layer 3 (Foreground)
//Storyboard Layer 4 (Overlay)
//Storyboard Sound Samples

[TimingPoints]
4135,266.666666666667,4,2,1,50,1,0
86268,-100,4,2,1,50,0,1
106535,-100,4,2,1,50,0,0
215335,-100,4,2,1,50,0,1
227468,-100,4,2,1,50,0,0
228401,-100,4,2,1,50,0,1
236668,-100,4,2,1,50,0,0
236935,-100,4,2,1,50,0,1
252668,-100,4,2,1,50,0,0

[HitObjects]
64,192,4135,5,0,0:0:0:0:
320,192,4668,128,0,5201:0:0:0:0:
192,192,5201,128,0,5735:0:0:0:0:
64,192,5735,128,0,6268:0:0:0:0:
448,192,6268,128,0,8401:0:0:0:0:
192,192,8935,128,0,9468:0:0:0:0:
320,192,9468,128,0,10001:0:0:0:0:
448,192,10001,128,0,10535:0:0:0:0:
64,192,10535,128,0,12068:0:0:0:0:
320,192,12068,128,0,12668:0:0:0:0:
192,192,12668,128,0,13735:0:0:0:0:
448,192,13735,1,0,0:0:0:0:
320,192,14535,1,0,0:0:0:0:
192,192,14801,1,0,0:0:0:0:
64,192,15068,1,0,0:0:0:0:
448,192,15335,1,0,0:0:0:0:
320,192,15601,1,0,0:0:0:0:
192,192,15868,128,0,16268:0:0:0:0:
320,192,16268,128,0,16668:0:0:0:0:
64,192,16668,1,0,0:0:0:0:
448,192,16935,128,0,18001:0:0:0:0:
64,192,18001,1,0,0:0:0:0:
192,192,18801,1,0,0:0:0:0:
320,192,19068,1,0,0:0:0:0:
448,192,19335,1,0,0:0:0:0:
64,192,19601,1,0,0:0:0:0:
320,192,19868,1,0,0:0:0:0:
192,192,20135,128,0,20668:0:0:0:0:
320,192,20668,128,0,21201:0:0:0:0:
448,192,21201,128,0,22268:0:0:0:0:
64,192,22268,1,0,0:0:0:0:
192,192,23068,1,0,0:0:0:0:
320,192,23335,1,0,0:0:0:0:
64,192,23601,1,0,0:0:0:0:
192,192,23868,1,0,0:0:0:0:
320,192,24135,1,0,0:0:0:0:
448,192,24401,128,0,24801:0:0:0:0:
192,192,24801,128,0,25201:0:0:0:0:
448,192,25201,1,0,0:0:0:0:
64,192,25468,128,0,26535:0:0:0:0:
192,192,26535,1,0,0:0:0:0:
320,192,27068,128,0,27601:0:0:0:0:
64,192,27601,1,0,0:0:0:0:
448,192,27601,1,0,0:0:0:0:
320,192,28001,1,0,0:0:0:0:
192,192,28001,1,0,0:0:0:0:
64,192,28535,128,0,30001:0:0:0:0:
448,192,28535,128,0,30001:0:0:0:0:
192,192,30001,1,0,0:0:0:0:
320,192,30268,128,0,30801:0:0:0:0:
448,192,30801,1,0,0:0:0:0:
192,192,30801,1,0,0:0:0:0:
64,192,31335,1,0,0:0:0:0:
320,192,31868,1,0,0:0:0:0:
64,192,32401,1,0,0:0:0:0:
448,192,32935,1,0,0:0:0:0:
64,192,33468,1,0,0:0:0:0:
64,192,34535,1,0,0:0:0:0:
192,192,35068,1,0,0:0:0:0:
448,192,35601,1,0,0:0:0:0:
320,192,36135,1,0,0:0:0:0:
448,192,36668,1,0,0:0:0:0:
192,192,37201,1,0,0:0:0:0:
448,192,37735,1,0,0:0:0:0:
448,192,38801,128,0,39335:0:0:0:0:
64,192,39335,1,0,0:0:0:0:
320,192,39335,1,0,0:0:0:0:
192,192,39468,1,0,0:0:0:0:
448,192,39735,1,0,0:0:0:0:
64,192,39735,1,0,0:0:0:0:
320,192,39868,1,0,0:0:0:0:
192,192,40135,1,0,0:0:0:0:
320,192,40401,1,0,0:0:0:0:
448,192,40668,1,0,0:0:0:0:
192,192,40935,1,0,0:0:0:0:
64,192,41068,1,0,0:0:0:0:
320,192,41201,1,0,0:0:0:0:
192,192,41468,1,0,0:0:0:0:
448,192,41468,1,0,0:0:0:0:
320,192,41601,1,0,0:0:0:0:
448,192,41868,1,0,0:0:0:0:
64,192,41868,1,0,0:0:0:0:
192,192,42001,1,0,0:0:0:0:
320,192,42268,1,0,0:0:0:0:
192,192,42535,1,0,0:0:0:0:
64,192,42801,1,0,0:0:0:0:
320,192,43068,1,0,0:0:0:0:
192,192,43201,1,0,0:0:0:0:
192,192,43401,1,0,0:0:0:0:
448,192,43601,1,0,0:0:0:0:
320,192,43601,1,0,0:0:0:0:
64,192,43735,1,0,0:0:0:0:
192,192,44001,1,0,0:0:0:0:
64,192,44001,1,0,0:0:0:0:
448,192,44135,1,0,0:0:0:0:
320,192,44401,1,0,0:0:0:0:
192,192,44401,1,0,0:0:0:0:
64,192,44535,1,0,0:0:0:0:
448,192,44801,1,0,0:0:0:0:
320,192,44801,1,0,0:0:0:0:
64,192,44935,1,0,0:0:0:0:
320,192,45201,1,0,0:0:0:0:
192,192,45201,1,0,0:0:0:0:
448,192,45335,1,0,0:0:0:0:
320,192,45468,1,0,0:0:0:0:
192,192,45468,1,0,0:0:0:0:
64,192,45601,1,0,0:0:0:0:
192,192,45735,128,0,46801:0:0:0:0:
320,192,46801,1,0,0:0:0:0:
448,192,46935,1,0,0:0:0:0:
64,192,47068,1,0,0:0:0:0:
192,192,47201,1,0,0:0:0:0:
320,192,47335,1,0,0:0:0:0:
192,192,47468,1,0,0:0:0:0:
448,192,47601,1,0,0:0:0:0:
64,192,47601,1,0,0:0:0:0:
192,192,47868,1,0,0:0:0:0:
320,192,47868,1,0,0:0:0:0:
448,192,48135,1,0,0:0:0:0:
64,192,48135,1,0,0:0:0:0:
192,192,48401,1,0,0:0:0:0:
320,192,48668,1,0,0:0:0:0:
64,192,48935,1,0,0:0:0:0:
192,192,48935,1,0,0:0:0:0:
448,192,49201,1,0,0:0:0:0:
320,192,49201,1,0,0:0:0:0:
192,192,49468,1,0,0:0:0:0:
320,192,49735,1,0,0:0:0:0:
64,192,49868,1,0,0:0:0:0:
192,192,50001,1,0,0:0:0:0:
448,192,50001,1,0,0:0:0:0:
320,192,50268,1,0,0:0:0:0:
64,192,50268,1,0,0:0:0:0:
192,192,50535,1,0,0:0:0:0:
448,192,50801,1,0,0:0:0:0:
320,192,51068,1,0,0:0:0:0:
64,192,51068,1,0,0:0:0:0:
192,192,51335,1,0,0:0:0:0:
448,192,51335,1,0,0:0:0:0:
320,192,51535,1,0,0:0:0:0:
64,192,51601,1,0,0:0:0:0:
192,192,51735,1,0,0:0:0:0:
320,192,51868,1,0,0:0:0:0:
64,192,52135,1,0,0:0:0:0:
448,192,52268,1,0,0:0:0:0:
192,192,52401,1,0,0:0:0:0:
64,192,52535,1,0,0:0:0:0:
448,192,52668,1,0,0:0:0:0:
320,192,52935,1,0,0:0:0:0:
64,192,53068,1,0,0:0:0:0:
448,192,53135,1,0,0:0:0:0:
192,192,53201,1,0,0:0:0:0:
320,192,53468,1,0,0:0:0:0:
64,192,53468,1,0,0:0:0:0:
192,192,53735,1,0,0:0:0:0:
448,192,53801,1,0,0:0:0:0:
64,192,53935,1,0,0:0:0:0:
320,192,54001,1,0,0:0:0:0:
448,192,54135,1,0,0:0:0:0:
64,192,54268,1,0,0:0:0:0:
192,192,54268,1,0,0:0:0:0:
192,192,54401,1,0,0:0:0:0:
448,192,54801,1,0,0:0:0:0:
320,192,54801,1,0,0:0:0:0:
320,192,54935,1,0,0:0:0:0:
320,192,55335,1,0,0:0:0:0:
192,192,55335,1,0,0:0:0:0:
192,192,55468,128,0,56401:0:0:0:0:
64,192,56401,1,0,0:0:0:0:
448,192,56401,1,0,0:0:0:0:
320,192,56535,1,0,0:0:0:0:
192,192,56668,1,0,0:0:0:0:
448,192,56935,1,0,0:0:0:0:
320,192,56935,1,0,0:0:0:0:
64,192,57068,1,0,0:0:0:0:
192,192,57201,1,0,0:0:0:0:
448,192,57468,1,0,0:0:0:0:
320,192,57468,1,0,0:0:0:0:
64,192,57735,1,0,0:0:0:0:
192,192,57735,1,0,0:0:0:0:
320,192,58001,1,0,0:0:0:0:
448,192,58001,1,0,0:0:0:0:
192,192,58201,1,0,0:0:0:0:
192,192,58401,1,0,0:0:0:0:
448,192,58535,1,0,0:0:0:0:
64,192,58535,1,0,0:0:0:0:
320,192,58801,1,0,0:0:0:0:
192,192,58935,1,0,0:0:0:0:
64,192,59068,1,0,0:0:0:0:
448,192,59335,1,0,0:0:0:0:
320,192,59335,1,0,0:0:0:0:
64,192,59601,1,0,0:0:0:0:
192,192,59801,1,0,0:0:0:0:
448,192,59868,1,0,0:0:0:0:
64,192,60001,1,0,0:0:0:0:
320,192,60135,1,0,0:0:0:0:
192,192,60223,1,0,0:0:0:0:
64,192,60312,1,0,0:0:0:0:
448,192,60401,1,0,0:0:0:0:
64,192,60668,1,0,0:0:0:0:
448,192,60668,1,0,0:0:0:0:
192,192,60801,1,0,0:0:0:0:
320,192,60935,1,0,0:0:0:0:
64,192,61201,1,0,0:0:0:0:
320,192,61468,1,0,0:0:0:0:
192,192,61468,1,0,0:0:0:0:
64,192,61735,1,0,0:0:0:0:
448,192,61868,1,0,0:0:0:0:
320,192,62001,1,0,0:0:0:0:
64,192,62135,1,0,0:0:0:0:
192,192,62268,128,0,62801:0:0:0:0:
448,192,62535,128,0,62801:0:0:0:0:
64,192,62801,1,0,0:0:0:0:
320,192,62801,1,0,0:0:0:0:
192,192,63201,1,0,0:0:0:0:
448,192,63201,1,0,0:0:0:0:
320,192,63601,1,0,0:0:0:0:
64,192,63601,1,0,0:0:0:0:
448,192,64135,128,0,64935:0:0:0:0:
192,192,64135,128,0,64935:0:0:0:0:
320,192,64935,1,0,0:0:0:0:
192,192,65201,1,0,0:0:0:0:
64,192,65468,1,0,0:0:0:0:
448,192,65735,1,0,0:0:0:0:
320,192,66001,128,0,66535:0:0:0:0:
64,192,66535,128,0,67068:0:0:0:0:
448,192,67068,128,0,67601:0:0:0:0:
64,192,67601,1,0,0:0:0:0:
320,192,67868,1,0,0:0:0:0:
192,192,68135,128,0,68668:0:0:0:0:
64,192,68668,1,0,0:0:0:0:
320,192,68935,1,0,0:0:0:0:
448,192,69201,1,0,0:0:0:0:
64,192,69201,1,0,0:0:0:0:
192,192,69335,1,0,0:0:0:0:
320,192,69601,1,0,0:0:0:0:
192,192,69601,1,0,0:0:0:0:
448,192,69735,1,0,0:0:0:0:
64,192,70001,1,0,0:0:0:0:
448,192,70001,1,0,0:0:0:0:
320,192,70135,1,0,0:0:0:0:
192,192,70401,1,0,0:0:0:0:
320,192,70401,1,0,0:0:0:0:
64,192,70535,1,0,0:0:0:0:
448,192,70801,128,0,70935:0:0:0:0:
320,192,70935,128,0,71068:0:0:0:0:
192,192,71068,128,0,71201:0:0:0:0:
64,192,71201,128,0,71335:0:0:0:0:
448,192,71335,1,0,0:0:0:0:
320,192,71335,1,0,0:0:0:0:
64,192,71468,1,0,0:0:0:0:
192,192,71735,1,0,0:0:0:0:
64,192,71735,1,0,0:0:0:0:
448,192,71868,1,0,0:0:0:0:
448,192,72135,1,0,0:0:0:0:
320,192,72135,1,0,0:0:0:0:
192,192,72268,1,0,0:0:0:0:
192,192,72535,1,0,0:0:0:0:
64,192,72535,1,0,0:0:0:0:
320,192,72668,1,0,0:0:0:0:
192,192,72935,128,0,73468:0:0:0:0:
320,192,73201,128,0,73468:0:0:0:0:
64,192,73468,1,0,0:0:0:0:
448,192,73468,1,0,0:0:0:0:
192,192,73735,1,0,0:0:0:0:
448,192,74001,1,0,0:0:0:0:
64,192,74268,1,0,0:0:0:0:
192,192,74535,128,0,75068:0:0:0:0:
448,192,75068,128,0,75601:0:0:0:0:
64,192,75601,128,0,76135:0:0:0:0:
448,192,76135,1,0,0:0:0:0:
192,192,76401,1,0,0:0:0:0:
320,192,76668,128,0,77201:0:0:0:0:
448,192,77201,1,0,0:0:0:0:
192,192,77468,1,0,0:0:0:0:
448,192,77735,1,0,0:0:0:0:
64,192,77735,1,0,0:0:0:0:
192,192,77868,1,0,0:0:0:0:
320,192,78135,1,0,0:0:0:0:
192,192,78135,1,0,0:0:0:0:
448,192,78268,1,0,0:0:0:0:
64,192,78535,1,0,0:0:0:0:
448,192,78535,1,0,0:0:0:0:
192,192,78668,1,0,0:0:0:0:
192,192,78935,1,0,0:0:0:0:
320,192,78935,1,0,0:0:0:0:
448,192,79068,1,0,0:0:0:0:
192,192,79335,128,0,79468:0:0:0:0:
64,192,79468,128,0,79601:0:0:0:0:
320,192,79601,128,0,79735:0:0:0:0:
192,192,79735,128,0,79868:0:0:0:0:
448,192,79868,1,0,0:0:0:0:
320,192,79868,1,0,0:0:0:0:
192,192,80001,1,0,0:0:0:0:
192,192,80268,1,0,0:0:0:0:
64,192,80268,1,0,0:0:0:0:
320,192,80401,1,0,0:0:0:0:
448,192,80668,1,0,0:0:0:0:
320,192,80668,1,0,0:0:0:0:
64,192,80801,1,0,0:0:0:0:
192,192,81068,1,0,0:0:0:0:
64,192,81068,1,0,0:0:0:0:
448,192,81201,1,0,0:0:0:0:
192,192,81468,1,0,0:0:0:0:
320,192,81468,1,0,0:0:0:0:
448,192,81601,1,0,0:0:0:0:
320,192,81735,1,0,0:0:0:0:
192,192,81735,1,0,0:0:0:0:
64,192,81868,1,0,0:0:0:0:
192,192,82001,1,0,0:0:0:0:
448,192,82001,1,0,0:0:0:0:
320,192,82135,1,0,0:0:0:0:
320,192,82401,1,0,0:0:0:0:
64,192,82401,1,0,0:0:0:0:
192,192,82535,1,0,0:0:0:0:
320,192,82801,1,0,0:0:0:0:
448,192,82801,1,0,0:0:0:0:
64,192,82935,1,0,0:0:0:0:
320,192,83201,1,0,0:0:0:0:
192,192,83201,1,0,0:0:0:0:
448,192,83335,128,0,84135:0:0:0:0:
64,192,83601,128,0,84135:0:0:0:0:
192,192,84135,128,0,85201:0:0:0:0:
320,192,85201,128,0,86001:0:0:0:0:
64,192,86001,1,0,0:0:0:0:
448,192,86001,1,0,0:0:0:0:
192,192,86268,1,0,0:0:0:0:
448,192,86268,1,0,0:0:0:0:
64,192,86535,1,0,0:0:0:0:
320,192,86535,1,0,0:0:0:0:
448,192,86801,1,0,0:0:0:0:
192,192,86801,1,0,0:0:0:0:
320,192,87068,1,0,0:0:0:0:
64,192,87068,1,0,0:0:0:0:
192,192,87335,1,0,0:0:0:0:
448,192,87335,1,0,0:0:0:0:
192,192,87601,1,0,0:0:0:0:
448,192,87601,1,0,0:0:0:0:
320,192,87868,1,0,0:0:0:0:
64,192,87868,1,0,0:0:0:0:
192,192,88001,1,0,0:0:0:0:
320,192,88135,1,0,0:0:0:0:
64,192,88135,1,0,0:0:0:0:
320,192,88401,1,0,0:0:0:0:
448,192,88401,1,0,0:0:0:0:
64,192,88668,1,0,0:0:0:0:
192,192,88668,1,0,0:0:0:0:
192,192,88935,1,0,0:0:0:0:
320,192,88935,1,0,0:0:0:0:
448,192,89201,1,0,0:0:0:0:
320,192,89201,1,0,0:0:0:0:
192,192,89468,1,0,0:0:0:0:
64,192,89468,1,0,0:0:0:0:
192,192,89735,1,0,0:0:0:0:
64,192,89735,1,0,0:0:0:0:
320,192,90001,1,0,0:0:0:0:
448,192,90001,1,0,0:0:0:0:
192,192,90135,1,0,0:0:0:0:
320,192,90268,1,0,0:0:0:0:
448,192,90268,1,0,0:0:0:0:
448,192,90535,1,0,0:0:0:0:
64,192,90535,1,0,0:0:0:0:
192,192,90801,1,0,0:0:0:0:
320,192,90801,1,0,0:0:0:0:
448,192,91068,1,0,0:0:0:0:
64,192,91068,1,0,0:0:0:0:
192,192,91335,1,0,0:0:0:0:
320,192,91335,1,0,0:0:0:0:
448,192,91601,1,0,0:0:0:0:
64,192,91601,1,0,0:0:0:0:
448,192,91868,1,0,0:0:0:0:
64,192,91868,1,0,0:0:0:0:
192,192,92135,1,0,0:0:0:0:
320,192,92135,1,0,0:0:0:0:
64,192,92268,1,0,0:0:0:0:
192,192,92401,1,0,0:0:0:0:
320,192,92401,1,0,0:0:0:0:
448,192,92535,1,0,0:0:0:0:
192,192,92668,5,0,0:0:0:0:
64,192,92668,1,0,0:0:0:0:
320,192,92935,1,0,0:0:0:0:
448,192,92935,1,0,0:0:0:0:
320,192,93201,1,0,0:0:0:0:
192,192,93201,1,0,0:0:0:0:
192,192,93468,1,0,0:0:0:0:
64,192,93468,1,0,0:0:0:0:
64,192,93735,1,0,0:0:0:0:
448,192,93735,1,0,0:0:0:0:
320,192,93935,1,0,0:0:0:0:
192,192,93935,1,0,0:0:0:0:
64,192,94135,1,0,0:0:0:0:
448,192,94135,1,0,0:0:0:0:
192,192,94335,1,0,0:0:0:0:
320,192,94335,1,0,0:0:0:0:
448,192,94801,1,0,0:0:0:0:
192,192,94801,1,0,0:0:0:0:
448,192,95068,1,0,0:0:0:0:
192,192,95068,1,0,0:0:0:0:
64,192,95335,1,0,0:0:0:0:
320,192,95335,1,0,0:0:0:0:
64,192,95601,1,0,0:0:0:0:
320,192,95601,1,0,0:0:0:0:
192,192,95868,1,0,0:0:0:0:
448,192,95868,1,0,0:0:0:0:
320,192,96001,1,0,0:0:0:0:
64,192,96268,1,0,0:0:0:0:
448,192,96268,1,0,0:0:0:0:
64,192,96535,1,0,0:0:0:0:
448,192,96535,1,0,0:0:0:0:
192,192,96801,1,0,0:0:0:0:
448,192,96935,1,0,0:0:0:0:
320,192,96935,1,0,0:0:0:0:
192,192,97201,1,0,0:0:0:0:
64,192,97201,1,0,0:0:0:0:
320,192,97468,1,0,0:0:0:0:
192,192,97468,1,0,0:0:0:0:
320,192,97735,1,0,0:0:0:0:
448,192,97735,1,0,0:0:0:0:
192,192,98001,1,0,0:0:0:0:
64,192,98001,1,0,0:0:0:0:
448,192,98201,1,0,0:0:0:0:
320,192,98201,1,0,0:0:0:0:
192,192,98401,1,0,0:0:0:0:
64,192,98401,1,0,0:0:0:0:
320,192,98668,1,0,0:0:0:0:
448,192,98668,1,0,0:0:0:0:
192,192,98935,1,0,0:0:0:0:
64,192,99068,1,0,0:0:0:0:
448,192,99068,1,0,0:0:0:0:
192,192,99335,1,0,0:0:0:0:
320,192,99335,1,0,0:0:0:0:
64,192,99601,1,0,0:0:0:0:
448,192,99601,1,0,0:0:0:0:
192,192,99735,1,0,0:0:0:0:
64,192,99868,1,0,0:0:0:0:
448,192,99868,1,0,0:0:0:0:
320,192,100135,1,0,0:0:0:0:
192,192,100268,1,0,0:0:0:0:
448,192,100401,1,0,0:0:0:0:
64,192,100401,1,0,0:0:0:0:
320,192,100601,1,0,0:0:0:0:
192,192,100668,1,0,0:0:0:0:
448,192,100935,1,0,0:0:0:0:
64,192,100935,1,0,0:0:0:0:
192,192,101068,1,0,0:0:0:0:
320,192,101201,1,0,0:0:0:0:
448,192,101201,1,0,0:0:0:0:
448,192,101601,1,0,0:0:0:0:
192,192,101601,1,0,0:0:0:0:
64,192,102135,128,0,102801:0:0:0:0:
448,192,102135,128,0,102801:0:0:0:0:
192,192,103335,1,0,0:0:0:0:
64,192,103335,1,0,0:0:0:0:
64,192,103735,1,0,0:0:0:0:
320,192,103735,1,0,0:0:0:0:
448,192,104268,128,0,105468:0:0:0:0:
64,192,104268,128,0,105468:0:0:0:0:
192,192,105468,1,0,0:0:0:0:
320,192,105601,1,0,0:0:0:0:
448,192,105735,1,0,0:0:0:0:
64,192,105868,1,0,0:0:0:0:
320,192,106001,1,0,0:0:0:0:
192,192,106135,1,0,0:0:0:0:
448,192,106268,1,0,0:0:0:0:
320,192,106401,1,0,0:0:0:0:
64,192,106535,1,0,0:0:0:0:
192,192,106535,1,0,0:0:0:0:
320,192,107068,1,0,0:0:0:0:
320,192,108135,1,0,0:0:0:0:
320,192,109201,1,0,0:0:0:0:
320,192,110268,1,0,0:0:0:0:
192,192,110801,1,0,0:0:0:0:
64,192,110801,1,0,0:0:0:0:
320,192,111068,1,0,0:0:0:0:
64,192,111335,1,0,0:0:0:0:
448,192,111335,1,0,0:0:0:0:
192,192,111601,1,0,0:0:0:0:
320,192,111601,1,0,0:0:0:0:
64,192,111868,128,0,112401:0:0:0:0:
320,192,112135,128,0,112401:0:0:0:0:
448,192,112401,128,0,112935:0:0:0:0:
192,192,112668,128,0,112935:0:0:0:0:
64,192,112935,1,0,0:0:0:0:
320,192,113068,1,0,0:0:0:0:
320,192,113335,1,0,0:0:0:0:
192,192,113668,1,0,0:0:0:0:
64,192,113823,1,0,0:0:0:0:
320,192,114068,128,0,114801:0:0:0:0:
64,192,114801,1,0,0:0:0:0:
448,192,114801,1,0,0:0:0:0:
320,192,115068,1,0,0:0:0:0:
192,192,115068,1,0,0:0:0:0:
448,192,115201,1,0,0:0:0:0:
64,192,115335,1,0,0:0:0:0:
320,192,115468,1,0,0:0:0:0:
64,192,115601,1,0,0:0:0:0:
192,192,115735,1,0,0:0:0:0:
320,192,115868,1,0,0:0:0:0:
448,192,116135,1,0,0:0:0:0:
64,192,116135,1,0,0:0:0:0:
320,192,116401,1,0,0:0:0:0:
64,192,116401,1,0,0:0:0:0:
192,192,116668,1,0,0:0:0:0:
448,192,116668,1,0,0:0:0:0:
320,192,116801,1,0,0:0:0:0:
64,192,116935,1,0,0:0:0:0:
448,192,116935,1,0,0:0:0:0:
320,192,117201,1,0,0:0:0:0:
192,192,117201,1,0,0:0:0:0:
448,192,117468,1,0,0:0:0:0:
192,192,117468,1,0,0:0:0:0:
320,192,117735,1,0,0:0:0:0:
192,192,117868,1,0,0:0:0:0:
64,192,118001,1,0,0:0:0:0:
448,192,118001,1,0,0:0:0:0:
320,192,118201,1,0,0:0:0:0:
192,192,118268,1,0,0:0:0:0:
64,192,118535,1,0,0:0:0:0:
448,192,118535,1,0,0:0:0:0:
192,192,118801,1,0,0:0:0:0:
320,192,118935,1,0,0:0:0:0:
448,192,119068,1,0,0:0:0:0:
64,192,119068,1,0,0:0:0:0:
320,192,119335,1,0,0:0:0:0:
192,192,119335,1,0,0:0:0:0:
64,192,119468,1,0,0:0:0:0:
448,192,119601,1,0,0:0:0:0:
320,192,119601,1,0,0:0:0:0:
192,192,119868,1,0,0:0:0:0:
320,192,119868,1,0,0:0:0:0:
192,192,120135,1,0,0:0:0:0:
448,192,120135,1,0,0:0:0:0:
320,192,120401,1,0,0:0:0:0:
64,192,120401,1,0,0:0:0:0:
320,192,120668,1,0,0:0:0:0:
192,192,120668,1,0,0:0:0:0:
64,192,120935,1,0,0:0:0:0:
448,192,120935,1,0,0:0:0:0:
320,192,121068,1,0,0:0:0:0:
192,192,121201,1,0,0:0:0:0:
320,192,121268,1,0,0:0:0:0:
448,192,121335,1,0,0:0:0:0:
64,192,121401,1,0,0:0:0:0:
192,192,121468,1,0,0:0:0:0:
192,192,121646,1,0,0:0:0:0:
192,192,121823,1,0,0:0:0:0:
320,192,122001,1,0,0:0:0:0:
320,192,122179,1,0,0:0:0:0:
64,192,122268,1,0,0:0:0:0:
64,192,122446,1,0,0:0:0:0:
448,192,122535,1,0,0:0:0:0:
320,192,122668,1,0,0:0:0:0:
192,192,122801,1,0,0:0:0:0:
64,192,122935,128,0,123335:0:0:0:0:
192,192,123335,1,0,0:0:0:0:
320,192,123335,1,0,0:0:0:0:
64,192,123601,1,0,0:0:0:0:
448,192,123601,1,0,0:0:0:0:
320,192,123735,1,0,0:0:0:0:
192,192,123868,1,0,0:0:0:0:
64,192,124001,1,0,0:0:0:0:
448,192,124135,1,0,0:0:0:0:
320,192,124135,1,0,0:0:0:0:
192,192,124401,1,0,0:0:0:0:
64,192,124401,1,0,0:0:0:0:
448,192,124668,1,0,0:0:0:0:
320,192,124668,1,0,0:0:0:0:
64,192,124935,1,0,0:0:0:0:
192,192,124935,1,0,0:0:0:0:
448,192,125201,1,0,0:0:0:0:
320,192,125201,1,0,0:0:0:0:
192,192,125335,1,0,0:0:0:0:
64,192,125468,1,0,0:0:0:0:
448,192,125468,1,0,0:0:0:0:
320,192,125601,1,0,0:0:0:0:
192,192,125735,1,0,0:0:0:0:
64,192,125868,1,0,0:0:0:0:
320,192,125935,1,0,0:0:0:0:
64,192,126001,1,0,0:0:0:0:
320,192,126268,1,0,0:0:0:0:
448,192,126268,1,0,0:0:0:0:
192,192,126535,1,0,0:0:0:0:
64,192,126535,1,0,0:0:0:0:
448,192,126801,1,0,0:0:0:0:
448,192,126935,1,0,0:0:0:0:
64,192,127068,1,0,0:0:0:0:
192,192,127068,1,0,0:0:0:0:
320,192,127335,128,0,127601:0:0:0:0:
64,192,127601,1,0,0:0:0:0:
448,192,127601,1,0,0:0:0:0:
192,192,127868,1,0,0:0:0:0:
320,192,127868,1,0,0:0:0:0:
64,192,128135,1,0,0:0:0:0:
448,192,128135,1,0,0:0:0:0:
192,192,128268,1,0,0:0:0:0:
320,192,128335,1,0,0:0:0:0:
64,192,128401,1,0,0:0:0:0:
448,192,128668,1,0,0:0:0:0:
64,192,128668,1,0,0:0:0:0:
320,192,128801,1,0,0:0:0:0:
192,192,128868,1,0,0:0:0:0:
448,192,128935,1,0,0:0:0:0:
64,192,129201,1,0,0:0:0:0:
320,192,129201,1,0,0:0:0:0:
448,192,129468,1,0,0:0:0:0:
320,192,129601,1,0,0:0:0:0:
192,192,129735,1,0,0:0:0:0:
448,192,129868,1,0,0:0:0:0:
64,192,129935,1,0,0:0:0:0:
320,192,130001,1,0,0:0:0:0:
192,192,130001,1,0,0:0:0:0:
320,192,130401,1,0,0:0:0:0:
448,192,130401,1,0,0:0:0:0:
192,192,130801,1,0,0:0:0:0:
64,192,130801,1,0,0:0:0:0:
448,192,131068,1,0,0:0:0:0:
64,192,131201,1,0,0:0:0:0:
320,192,131201,1,0,0:0:0:0:
192,192,131401,1,0,0:0:0:0:
448,192,131401,1,0,0:0:0:0:
320,192,131601,128,0,132135:0:0:0:0:
64,192,131601,1,0,0:0:0:0:
192,192,132135,1,0,0:0:0:0:
448,192,132201,1,0,0:0:0:0:
64,192,132268,1,0,0:0:0:0:
320,192,132335,1,0,0:0:0:0:
192,192,132401,1,0,0:0:0:0:
448,192,132668,1,0,0:0:0:0:
64,192,132668,1,0,0:0:0:0:
320,192,132935,1,0,0:0:0:0:
192,192,132935,1,0,0:0:0:0:
448,192,133068,1,0,0:0:0:0:
192,192,133201,1,0,0:0:0:0:
320,192,133201,1,0,0:0:0:0:
64,192,133468,1,0,0:0:0:0:
192,192,133468,1,0,0:0:0:0:
320,192,133735,1,0,0:0:0:0:
448,192,133735,1,0,0:0:0:0:
320,192,134001,1,0,0:0:0:0:
192,192,134001,1,0,0:0:0:0:
64,192,134135,1,0,0:0:0:0:
448,192,134268,1,0,0:0:0:0:
192,192,134268,1,0,0:0:0:0:
320,192,134535,1,0,0:0:0:0:
64,192,134535,1,0,0:0:0:0:
448,192,134668,1,0,0:0:0:0:
192,192,134801,1,0,0:0:0:0:
64,192,134801,1,0,0:0:0:0:
320,192,135068,1,0,0:0:0:0:
448,192,135068,1,0,0:0:0:0:
192,192,135201,1,0,0:0:0:0:
448,192,135335,1,0,0:0:0:0:
64,192,135335,1,0,0:0:0:0:
192,192,135601,1,0,0:0:0:0:
320,192,135601,1,0,0:0:0:0:
448,192,135735,1,0,0:0:0:0:
64,192,135868,1,0,0:0:0:0:
192,192,135868,1,0,0:0:0:0:
64,192,136001,1,0,0:0:0:0:
448,192,136135,1,0,0:0:0:0:
320,192,136135,1,0,0:0:0:0:
448,192,136268,1,0,0:0:0:0:
64,192,136401,1,0,0:0:0:0:
192,192,136401,128,0,136668:0:0:0:0:
448,192,136668,128,0,136935:0:0:0:0:
320,192,136668,1,0,0:0:0:0:
64,192,136935,1,0,0:0:0:0:
320,192,137068,1,0,0:0:0:0:
448,192,137068,1,0,0:0:0:0:
192,192,137201,128,0,137468:0:0:0:0:
320,192,137468,128,0,137735:0:0:0:0:
64,192,137735,1,0,0:0:0:0:
192,192,137735,1,0,0:0:0:0:
448,192,137868,128,0,138135:0:0:0:0:
192,192,138135,1,0,0:0:0:0:
320,192,138135,1,0,0:0:0:0:
64,192,138268,128,0,138535:0:0:0:0:
192,192,138535,128,0,138801:0:0:0:0:
448,192,138801,128,0,139068:0:0:0:0:
320,192,138801,1,0,0:0:0:0:
64,192,139068,1,0,0:0:0:0:
320,192,139201,1,0,0:0:0:0:
192,192,139201,1,0,0:0:0:0:
64,192,139335,128,0,139601:0:0:0:0:
448,192,139601,128,0,140668:0:0:0:0:
64,192,140135,128,0,140668:0:0:0:0:
320,192,140668,1,0,0:0:0:0:
320,192,140801,1,0,0:0:0:0:
64,192,140935,1,0,0:0:0:0:
448,192,140935,1,0,0:0:0:0:
192,192,141201,1,0,0:0:0:0:
320,192,141335,1,0,0:0:0:0:
64,192,141468,1,0,0:0:0:0:
320,192,141601,1,0,0:0:0:0:
192,192,141668,1,0,0:0:0:0:
448,192,141735,1,0,0:0:0:0:
192,192,141868,1,0,0:0:0:0:
320,192,141935,1,0,0:0:0:0:
64,192,142001,1,0,0:0:0:0:
448,192,142135,1,0,0:0:0:0:
64,192,142268,1,0,0:0:0:0:
192,192,142401,1,0,0:0:0:0:
448,192,142535,1,0,0:0:0:0:
64,192,142535,1,0,0:0:0:0:
320,192,142668,1,0,0:0:0:0:
192,192,142801,1,0,0:0:0:0:
192,192,142935,1,0,0:0:0:0:
448,192,143068,1,0,0:0:0:0:
64,192,143068,1,0,0:0:0:0:
320,192,143335,1,0,0:0:0:0:
192,192,143468,1,0,0:0:0:0:
64,192,143601,1,0,0:0:0:0:
448,192,143601,1,0,0:0:0:0:
320,192,143735,1,0,0:0:0:0:
192,192,143868,128,0,144135:0:0:0:0:
64,192,144135,1,0,0:0:0:0:
448,192,144135,1,0,0:0:0:0:
320,192,144268,1,0,0:0:0:0:
320,192,144401,1,0,0:0:0:0:
192,192,144535,1,0,0:0:0:0:
320,192,144668,128,0,144935:0:0:0:0:
448,192,144668,1,0,0:0:0:0:
64,192,144935,1,0,0:0:0:0:
192,192,144935,128,0,145201:0:0:0:0:
448,192,145201,128,0,145468:0:0:0:0:
320,192,145201,1,0,0:0:0:0:
64,192,145468,1,0,0:0:0:0:
192,192,145601,1,0,0:0:0:0:
320,192,145601,1,0,0:0:0:0:
448,192,145735,128,0,146001:0:0:0:0:
64,192,146001,128,0,146268:0:0:0:0:
192,192,146268,1,0,0:0:0:0:
448,192,146268,1,0,0:0:0:0:
320,192,146401,128,0,146668:0:0:0:0:
192,192,146668,1,0,0:0:0:0:
64,192,146668,1,0,0:0:0:0:
448,192,146801,128,0,147068:0:0:0:0:
64,192,147068,1,0,0:0:0:0:
320,192,147068,1,0,0:0:0:0:
192,192,147201,1,0,0:0:0:0:
320,192,147335,1,0,0:0:0:0:
448,192,147468,1,0,0:0:0:0:
192,192,147468,1,0,0:0:0:0:
64,192,147601,1,0,0:0:0:0:
320,192,147735,1,0,0:0:0:0:
192,192,147868,1,0,0:0:0:0:
320,192,148001,1,0,0:0:0:0:
448,192,148135,128,0,149201:0:0:0:0:
64,192,148135,1,0,0:0:0:0:
320,192,148668,128,0,149201:0:0:0:0:
64,192,149201,128,0,150801:0:0:0:0:
192,192,150801,128,0,151335:0:0:0:0:
448,192,151335,128,0,153001:0:0:0:0:
320,192,153001,128,0,153468:0:0:0:0:
64,192,153468,128,0,154935:0:0:0:0:
192,192,154935,128,0,155601:0:0:0:0:
448,192,155601,128,0,156668:0:0:0:0:
320,192,156668,128,0,157735:0:0:0:0:
64,192,157735,1,0,0:0:0:0:
448,192,157735,1,0,0:0:0:0:
64,192,158268,1,0,0:0:0:0:
320,192,158801,1,0,0:0:0:0:
64,192,159335,1,0,0:0:0:0:
448,192,159868,1,0,0:0:0:0:
64,192,160401,1,0,0:0:0:0:
64,192,161468,1,0,0:0:0:0:
192,192,162001,1,0,0:0:0:0:
448,192,162535,1,0,0:0:0:0:
320,192,163068,1,0,0:0:0:0:
448,192,163601,1,0,0:0:0:0:
192,192,164135,1,0,0:0:0:0:
448,192,164668,1,0,0:0:0:0:
448,192,165735,128,0,166268:0:0:0:0:
64,192,166268,1,0,0:0:0:0:
320,192,166268,1,0,0:0:0:0:
192,192,166401,1,0,0:0:0:0:
448,192,166668,1,0,0:0:0:0:
64,192,166668,1,0,0:0:0:0:
320,192,166801,1,0,0:0:0:0:
192,192,167068,1,0,0:0:0:0:
320,192,167335,1,0,0:0:0:0:
448,192,167601,1,0,0:0:0:0:
192,192,167868,1,0,0:0:0:0:
64,192,168001,1,0,0:0:0:0:
320,192,168135,1,0,0:0:0:0:
192,192,168401,1,0,0:0:0:0:
448,192,168401,1,0,0:0:0:0:
320,192,168535,1,0,0:0:0:0:
448,192,168801,1,0,0:0:0:0:
64,192,168801,1,0,0:0:0:0:
192,192,168935,1,0,0:0:0:0:
320,192,169201,1,0,0:0:0:0:
192,192,169468,1,0,0:0:0:0:
64,192,169735,1,0,0:0:0:0:
320,192,170001,1,0,0:0:0:0:
192,192,170135,1,0,0:0:0:0:
192,192,170335,1,0,0:0:0:0:
448,192,170535,1,0,0:0:0:0:
320,192,170535,1,0,0:0:0:0:
64,192,170668,1,0,0:0:0:0:
192,192,170935,1,0,0:0:0:0:
64,192,170935,1,0,0:0:0:0:
448,192,171068,1,0,0:0:0:0:
320,192,171335,1,0,0:0:0:0:
192,192,171335,1,0,0:0:0:0:
64,192,171468,1,0,0:0:0:0:
448,192,171735,1,0,0:0:0:0:
320,192,171735,1,0,0:0:0:0:
192,192,171868,1,0,0:0:0:0:
64,192,172135,1,0,0:0:0:0:
192,192,172223,1,0,0:0:0:0:
320,192,172312,1,0,0:0:0:0:
448,192,172401,1,0,0:0:0:0:
64,192,172490,1,0,0:0:0:0:
192,192,172579,1,0,0:0:0:0:
320,192,172668,1,0,0:0:0:0:
448,192,172668,1,0,0:0:0:0:
64,192,172801,1,0,0:0:0:0:
192,192,173068,1,0,0:0:0:0:
320,192,173068,1,0,0:0:0:0:
448,192,173201,1,0,0:0:0:0:
64,192,173468,1,0,0:0:0:0:
192,192,173468,1,0,0:0:0:0:
320,192,173601,1,0,0:0:0:0:
448,192,173868,1,0,0:0:0:0:
64,192,173868,1,0,0:0:0:0:
192,192,174001,1,0,0:0:0:0:
448,192,174268,1,0,0:0:0:0:
320,192,174357,1,0,0:0:0:0:
192,192,174446,1,0,0:0:0:0:
64,192,174535,1,0,0:0:0:0:
448,192,174623,1,0,0:0:0:0:
320,192,174712,1,0,0:0:0:0:
192,192,174801,1,0,0:0:0:0:
64,192,174801,1,0,0:0:0:0:
448,192,174935,1,0,0:0:0:0:
320,192,175201,1,0,0:0:0:0:
192,192,175201,1,0,0:0:0:0:
448,192,175335,1,0,0:0:0:0:
64,192,175601,1,0,0:0:0:0:
192,192,175601,1,0,0:0:0:0:
320,192,175735,1,0,0:0:0:0:
448,192,176001,1,0,0:0:0:0:
64,192,176001,1,0,0:0:0:0:
192,192,176135,1,0,0:0:0:0:
64,192,176401,1,0,0:0:0:0:
192,192,176490,1,0,0:0:0:0:
320,192,176579,1,0,0:0:0:0:
448,192,176668,1,0,0:0:0:0:
64,192,176757,1,0,0:0:0:0:
192,192,176846,1,0,0:0:0:0:
448,192,176935,1,0,0:0:0:0:
320,192,176935,1,0,0:0:0:0:
64,192,177068,1,0,0:0:0:0:
320,192,177468,128,0,178001:0:0:0:0:
64,192,178001,1,0,0:0:0:0:
448,192,178001,1,0,0:0:0:0:
192,192,178135,1,0,0:0:0:0:
448,192,178535,128,0,179068:0:0:0:0:
320,192,179068,1,0,0:0:0:0:
192,192,179068,1,0,0:0:0:0:
64,192,179201,1,0,0:0:0:0:
192,192,179601,128,0,180135:0:0:0:0:
64,192,180135,1,0,0:0:0:0:
448,192,180135,1,0,0:0:0:0:
320,192,180268,1,0,0:0:0:0:
64,192,180668,128,0,181201:0:0:0:0:
192,192,181201,1,0,0:0:0:0:
448,192,181201,128,0,185468:0:0:0:0:
64,192,183335,128,0,185468:0:0:0:0:
320,192,184401,128,0,185468:0:0:0:0:
192,192,185468,128,0,185868:0:0:0:0:
320,192,185868,128,0,186535:0:0:0:0:
448,192,186535,1,0,0:0:0:0:
64,192,186535,1,0,0:0:0:0:
448,192,186668,1,0,0:0:0:0:
64,192,186668,1,0,0:0:0:0:
320,192,186935,1,0,0:0:0:0:
192,192,186935,1,0,0:0:0:0:
192,192,187068,1,0,0:0:0:0:
320,192,187068,1,0,0:0:0:0:
64,192,187335,1,0,0:0:0:0:
448,192,187335,1,0,0:0:0:0:
320,192,187601,128,0,188668:0:0:0:0:
192,192,187601,1,0,0:0:0:0:
64,192,187868,1,0,0:0:0:0:
448,192,188135,1,0,0:0:0:0:
192,192,188401,1,0,0:0:0:0:
64,192,188668,128,0,189735:0:0:0:0:
448,192,188935,1,0,0:0:0:0:
192,192,189201,1,0,0:0:0:0:
320,192,189468,1,0,0:0:0:0:
448,192,189735,128,0,190801:0:0:0:0:
192,192,190001,1,0,0:0:0:0:
320,192,190268,1,0,0:0:0:0:
64,192,190535,1,0,0:0:0:0:
192,192,190801,128,0,191868:0:0:0:0:
448,192,191068,1,0,0:0:0:0:
64,192,191335,1,0,0:0:0:0:
320,192,191601,1,0,0:0:0:0:
448,192,191868,1,0,0:0:0:0:
64,192,191868,1,0,0:0:0:0:
192,192,192001,1,0,0:0:0:0:
448,192,192268,1,0,0:0:0:0:
320,192,192268,1,0,0:0:0:0:
192,192,192401,1,0,0:0:0:0:
64,192,192668,1,0,0:0:0:0:
448,192,192668,1,0,0:0:0:0:
320,192,192801,1,0,0:0:0:0:
64,192,193068,1,0,0:0:0:0:
192,192,193068,1,0,0:0:0:0:
320,192,193201,1,0,0:0:0:0:
448,192,193468,128,0,193601:0:0:0:0:
320,192,193601,128,0,193735:0:0:0:0:
192,192,193735,128,0,193868:0:0:0:0:
64,192,193868,128,0,194001:0:0:0:0:
192,192,194001,1,0,0:0:0:0:
320,192,194001,1,0,0:0:0:0:
448,192,194135,1,0,0:0:0:0:
64,192,194401,1,0,0:0:0:0:
192,192,194401,1,0,0:0:0:0:
320,192,194535,1,0,0:0:0:0:
448,192,194801,1,0,0:0:0:0:
64,192,194801,1,0,0:0:0:0:
192,192,194935,1,0,0:0:0:0:
448,192,195201,1,0,0:0:0:0:
320,192,195201,1,0,0:0:0:0:
64,192,195335,1,0,0:0:0:0:
192,192,195601,128,0,196135:0:0:0:0:
320,192,195868,128,0,196135:0:0:0:0:
448,192,196135,1,0,0:0:0:0:
64,192,196135,1,0,0:0:0:0:
192,192,196401,1,0,0:0:0:0:
320,192,196401,1,0,0:0:0:0:
64,192,196668,128,0,196935:0:0:0:0:
192,192,196935,1,0,0:0:0:0:
320,192,196935,1,0,0:0:0:0:
448,192,197201,128,0,197468:0:0:0:0:
64,192,197468,1,0,0:0:0:0:
192,192,197468,1,0,0:0:0:0:
320,192,197735,128,0,198001:0:0:0:0:
64,192,198001,1,0,0:0:0:0:
448,192,198001,1,0,0:0:0:0:
192,192,198268,128,0,198535:0:0:0:0:
448,192,198535,1,0,0:0:0:0:
320,192,198535,1,0,0:0:0:0:
64,192,198801,128,0,199068:0:0:0:0:
448,192,199068,1,0,0:0:0:0:
192,192,199068,1,0,0:0:0:0:
320,192,199335,128,0,199601:0:0:0:0:
448,192,199601,1,0,0:0:0:0:
64,192,199601,1,0,0:0:0:0:
320,192,199868,1,0,0:0:0:0:
64,192,200001,1,0,0:0:0:0:
448,192,200001,1,0,0:0:0:0:
192,192,200135,1,0,0:0:0:0:
320,192,200268,1,0,0:0:0:0:
448,192,200401,1,0,0:0:0:0:
64,192,200401,1,0,0:0:0:0:
192,192,200535,1,0,0:0:0:0:
320,192,200801,1,0,0:0:0:0:
192,192,200801,1,0,0:0:0:0:
448,192,200935,1,0,0:0:0:0:
192,192,201201,1,0,0:0:0:0:
448,192,201201,1,0,0:0:0:0:
64,192,201335,1,0,0:0:0:0:
64,192,201601,1,0,0:0:0:0:
320,192,201601,1,0,0:0:0:0:
448,192,201735,1,0,0:0:0:0:
192,192,202001,128,0,202135:0:0:0:0:
64,192,202135,128,0,202268:0:0:0:0:
320,192,202268,128,0,202401:0:0:0:0:
192,192,202401,128,0,202535:0:0:0:0:
448,192,202535,1,0,0:0:0:0:
320,192,202535,1,0,0:0:0:0:
64,192,202668,1,0,0:0:0:0:
192,192,202935,1,0,0:0:0:0:
64,192,202935,1,0,0:0:0:0:
448,192,203068,1,0,0:0:0:0:
448,192,203335,1,0,0:0:0:0:
320,192,203335,1,0,0:0:0:0:
192,192,203468,1,0,0:0:0:0:
192,192,203735,1,0,0:0:0:0:
64,192,203735,1,0,0:0:0:0:
320,192,203868,1,0,0:0:0:0:
448,192,204135,1,0,0:0:0:0:
192,192,204135,1,0,0:0:0:0:
320,192,204268,1,0,0:0:0:0:
64,192,204401,1,0,0:0:0:0:
448,192,204401,1,0,0:0:0:0:
192,192,204535,1,0,0:0:0:0:
320,192,204668,1,0,0:0:0:0:
64,192,204668,1,0,0:0:0:0:
448,192,204801,1,0,0:0:0:0:
192,192,205068,1,0,0:0:0:0:
448,192,205068,1,0,0:0:0:0:
64,192,205201,1,0,0:0:0:0:
192,192,205468,1,0,0:0:0:0:
320,192,205468,1,0,0:0:0:0:
448,192,205601,1,0,0:0:0:0:
320,192,205868,1,0,0:0:0:0:
192,192,205868,1,0,0:0:0:0:
64,192,206001,1,0,0:0:0:0:
448,192,206268,1,0,0:0:0:0:
320,192,206268,1,0,0:0:0:0:
64,192,206401,1,0,0:0:0:0:
192,192,206535,1,0,0:0:0:0:
320,192,206535,1,0,0:0:0:0:
448,192,206668,1,0,0:0:0:0:
192,192,206801,1,0,0:0:0:0:
64,192,206801,1,0,0:0:0:0:
320,192,206935,1,0,0:0:0:0:
320,192,207201,1,0,0:0:0:0:
192,192,207201,1,0,0:0:0:0:
64,192,207335,1,0,0:0:0:0:
64,192,207601,1,0,0:0:0:0:
320,192,207601,1,0,0:0:0:0:
448,192,207735,1,0,0:0:0:0:
448,192,208001,1,0,0:0:0:0:
320,192,208001,1,0,0:0:0:0:
192,192,208135,1,0,0:0:0:0:
448,192,208401,1,0,0:0:0:0:
192,192,208401,1,0,0:0:0:0:
64,192,208535,1,0,0:0:0:0:
320,192,208668,1,0,0:0:0:0:
192,192,208668,1,0,0:0:0:0:
448,192,208801,1,0,0:0:0:0:
64,192,208935,128,0,210001:0:0:0:0:
448,192,210001,128,0,211068:0:0:0:0:
64,192,210535,128,0,211068:0:0:0:0:
192,192,211068,128,0,212135:0:0:0:0:
448,192,212135,1,0,0:0:0:0:
320,192,212935,128,0,213201:0:0:0:0:
192,192,213201,128,0,213468:0:0:0:0:
64,192,213468,128,0,213735:0:0:0:0:
448,192,213735,128,0,214001:0:0:0:0:
320,192,214001,128,0,214268:0:0:0:0:
192,192,214268,128,0,215068:0:0:0:0:
448,192,214668,128,0,215068:0:0:0:0:
320,192,215068,1,0,0:0:0:0:
64,192,215068,1,0,0:0:0:0:
448,192,215335,1,0,0:0:0:0:
192,192,215335,1,0,0:0:0:0:
320,192,215468,1,0,0:0:0:0:
448,192,215601,1,0,0:0:0:0:
64,192,215601,1,0,0:0:0:0:
192,192,215868,1,0,0:0:0:0:
320,192,215868,1,0,0:0:0:0:
448,192,216135,1,0,0:0:0:0:
64,192,216135,1,0,0:0:0:0:
320,192,216401,1,0,0:0:0:0:
192,192,216401,1,0,0:0:0:0:
192,192,216668,1,0,0:0:0:0:
320,192,216668,1,0,0:0:0:0:
448,192,216935,1,0,0:0:0:0:
64,192,216935,1,0,0:0:0:0:
64,192,217201,1,0,0:0:0:0:
192,192,217201,1,0,0:0:0:0:
320,192,217468,1,0,0:0:0:0:
192,192,217468,1,0,0:0:0:0:
320,192,217735,1,0,0:0:0:0:
448,192,217735,1,0,0:0:0:0:
64,192,218001,1,0,0:0:0:0:
192,192,218001,1,0,0:0:0:0:
320,192,218201,1,0,0:0:0:0:
448,192,218401,1,0,0:0:0:0:
192,192,218535,1,0,0:0:0:0:
64,192,218535,1,0,0:0:0:0:
64,192,218735,1,0,0:0:0:0:
192,192,218735,1,0,0:0:0:0:
448,192,218935,1,0,0:0:0:0:
320,192,218935,1,0,0:0:0:0:
192,192,219135,1,0,0:0:0:0:
64,192,219135,1,0,0:0:0:0:
448,192,219601,1,0,0:0:0:0:
320,192,219601,1,0,0:0:0:0:
192,192,219868,1,0,0:0:0:0:
64,192,219868,1,0,0:0:0:0:
320,192,220135,1,0,0:0:0:0:
448,192,220135,1,0,0:0:0:0:
192,192,220401,1,0,0:0:0:0:
64,192,220401,1,0,0:0:0:0:
448,192,220668,1,0,0:0:0:0:
320,192,220668,1,0,0:0:0:0:
448,192,220801,1,0,0:0:0:0:
192,192,221068,1,0,0:0:0:0:
64,192,221068,1,0,0:0:0:0:
64,192,221335,1,0,0:0:0:0:
192,192,221335,1,0,0:0:0:0:
448,192,221601,1,0,0:0:0:0:
64,192,221735,1,0,0:0:0:0:
192,192,221735,1,0,0:0:0:0:
320,192,222001,1,0,0:0:0:0:
192,192,222001,1,0,0:0:0:0:
320,192,222268,1,0,0:0:0:0:
448,192,222268,1,0,0:0:0:0:
192,192,222535,1,0,0:0:0:0:
64,192,222535,1,0,0:0:0:0:
320,192,222801,1,0,0:0:0:0:
448,192,222801,1,0,0:0:0:0:
320,192,223001,1,0,0:0:0:0:
448,192,223001,1,0,0:0:0:0:
320,192,223201,1,0,0:0:0:0:
448,192,223201,1,0,0:0:0:0:
192,192,223468,1,0,0:0:0:0:
64,192,223468,1,0,0:0:0:0:
448,192,223735,1,0,0:0:0:0:
64,192,223801,1,0,0:0:0:0:
320,192,223868,1,0,0:0:0:0:
192,192,224135,1,0,0:0:0:0:
448,192,224135,1,0,0:0:0:0:
64,192,224401,1,0,0:0:0:0:
192,192,224535,1,0,0:0:0:0:
320,192,224668,1,0,0:0:0:0:
448,192,224668,1,0,0:0:0:0:
64,192,224935,1,0,0:0:0:0:
192,192,225068,1,0,0:0:0:0:
64,192,225201,1,0,0:0:0:0:
448,192,225201,1,0,0:0:0:0:
320,192,225335,1,0,0:0:0:0:
64,192,225468,1,0,0:0:0:0:
448,192,225468,1,0,0:0:0:0:
192,192,225601,1,0,0:0:0:0:
320,192,225735,1,0,0:0:0:0:
64,192,225735,1,0,0:0:0:0:
192,192,225868,1,0,0:0:0:0:
448,192,226001,128,0,226268:0:0:0:0:
64,192,226001,128,0,226268:0:0:0:0:
320,192,226401,128,0,226668:0:0:0:0:
64,192,226401,128,0,226668:0:0:0:0:
448,192,226801,128,0,227068:0:0:0:0:
192,192,226801,128,0,227068:0:0:0:0:
448,192,227201,128,0,227468:0:0:0:0:
64,192,227201,128,0,227468:0:0:0:0:
320,192,227468,128,0,227601:0:0:0:0:
192,192,227601,128,0,227735:0:0:0:0:
64,192,227735,128,0,227868:0:0:0:0:
448,192,227868,128,0,228001:0:0:0:0:
320,192,228001,128,0,228135:0:0:0:0:
192,192,228135,128,0,231335:0:0:0:0:
448,192,228401,1,0,0:0:0:0:
320,192,228401,1,0,0:0:0:0:
64,192,228668,1,0,0:0:0:0:
448,192,228935,1,0,0:0:0:0:
64,192,228935,1,0,0:0:0:0:
320,192,229201,1,0,0:0:0:0:
64,192,229468,1,0,0:0:0:0:
320,192,229468,1,0,0:0:0:0:
448,192,229735,1,0,0:0:0:0:
320,192,230001,1,0,0:0:0:0:
64,192,230001,1,0,0:0:0:0:
448,192,230268,1,0,0:0:0:0:
448,192,230535,1,0,0:0:0:0:
64,192,230535,1,0,0:0:0:0:
320,192,230801,1,0,0:0:0:0:
320,192,231068,1,0,0:0:0:0:
448,192,231068,1,0,0:0:0:0:
64,192,231335,1,0,0:0:0:0:
448,192,231601,1,0,0:0:0:0:
64,192,231601,1,0,0:0:0:0:
192,192,231868,128,0,232401:0:0:0:0:
320,192,232135,1,0,0:0:0:0:
64,192,232135,1,0,0:0:0:0:
448,192,232401,128,0,234268:0:0:0:0:
64,192,232535,1,0,0:0:0:0:
192,192,232668,1,0,0:0:0:0:
320,192,232668,1,0,0:0:0:0:
64,192,232935,1,0,0:0:0:0:
64,192,233201,1,0,0:0:0:0:
320,192,233201,1,0,0:0:0:0:
192,192,233468,1,0,0:0:0:0:
320,192,233735,1,0,0:0:0:0:
192,192,233735,1,0,0:0:0:0:
64,192,234001,1,0,0:0:0:0:
320,192,234268,1,0,0:0:0:0:
64,192,234268,1,0,0:0:0:0:
192,192,234535,1,0,0:0:0:0:
448,192,234535,1,0,0:0:0:0:
448,192,234801,1,0,0:0:0:0:
192,192,234801,1,0,0:0:0:0:
64,192,235068,1,0,0:0:0:0:
320,192,235068,1,0,0:0:0:0:
448,192,235335,1,0,0:0:0:0:
320,192,235335,1,0,0:0:0:0:
64,192,235601,1,0,0:0:0:0:
192,192,235601,1,0,0:0:0:0:
64,192,235801,1,0,0:0:0:0:
192,192,235801,1,0,0:0:0:0:
320,192,236001,1,0,0:0:0:0:
448,192,236001,1,0,0:0:0:0:
192,192,236201,1,0,0:0:0:0:
64,192,236201,1,0,0:0:0:0:
448,192,236401,128,0,236668:0:0:0:0:
192,192,236668,128,0,236801:0:0:0:0:
320,192,236801,128,0,236935:0:0:0:0:
448,192,236935,1,0,0:0:0:0:
64,192,236935,1,0,0:0:0:0:
320,192,237201,1,0,0:0:0:0:
192,192,237201,1,0,0:0:0:0:
448,192,237335,1,0,0:0:0:0:
192,192,237468,1,0,0:0:0:0:
64,192,237601,1,0,0:0:0:0:
448,192,237735,1,0,0:0:0:0:
320,192,237735,1,0,0:0:0:0:
192,192,237868,1,0,0:0:0:0:
448,192,238135,1,0,0:0:0:0:
64,192,238135,1,0,0:0:0:0:
192,192,238401,1,0,0:0:0:0:
320,192,238401,1,0,0:0:0:0:
448,192,238668,1,0,0:0:0:0:
64,192,238735,1,0,0:0:0:0:
320,192,238801,1,0,0:0:0:0:
448,192,239068,1,0,0:0:0:0:
64,192,239068,1,0,0:0:0:0:
192,192,239201,1,0,0:0:0:0:
320,192,239335,1,0,0:0:0:0:
64,192,239535,1,0,0:0:0:0:
64,192,239735,1,0,0:0:0:0:
448,192,239868,1,0,0:0:0:0:
320,192,239868,1,0,0:0:0:0:
448,192,240068,1,0,0:0:0:0:
320,192,240068,1,0,0:0:0:0:
192,192,240268,1,0,0:0:0:0:
64,192,240535,1,0,0:0:0:0:
320,192,240801,1,0,0:0:0:0:
64,192,240868,1,0,0:0:0:0:
448,192,240935,1,0,0:0:0:0:
64,192,241201,128,0,241335:0:0:0:0:
192,192,241335,128,0,241468:0:0:0:0:
448,192,241468,128,0,241601:0:0:0:0:
320,192,241601,128,0,241735:0:0:0:0:
192,192,241735,1,0,0:0:0:0:
64,192,241868,1,0,0:0:0:0:
448,192,242001,1,0,0:0:0:0:
320,192,242135,1,0,0:0:0:0:
192,192,242268,1,0,0:0:0:0:
64,192,242535,1,0,0:0:0:0:
192,192,242668,1,0,0:0:0:0:
320,192,242801,1,0,0:0:0:0:
448,192,243068,128,0,244935:0:0:0:0:
192,192,243068,128,0,243201:0:0:0:0:
64,192,243468,128,0,243601:0:0:0:0:
192,192,244001,128,0,244135:0:0:0:0:
192,192,245201,128,0,245601:0:0:0:0:
448,192,245201,128,0,245335:0:0:0:0:
64,192,245601,128,0,246135:0:0:0:0:
320,192,245601,128,0,245735:0:0:0:0:
448,192,246135,128,0,247068:0:0:0:0:
192,192,246135,128,0,246268:0:0:0:0:
192,192,247335,128,0,247735:0:0:0:0:
448,192,247335,128,0,247468:0:0:0:0:
320,192,247735,128,0,248268:0:0:0:0:
64,192,247735,128,0,247868:0:0:0:0:
448,192,248268,128,0,248401:0:0:0:0:
64,192,248268,128,0,249201:0:0:0:0:
320,192,249468,128,0,249868:0:0:0:0:
64,192,249468,128,0,249601:0:0:0:0:
448,192,249868,128,0,250401:0:0:0:0:
192,192,249868,128,0,250001:0:0:0:0:
320,192,250401,1,0,0:0:0:0:
192,192,250535,1,0,0:0:0:0:
64,192,250668,1,0,0:0:0:0:
448,192,250801,1,0,0:0:0:0:
320,192,250935,1,0,0:0:0:0:
192,192,251068,1,0,0:0:0:0:
64,192,251201,1,0,0:0:0:0:
448,192,251335,1,0,0:0:0:0:
320,192,251468,1,0,0:0:0:0:
192,192,251601,1,0,0:0:0:0:
64,192,251735,1,0,0:0:0:0:
448,192,251868,1,0,0:0:0:0:
320,192,252001,1,0,0:0:0:0:
192,192,252135,1,0,0:0:0:0:
64,192,252268,1,0,0:0:0:0:
320,192,252401,1,0,0:0:0:0:
448,192,252535,1,0,0:0:0:0:
192,192,252668,128,0,253735:0:0:0:0:
448,192,253735,128,0,254535:0:0:0:0:
320,192,254535,1,0,0:0:0:0:
64,192,254535,1,0,0:0:0:0:
448,192,254801,1,0,0:0:0:0:
192,192,254801,1,0,0:0:0:0:
320,192,254935,1,0,0:0:0:0:
64,192,255068,1,0,0:0:0:0:
448,192,255068,1,0,0:0:0:0:
192,192,255201,1,0,0:0:0:0:
320,192,255335,128,0,255468:0:0:0:0:
448,192,255468,128,0,255601:0:0:0:0:
64,192,255601,128,0,255735:0:0:0:0:
192,192,255735,128,0,255868:0:0:0:0:
448,192,255868,1,0,0:0:0:0:
64,192,255868,1,0,0:0:0:0:
320,192,256001,1,0,0:0:0:0:
192,192,256135,1,0,0:0:0:0:
448,192,256135,1,0,0:0:0:0:
320,192,256401,1,0,0:0:0:0:
64,192,256401,1,0,0:0:0:0:
192,192,256535,1,0,0:0:0:0:
448,192,256668,1,0,0:0:0:0:
64,192,256668,1,0,0:0:0:0:
192,192,256935,1,0,0:0:0:0:
448,192,257001,1,0,0:0:0:0:
64,192,257135,1,0,0:0:0:0:
320,192,257201,1,0,0:0:0:0:
64,192,257468,1,0,0:0:0:0:
448,192,257468,1,0,0:0:0:0:
320,192,257601,1,0,0:0:0:0:
192,192,257601,1,0,0:0:0:0:
448,192,257735,1,0,0:0:0:0:
448,192,257868,1,0,0:0:0:0:
64,192,258001,128,0,258201:0:0:0:0:
320,192,258001,1,0,0:0:0:0:
192,192,258201,128,0,258401:0:0:0:0:
320,192,258401,128,0,258601:0:0:0:0:
64,192,258401,1,0,0:0:0:0:
448,192,258601,128,0,258801:0:0:0:0:
192,192,258801,1,0,0:0:0:0:
320,192,258801,1,0,0:0:0:0:
448,192,259068,1,0,0:0:0:0:
64,192,259201,1,0,0:0:0:0:
320,192,259268,1,0,0:0:0:0:
192,192,259335,1,0,0:0:0:0:
320,192,259601,1,0,0:0:0:0:
64,192,259601,1,0,0:0:0:0:
448,192,259868,1,0,0:0:0:0:
192,192,259868,1,0,0:0:0:0:
320,192,260001,1,0,0:0:0:0:
64,192,260135,1,0,0:0:0:0:
448,192,260201,1,0,0:0:0:0:
192,192,260268,1,0,0:0:0:0:
320,192,260335,1,0,0:0:0:0:
64,192,260401,1,0,0:0:0:0:
320,192,260668,1,0,0:0:0:0:
448,192,260801,1,0,0:0:0:0:
192,192,260935,1,0,0:0:0:0:
192,192,261068,1,0,0:0:0:0:
448,192,261201,1,0,0:0:0:0:
64,192,261201,1,0,0:0:0:0:
320,192,261335,1,0,0:0:0:0:
64,192,261735,1,0,0:0:0:0:
448,192,261735,1,0,0:0:0:0:
192,192,261868,1,0,0:0:0:0:
448,192,262268,128,0,262801:0:0:0:0:
64,192,262268,128,0,263335:0:0:0:0:
320,192,263335,1,0,0:0:0:0:
448,192,263468,1,0,0:0:0:0:
192,192,263601,1,0,0:0:0:0:
320,192,263735,1,0,0:0:0:0:
64,192,263868,1,0,0:0:0:0:
192,192,264001,1,0,0:0:0:0:
320,192,264135,1,0,0:0:0:0:
448,192,264268,1,0,0:0:0:0:
64,192,264401,128,0,264601:0:0:0:0:
192,192,264601,1,0,0:0:0:0:
320,192,264668,1,0,0:0:0:0:
448,192,264801,1,0,0:0:0:0:
64,192,264935,1,0,0:0:0:0:
192,192,264935,1,0,0:0:0:0:
448,192,265068,1,0,0:0:0:0:
320,192,265201,1,0,0:0:0:0:
192,192,265201,1,0,0:0:0:0:
448,192,265468,128,0,265735:0:0:0:0:
64,192,265468,1,0,0:0:0:0:
192,192,265735,128,0,266001:0:0:0:0:
448,192,266001,1,0,0:0:0:0:
320,192,266135,1,0,0:0:0:0:
192,192,266268,1,0,0:0:0:0:
448,192,266535,1,0,0:0:0:0:
192,192,266535,1,0,0:0:0:0:
320,192,266668,128,0,266801:0:0:0:0:
64,192,266801,1,0,0:0:0:0:
192,192,266935,128,0,267068:0:0:0:0:
320,192,267068,1,0,0:0:0:0:
448,192,267068,1,0,0:0:0:0:
192,192,267246,1,0,0:0:0:0:
64,192,267246,1,0,0:0:0:0:
448,192,267423,1,0,0:0:0:0:
320,192,267423,1,0,0:0:0:0:
192,192,267601,128,0,267868:0:0:0:0:
64,192,267868,128,0,268135:0:0:0:0:
448,192,268135,1,0,0:0:0:0:
320,192,268135,1,0,0:0:0:0:
192,192,268268,1,0,0:0:0:0:
320,192,268401,1,0,0:0:0:0:
64,192,268668,1,0,0:0:0:0:
448,192,268668,1,0,0:0:0:0:
192,192,268801,1,0,0:0:0:0:
448,192,268935,1,0,0:0:0:0:
64,192,268935,1,0,0:0:0:0:
320,192,269068,1,0,0:0:0:0:
192,192,269201,128,0,269735:0:0:0:0:
448,192,269468,128,0,269735:0:0:0:0:
320,192,269735,1,0,0:0:0:0:
64,192,269735,1,0,0:0:0:0:
192,192,270135,1,0,0:0:0:0:
448,192,270135,1,0,0:0:0:0:
320,192,270535,1,0,0:0:0:0:
64,192,270535,1,0,0:0:0:0:
448,192,271068,1,0,0:0:0:0:
64,192,271068,1,0,0:0:0:0:
320,192,271335,128,0,271868:0:0:0:0:
192,192,271868,1,0,0:0:0:0:
320,192,272001,1,0,0:0:0:0:
448,192,272135,1,0,0:0:0:0:
320,192,272268,1,0,0:0:0:0:
64,192,272401,128,0,272535:0:0:0:0:
192,192,272668,1,0,0:0:0:0:
320,192,272801,128,0,272935:0:0:0:0:
64,192,273068,1,0,0:0:0:0:
448,192,273201,128,0,273335:0:0:0:0:
320,192,273468,1,0,0:0:0:0:
192,192,273601,128,0,273735:0:0:0:0:
448,192,273868,1,0,0:0:0:0:
320,192,274001,128,0,274135:0:0:0:0:
192,192,274268,1,0,0:0:0:0:
320,192,274401,1,0,0:0:0:0:
64,192,274535,128,0,274668:0:0:0:0:
320,192,274801,1,0,0:0:0:0:
192,192,274935,128,0,275068:0:0:0:0:
448,192,275201,1,0,0:0:0:0:
320,192,275335,128,0,275468:0:0:0:0:
64,192,275601,1,0,0:0:0:0:
192,192,275779,1,0,0:0:0:0:
320,192,275957,1,0,0:0:0:0:
448,192,276135,1,0,0:0:0:0:
64,192,276135,1,0,0:0:0:0:
192,192,276401,128,0,276535:0:0:0:0:
320,192,276668,128,0,276801:0:0:0:0:
192,192,276935,128,0,277068:0:0:0:0:
448,192,277068,128,0,277201:0:0:0:0:
64,192,277335,128,0,277468:0:0:0:0:
320,192,277468,128,0,277601:0:0:0:0:
448,192,277735,128,0,277868:0:0:0:0:
192,192,277868,128,0,278001:0:0:0:0:
320,192,278135,128,0,278268:0:0:0:0:
64,192,278268,128,0,278401:0:0:0:0:
448,192,278535,128,0,278668:0:0:0:0:
320,192,278668,128,0,278801:0:0:0:0:
192,192,278801,128,0,278935:0:0:0:0:
320,192,279068,1,0,0:0:0:0:
192,192,279157,1,0,0:0:0:0:
64,192,279246,1,0,0:0:0:0:
448,192,279335,1,0,0:0:0:0:
320,192,279335,1,0,0:0:0:0:
448,192,279535,1,0,0:0:0:0:
448,192,279735,1,0,0:0:0:0:
64,192,279868,1,0,0:0:0:0:
192,192,279868,1,0,0:0:0:0:
64,192,280068,1,0,0:0:0:0:
64,192,280268,1,0,0:0:0:0:
320,192,280401,1,0,0:0:0:0:
448,192,280401,1,0,0:0:0:0:
320,192,280601,1,0,0:0:0:0:
192,192,280801,128,0,283601:0:0:0:0:
