osu file format v14

[General]
AudioFilename: audio.ogg
AudioLeadIn: 0
PreviewTime: 85735
Countdown: 0
SampleSet: Soft
StackLeniency: 0.7
Mode: 3
LetterboxInBreaks: 0
SpecialStyle: 0
WidescreenStoryboard: 1

[Editor]
Bookmarks: 174268
DistanceSpacing: 1
BeatDivisor: 6
GridSize: 32
TimelineZoom: 2.1

[Metadata]
Title:finorza
TitleUnicode:⨍iиorzᾶ
Artist:Camellia feat. Nanahira
ArtistUnicode:かめりあ feat. ななひら
Creator:DenYi
Version:MARE's Insane
Source:
Tags:Keksikosu Niks My angel RangE MARE GungunK Nicknem_ electronic vocal japanese xronial xero xroniàl xéro cametek ft. utaite かめるかめりあ KamelCamellia 大箭将也 speedcore hardcore bass hardstyle PCCA-04883 EDP
BeatmapID:3987713
BeatmapSetID:1930425

[Difficulty]
HPDrainRate:8
CircleSize:4
OverallDifficulty:8
ApproachRate:5
SliderMultiplier:1.4
SliderTickRate:1

[Events]
//Background and Video events
0,0,"bg3.jpg",0,0
//Break Periods
//Storyboard Layer 0 (Background)
//Storyboard Layer 1 (Fail)
//Storyboard Layer 2 (Pass)
//Storyboard Layer 3 (Foreground)
//Storyboard Layer 4 (Overlay)
//Storyboard Sound Samples

[TimingPoints]
4135,266.666666666667,4,2,1,50,1,0
86268,-100,4,2,1,50,0,1
106535,-100,4,2,1,50,0,0
215335,-100,4,2,1,50,0,1
227468,-100,4,2,1,50,0,0
228401,-100,4,2,1,50,0,1
236668,-100,4,2,1,50,0,0
236935,-100,4,2,1,50,0,1
252668,-100,4,2,1,50,0,0

[HitObjects]
448,192,4135,128,0,6135:0:0:0:0:
192,192,4135,128,0,5601:0:0:0:0:
64,192,4668,128,0,7735:0:0:0:0:
320,192,5201,128,0,7735:0:0:0:0:
192,192,5735,128,0,8268:0:0:0:0:
448,192,6268,128,0,8268:0:0:0:0:
320,192,7868,128,0,8801:0:0:0:0:
64,192,7868,128,0,8801:0:0:0:0:
192,192,8401,128,0,8801:0:0:0:0:
448,192,8401,128,0,8801:0:0:0:0:
320,192,8935,128,0,12135:0:0:0:0:
64,192,8935,128,0,10401:0:0:0:0:
192,192,9468,128,0,12135:0:0:0:0:
448,192,10001,128,0,12068:0:0:0:0:
64,192,10535,128,0,12135:0:0:0:0:
448,192,12135,128,0,12668:0:0:0:0:
64,192,12668,128,0,14268:0:0:0:0:
192,192,12668,1,0,0:0:0:0:
320,192,12801,1,0,0:0:0:0:
192,192,12935,1,0,0:0:0:0:
320,192,13068,1,0,0:0:0:0:
448,192,13735,1,0,0:0:0:0:
320,192,13735,1,0,0:0:0:0:
192,192,13868,1,0,0:0:0:0:
320,192,14001,1,0,0:0:0:0:
192,192,14135,1,0,0:0:0:0:
192,192,14535,128,0,14801:0:0:0:0:
448,192,14801,1,0,0:0:0:0:
320,192,14801,128,0,15068:0:0:0:0:
64,192,14935,1,0,0:0:0:0:
448,192,15068,128,0,15335:0:0:0:0:
192,192,15201,1,0,0:0:0:0:
64,192,15335,128,0,15601:0:0:0:0:
320,192,15601,128,0,15868:0:0:0:0:
192,192,15868,128,0,16268:0:0:0:0:
64,192,15868,1,0,0:0:0:0:
448,192,16001,1,0,0:0:0:0:
64,192,16135,1,0,0:0:0:0:
448,192,16268,128,0,16668:0:0:0:0:
192,192,16668,128,0,16935:0:0:0:0:
64,192,16935,1,0,0:0:0:0:
320,192,16935,128,0,18535:0:0:0:0:
192,192,17068,1,0,0:0:0:0:
448,192,17201,1,0,0:0:0:0:
64,192,17335,1,0,0:0:0:0:
64,192,18001,1,0,0:0:0:0:
448,192,18001,1,0,0:0:0:0:
192,192,18135,1,0,0:0:0:0:
64,192,18268,1,0,0:0:0:0:
448,192,18401,1,0,0:0:0:0:
192,192,18801,128,0,19068:0:0:0:0:
320,192,19068,128,0,19335:0:0:0:0:
64,192,19068,1,0,0:0:0:0:
192,192,19201,1,0,0:0:0:0:
448,192,19335,128,0,19601:0:0:0:0:
64,192,19468,1,0,0:0:0:0:
192,192,19601,128,0,19868:0:0:0:0:
64,192,19868,128,0,20135:0:0:0:0:
320,192,20135,128,0,20668:0:0:0:0:
448,192,20135,1,0,0:0:0:0:
192,192,20535,1,0,0:0:0:0:
448,192,20668,128,0,21201:0:0:0:0:
64,192,20801,1,0,0:0:0:0:
192,192,20935,1,0,0:0:0:0:
320,192,21068,1,0,0:0:0:0:
64,192,21201,1,0,0:0:0:0:
192,192,21201,128,0,22801:0:0:0:0:
320,192,21335,1,0,0:0:0:0:
448,192,21468,1,0,0:0:0:0:
64,192,21601,1,0,0:0:0:0:
320,192,22268,1,0,0:0:0:0:
448,192,22268,1,0,0:0:0:0:
64,192,22401,1,0,0:0:0:0:
320,192,22535,1,0,0:0:0:0:
64,192,22668,1,0,0:0:0:0:
448,192,23068,128,0,23335:0:0:0:0:
320,192,23335,128,0,23601:0:0:0:0:
192,192,23335,1,0,0:0:0:0:
64,192,23468,1,0,0:0:0:0:
192,192,23601,128,0,23868:0:0:0:0:
448,192,23735,1,0,0:0:0:0:
64,192,23868,128,0,24135:0:0:0:0:
448,192,24135,128,0,24401:0:0:0:0:
320,192,24401,128,0,24801:0:0:0:0:
192,192,24401,1,0,0:0:0:0:
64,192,24535,1,0,0:0:0:0:
448,192,24668,1,0,0:0:0:0:
192,192,24801,128,0,25201:0:0:0:0:
64,192,24935,1,0,0:0:0:0:
64,192,25201,128,0,25468:0:0:0:0:
448,192,25468,128,0,26801:0:0:0:0:
320,192,25468,1,0,0:0:0:0:
192,192,25601,1,0,0:0:0:0:
64,192,25735,1,0,0:0:0:0:
320,192,25868,1,0,0:0:0:0:
64,192,26535,1,0,0:0:0:0:
192,192,26668,1,0,0:0:0:0:
320,192,26801,1,0,0:0:0:0:
64,192,26935,1,0,0:0:0:0:
320,192,27068,128,0,27335:0:0:0:0:
192,192,27335,128,0,27601:0:0:0:0:
320,192,27601,128,0,28001:0:0:0:0:
448,192,27601,128,0,27868:0:0:0:0:
64,192,27601,128,0,27868:0:0:0:0:
64,192,28001,128,0,28401:0:0:0:0:
192,192,28001,128,0,28401:0:0:0:0:
448,192,28001,128,0,28401:0:0:0:0:
448,192,28535,128,0,30001:0:0:0:0:
320,192,28535,128,0,30001:0:0:0:0:
64,192,28535,128,0,30001:0:0:0:0:
64,192,30135,1,0,0:0:0:0:
192,192,30201,1,0,0:0:0:0:
320,192,30268,1,0,0:0:0:0:
448,192,30335,1,0,0:0:0:0:
64,192,30401,1,0,0:0:0:0:
192,192,30468,1,0,0:0:0:0:
320,192,30535,1,0,0:0:0:0:
448,192,30601,1,0,0:0:0:0:
64,192,30668,1,0,0:0:0:0:
192,192,30801,1,0,0:0:0:0:
448,192,30801,1,0,0:0:0:0:
320,192,30801,128,0,31335:0:0:0:0:
64,192,31335,128,0,31868:0:0:0:0:
192,192,31335,1,0,0:0:0:0:
320,192,31601,1,0,0:0:0:0:
192,192,31735,1,0,0:0:0:0:
448,192,31868,128,0,32401:0:0:0:0:
320,192,32001,1,0,0:0:0:0:
192,192,32135,1,0,0:0:0:0:
64,192,32268,1,0,0:0:0:0:
320,192,32401,1,0,0:0:0:0:
192,192,32401,128,0,32935:0:0:0:0:
64,192,32535,1,0,0:0:0:0:
320,192,32668,1,0,0:0:0:0:
448,192,32801,1,0,0:0:0:0:
64,192,32935,128,0,34001:0:0:0:0:
320,192,32935,1,0,0:0:0:0:
320,192,33201,1,0,0:0:0:0:
192,192,33468,1,0,0:0:0:0:
448,192,33468,1,0,0:0:0:0:
192,192,33868,1,0,0:0:0:0:
320,192,34001,1,0,0:0:0:0:
448,192,34135,1,0,0:0:0:0:
192,192,34268,1,0,0:0:0:0:
320,192,34401,1,0,0:0:0:0:
64,192,34535,1,0,0:0:0:0:
192,192,34535,1,0,0:0:0:0:
192,192,34801,1,0,0:0:0:0:
320,192,34801,1,0,0:0:0:0:
320,192,35068,1,0,0:0:0:0:
448,192,35068,1,0,0:0:0:0:
192,192,35335,1,0,0:0:0:0:
64,192,35601,128,0,36135:0:0:0:0:
320,192,35601,1,0,0:0:0:0:
192,192,35868,1,0,0:0:0:0:
320,192,36001,1,0,0:0:0:0:
448,192,36135,128,0,36668:0:0:0:0:
192,192,36268,1,0,0:0:0:0:
64,192,36401,1,0,0:0:0:0:
320,192,36535,1,0,0:0:0:0:
64,192,36668,1,0,0:0:0:0:
192,192,36668,128,0,37201:0:0:0:0:
320,192,36935,1,0,0:0:0:0:
64,192,37068,1,0,0:0:0:0:
320,192,37201,128,0,38668:0:0:0:0:
448,192,37201,1,0,0:0:0:0:
192,192,37468,1,0,0:0:0:0:
64,192,37735,128,0,38668:0:0:0:0:
448,192,37735,128,0,38668:0:0:0:0:
192,192,38801,1,0,0:0:0:0:
320,192,38868,1,0,0:0:0:0:
448,192,38935,1,0,0:0:0:0:
64,192,39001,1,0,0:0:0:0:
192,192,39068,1,0,0:0:0:0:
320,192,39135,1,0,0:0:0:0:
192,192,39201,1,0,0:0:0:0:
64,192,39268,1,0,0:0:0:0:
320,192,39335,1,0,0:0:0:0:
448,192,39335,1,0,0:0:0:0:
192,192,39401,1,0,0:0:0:0:
64,192,39468,1,0,0:0:0:0:
448,192,39468,1,0,0:0:0:0:
320,192,39535,1,0,0:0:0:0:
64,192,39735,1,0,0:0:0:0:
448,192,39735,1,0,0:0:0:0:
192,192,39801,1,0,0:0:0:0:
320,192,39868,1,0,0:0:0:0:
448,192,39868,1,0,0:0:0:0:
64,192,39935,1,0,0:0:0:0:
320,192,40135,1,0,0:0:0:0:
448,192,40268,1,0,0:0:0:0:
320,192,40401,1,0,0:0:0:0:
192,192,40535,1,0,0:0:0:0:
64,192,40668,1,0,0:0:0:0:
448,192,40668,1,0,0:0:0:0:
192,192,40801,1,0,0:0:0:0:
64,192,40935,1,0,0:0:0:0:
192,192,41068,1,0,0:0:0:0:
320,192,41201,1,0,0:0:0:0:
448,192,41335,1,0,0:0:0:0:
192,192,41468,1,0,0:0:0:0:
64,192,41468,1,0,0:0:0:0:
320,192,41535,1,0,0:0:0:0:
448,192,41601,1,0,0:0:0:0:
64,192,41601,1,0,0:0:0:0:
192,192,41668,1,0,0:0:0:0:
64,192,41868,1,0,0:0:0:0:
448,192,41868,1,0,0:0:0:0:
320,192,41935,1,0,0:0:0:0:
192,192,42001,1,0,0:0:0:0:
64,192,42001,1,0,0:0:0:0:
448,192,42068,1,0,0:0:0:0:
192,192,42268,1,0,0:0:0:0:
64,192,42401,1,0,0:0:0:0:
192,192,42535,1,0,0:0:0:0:
320,192,42668,1,0,0:0:0:0:
448,192,42801,1,0,0:0:0:0:
64,192,42935,1,0,0:0:0:0:
192,192,43068,1,0,0:0:0:0:
64,192,43201,1,0,0:0:0:0:
320,192,43201,1,0,0:0:0:0:
448,192,43201,1,0,0:0:0:0:
64,192,43401,1,0,0:0:0:0:
192,192,43401,1,0,0:0:0:0:
448,192,43401,1,0,0:0:0:0:
320,192,43601,1,0,0:0:0:0:
448,192,43601,1,0,0:0:0:0:
192,192,43668,1,0,0:0:0:0:
448,192,43735,1,0,0:0:0:0:
64,192,43735,1,0,0:0:0:0:
320,192,43801,1,0,0:0:0:0:
448,192,44001,1,0,0:0:0:0:
64,192,44001,1,0,0:0:0:0:
192,192,44068,1,0,0:0:0:0:
320,192,44135,1,0,0:0:0:0:
448,192,44135,1,0,0:0:0:0:
64,192,44201,1,0,0:0:0:0:
192,192,44401,1,0,0:0:0:0:
320,192,44401,1,0,0:0:0:0:
448,192,44468,1,0,0:0:0:0:
64,192,44535,1,0,0:0:0:0:
192,192,44535,1,0,0:0:0:0:
320,192,44601,1,0,0:0:0:0:
64,192,44801,1,0,0:0:0:0:
448,192,44801,1,0,0:0:0:0:
320,192,44868,1,0,0:0:0:0:
448,192,44935,1,0,0:0:0:0:
192,192,44935,1,0,0:0:0:0:
64,192,45001,1,0,0:0:0:0:
64,192,45201,1,0,0:0:0:0:
192,192,45201,1,0,0:0:0:0:
448,192,45290,1,0,0:0:0:0:
320,192,45290,1,0,0:0:0:0:
64,192,45379,1,0,0:0:0:0:
320,192,45468,1,0,0:0:0:0:
192,192,45468,1,0,0:0:0:0:
448,192,45557,1,0,0:0:0:0:
64,192,45646,1,0,0:0:0:0:
192,192,45646,1,0,0:0:0:0:
320,192,45735,128,0,46535:0:0:0:0:
448,192,45735,128,0,46535:0:0:0:0:
64,192,46801,1,0,0:0:0:0:
192,192,46868,1,0,0:0:0:0:
448,192,46935,1,0,0:0:0:0:
320,192,47001,1,0,0:0:0:0:
64,192,47068,1,0,0:0:0:0:
192,192,47135,1,0,0:0:0:0:
448,192,47201,1,0,0:0:0:0:
320,192,47268,1,0,0:0:0:0:
192,192,47335,1,0,0:0:0:0:
64,192,47401,1,0,0:0:0:0:
320,192,47468,1,0,0:0:0:0:
448,192,47535,1,0,0:0:0:0:
64,192,47601,1,0,0:0:0:0:
320,192,47601,1,0,0:0:0:0:
192,192,47601,128,0,47868:0:0:0:0:
320,192,47868,1,0,0:0:0:0:
64,192,47868,1,0,0:0:0:0:
448,192,47868,128,0,48001:0:0:0:0:
320,192,48001,128,0,48135:0:0:0:0:
192,192,48135,1,0,0:0:0:0:
448,192,48135,1,0,0:0:0:0:
64,192,48135,128,0,48268:0:0:0:0:
192,192,48268,128,0,48401:0:0:0:0:
448,192,48401,1,0,0:0:0:0:
320,192,48401,128,0,48535:0:0:0:0:
64,192,48535,128,0,48668:0:0:0:0:
192,192,48668,1,0,0:0:0:0:
448,192,48668,1,0,0:0:0:0:
320,192,48668,128,0,48801:0:0:0:0:
64,192,48801,128,0,48935:0:0:0:0:
192,192,48935,1,0,0:0:0:0:
448,192,48935,128,0,49068:0:0:0:0:
320,192,49068,128,0,49201:0:0:0:0:
192,192,49201,1,0,0:0:0:0:
64,192,49201,1,0,0:0:0:0:
448,192,49201,128,0,49335:0:0:0:0:
320,192,49335,128,0,49468:0:0:0:0:
64,192,49468,128,0,49601:0:0:0:0:
448,192,49468,1,0,0:0:0:0:
192,192,49601,128,0,49735:0:0:0:0:
448,192,49735,1,0,0:0:0:0:
320,192,49735,1,0,0:0:0:0:
64,192,49735,128,0,49868:0:0:0:0:
192,192,49868,128,0,50001:0:0:0:0:
320,192,49868,1,0,0:0:0:0:
64,192,50001,1,0,0:0:0:0:
448,192,50001,128,0,50135:0:0:0:0:
320,192,50135,128,0,50268:0:0:0:0:
192,192,50268,1,0,0:0:0:0:
64,192,50268,1,0,0:0:0:0:
448,192,50268,128,0,50401:0:0:0:0:
320,192,50401,128,0,50535:0:0:0:0:
448,192,50535,1,0,0:0:0:0:
192,192,50535,128,0,50668:0:0:0:0:
64,192,50668,128,0,50801:0:0:0:0:
448,192,50801,1,0,0:0:0:0:
320,192,50801,128,0,50935:0:0:0:0:
192,192,50801,1,0,0:0:0:0:
448,192,50935,128,0,51068:0:0:0:0:
64,192,51068,1,0,0:0:0:0:
192,192,51068,128,0,51201:0:0:0:0:
320,192,51201,128,0,51335:0:0:0:0:
448,192,51335,1,0,0:0:0:0:
64,192,51335,1,0,0:0:0:0:
192,192,51335,128,0,51468:0:0:0:0:
320,192,51468,128,0,51601:0:0:0:0:
448,192,51535,1,0,0:0:0:0:
192,192,51601,1,0,0:0:0:0:
64,192,51601,128,0,51735:0:0:0:0:
320,192,51735,1,0,0:0:0:0:
448,192,51735,128,0,51868:0:0:0:0:
192,192,51868,1,0,0:0:0:0:
64,192,51868,128,0,52001:0:0:0:0:
320,192,52001,128,0,52135:0:0:0:0:
64,192,52135,1,0,0:0:0:0:
192,192,52135,1,0,0:0:0:0:
448,192,52135,128,0,52268:0:0:0:0:
192,192,52268,1,0,0:0:0:0:
320,192,52268,128,0,52401:0:0:0:0:
64,192,52401,1,0,0:0:0:0:
448,192,52401,1,0,0:0:0:0:
192,192,52401,128,0,52535:0:0:0:0:
320,192,52535,1,0,0:0:0:0:
448,192,52535,128,0,52668:0:0:0:0:
192,192,52668,1,0,0:0:0:0:
64,192,52668,128,0,52801:0:0:0:0:
320,192,52801,128,0,52935:0:0:0:0:
192,192,52935,128,0,53068:0:0:0:0:
448,192,52935,1,0,0:0:0:0:
64,192,52935,1,0,0:0:0:0:
320,192,53068,128,0,53201:0:0:0:0:
64,192,53135,1,0,0:0:0:0:
192,192,53201,1,0,0:0:0:0:
448,192,53201,128,0,53335:0:0:0:0:
64,192,53335,128,0,53468:0:0:0:0:
448,192,53468,1,0,0:0:0:0:
192,192,53468,1,0,0:0:0:0:
320,192,53468,128,0,53601:0:0:0:0:
192,192,53601,128,0,53735:0:0:0:0:
64,192,53735,1,0,0:0:0:0:
448,192,53735,128,0,53868:0:0:0:0:
320,192,53801,1,0,0:0:0:0:
64,192,53868,128,0,54001:0:0:0:0:
192,192,53935,1,0,0:0:0:0:
448,192,54001,1,0,0:0:0:0:
320,192,54001,128,0,54135:0:0:0:0:
192,192,54135,128,0,54268:0:0:0:0:
320,192,54268,1,0,0:0:0:0:
64,192,54268,1,0,0:0:0:0:
448,192,54268,1,0,0:0:0:0:
192,192,54401,128,0,54668:0:0:0:0:
64,192,54401,128,0,54668:0:0:0:0:
448,192,54401,128,0,54535:0:0:0:0:
320,192,54535,1,0,0:0:0:0:
448,192,54668,1,0,0:0:0:0:
64,192,54801,1,0,0:0:0:0:
320,192,54801,1,0,0:0:0:0:
192,192,54801,1,0,0:0:0:0:
320,192,54935,128,0,55068:0:0:0:0:
64,192,54935,128,0,55201:0:0:0:0:
448,192,54935,128,0,55201:0:0:0:0:
192,192,55068,1,0,0:0:0:0:
320,192,55201,1,0,0:0:0:0:
64,192,55335,1,0,0:0:0:0:
192,192,55335,1,0,0:0:0:0:
448,192,55335,1,0,0:0:0:0:
64,192,55601,1,0,0:0:0:0:
192,192,55668,1,0,0:0:0:0:
320,192,55735,1,0,0:0:0:0:
448,192,55801,1,0,0:0:0:0:
192,192,55868,1,0,0:0:0:0:
64,192,55935,1,0,0:0:0:0:
448,192,56001,1,0,0:0:0:0:
320,192,56068,1,0,0:0:0:0:
192,192,56135,1,0,0:0:0:0:
64,192,56201,1,0,0:0:0:0:
320,192,56268,1,0,0:0:0:0:
448,192,56335,1,0,0:0:0:0:
192,192,56401,1,0,0:0:0:0:
64,192,56401,1,0,0:0:0:0:
320,192,56468,1,0,0:0:0:0:
192,192,56535,1,0,0:0:0:0:
448,192,56535,1,0,0:0:0:0:
320,192,56601,1,0,0:0:0:0:
192,192,56668,1,0,0:0:0:0:
64,192,56668,1,0,0:0:0:0:
448,192,56668,128,0,56801:0:0:0:0:
320,192,56801,128,0,56935:0:0:0:0:
192,192,56935,1,0,0:0:0:0:
64,192,56935,128,0,57068:0:0:0:0:
320,192,57068,1,0,0:0:0:0:
192,192,57068,128,0,57201:0:0:0:0:
320,192,57201,1,0,0:0:0:0:
448,192,57201,1,0,0:0:0:0:
64,192,57201,128,0,57335:0:0:0:0:
192,192,57335,128,0,57468:0:0:0:0:
320,192,57468,1,0,0:0:0:0:
448,192,57468,128,0,57601:0:0:0:0:
64,192,57601,128,0,57735:0:0:0:0:
320,192,57735,1,0,0:0:0:0:
192,192,57735,1,0,0:0:0:0:
448,192,57735,128,0,57868:0:0:0:0:
64,192,57868,128,0,58001:0:0:0:0:
448,192,58001,1,0,0:0:0:0:
320,192,58001,128,0,58135:0:0:0:0:
192,192,58135,128,0,58268:0:0:0:0:
64,192,58201,1,0,0:0:0:0:
320,192,58268,1,0,0:0:0:0:
448,192,58268,128,0,58401:0:0:0:0:
192,192,58401,1,0,0:0:0:0:
64,192,58401,128,0,58535:0:0:0:0:
320,192,58535,1,0,0:0:0:0:
448,192,58535,128,0,58668:0:0:0:0:
64,192,58668,1,0,0:0:0:0:
192,192,58701,1,0,0:0:0:0:
320,192,58735,1,0,0:0:0:0:
448,192,58768,1,0,0:0:0:0:
192,192,58801,1,0,0:0:0:0:
64,192,58801,1,0,0:0:0:0:
320,192,58935,1,0,0:0:0:0:
448,192,58935,1,0,0:0:0:0:
192,192,59001,1,0,0:0:0:0:
64,192,59001,1,0,0:0:0:0:
448,192,59068,1,0,0:0:0:0:
320,192,59068,128,0,59201:0:0:0:0:
64,192,59201,128,0,59335:0:0:0:0:
448,192,59335,1,0,0:0:0:0:
320,192,59335,1,0,0:0:0:0:
192,192,59335,128,0,59468:0:0:0:0:
64,192,59468,128,0,59601:0:0:0:0:
320,192,59601,1,0,0:0:0:0:
448,192,59601,128,0,59735:0:0:0:0:
320,192,59735,128,0,59868:0:0:0:0:
64,192,59801,1,0,0:0:0:0:
448,192,59868,1,0,0:0:0:0:
192,192,59868,1,0,0:0:0:0:
64,192,59935,1,0,0:0:0:0:
448,192,60001,1,0,0:0:0:0:
320,192,60068,1,0,0:0:0:0:
192,192,60135,1,0,0:0:0:0:
64,192,60135,1,0,0:0:0:0:
320,192,60223,1,0,0:0:0:0:
448,192,60223,1,0,0:0:0:0:
192,192,60312,1,0,0:0:0:0:
64,192,60312,1,0,0:0:0:0:
320,192,60401,1,0,0:0:0:0:
448,192,60401,1,0,0:0:0:0:
192,192,60535,1,0,0:0:0:0:
448,192,60668,1,0,0:0:0:0:
64,192,60668,128,0,60801:0:0:0:0:
320,192,60801,1,0,0:0:0:0:
192,192,60801,128,0,60935:0:0:0:0:
448,192,60935,1,0,0:0:0:0:
64,192,60935,1,0,0:0:0:0:
320,192,60935,128,0,61068:0:0:0:0:
192,192,61068,128,0,61201:0:0:0:0:
320,192,61201,1,0,0:0:0:0:
448,192,61201,128,0,61335:0:0:0:0:
64,192,61335,128,0,61468:0:0:0:0:
192,192,61468,1,0,0:0:0:0:
448,192,61468,1,0,0:0:0:0:
320,192,61468,128,0,61601:0:0:0:0:
192,192,61601,128,0,61735:0:0:0:0:
320,192,61735,1,0,0:0:0:0:
448,192,61735,1,0,0:0:0:0:
64,192,61735,1,0,0:0:0:0:
192,192,61868,1,0,0:0:0:0:
320,192,61868,1,0,0:0:0:0:
192,192,62001,1,0,0:0:0:0:
64,192,62001,1,0,0:0:0:0:
320,192,62135,1,0,0:0:0:0:
448,192,62135,1,0,0:0:0:0:
192,192,62268,1,0,0:0:0:0:
64,192,62268,1,0,0:0:0:0:
320,192,62357,1,0,0:0:0:0:
448,192,62446,1,0,0:0:0:0:
192,192,62535,1,0,0:0:0:0:
64,192,62623,1,0,0:0:0:0:
320,192,62712,1,0,0:0:0:0:
192,192,62801,128,0,63068:0:0:0:0:
64,192,62801,128,0,63068:0:0:0:0:
448,192,62801,128,0,63068:0:0:0:0:
320,192,63068,1,0,0:0:0:0:
64,192,63201,128,0,63468:0:0:0:0:
448,192,63201,128,0,63468:0:0:0:0:
320,192,63201,128,0,63468:0:0:0:0:
192,192,63468,1,0,0:0:0:0:
192,192,63601,128,0,63868:0:0:0:0:
64,192,63601,128,0,63868:0:0:0:0:
448,192,63601,128,0,63868:0:0:0:0:
320,192,63868,1,0,0:0:0:0:
448,192,63935,1,0,0:0:0:0:
192,192,64001,1,0,0:0:0:0:
64,192,64068,1,0,0:0:0:0:
320,192,64135,1,0,0:0:0:0:
448,192,64135,1,0,0:0:0:0:
192,192,64201,1,0,0:0:0:0:
64,192,64268,1,0,0:0:0:0:
448,192,64335,1,0,0:0:0:0:
320,192,64401,1,0,0:0:0:0:
192,192,64468,1,0,0:0:0:0:
64,192,64535,1,0,0:0:0:0:
320,192,64601,1,0,0:0:0:0:
448,192,64668,1,0,0:0:0:0:
64,192,64735,1,0,0:0:0:0:
192,192,64801,1,0,0:0:0:0:
320,192,64868,1,0,0:0:0:0:
64,192,64935,1,0,0:0:0:0:
192,192,64935,1,0,0:0:0:0:
448,192,64935,128,0,65201:0:0:0:0:
320,192,65201,128,0,65468:0:0:0:0:
64,192,65201,1,0,0:0:0:0:
192,192,65468,128,0,65735:0:0:0:0:
448,192,65468,1,0,0:0:0:0:
64,192,65735,128,0,66001:0:0:0:0:
448,192,66001,128,0,66535:0:0:0:0:
192,192,66268,1,0,0:0:0:0:
320,192,66535,128,0,67068:0:0:0:0:
64,192,66668,1,0,0:0:0:0:
448,192,66801,1,0,0:0:0:0:
192,192,66935,1,0,0:0:0:0:
64,192,67068,128,0,67868:0:0:0:0:
448,192,67201,1,0,0:0:0:0:
320,192,67335,1,0,0:0:0:0:
192,192,67468,1,0,0:0:0:0:
448,192,67601,1,0,0:0:0:0:
320,192,67735,1,0,0:0:0:0:
192,192,67868,128,0,68135:0:0:0:0:
320,192,68001,1,0,0:0:0:0:
448,192,68135,128,0,68535:0:0:0:0:
192,192,68401,1,0,0:0:0:0:
320,192,68535,128,0,68935:0:0:0:0:
64,192,68668,1,0,0:0:0:0:
448,192,68801,1,0,0:0:0:0:
192,192,68935,1,0,0:0:0:0:
64,192,69001,1,0,0:0:0:0:
448,192,69068,1,0,0:0:0:0:
320,192,69135,1,0,0:0:0:0:
192,192,69201,1,0,0:0:0:0:
64,192,69201,1,0,0:0:0:0:
448,192,69268,1,0,0:0:0:0:
64,192,69335,1,0,0:0:0:0:
320,192,69335,1,0,0:0:0:0:
192,192,69401,1,0,0:0:0:0:
448,192,69601,1,0,0:0:0:0:
320,192,69601,1,0,0:0:0:0:
192,192,69668,1,0,0:0:0:0:
448,192,69735,1,0,0:0:0:0:
64,192,69735,1,0,0:0:0:0:
320,192,69801,1,0,0:0:0:0:
64,192,70001,1,0,0:0:0:0:
448,192,70001,1,0,0:0:0:0:
192,192,70068,1,0,0:0:0:0:
320,192,70135,1,0,0:0:0:0:
448,192,70135,1,0,0:0:0:0:
64,192,70201,1,0,0:0:0:0:
448,192,70401,1,0,0:0:0:0:
320,192,70401,1,0,0:0:0:0:
64,192,70468,1,0,0:0:0:0:
448,192,70535,1,0,0:0:0:0:
192,192,70535,1,0,0:0:0:0:
320,192,70601,1,0,0:0:0:0:
320,192,70801,1,0,0:0:0:0:
448,192,70801,1,0,0:0:0:0:
192,192,70868,1,0,0:0:0:0:
64,192,70935,1,0,0:0:0:0:
448,192,71001,1,0,0:0:0:0:
320,192,71068,1,0,0:0:0:0:
192,192,71135,1,0,0:0:0:0:
64,192,71201,1,0,0:0:0:0:
448,192,71268,1,0,0:0:0:0:
192,192,71335,1,0,0:0:0:0:
320,192,71335,1,0,0:0:0:0:
448,192,71401,1,0,0:0:0:0:
192,192,71468,1,0,0:0:0:0:
64,192,71468,1,0,0:0:0:0:
320,192,71535,1,0,0:0:0:0:
320,192,71735,1,0,0:0:0:0:
192,192,71735,1,0,0:0:0:0:
64,192,71801,1,0,0:0:0:0:
320,192,71868,1,0,0:0:0:0:
448,192,71868,1,0,0:0:0:0:
192,192,71935,1,0,0:0:0:0:
64,192,72135,1,0,0:0:0:0:
192,192,72135,1,0,0:0:0:0:
320,192,72201,1,0,0:0:0:0:
448,192,72268,1,0,0:0:0:0:
64,192,72268,1,0,0:0:0:0:
192,192,72335,1,0,0:0:0:0:
448,192,72535,1,0,0:0:0:0:
320,192,72535,1,0,0:0:0:0:
192,192,72601,1,0,0:0:0:0:
448,192,72668,1,0,0:0:0:0:
64,192,72668,1,0,0:0:0:0:
320,192,72735,1,0,0:0:0:0:
64,192,72935,1,0,0:0:0:0:
448,192,72935,1,0,0:0:0:0:
192,192,73023,1,0,0:0:0:0:
64,192,73112,1,0,0:0:0:0:
448,192,73201,1,0,0:0:0:0:
320,192,73290,1,0,0:0:0:0:
448,192,73379,1,0,0:0:0:0:
320,192,73468,128,0,73735:0:0:0:0:
192,192,73468,1,0,0:0:0:0:
64,192,73468,1,0,0:0:0:0:
64,192,73735,1,0,0:0:0:0:
448,192,73735,128,0,74001:0:0:0:0:
320,192,74001,1,0,0:0:0:0:
192,192,74001,128,0,74268:0:0:0:0:
64,192,74268,128,0,74535:0:0:0:0:
448,192,74535,128,0,75068:0:0:0:0:
192,192,74801,1,0,0:0:0:0:
320,192,75068,128,0,75601:0:0:0:0:
64,192,75068,1,0,0:0:0:0:
448,192,75335,1,0,0:0:0:0:
192,192,75468,1,0,0:0:0:0:
64,192,75601,128,0,76401:0:0:0:0:
448,192,75735,1,0,0:0:0:0:
320,192,75868,1,0,0:0:0:0:
192,192,76001,1,0,0:0:0:0:
448,192,76135,1,0,0:0:0:0:
320,192,76135,1,0,0:0:0:0:
192,192,76268,1,0,0:0:0:0:
320,192,76401,128,0,76668:0:0:0:0:
192,192,76535,1,0,0:0:0:0:
448,192,76668,128,0,77068:0:0:0:0:
64,192,76935,1,0,0:0:0:0:
192,192,77068,1,0,0:0:0:0:
320,192,77068,1,0,0:0:0:0:
64,192,77135,1,0,0:0:0:0:
448,192,77201,1,0,0:0:0:0:
320,192,77201,1,0,0:0:0:0:
64,192,77335,1,0,0:0:0:0:
448,192,77468,1,0,0:0:0:0:
320,192,77535,1,0,0:0:0:0:
192,192,77601,1,0,0:0:0:0:
320,192,77735,1,0,0:0:0:0:
448,192,77735,1,0,0:0:0:0:
192,192,77801,1,0,0:0:0:0:
448,192,77868,1,0,0:0:0:0:
64,192,77868,1,0,0:0:0:0:
320,192,77935,1,0,0:0:0:0:
320,192,78135,1,0,0:0:0:0:
448,192,78135,1,0,0:0:0:0:
192,192,78201,1,0,0:0:0:0:
448,192,78268,1,0,0:0:0:0:
64,192,78268,1,0,0:0:0:0:
320,192,78335,1,0,0:0:0:0:
192,192,78535,1,0,0:0:0:0:
64,192,78535,1,0,0:0:0:0:
320,192,78601,1,0,0:0:0:0:
64,192,78668,1,0,0:0:0:0:
448,192,78668,1,0,0:0:0:0:
192,192,78735,1,0,0:0:0:0:
320,192,78935,1,0,0:0:0:0:
448,192,78935,1,0,0:0:0:0:
64,192,79001,1,0,0:0:0:0:
192,192,79068,1,0,0:0:0:0:
320,192,79068,1,0,0:0:0:0:
448,192,79135,1,0,0:0:0:0:
64,192,79335,128,0,79601:0:0:0:0:
448,192,79601,1,0,0:0:0:0:
320,192,79690,1,0,0:0:0:0:
192,192,79779,1,0,0:0:0:0:
64,192,79868,1,0,0:0:0:0:
448,192,79868,1,0,0:0:0:0:
320,192,79935,1,0,0:0:0:0:
64,192,80001,1,0,0:0:0:0:
192,192,80001,1,0,0:0:0:0:
448,192,80068,1,0,0:0:0:0:
64,192,80268,1,0,0:0:0:0:
192,192,80268,1,0,0:0:0:0:
320,192,80335,1,0,0:0:0:0:
64,192,80401,1,0,0:0:0:0:
448,192,80401,1,0,0:0:0:0:
192,192,80468,1,0,0:0:0:0:
320,192,80668,1,0,0:0:0:0:
448,192,80668,1,0,0:0:0:0:
192,192,80735,1,0,0:0:0:0:
64,192,80801,1,0,0:0:0:0:
448,192,80801,1,0,0:0:0:0:
320,192,80868,5,0,0:0:0:0:
64,192,81068,1,0,0:0:0:0:
192,192,81068,1,0,0:0:0:0:
320,192,81135,1,0,0:0:0:0:
64,192,81201,1,0,0:0:0:0:
448,192,81201,1,0,0:0:0:0:
192,192,81268,1,0,0:0:0:0:
320,192,81468,1,0,0:0:0:0:
448,192,81468,1,0,0:0:0:0:
64,192,81535,1,0,0:0:0:0:
192,192,81601,1,0,0:0:0:0:
320,192,81668,1,0,0:0:0:0:
192,192,81735,1,0,0:0:0:0:
448,192,81735,1,0,0:0:0:0:
64,192,81801,1,0,0:0:0:0:
192,192,81868,1,0,0:0:0:0:
320,192,81935,1,0,0:0:0:0:
448,192,82001,1,0,0:0:0:0:
64,192,82001,1,0,0:0:0:0:
192,192,82068,1,0,0:0:0:0:
448,192,82135,1,0,0:0:0:0:
320,192,82135,1,0,0:0:0:0:
64,192,82201,1,0,0:0:0:0:
320,192,82401,1,0,0:0:0:0:
448,192,82401,1,0,0:0:0:0:
192,192,82468,1,0,0:0:0:0:
64,192,82535,1,0,0:0:0:0:
320,192,82535,1,0,0:0:0:0:
448,192,82601,1,0,0:0:0:0:
64,192,82801,1,0,0:0:0:0:
192,192,82801,1,0,0:0:0:0:
320,192,82868,1,0,0:0:0:0:
448,192,82935,1,0,0:0:0:0:
64,192,82935,1,0,0:0:0:0:
192,192,83001,1,0,0:0:0:0:
320,192,83201,1,0,0:0:0:0:
64,192,83201,1,0,0:0:0:0:
192,192,83268,1,0,0:0:0:0:
448,192,83335,1,0,0:0:0:0:
320,192,83335,1,0,0:0:0:0:
64,192,83401,1,0,0:0:0:0:
320,192,83601,1,0,0:0:0:0:
448,192,83601,1,0,0:0:0:0:
64,192,83690,1,0,0:0:0:0:
192,192,83690,1,0,0:0:0:0:
320,192,83779,1,0,0:0:0:0:
448,192,83868,1,0,0:0:0:0:
64,192,83868,1,0,0:0:0:0:
192,192,83957,1,0,0:0:0:0:
448,192,84046,5,0,0:0:0:0:
320,192,84046,1,0,0:0:0:0:
64,192,84135,128,0,85068:0:0:0:0:
192,192,84135,128,0,85068:0:0:0:0:
448,192,84935,128,0,85201:0:0:0:0:
64,192,85201,5,0,0:0:0:0:
192,192,85268,1,0,0:0:0:0:
320,192,85335,1,0,0:0:0:0:
448,192,85401,1,0,0:0:0:0:
192,192,85468,1,0,0:0:0:0:
64,192,85535,1,0,0:0:0:0:
320,192,85601,1,0,0:0:0:0:
448,192,85668,1,0,0:0:0:0:
64,192,85735,1,0,0:0:0:0:
192,192,85801,1,0,0:0:0:0:
448,192,85868,1,0,0:0:0:0:
320,192,85935,1,0,0:0:0:0:
64,192,86001,128,0,86135:0:0:0:0:
192,192,86001,128,0,86135:0:0:0:0:
448,192,86001,128,0,86135:0:0:0:0:
320,192,86268,1,0,0:0:0:0:
448,192,86268,1,0,0:0:0:0:
64,192,86268,128,0,88135:0:0:0:0:
192,192,86401,1,0,0:0:0:0:
192,192,86535,1,0,0:0:0:0:
448,192,86535,1,0,0:0:0:0:
320,192,86535,1,0,0:0:0:0:
320,192,86668,1,0,0:0:0:0:
192,192,86801,1,0,0:0:0:0:
448,192,86801,1,0,0:0:0:0:
320,192,86935,1,0,0:0:0:0:
320,192,87068,1,0,0:0:0:0:
448,192,87068,1,0,0:0:0:0:
192,192,87068,1,0,0:0:0:0:
192,192,87201,1,0,0:0:0:0:
320,192,87335,1,0,0:0:0:0:
448,192,87335,1,0,0:0:0:0:
192,192,87468,1,0,0:0:0:0:
192,192,87601,1,0,0:0:0:0:
320,192,87601,1,0,0:0:0:0:
448,192,87601,1,0,0:0:0:0:
448,192,87735,1,0,0:0:0:0:
320,192,87868,1,0,0:0:0:0:
192,192,87868,1,0,0:0:0:0:
448,192,88001,1,0,0:0:0:0:
448,192,88135,1,0,0:0:0:0:
320,192,88135,128,0,88401:0:0:0:0:
192,192,88135,1,0,0:0:0:0:
64,192,88268,1,0,0:0:0:0:
448,192,88401,128,0,88668:0:0:0:0:
192,192,88401,1,0,0:0:0:0:
64,192,88535,1,0,0:0:0:0:
192,192,88668,1,0,0:0:0:0:
320,192,88668,128,0,88935:0:0:0:0:
64,192,88668,1,0,0:0:0:0:
448,192,88801,1,0,0:0:0:0:
448,192,88935,1,0,0:0:0:0:
192,192,88935,128,0,89201:0:0:0:0:
64,192,89068,1,0,0:0:0:0:
64,192,89201,128,0,89468:0:0:0:0:
448,192,89201,1,0,0:0:0:0:
320,192,89201,1,0,0:0:0:0:
192,192,89335,1,0,0:0:0:0:
320,192,89468,1,0,0:0:0:0:
448,192,89468,128,0,90001:0:0:0:0:
192,192,89601,1,0,0:0:0:0:
64,192,89735,1,0,0:0:0:0:
192,192,89735,1,0,0:0:0:0:
320,192,89735,1,0,0:0:0:0:
64,192,89868,1,0,0:0:0:0:
320,192,90001,1,0,0:0:0:0:
192,192,90001,128,0,90268:0:0:0:0:
64,192,90135,1,0,0:0:0:0:
448,192,90268,1,0,0:0:0:0:
320,192,90268,128,0,90535:0:0:0:0:
64,192,90268,1,0,0:0:0:0:
192,192,90401,1,0,0:0:0:0:
448,192,90535,128,0,92401:0:0:0:0:
64,192,90535,1,0,0:0:0:0:
192,192,90668,1,0,0:0:0:0:
192,192,90801,1,0,0:0:0:0:
64,192,90801,1,0,0:0:0:0:
320,192,90801,1,0,0:0:0:0:
320,192,90935,1,0,0:0:0:0:
192,192,91068,1,0,0:0:0:0:
64,192,91068,1,0,0:0:0:0:
320,192,91201,1,0,0:0:0:0:
320,192,91335,1,0,0:0:0:0:
192,192,91335,1,0,0:0:0:0:
64,192,91335,1,0,0:0:0:0:
192,192,91468,1,0,0:0:0:0:
64,192,91601,1,0,0:0:0:0:
320,192,91601,1,0,0:0:0:0:
192,192,91735,1,0,0:0:0:0:
320,192,91868,1,0,0:0:0:0:
192,192,91868,1,0,0:0:0:0:
64,192,91868,1,0,0:0:0:0:
64,192,92001,1,0,0:0:0:0:
192,192,92135,1,0,0:0:0:0:
320,192,92135,1,0,0:0:0:0:
64,192,92268,1,0,0:0:0:0:
192,192,92401,128,0,92535:0:0:0:0:
320,192,92401,1,0,0:0:0:0:
64,192,92401,128,0,92535:0:0:0:0:
320,192,92535,1,0,0:0:0:0:
448,192,92535,1,0,0:0:0:0:
192,192,92601,1,0,0:0:0:0:
64,192,92601,1,0,0:0:0:0:
448,192,92668,1,0,0:0:0:0:
320,192,92668,128,0,92935:0:0:0:0:
192,192,92801,1,0,0:0:0:0:
64,192,92935,1,0,0:0:0:0:
192,192,92935,128,0,93201:0:0:0:0:
448,192,92935,1,0,0:0:0:0:
320,192,93068,1,0,0:0:0:0:
64,192,93201,1,0,0:0:0:0:
448,192,93201,128,0,93468:0:0:0:0:
320,192,93335,1,0,0:0:0:0:
64,192,93468,128,0,93735:0:0:0:0:
320,192,93468,1,0,0:0:0:0:
192,192,93468,1,0,0:0:0:0:
448,192,93601,1,0,0:0:0:0:
320,192,93735,128,0,93935:0:0:0:0:
192,192,93735,128,0,93868:0:0:0:0:
448,192,93735,128,0,93868:0:0:0:0:
64,192,93935,128,0,94068:0:0:0:0:
192,192,93935,128,0,94135:0:0:0:0:
448,192,93935,128,0,94068:0:0:0:0:
64,192,94135,128,0,94268:0:0:0:0:
320,192,94135,128,0,94268:0:0:0:0:
448,192,94135,128,0,94335:0:0:0:0:
320,192,94335,128,0,94535:0:0:0:0:
192,192,94335,128,0,94601:0:0:0:0:
64,192,94335,128,0,94668:0:0:0:0:
448,192,94535,1,0,0:0:0:0:
320,192,94601,1,0,0:0:0:0:
192,192,94668,1,0,0:0:0:0:
64,192,94735,1,0,0:0:0:0:
192,192,94801,1,0,0:0:0:0:
320,192,94801,1,0,0:0:0:0:
448,192,94801,128,0,95735:0:0:0:0:
64,192,94935,1,0,0:0:0:0:
192,192,95068,1,0,0:0:0:0:
64,192,95068,1,0,0:0:0:0:
320,192,95068,1,0,0:0:0:0:
192,192,95201,1,0,0:0:0:0:
64,192,95335,1,0,0:0:0:0:
320,192,95335,1,0,0:0:0:0:
192,192,95468,1,0,0:0:0:0:
64,192,95601,1,0,0:0:0:0:
192,192,95601,1,0,0:0:0:0:
320,192,95601,1,0,0:0:0:0:
320,192,95735,1,0,0:0:0:0:
64,192,95868,1,0,0:0:0:0:
192,192,95868,1,0,0:0:0:0:
448,192,95868,1,0,0:0:0:0:
320,192,96001,128,0,96268:0:0:0:0:
64,192,96001,128,0,96135:0:0:0:0:
448,192,96001,128,0,96135:0:0:0:0:
192,192,96268,1,0,0:0:0:0:
64,192,96268,1,0,0:0:0:0:
448,192,96268,1,0,0:0:0:0:
448,192,96535,1,0,0:0:0:0:
64,192,96535,1,0,0:0:0:0:
192,192,96535,1,0,0:0:0:0:
320,192,96668,128,0,96935:0:0:0:0:
192,192,96801,1,0,0:0:0:0:
448,192,96935,1,0,0:0:0:0:
192,192,96935,128,0,97201:0:0:0:0:
64,192,96935,1,0,0:0:0:0:
320,192,97068,1,0,0:0:0:0:
64,192,97201,1,0,0:0:0:0:
448,192,97201,1,0,0:0:0:0:
320,192,97201,128,0,97468:0:0:0:0:
192,192,97335,1,0,0:0:0:0:
64,192,97468,1,0,0:0:0:0:
448,192,97468,128,0,97735:0:0:0:0:
192,192,97601,1,0,0:0:0:0:
320,192,97735,128,0,98001:0:0:0:0:
192,192,97735,1,0,0:0:0:0:
64,192,97735,1,0,0:0:0:0:
448,192,97868,1,0,0:0:0:0:
64,192,98001,128,0,98135:0:0:0:0:
192,192,98001,128,0,98201:0:0:0:0:
448,192,98001,128,0,98135:0:0:0:0:
64,192,98201,128,0,98335:0:0:0:0:
320,192,98201,128,0,98401:0:0:0:0:
448,192,98201,128,0,98335:0:0:0:0:
192,192,98401,128,0,98668:0:0:0:0:
448,192,98401,128,0,98535:0:0:0:0:
64,192,98401,128,0,98535:0:0:0:0:
448,192,98668,128,0,98935:0:0:0:0:
320,192,98668,128,0,98935:0:0:0:0:
64,192,98668,128,0,98801:0:0:0:0:
192,192,98935,1,0,0:0:0:0:
64,192,98935,1,0,0:0:0:0:
320,192,99001,1,0,0:0:0:0:
448,192,99001,1,0,0:0:0:0:
64,192,99068,1,0,0:0:0:0:
192,192,99068,128,0,100001:0:0:0:0:
320,192,99201,1,0,0:0:0:0:
448,192,99335,1,0,0:0:0:0:
64,192,99335,1,0,0:0:0:0:
320,192,99335,1,0,0:0:0:0:
64,192,99468,1,0,0:0:0:0:
320,192,99601,1,0,0:0:0:0:
448,192,99601,1,0,0:0:0:0:
64,192,99735,1,0,0:0:0:0:
320,192,99735,1,0,0:0:0:0:
448,192,99868,1,0,0:0:0:0:
64,192,99868,1,0,0:0:0:0:
320,192,100001,1,0,0:0:0:0:
64,192,100135,1,0,0:0:0:0:
192,192,100135,1,0,0:0:0:0:
320,192,100201,1,0,0:0:0:0:
64,192,100268,1,0,0:0:0:0:
448,192,100268,1,0,0:0:0:0:
320,192,100335,1,0,0:0:0:0:
192,192,100335,1,0,0:0:0:0:
64,192,100401,1,0,0:0:0:0:
448,192,100535,1,0,0:0:0:0:
320,192,100601,1,0,0:0:0:0:
192,192,100601,1,0,0:0:0:0:
64,192,100668,1,0,0:0:0:0:
448,192,100668,1,0,0:0:0:0:
320,192,100801,1,0,0:0:0:0:
448,192,100935,1,0,0:0:0:0:
64,192,100935,1,0,0:0:0:0:
192,192,100935,1,0,0:0:0:0:
320,192,101068,1,0,0:0:0:0:
64,192,101135,1,0,0:0:0:0:
192,192,101168,1,0,0:0:0:0:
320,192,101201,128,0,101401:0:0:0:0:
448,192,101201,128,0,101401:0:0:0:0:
448,192,101468,1,0,0:0:0:0:
64,192,101468,1,0,0:0:0:0:
192,192,101468,1,0,0:0:0:0:
320,192,101601,128,0,102135:0:0:0:0:
448,192,101601,128,0,102068:0:0:0:0:
64,192,101601,128,0,102068:0:0:0:0:
64,192,102135,1,0,0:0:0:0:
448,192,102135,1,0,0:0:0:0:
192,192,102135,1,0,0:0:0:0:
320,192,102268,1,0,0:0:0:0:
192,192,102401,1,0,0:0:0:0:
320,192,102535,1,0,0:0:0:0:
192,192,102668,1,0,0:0:0:0:
64,192,102668,1,0,0:0:0:0:
320,192,102735,1,0,0:0:0:0:
64,192,102801,1,0,0:0:0:0:
448,192,102801,1,0,0:0:0:0:
192,192,102935,1,0,0:0:0:0:
64,192,103068,1,0,0:0:0:0:
448,192,103201,1,0,0:0:0:0:
192,192,103335,128,0,103601:0:0:0:0:
64,192,103335,128,0,103601:0:0:0:0:
320,192,103335,128,0,103535:0:0:0:0:
320,192,103601,1,0,0:0:0:0:
448,192,103601,1,0,0:0:0:0:
64,192,103735,128,0,104201:0:0:0:0:
448,192,103735,128,0,104201:0:0:0:0:
192,192,103735,128,0,104268:0:0:0:0:
64,192,104268,1,0,0:0:0:0:
320,192,104268,1,0,0:0:0:0:
448,192,104268,1,0,0:0:0:0:
192,192,104335,1,0,0:0:0:0:
320,192,104401,1,0,0:0:0:0:
448,192,104468,1,0,0:0:0:0:
64,192,104535,1,0,0:0:0:0:
192,192,104601,1,0,0:0:0:0:
320,192,104668,1,0,0:0:0:0:
448,192,104735,1,0,0:0:0:0:
192,192,104801,1,0,0:0:0:0:
64,192,104868,1,0,0:0:0:0:
320,192,104935,1,0,0:0:0:0:
448,192,105001,1,0,0:0:0:0:
192,192,105068,1,0,0:0:0:0:
64,192,105135,1,0,0:0:0:0:
448,192,105201,1,0,0:0:0:0:
320,192,105268,1,0,0:0:0:0:
192,192,105335,1,0,0:0:0:0:
64,192,105401,1,0,0:0:0:0:
320,192,105468,1,0,0:0:0:0:
448,192,105535,1,0,0:0:0:0:
64,192,105601,1,0,0:0:0:0:
192,192,105668,1,0,0:0:0:0:
320,192,105735,1,0,0:0:0:0:
448,192,105801,1,0,0:0:0:0:
192,192,105868,1,0,0:0:0:0:
64,192,105935,1,0,0:0:0:0:
320,192,106001,1,0,0:0:0:0:
448,192,106001,1,0,0:0:0:0:
192,192,106068,1,0,0:0:0:0:
448,192,106135,1,0,0:0:0:0:
64,192,106135,1,0,0:0:0:0:
320,192,106201,1,0,0:0:0:0:
192,192,106268,1,0,0:0:0:0:
64,192,106268,1,0,0:0:0:0:
448,192,106335,1,0,0:0:0:0:
320,192,106401,1,0,0:0:0:0:
192,192,106468,1,0,0:0:0:0:
320,192,106535,1,0,0:0:0:0:
64,192,106535,1,0,0:0:0:0:
448,192,106535,128,0,108668:0:0:0:0:
192,192,107068,1,0,0:0:0:0:
64,192,107068,1,0,0:0:0:0:
320,192,107335,1,0,0:0:0:0:
192,192,107601,1,0,0:0:0:0:
64,192,107868,1,0,0:0:0:0:
192,192,108135,1,0,0:0:0:0:
320,192,108135,1,0,0:0:0:0:
64,192,108401,1,0,0:0:0:0:
192,192,108668,1,0,0:0:0:0:
320,192,108801,1,0,0:0:0:0:
192,192,108935,1,0,0:0:0:0:
320,192,109068,1,0,0:0:0:0:
64,192,109201,1,0,0:0:0:0:
448,192,109201,1,0,0:0:0:0:
192,192,109335,1,0,0:0:0:0:
64,192,109468,1,0,0:0:0:0:
192,192,109601,1,0,0:0:0:0:
448,192,109735,1,0,0:0:0:0:
320,192,109868,1,0,0:0:0:0:
448,192,110001,1,0,0:0:0:0:
320,192,110135,1,0,0:0:0:0:
192,192,110268,1,0,0:0:0:0:
64,192,110268,1,0,0:0:0:0:
448,192,110401,1,0,0:0:0:0:
320,192,110535,1,0,0:0:0:0:
192,192,110668,1,0,0:0:0:0:
64,192,110801,1,0,0:0:0:0:
448,192,110801,1,0,0:0:0:0:
320,192,110868,1,0,0:0:0:0:
192,192,110935,1,0,0:0:0:0:
64,192,111001,1,0,0:0:0:0:
192,192,111068,1,0,0:0:0:0:
320,192,111135,1,0,0:0:0:0:
448,192,111201,1,0,0:0:0:0:
192,192,111268,1,0,0:0:0:0:
64,192,111335,1,0,0:0:0:0:
320,192,111335,1,0,0:0:0:0:
448,192,111401,1,0,0:0:0:0:
192,192,111468,1,0,0:0:0:0:
64,192,111535,1,0,0:0:0:0:
320,192,111601,1,0,0:0:0:0:
448,192,111668,1,0,0:0:0:0:
64,192,111735,1,0,0:0:0:0:
192,192,111801,1,0,0:0:0:0:
320,192,111868,1,0,0:0:0:0:
448,192,111868,1,0,0:0:0:0:
64,192,111935,1,0,0:0:0:0:
192,192,112001,1,0,0:0:0:0:
448,192,112068,1,0,0:0:0:0:
320,192,112135,1,0,0:0:0:0:
64,192,112201,1,0,0:0:0:0:
192,192,112268,1,0,0:0:0:0:
320,192,112335,1,0,0:0:0:0:
64,192,112401,1,0,0:0:0:0:
192,192,112401,1,0,0:0:0:0:
320,192,112468,1,0,0:0:0:0:
64,192,112535,1,0,0:0:0:0:
448,192,112535,1,0,0:0:0:0:
192,192,112601,1,0,0:0:0:0:
320,192,112668,1,0,0:0:0:0:
448,192,112668,1,0,0:0:0:0:
64,192,112735,1,0,0:0:0:0:
192,192,112801,1,0,0:0:0:0:
320,192,112801,1,0,0:0:0:0:
448,192,112868,128,0,113935:0:0:0:0:
320,192,113068,128,0,113668:0:0:0:0:
192,192,113335,128,0,113535:0:0:0:0:
64,192,113468,128,0,114001:0:0:0:0:
192,192,113601,128,0,113801:0:0:0:0:
320,192,113735,128,0,114001:0:0:0:0:
192,192,113868,128,0,114001:0:0:0:0:
448,192,114001,1,0,0:0:0:0:
320,192,114068,1,0,0:0:0:0:
64,192,114135,1,0,0:0:0:0:
192,192,114201,1,0,0:0:0:0:
320,192,114268,1,0,0:0:0:0:
448,192,114335,1,0,0:0:0:0:
192,192,114401,1,0,0:0:0:0:
64,192,114468,1,0,0:0:0:0:
320,192,114535,1,0,0:0:0:0:
448,192,114601,1,0,0:0:0:0:
192,192,114668,1,0,0:0:0:0:
64,192,114735,1,0,0:0:0:0:
192,192,114801,128,0,115001:0:0:0:0:
320,192,114801,128,0,115001:0:0:0:0:
448,192,114801,128,0,115001:0:0:0:0:
192,192,115068,1,0,0:0:0:0:
448,192,115068,1,0,0:0:0:0:
64,192,115068,1,0,0:0:0:0:
192,192,115201,1,0,0:0:0:0:
320,192,115201,1,0,0:0:0:0:
448,192,115335,1,0,0:0:0:0:
320,192,115335,1,0,0:0:0:0:
64,192,115335,1,0,0:0:0:0:
64,192,115468,1,0,0:0:0:0:
192,192,115468,1,0,0:0:0:0:
448,192,115601,1,0,0:0:0:0:
320,192,115601,1,0,0:0:0:0:
64,192,115601,1,0,0:0:0:0:
320,192,115735,1,0,0:0:0:0:
192,192,115735,1,0,0:0:0:0:
192,192,115868,128,0,116001:0:0:0:0:
64,192,115868,128,0,116001:0:0:0:0:
448,192,115868,128,0,116135:0:0:0:0:
320,192,116001,1,0,0:0:0:0:
64,192,116135,128,0,116268:0:0:0:0:
320,192,116135,128,0,116268:0:0:0:0:
192,192,116135,128,0,116401:0:0:0:0:
448,192,116268,1,0,0:0:0:0:
64,192,116401,128,0,116535:0:0:0:0:
448,192,116401,128,0,116535:0:0:0:0:
320,192,116401,128,0,116668:0:0:0:0:
192,192,116535,1,0,0:0:0:0:
448,192,116668,128,0,116801:0:0:0:0:
192,192,116668,128,0,116801:0:0:0:0:
64,192,116668,128,0,116935:0:0:0:0:
320,192,116801,1,0,0:0:0:0:
320,192,116935,128,0,117068:0:0:0:0:
192,192,116935,128,0,117201:0:0:0:0:
448,192,116935,128,0,117068:0:0:0:0:
64,192,117201,128,0,117335:0:0:0:0:
448,192,117201,128,0,117468:0:0:0:0:
320,192,117201,128,0,117335:0:0:0:0:
64,192,117468,128,0,117601:0:0:0:0:
192,192,117468,128,0,117601:0:0:0:0:
320,192,117468,128,0,117601:0:0:0:0:
320,192,117735,1,0,0:0:0:0:
64,192,117735,1,0,0:0:0:0:
448,192,117735,1,0,0:0:0:0:
320,192,117868,1,0,0:0:0:0:
192,192,117868,1,0,0:0:0:0:
320,192,118001,128,0,118268:0:0:0:0:
448,192,118001,128,0,118135:0:0:0:0:
64,192,118001,128,0,118135:0:0:0:0:
192,192,118268,128,0,118535:0:0:0:0:
64,192,118268,128,0,118401:0:0:0:0:
448,192,118268,128,0,118401:0:0:0:0:
320,192,118535,1,0,0:0:0:0:
448,192,118535,1,0,0:0:0:0:
64,192,118535,1,0,0:0:0:0:
192,192,118668,1,0,0:0:0:0:
320,192,118668,1,0,0:0:0:0:
448,192,118801,1,0,0:0:0:0:
64,192,118801,1,0,0:0:0:0:
192,192,118935,1,0,0:0:0:0:
320,192,118935,1,0,0:0:0:0:
448,192,119068,128,0,119335:0:0:0:0:
64,192,119068,128,0,119335:0:0:0:0:
320,192,119068,128,0,119268:0:0:0:0:
192,192,119335,1,0,0:0:0:0:
320,192,119335,1,0,0:0:0:0:
320,192,119468,1,0,0:0:0:0:
448,192,119468,1,0,0:0:0:0:
64,192,119468,1,0,0:0:0:0:
192,192,119601,128,0,119868:0:0:0:0:
64,192,119601,128,0,119735:0:0:0:0:
448,192,119601,128,0,119735:0:0:0:0:
320,192,119735,1,0,0:0:0:0:
64,192,119868,128,0,120135:0:0:0:0:
320,192,119868,128,0,120001:0:0:0:0:
448,192,119868,128,0,120001:0:0:0:0:
192,192,120001,1,0,0:0:0:0:
320,192,120135,128,0,120401:0:0:0:0:
448,192,120135,128,0,120268:0:0:0:0:
192,192,120135,128,0,120268:0:0:0:0:
64,192,120268,1,0,0:0:0:0:
448,192,120401,128,0,120668:0:0:0:0:
192,192,120401,128,0,120535:0:0:0:0:
64,192,120401,128,0,120535:0:0:0:0:
320,192,120535,1,0,0:0:0:0:
64,192,120668,128,0,120935:0:0:0:0:
192,192,120668,128,0,120801:0:0:0:0:
320,192,120668,128,0,120801:0:0:0:0:
192,192,120935,1,0,0:0:0:0:
320,192,120935,1,0,0:0:0:0:
448,192,120935,1,0,0:0:0:0:
64,192,121201,1,0,0:0:0:0:
448,192,121201,1,0,0:0:0:0:
192,192,121246,1,0,0:0:0:0:
320,192,121290,1,0,0:0:0:0:
448,192,121335,1,0,0:0:0:0:
64,192,121379,1,0,0:0:0:0:
192,192,121423,1,0,0:0:0:0:
320,192,121468,1,0,0:0:0:0:
448,192,121468,1,0,0:0:0:0:
64,192,121646,1,0,0:0:0:0:
192,192,121646,1,0,0:0:0:0:
320,192,121646,1,0,0:0:0:0:
448,192,121823,1,0,0:0:0:0:
320,192,121823,1,0,0:0:0:0:
64,192,121823,1,0,0:0:0:0:
64,192,122001,1,0,0:0:0:0:
192,192,122001,1,0,0:0:0:0:
448,192,122001,1,0,0:0:0:0:
320,192,122179,1,0,0:0:0:0:
448,192,122179,1,0,0:0:0:0:
192,192,122268,1,0,0:0:0:0:
64,192,122268,1,0,0:0:0:0:
320,192,122446,1,0,0:0:0:0:
448,192,122446,1,0,0:0:0:0:
64,192,122446,1,0,0:0:0:0:
192,192,122535,1,0,0:0:0:0:
64,192,122601,1,0,0:0:0:0:
320,192,122668,1,0,0:0:0:0:
448,192,122735,1,0,0:0:0:0:
64,192,122801,1,0,0:0:0:0:
192,192,122868,1,0,0:0:0:0:
320,192,122935,1,0,0:0:0:0:
448,192,123001,1,0,0:0:0:0:
64,192,123068,1,0,0:0:0:0:
192,192,123135,1,0,0:0:0:0:
320,192,123201,1,0,0:0:0:0:
448,192,123268,1,0,0:0:0:0:
192,192,123335,1,0,0:0:0:0:
64,192,123335,1,0,0:0:0:0:
320,192,123601,1,0,0:0:0:0:
448,192,123601,1,0,0:0:0:0:
64,192,123601,1,0,0:0:0:0:
192,192,123735,1,0,0:0:0:0:
64,192,123735,1,0,0:0:0:0:
320,192,123868,128,0,124135:0:0:0:0:
448,192,123868,1,0,0:0:0:0:
192,192,123868,1,0,0:0:0:0:
448,192,124135,1,0,0:0:0:0:
64,192,124135,128,0,124401:0:0:0:0:
192,192,124401,128,0,124535:0:0:0:0:
320,192,124401,1,0,0:0:0:0:
448,192,124401,1,0,0:0:0:0:
448,192,124535,128,0,124668:0:0:0:0:
320,192,124668,128,0,124935:0:0:0:0:
192,192,124668,1,0,0:0:0:0:
192,192,124935,128,0,125068:0:0:0:0:
64,192,124935,1,0,0:0:0:0:
448,192,124935,1,0,0:0:0:0:
320,192,125068,128,0,125201:0:0:0:0:
448,192,125201,128,0,125468:0:0:0:0:
64,192,125201,1,0,0:0:0:0:
64,192,125468,128,0,125601:0:0:0:0:
192,192,125468,1,0,0:0:0:0:
320,192,125468,1,0,0:0:0:0:
192,192,125601,128,0,125735:0:0:0:0:
448,192,125601,1,0,0:0:0:0:
320,192,125735,1,0,0:0:0:0:
64,192,125735,1,0,0:0:0:0:
320,192,125868,1,0,0:0:0:0:
448,192,125868,1,0,0:0:0:0:
192,192,125935,1,0,0:0:0:0:
64,192,125935,1,0,0:0:0:0:
320,192,126001,1,0,0:0:0:0:
448,192,126001,128,0,126268:0:0:0:0:
64,192,126135,1,0,0:0:0:0:
192,192,126268,1,0,0:0:0:0:
320,192,126268,128,0,126535:0:0:0:0:
64,192,126401,1,0,0:0:0:0:
64,192,126535,1,0,0:0:0:0:
448,192,126535,1,0,0:0:0:0:
192,192,126535,128,0,126668:0:0:0:0:
448,192,126668,128,0,126801:0:0:0:0:
64,192,126801,1,0,0:0:0:0:
192,192,126801,1,0,0:0:0:0:
64,192,126935,1,0,0:0:0:0:
192,192,126935,1,0,0:0:0:0:
320,192,127068,1,0,0:0:0:0:
448,192,127068,1,0,0:0:0:0:
192,192,127201,1,0,0:0:0:0:
64,192,127201,1,0,0:0:0:0:
320,192,127335,128,0,127801:0:0:0:0:
448,192,127335,128,0,127801:0:0:0:0:
64,192,127601,128,0,127868:0:0:0:0:
192,192,127601,128,0,127801:0:0:0:0:
320,192,127868,128,0,128135:0:0:0:0:
192,192,127868,128,0,128068:0:0:0:0:
448,192,127868,128,0,128068:0:0:0:0:
64,192,128135,128,0,128335:0:0:0:0:
448,192,128135,128,0,128268:0:0:0:0:
192,192,128135,128,0,128335:0:0:0:0:
320,192,128335,1,0,0:0:0:0:
448,192,128335,1,0,0:0:0:0:
64,192,128401,1,0,0:0:0:0:
192,192,128401,1,0,0:0:0:0:
192,192,128535,1,0,0:0:0:0:
448,192,128668,1,0,0:0:0:0:
64,192,128668,1,0,0:0:0:0:
320,192,128668,1,0,0:0:0:0:
192,192,128801,1,0,0:0:0:0:
64,192,128801,1,0,0:0:0:0:
320,192,128868,1,0,0:0:0:0:
448,192,128868,1,0,0:0:0:0:
192,192,128935,1,0,0:0:0:0:
64,192,128935,1,0,0:0:0:0:
320,192,129068,1,0,0:0:0:0:
448,192,129201,1,0,0:0:0:0:
192,192,129201,1,0,0:0:0:0:
64,192,129201,1,0,0:0:0:0:
320,192,129335,1,0,0:0:0:0:
64,192,129468,1,0,0:0:0:0:
448,192,129468,1,0,0:0:0:0:
192,192,129601,1,0,0:0:0:0:
320,192,129601,1,0,0:0:0:0:
64,192,129735,1,0,0:0:0:0:
192,192,129735,1,0,0:0:0:0:
320,192,129868,1,0,0:0:0:0:
448,192,129868,1,0,0:0:0:0:
192,192,129935,1,0,0:0:0:0:
320,192,130001,128,0,130401:0:0:0:0:
448,192,130001,128,0,130335:0:0:0:0:
64,192,130001,128,0,130335:0:0:0:0:
64,192,130401,128,0,130735:0:0:0:0:
192,192,130401,128,0,130801:0:0:0:0:
448,192,130401,128,0,130735:0:0:0:0:
320,192,130801,128,0,131068:0:0:0:0:
64,192,130801,128,0,131001:0:0:0:0:
448,192,130801,128,0,131001:0:0:0:0:
64,192,131068,1,0,0:0:0:0:
192,192,131068,1,0,0:0:0:0:
448,192,131201,1,0,0:0:0:0:
64,192,131201,1,0,0:0:0:0:
320,192,131201,128,0,131401:0:0:0:0:
64,192,131401,1,0,0:0:0:0:
448,192,131401,1,0,0:0:0:0:
192,192,131401,128,0,131601:0:0:0:0:
320,192,131601,128,0,132135:0:0:0:0:
448,192,131601,128,0,132135:0:0:0:0:
64,192,131601,128,0,132068:0:0:0:0:
64,192,132135,1,0,0:0:0:0:
192,192,132135,1,0,0:0:0:0:
320,192,132201,1,0,0:0:0:0:
64,192,132268,1,0,0:0:0:0:
448,192,132268,1,0,0:0:0:0:
320,192,132335,1,0,0:0:0:0:
192,192,132335,1,0,0:0:0:0:
64,192,132401,1,0,0:0:0:0:
320,192,132535,1,0,0:0:0:0:
448,192,132668,1,0,0:0:0:0:
192,192,132668,1,0,0:0:0:0:
64,192,132801,1,0,0:0:0:0:
192,192,132935,1,0,0:0:0:0:
320,192,132935,1,0,0:0:0:0:
448,192,132935,1,0,0:0:0:0:
64,192,133068,1,0,0:0:0:0:
192,192,133201,1,0,0:0:0:0:
320,192,133201,1,0,0:0:0:0:
448,192,133335,1,0,0:0:0:0:
192,192,133468,1,0,0:0:0:0:
64,192,133468,1,0,0:0:0:0:
320,192,133468,1,0,0:0:0:0:
448,192,133601,1,0,0:0:0:0:
64,192,133735,1,0,0:0:0:0:
320,192,133735,1,0,0:0:0:0:
192,192,133868,1,0,0:0:0:0:
320,192,134001,1,0,0:0:0:0:
448,192,134001,1,0,0:0:0:0:
64,192,134001,1,0,0:0:0:0:
192,192,134135,1,0,0:0:0:0:
448,192,134268,1,0,0:0:0:0:
64,192,134268,1,0,0:0:0:0:
320,192,134401,1,0,0:0:0:0:
192,192,134535,1,0,0:0:0:0:
64,192,134535,1,0,0:0:0:0:
448,192,134535,1,0,0:0:0:0:
320,192,134668,1,0,0:0:0:0:
448,192,134801,1,0,0:0:0:0:
192,192,134801,1,0,0:0:0:0:
64,192,134935,1,0,0:0:0:0:
320,192,135068,1,0,0:0:0:0:
448,192,135068,1,0,0:0:0:0:
192,192,135068,1,0,0:0:0:0:
64,192,135201,1,0,0:0:0:0:
192,192,135335,1,0,0:0:0:0:
448,192,135335,1,0,0:0:0:0:
320,192,135468,1,0,0:0:0:0:
192,192,135601,1,0,0:0:0:0:
64,192,135601,1,0,0:0:0:0:
448,192,135601,1,0,0:0:0:0:
320,192,135735,1,0,0:0:0:0:
192,192,135868,1,0,0:0:0:0:
64,192,135868,1,0,0:0:0:0:
448,192,136001,1,0,0:0:0:0:
320,192,136135,1,0,0:0:0:0:
192,192,136135,1,0,0:0:0:0:
64,192,136135,1,0,0:0:0:0:
448,192,136268,1,0,0:0:0:0:
320,192,136268,1,0,0:0:0:0:
192,192,136335,1,0,0:0:0:0:
64,192,136335,1,0,0:0:0:0:
320,192,136401,128,0,136801:0:0:0:0:
448,192,136401,128,0,136735:0:0:0:0:
448,192,136801,1,0,0:0:0:0:
192,192,136801,128,0,136935:0:0:0:0:
448,192,136935,128,0,137201:0:0:0:0:
64,192,136935,1,0,0:0:0:0:
320,192,136935,128,0,137201:0:0:0:0:
64,192,137201,128,0,137468:0:0:0:0:
192,192,137201,128,0,137468:0:0:0:0:
448,192,137468,128,0,137735:0:0:0:0:
320,192,137468,128,0,137601:0:0:0:0:
320,192,137735,128,0,137868:0:0:0:0:
192,192,137735,1,0,0:0:0:0:
64,192,137868,128,0,138001:0:0:0:0:
448,192,137868,128,0,138135:0:0:0:0:
192,192,137868,1,0,0:0:0:0:
64,192,138135,128,0,138268:0:0:0:0:
320,192,138135,128,0,138268:0:0:0:0:
192,192,138268,128,0,138535:0:0:0:0:
448,192,138268,128,0,138401:0:0:0:0:
448,192,138535,128,0,138801:0:0:0:0:
320,192,138535,128,0,138668:0:0:0:0:
64,192,138801,128,0,138935:0:0:0:0:
320,192,138801,1,0,0:0:0:0:
192,192,138935,128,0,139068:0:0:0:0:
448,192,139068,128,0,139335:0:0:0:0:
320,192,139068,1,0,0:0:0:0:
64,192,139068,1,0,0:0:0:0:
64,192,139201,1,0,0:0:0:0:
192,192,139335,128,0,139601:0:0:0:0:
320,192,139335,1,0,0:0:0:0:
320,192,139468,1,0,0:0:0:0:
64,192,139601,1,0,0:0:0:0:
448,192,139601,1,0,0:0:0:0:
320,192,139868,128,0,140001:0:0:0:0:
192,192,139868,128,0,140001:0:0:0:0:
64,192,140001,128,0,140135:0:0:0:0:
448,192,140001,1,0,0:0:0:0:
320,192,140135,1,0,0:0:0:0:
192,192,140135,1,0,0:0:0:0:
448,192,140135,1,0,0:0:0:0:
64,192,140268,1,0,0:0:0:0:
192,192,140401,1,0,0:0:0:0:
320,192,140535,1,0,0:0:0:0:
448,192,140668,1,0,0:0:0:0:
64,192,140668,1,0,0:0:0:0:
192,192,140668,1,0,0:0:0:0:
192,192,140801,1,0,0:0:0:0:
64,192,140935,1,0,0:0:0:0:
448,192,140935,1,0,0:0:0:0:
320,192,140935,1,0,0:0:0:0:
320,192,141068,1,0,0:0:0:0:
448,192,141201,1,0,0:0:0:0:
192,192,141201,1,0,0:0:0:0:
448,192,141335,1,0,0:0:0:0:
192,192,141468,1,0,0:0:0:0:
320,192,141468,1,0,0:0:0:0:
64,192,141468,1,0,0:0:0:0:
64,192,141601,1,0,0:0:0:0:
192,192,141668,1,0,0:0:0:0:
320,192,141735,1,0,0:0:0:0:
448,192,141735,1,0,0:0:0:0:
64,192,141868,1,0,0:0:0:0:
192,192,142001,1,0,0:0:0:0:
448,192,142001,1,0,0:0:0:0:
320,192,142001,1,0,0:0:0:0:
320,192,142135,1,0,0:0:0:0:
192,192,142268,1,0,0:0:0:0:
64,192,142268,1,0,0:0:0:0:
64,192,142401,1,0,0:0:0:0:
192,192,142535,1,0,0:0:0:0:
448,192,142535,1,0,0:0:0:0:
320,192,142535,1,0,0:0:0:0:
448,192,142668,1,0,0:0:0:0:
64,192,142801,1,0,0:0:0:0:
192,192,142801,1,0,0:0:0:0:
320,192,142935,1,0,0:0:0:0:
448,192,143068,1,0,0:0:0:0:
64,192,143068,1,0,0:0:0:0:
192,192,143068,1,0,0:0:0:0:
448,192,143201,1,0,0:0:0:0:
320,192,143335,1,0,0:0:0:0:
64,192,143335,1,0,0:0:0:0:
192,192,143468,1,0,0:0:0:0:
320,192,143601,1,0,0:0:0:0:
448,192,143601,1,0,0:0:0:0:
64,192,143601,1,0,0:0:0:0:
64,192,143735,1,0,0:0:0:0:
192,192,143868,1,0,0:0:0:0:
320,192,143868,1,0,0:0:0:0:
448,192,144001,1,0,0:0:0:0:
64,192,144135,1,0,0:0:0:0:
192,192,144135,1,0,0:0:0:0:
320,192,144135,1,0,0:0:0:0:
320,192,144268,1,0,0:0:0:0:
64,192,144401,1,0,0:0:0:0:
448,192,144401,1,0,0:0:0:0:
192,192,144535,1,0,0:0:0:0:
448,192,144668,1,0,0:0:0:0:
64,192,144668,1,0,0:0:0:0:
320,192,144668,1,0,0:0:0:0:
320,192,144801,1,0,0:0:0:0:
192,192,144935,128,0,145335:0:0:0:0:
64,192,144935,128,0,145335:0:0:0:0:
448,192,144935,128,0,145335:0:0:0:0:
320,192,145335,128,0,145468:0:0:0:0:
64,192,145468,128,0,145735:0:0:0:0:
192,192,145468,128,0,145601:0:0:0:0:
448,192,145468,128,0,145735:0:0:0:0:
320,192,145735,128,0,146001:0:0:0:0:
192,192,145735,1,0,0:0:0:0:
448,192,146001,1,0,0:0:0:0:
192,192,146001,128,0,146401:0:0:0:0:
64,192,146001,128,0,146401:0:0:0:0:
320,192,146268,1,0,0:0:0:0:
448,192,146268,1,0,0:0:0:0:
320,192,146401,128,0,146535:0:0:0:0:
192,192,146535,128,0,146668:0:0:0:0:
64,192,146535,128,0,146801:0:0:0:0:
448,192,146535,128,0,146801:0:0:0:0:
192,192,146801,128,0,146935:0:0:0:0:
320,192,146801,128,0,147068:0:0:0:0:
64,192,147068,1,0,0:0:0:0:
192,192,147068,1,0,0:0:0:0:
448,192,147135,1,0,0:0:0:0:
320,192,147201,1,0,0:0:0:0:
192,192,147268,1,0,0:0:0:0:
64,192,147335,1,0,0:0:0:0:
320,192,147468,1,0,0:0:0:0:
448,192,147468,1,0,0:0:0:0:
192,192,147535,1,0,0:0:0:0:
64,192,147601,1,0,0:0:0:0:
320,192,147668,1,0,0:0:0:0:
448,192,147735,1,0,0:0:0:0:
64,192,147868,1,0,0:0:0:0:
192,192,147868,1,0,0:0:0:0:
320,192,147935,1,0,0:0:0:0:
448,192,148001,1,0,0:0:0:0:
64,192,148068,1,0,0:0:0:0:
192,192,148135,1,0,0:0:0:0:
320,192,148135,1,0,0:0:0:0:
448,192,148201,1,0,0:0:0:0:
64,192,148268,1,0,0:0:0:0:
192,192,148335,1,0,0:0:0:0:
320,192,148401,1,0,0:0:0:0:
448,192,148468,1,0,0:0:0:0:
64,192,148535,1,0,0:0:0:0:
192,192,148601,1,0,0:0:0:0:
448,192,148668,1,0,0:0:0:0:
320,192,148735,1,0,0:0:0:0:
192,192,148801,1,0,0:0:0:0:
64,192,148868,1,0,0:0:0:0:
320,192,148935,1,0,0:0:0:0:
448,192,149001,1,0,0:0:0:0:
192,192,149068,1,0,0:0:0:0:
64,192,149135,1,0,0:0:0:0:
448,192,149201,1,0,0:0:0:0:
192,192,149201,1,0,0:0:0:0:
320,192,149201,128,0,150801:0:0:0:0:
192,192,150801,128,0,151335:0:0:0:0:
64,192,151335,128,0,153001:0:0:0:0:
448,192,153001,128,0,153535:0:0:0:0:
320,192,153535,128,0,155001:0:0:0:0:
64,192,155001,128,0,155601:0:0:0:0:
448,192,155601,128,0,157468:0:0:0:0:
64,192,156668,1,0,0:0:0:0:
192,192,156757,1,0,0:0:0:0:
320,192,156846,1,0,0:0:0:0:
64,192,156935,1,0,0:0:0:0:
192,192,157023,1,0,0:0:0:0:
320,192,157112,1,0,0:0:0:0:
192,192,157201,1,0,0:0:0:0:
64,192,157290,1,0,0:0:0:0:
320,192,157379,1,0,0:0:0:0:
192,192,157468,1,0,0:0:0:0:
64,192,157557,1,0,0:0:0:0:
448,192,157646,1,0,0:0:0:0:
320,192,157735,1,0,0:0:0:0:
64,192,157735,1,0,0:0:0:0:
192,192,157735,128,0,158268:0:0:0:0:
448,192,158001,1,0,0:0:0:0:
448,192,158268,128,0,158801:0:0:0:0:
320,192,158268,1,0,0:0:0:0:
192,192,158535,1,0,0:0:0:0:
320,192,158668,1,0,0:0:0:0:
64,192,158801,128,0,159335:0:0:0:0:
192,192,158935,1,0,0:0:0:0:
320,192,159068,1,0,0:0:0:0:
448,192,159201,1,0,0:0:0:0:
192,192,159335,1,0,0:0:0:0:
320,192,159335,128,0,159868:0:0:0:0:
448,192,159468,1,0,0:0:0:0:
192,192,159601,1,0,0:0:0:0:
64,192,159735,1,0,0:0:0:0:
448,192,159868,128,0,160935:0:0:0:0:
192,192,159868,1,0,0:0:0:0:
192,192,160135,1,0,0:0:0:0:
320,192,160401,1,0,0:0:0:0:
64,192,160401,1,0,0:0:0:0:
320,192,160801,1,0,0:0:0:0:
192,192,160935,1,0,0:0:0:0:
64,192,161068,1,0,0:0:0:0:
320,192,161201,1,0,0:0:0:0:
192,192,161335,1,0,0:0:0:0:
448,192,161468,1,0,0:0:0:0:
320,192,161468,1,0,0:0:0:0:
320,192,161735,1,0,0:0:0:0:
192,192,161735,1,0,0:0:0:0:
192,192,162001,1,0,0:0:0:0:
64,192,162001,1,0,0:0:0:0:
320,192,162268,1,0,0:0:0:0:
448,192,162535,128,0,163068:0:0:0:0:
192,192,162535,1,0,0:0:0:0:
320,192,162801,1,0,0:0:0:0:
192,192,162935,1,0,0:0:0:0:
64,192,163068,128,0,163601:0:0:0:0:
320,192,163201,1,0,0:0:0:0:
448,192,163335,1,0,0:0:0:0:
192,192,163468,1,0,0:0:0:0:
448,192,163601,1,0,0:0:0:0:
320,192,163601,128,0,164135:0:0:0:0:
192,192,163868,1,0,0:0:0:0:
448,192,164001,1,0,0:0:0:0:
192,192,164135,128,0,165601:0:0:0:0:
64,192,164135,1,0,0:0:0:0:
320,192,164401,1,0,0:0:0:0:
448,192,164668,128,0,165601:0:0:0:0:
64,192,164668,128,0,165601:0:0:0:0:
320,192,165735,1,0,0:0:0:0:
192,192,165801,1,0,0:0:0:0:
64,192,165868,1,0,0:0:0:0:
448,192,165935,1,0,0:0:0:0:
320,192,166001,1,0,0:0:0:0:
192,192,166068,1,0,0:0:0:0:
320,192,166135,1,0,0:0:0:0:
448,192,166201,1,0,0:0:0:0:
64,192,166268,1,0,0:0:0:0:
192,192,166268,1,0,0:0:0:0:
320,192,166335,1,0,0:0:0:0:
64,192,166401,1,0,0:0:0:0:
448,192,166401,1,0,0:0:0:0:
192,192,166468,1,0,0:0:0:0:
64,192,166668,1,0,0:0:0:0:
448,192,166668,1,0,0:0:0:0:
320,192,166735,1,0,0:0:0:0:
192,192,166801,1,0,0:0:0:0:
64,192,166801,1,0,0:0:0:0:
448,192,166868,1,0,0:0:0:0:
192,192,167068,1,0,0:0:0:0:
64,192,167201,1,0,0:0:0:0:
192,192,167335,1,0,0:0:0:0:
320,192,167468,1,0,0:0:0:0:
448,192,167601,1,0,0:0:0:0:
64,192,167601,1,0,0:0:0:0:
320,192,167735,1,0,0:0:0:0:
448,192,167868,1,0,0:0:0:0:
320,192,168001,1,0,0:0:0:0:
192,192,168135,1,0,0:0:0:0:
64,192,168268,1,0,0:0:0:0:
320,192,168401,1,0,0:0:0:0:
448,192,168401,1,0,0:0:0:0:
192,192,168468,1,0,0:0:0:0:
64,192,168535,1,0,0:0:0:0:
448,192,168535,1,0,0:0:0:0:
320,192,168601,1,0,0:0:0:0:
64,192,168801,1,0,0:0:0:0:
192,192,168801,1,0,0:0:0:0:
320,192,168868,1,0,0:0:0:0:
448,192,168935,1,0,0:0:0:0:
64,192,168935,1,0,0:0:0:0:
192,192,169001,1,0,0:0:0:0:
320,192,169201,1,0,0:0:0:0:
448,192,169335,1,0,0:0:0:0:
320,192,169468,1,0,0:0:0:0:
192,192,169601,1,0,0:0:0:0:
64,192,169735,1,0,0:0:0:0:
448,192,169868,1,0,0:0:0:0:
320,192,170001,1,0,0:0:0:0:
448,192,170135,1,0,0:0:0:0:
192,192,170135,1,0,0:0:0:0:
64,192,170135,1,0,0:0:0:0:
448,192,170335,1,0,0:0:0:0:
320,192,170335,1,0,0:0:0:0:
64,192,170335,1,0,0:0:0:0:
192,192,170535,1,0,0:0:0:0:
64,192,170535,1,0,0:0:0:0:
320,192,170601,1,0,0:0:0:0:
64,192,170668,1,0,0:0:0:0:
448,192,170668,1,0,0:0:0:0:
192,192,170735,1,0,0:0:0:0:
64,192,170935,1,0,0:0:0:0:
448,192,170935,1,0,0:0:0:0:
192,192,171001,1,0,0:0:0:0:
320,192,171068,1,0,0:0:0:0:
64,192,171068,1,0,0:0:0:0:
448,192,171135,1,0,0:0:0:0:
320,192,171335,1,0,0:0:0:0:
448,192,171335,1,0,0:0:0:0:
192,192,171401,1,0,0:0:0:0:
448,192,171468,1,0,0:0:0:0:
64,192,171468,1,0,0:0:0:0:
320,192,171535,1,0,0:0:0:0:
448,192,171735,1,0,0:0:0:0:
64,192,171735,1,0,0:0:0:0:
192,192,171801,1,0,0:0:0:0:
448,192,171868,1,0,0:0:0:0:
320,192,171868,1,0,0:0:0:0:
64,192,171935,1,0,0:0:0:0:
448,192,172135,1,0,0:0:0:0:
320,192,172135,1,0,0:0:0:0:
64,192,172223,1,0,0:0:0:0:
192,192,172223,1,0,0:0:0:0:
320,192,172312,1,0,0:0:0:0:
448,192,172312,1,0,0:0:0:0:
64,192,172401,1,0,0:0:0:0:
192,192,172401,1,0,0:0:0:0:
320,192,172490,1,0,0:0:0:0:
448,192,172490,1,0,0:0:0:0:
192,192,172579,1,0,0:0:0:0:
64,192,172579,1,0,0:0:0:0:
320,192,172668,1,0,0:0:0:0:
448,192,172668,1,0,0:0:0:0:
64,192,172735,1,0,0:0:0:0:
448,192,172801,1,0,0:0:0:0:
192,192,172801,1,0,0:0:0:0:
320,192,172868,1,0,0:0:0:0:
64,192,173068,1,0,0:0:0:0:
448,192,173068,1,0,0:0:0:0:
320,192,173135,1,0,0:0:0:0:
448,192,173201,1,0,0:0:0:0:
192,192,173201,1,0,0:0:0:0:
64,192,173268,1,0,0:0:0:0:
64,192,173468,1,0,0:0:0:0:
192,192,173468,1,0,0:0:0:0:
320,192,173535,1,0,0:0:0:0:
64,192,173601,1,0,0:0:0:0:
448,192,173601,1,0,0:0:0:0:
192,192,173668,1,0,0:0:0:0:
448,192,173868,1,0,0:0:0:0:
320,192,173868,1,0,0:0:0:0:
192,192,173935,1,0,0:0:0:0:
448,192,174001,1,0,0:0:0:0:
64,192,174001,1,0,0:0:0:0:
320,192,174068,1,0,0:0:0:0:
192,192,174268,1,0,0:0:0:0:
64,192,174268,1,0,0:0:0:0:
320,192,174357,1,0,0:0:0:0:
448,192,174357,1,0,0:0:0:0:
192,192,174446,1,0,0:0:0:0:
64,192,174446,1,0,0:0:0:0:
448,192,174535,1,0,0:0:0:0:
320,192,174535,1,0,0:0:0:0:
192,192,174623,1,0,0:0:0:0:
64,192,174623,1,0,0:0:0:0:
320,192,174712,1,0,0:0:0:0:
448,192,174712,1,0,0:0:0:0:
192,192,174801,1,0,0:0:0:0:
64,192,174801,1,0,0:0:0:0:
320,192,174868,1,0,0:0:0:0:
64,192,174935,1,0,0:0:0:0:
448,192,174935,1,0,0:0:0:0:
192,192,175001,1,0,0:0:0:0:
448,192,175201,1,0,0:0:0:0:
320,192,175201,1,0,0:0:0:0:
192,192,175268,1,0,0:0:0:0:
448,192,175335,1,0,0:0:0:0:
64,192,175335,1,0,0:0:0:0:
320,192,175401,1,0,0:0:0:0:
64,192,175601,1,0,0:0:0:0:
192,192,175601,1,0,0:0:0:0:
448,192,175668,1,0,0:0:0:0:
320,192,175735,1,0,0:0:0:0:
64,192,175735,1,0,0:0:0:0:
192,192,175801,1,0,0:0:0:0:
448,192,176001,1,0,0:0:0:0:
320,192,176001,1,0,0:0:0:0:
64,192,176068,1,0,0:0:0:0:
192,192,176135,1,0,0:0:0:0:
320,192,176135,1,0,0:0:0:0:
448,192,176201,1,0,0:0:0:0:
320,192,176401,1,0,0:0:0:0:
448,192,176401,1,0,0:0:0:0:
64,192,176490,1,0,0:0:0:0:
192,192,176490,1,0,0:0:0:0:
320,192,176579,1,0,0:0:0:0:
448,192,176579,1,0,0:0:0:0:
64,192,176668,1,0,0:0:0:0:
192,192,176668,1,0,0:0:0:0:
448,192,176757,1,0,0:0:0:0:
320,192,176757,1,0,0:0:0:0:
192,192,176846,1,0,0:0:0:0:
64,192,176846,1,0,0:0:0:0:
320,192,176935,1,0,0:0:0:0:
448,192,176935,1,0,0:0:0:0:
192,192,177068,1,0,0:0:0:0:
448,192,177068,1,0,0:0:0:0:
64,192,177068,1,0,0:0:0:0:
320,192,177468,128,0,178001:0:0:0:0:
64,192,178001,1,0,0:0:0:0:
448,192,178001,1,0,0:0:0:0:
192,192,178001,128,0,178135:0:0:0:0:
320,192,178135,1,0,0:0:0:0:
448,192,178135,1,0,0:0:0:0:
64,192,178135,128,0,178535:0:0:0:0:
448,192,178535,128,0,179068:0:0:0:0:
320,192,179068,1,0,0:0:0:0:
192,192,179068,1,0,0:0:0:0:
64,192,179068,128,0,179201:0:0:0:0:
192,192,179201,1,0,0:0:0:0:
448,192,179201,1,0,0:0:0:0:
320,192,179201,128,0,179601:0:0:0:0:
192,192,179601,128,0,180135:0:0:0:0:
448,192,180135,128,0,180268:0:0:0:0:
64,192,180135,1,0,0:0:0:0:
320,192,180135,1,0,0:0:0:0:
320,192,180268,128,0,180668:0:0:0:0:
192,192,180268,1,0,0:0:0:0:
64,192,180268,1,0,0:0:0:0:
64,192,180668,128,0,181201:0:0:0:0:
192,192,180801,1,0,0:0:0:0:
448,192,180935,1,0,0:0:0:0:
320,192,181068,1,0,0:0:0:0:
448,192,181201,1,0,0:0:0:0:
320,192,181201,1,0,0:0:0:0:
192,192,181201,128,0,182668:0:0:0:0:
320,192,182668,128,0,182801:0:0:0:0:
448,192,182801,128,0,183068:0:0:0:0:
192,192,183068,128,0,183201:0:0:0:0:
64,192,183201,128,0,183335:0:0:0:0:
448,192,183335,1,0,0:0:0:0:
320,192,183401,1,0,0:0:0:0:
192,192,183468,1,0,0:0:0:0:
64,192,183535,1,0,0:0:0:0:
448,192,183601,1,0,0:0:0:0:
320,192,183668,1,0,0:0:0:0:
64,192,183735,1,0,0:0:0:0:
192,192,183801,1,0,0:0:0:0:
320,192,183868,1,0,0:0:0:0:
448,192,183935,1,0,0:0:0:0:
192,192,184001,1,0,0:0:0:0:
64,192,184068,1,0,0:0:0:0:
320,192,184135,1,0,0:0:0:0:
448,192,184201,1,0,0:0:0:0:
192,192,184268,1,0,0:0:0:0:
64,192,184335,1,0,0:0:0:0:
320,192,184401,1,0,0:0:0:0:
448,192,184468,1,0,0:0:0:0:
64,192,184535,1,0,0:0:0:0:
192,192,184601,1,0,0:0:0:0:
320,192,184668,1,0,0:0:0:0:
448,192,184735,1,0,0:0:0:0:
192,192,184801,1,0,0:0:0:0:
64,192,184868,1,0,0:0:0:0:
448,192,184935,1,0,0:0:0:0:
320,192,185001,1,0,0:0:0:0:
192,192,185068,1,0,0:0:0:0:
64,192,185135,1,0,0:0:0:0:
448,192,185201,1,0,0:0:0:0:
320,192,185268,1,0,0:0:0:0:
192,192,185335,1,0,0:0:0:0:
64,192,185401,1,0,0:0:0:0:
320,192,185468,1,0,0:0:0:0:
448,192,185468,128,0,186268:0:0:0:0:
64,192,185601,128,0,186268:0:0:0:0:
320,192,185868,128,0,186268:0:0:0:0:
192,192,186001,128,0,186268:0:0:0:0:
64,192,186535,1,0,0:0:0:0:
192,192,186535,1,0,0:0:0:0:
448,192,186535,1,0,0:0:0:0:
448,192,186668,1,0,0:0:0:0:
64,192,186668,1,0,0:0:0:0:
320,192,186668,1,0,0:0:0:0:
64,192,186935,1,0,0:0:0:0:
448,192,186935,1,0,0:0:0:0:
320,192,186935,1,0,0:0:0:0:
448,192,187068,1,0,0:0:0:0:
192,192,187068,1,0,0:0:0:0:
64,192,187068,1,0,0:0:0:0:
320,192,187335,1,0,0:0:0:0:
448,192,187335,1,0,0:0:0:0:
64,192,187335,1,0,0:0:0:0:
64,192,187601,1,0,0:0:0:0:
448,192,187601,1,0,0:0:0:0:
192,192,187601,1,0,0:0:0:0:
192,192,187735,1,0,0:0:0:0:
448,192,187868,1,0,0:0:0:0:
64,192,187868,1,0,0:0:0:0:
320,192,187868,128,0,188135:0:0:0:0:
192,192,188001,1,0,0:0:0:0:
64,192,188135,1,0,0:0:0:0:
448,192,188135,128,0,188401:0:0:0:0:
192,192,188268,1,0,0:0:0:0:
320,192,188401,1,0,0:0:0:0:
192,192,188401,1,0,0:0:0:0:
64,192,188401,128,0,188668:0:0:0:0:
320,192,188535,1,0,0:0:0:0:
448,192,188668,1,0,0:0:0:0:
192,192,188668,128,0,189201:0:0:0:0:
320,192,188801,1,0,0:0:0:0:
64,192,188935,1,0,0:0:0:0:
448,192,188935,1,0,0:0:0:0:
320,192,188935,1,0,0:0:0:0:
64,192,189068,1,0,0:0:0:0:
320,192,189201,1,0,0:0:0:0:
448,192,189201,128,0,189735:0:0:0:0:
64,192,189335,1,0,0:0:0:0:
192,192,189468,1,0,0:0:0:0:
320,192,189468,1,0,0:0:0:0:
64,192,189468,1,0,0:0:0:0:
192,192,189601,1,0,0:0:0:0:
64,192,189735,1,0,0:0:0:0:
320,192,189735,128,0,190535:0:0:0:0:
192,192,189868,1,0,0:0:0:0:
192,192,190001,1,0,0:0:0:0:
64,192,190001,1,0,0:0:0:0:
448,192,190001,1,0,0:0:0:0:
448,192,190135,1,0,0:0:0:0:
192,192,190268,1,0,0:0:0:0:
64,192,190268,1,0,0:0:0:0:
448,192,190401,1,0,0:0:0:0:
448,192,190535,1,0,0:0:0:0:
64,192,190535,1,0,0:0:0:0:
192,192,190535,128,0,190801:0:0:0:0:
320,192,190668,1,0,0:0:0:0:
448,192,190801,1,0,0:0:0:0:
64,192,190801,128,0,191201:0:0:0:0:
320,192,190935,1,0,0:0:0:0:
448,192,191068,1,0,0:0:0:0:
192,192,191068,1,0,0:0:0:0:
320,192,191068,1,0,0:0:0:0:
192,192,191201,128,0,191601:0:0:0:0:
320,192,191335,1,0,0:0:0:0:
448,192,191335,1,0,0:0:0:0:
320,192,191601,1,0,0:0:0:0:
448,192,191601,1,0,0:0:0:0:
64,192,191601,1,0,0:0:0:0:
192,192,191735,1,0,0:0:0:0:
320,192,191868,1,0,0:0:0:0:
448,192,191868,1,0,0:0:0:0:
192,192,191935,1,0,0:0:0:0:
448,192,192001,1,0,0:0:0:0:
64,192,192001,1,0,0:0:0:0:
320,192,192068,1,0,0:0:0:0:
64,192,192268,1,0,0:0:0:0:
192,192,192268,1,0,0:0:0:0:
448,192,192335,1,0,0:0:0:0:
320,192,192401,1,0,0:0:0:0:
192,192,192401,1,0,0:0:0:0:
64,192,192468,1,0,0:0:0:0:
320,192,192668,1,0,0:0:0:0:
448,192,192668,1,0,0:0:0:0:
192,192,192735,1,0,0:0:0:0:
64,192,192801,1,0,0:0:0:0:
320,192,192801,1,0,0:0:0:0:
448,192,192868,1,0,0:0:0:0:
64,192,193068,1,0,0:0:0:0:
192,192,193068,1,0,0:0:0:0:
320,192,193135,1,0,0:0:0:0:
64,192,193201,1,0,0:0:0:0:
448,192,193201,1,0,0:0:0:0:
192,192,193268,1,0,0:0:0:0:
192,192,193468,1,0,0:0:0:0:
64,192,193468,1,0,0:0:0:0:
320,192,193535,1,0,0:0:0:0:
448,192,193601,1,0,0:0:0:0:
64,192,193668,1,0,0:0:0:0:
192,192,193735,1,0,0:0:0:0:
320,192,193801,1,0,0:0:0:0:
448,192,193868,1,0,0:0:0:0:
64,192,193935,1,0,0:0:0:0:
192,192,194001,1,0,0:0:0:0:
320,192,194001,1,0,0:0:0:0:
448,192,194068,1,0,0:0:0:0:
192,192,194135,1,0,0:0:0:0:
64,192,194135,1,0,0:0:0:0:
320,192,194201,1,0,0:0:0:0:
320,192,194401,1,0,0:0:0:0:
192,192,194401,1,0,0:0:0:0:
64,192,194468,1,0,0:0:0:0:
320,192,194535,1,0,0:0:0:0:
448,192,194535,1,0,0:0:0:0:
192,192,194601,1,0,0:0:0:0:
448,192,194801,1,0,0:0:0:0:
64,192,194801,1,0,0:0:0:0:
192,192,194868,1,0,0:0:0:0:
448,192,194935,1,0,0:0:0:0:
320,192,194935,1,0,0:0:0:0:
64,192,195001,1,0,0:0:0:0:
448,192,195201,1,0,0:0:0:0:
320,192,195201,1,0,0:0:0:0:
192,192,195268,1,0,0:0:0:0:
64,192,195335,1,0,0:0:0:0:
448,192,195335,1,0,0:0:0:0:
320,192,195401,1,0,0:0:0:0:
448,192,195601,1,0,0:0:0:0:
64,192,195601,1,0,0:0:0:0:
320,192,195690,1,0,0:0:0:0:
448,192,195779,1,0,0:0:0:0:
64,192,195868,1,0,0:0:0:0:
192,192,195957,1,0,0:0:0:0:
64,192,196046,1,0,0:0:0:0:
192,192,196135,128,0,196401:0:0:0:0:
320,192,196135,1,0,0:0:0:0:
448,192,196135,1,0,0:0:0:0:
64,192,196268,1,0,0:0:0:0:
448,192,196401,1,0,0:0:0:0:
64,192,196401,128,0,196668:0:0:0:0:
320,192,196401,1,0,0:0:0:0:
448,192,196535,1,0,0:0:0:0:
192,192,196668,1,0,0:0:0:0:
320,192,196668,128,0,196935:0:0:0:0:
64,192,196801,1,0,0:0:0:0:
448,192,196935,128,0,197201:0:0:0:0:
192,192,196935,1,0,0:0:0:0:
64,192,196935,1,0,0:0:0:0:
320,192,197068,1,0,0:0:0:0:
64,192,197201,128,0,197735:0:0:0:0:
192,192,197201,1,0,0:0:0:0:
320,192,197335,1,0,0:0:0:0:
320,192,197468,1,0,0:0:0:0:
448,192,197468,1,0,0:0:0:0:
192,192,197468,1,0,0:0:0:0:
448,192,197601,1,0,0:0:0:0:
192,192,197735,128,0,198268:0:0:0:0:
320,192,197735,1,0,0:0:0:0:
448,192,197868,1,0,0:0:0:0:
64,192,198001,1,0,0:0:0:0:
320,192,198001,1,0,0:0:0:0:
448,192,198001,1,0,0:0:0:0:
64,192,198135,1,0,0:0:0:0:
448,192,198268,128,0,199068:0:0:0:0:
320,192,198268,1,0,0:0:0:0:
192,192,198401,1,0,0:0:0:0:
320,192,198535,1,0,0:0:0:0:
192,192,198535,1,0,0:0:0:0:
64,192,198535,1,0,0:0:0:0:
64,192,198668,1,0,0:0:0:0:
192,192,198801,1,0,0:0:0:0:
320,192,198801,1,0,0:0:0:0:
64,192,198935,1,0,0:0:0:0:
192,192,199068,128,0,199335:0:0:0:0:
320,192,199068,1,0,0:0:0:0:
64,192,199068,1,0,0:0:0:0:
448,192,199201,1,0,0:0:0:0:
64,192,199335,128,0,199735:0:0:0:0:
320,192,199335,1,0,0:0:0:0:
192,192,199468,1,0,0:0:0:0:
448,192,199601,1,0,0:0:0:0:
320,192,199735,1,0,0:0:0:0:
192,192,199735,1,0,0:0:0:0:
448,192,199801,1,0,0:0:0:0:
64,192,199868,1,0,0:0:0:0:
192,192,199868,1,0,0:0:0:0:
448,192,200001,1,0,0:0:0:0:
64,192,200135,1,0,0:0:0:0:
192,192,200201,1,0,0:0:0:0:
320,192,200268,1,0,0:0:0:0:
192,192,200401,1,0,0:0:0:0:
64,192,200401,1,0,0:0:0:0:
320,192,200468,1,0,0:0:0:0:
64,192,200535,1,0,0:0:0:0:
448,192,200535,1,0,0:0:0:0:
192,192,200601,1,0,0:0:0:0:
64,192,200801,1,0,0:0:0:0:
448,192,200801,1,0,0:0:0:0:
192,192,200868,1,0,0:0:0:0:
320,192,200935,1,0,0:0:0:0:
448,192,200935,1,0,0:0:0:0:
64,192,201001,1,0,0:0:0:0:
448,192,201201,1,0,0:0:0:0:
192,192,201201,1,0,0:0:0:0:
320,192,201268,1,0,0:0:0:0:
448,192,201335,1,0,0:0:0:0:
64,192,201335,1,0,0:0:0:0:
192,192,201401,1,0,0:0:0:0:
448,192,201601,1,0,0:0:0:0:
320,192,201601,1,0,0:0:0:0:
64,192,201668,1,0,0:0:0:0:
320,192,201735,1,0,0:0:0:0:
192,192,201735,1,0,0:0:0:0:
448,192,201801,1,0,0:0:0:0:
448,192,202001,128,0,202268:0:0:0:0:
64,192,202268,1,0,0:0:0:0:
192,192,202357,1,0,0:0:0:0:
320,192,202446,1,0,0:0:0:0:
448,192,202535,1,0,0:0:0:0:
64,192,202535,1,0,0:0:0:0:
192,192,202601,1,0,0:0:0:0:
448,192,202668,1,0,0:0:0:0:
320,192,202668,1,0,0:0:0:0:
64,192,202735,1,0,0:0:0:0:
192,192,202935,1,0,0:0:0:0:
320,192,202935,1,0,0:0:0:0:
448,192,203001,1,0,0:0:0:0:
64,192,203068,1,0,0:0:0:0:
192,192,203068,1,0,0:0:0:0:
320,192,203135,1,0,0:0:0:0:
448,192,203335,1,0,0:0:0:0:
320,192,203335,1,0,0:0:0:0:
64,192,203401,1,0,0:0:0:0:
448,192,203468,1,0,0:0:0:0:
192,192,203468,1,0,0:0:0:0:
320,192,203535,1,0,0:0:0:0:
192,192,203735,1,0,0:0:0:0:
64,192,203735,1,0,0:0:0:0:
320,192,203801,1,0,0:0:0:0:
448,192,203868,1,0,0:0:0:0:
64,192,203868,1,0,0:0:0:0:
192,192,203935,1,0,0:0:0:0:
192,192,204135,1,0,0:0:0:0:
64,192,204135,1,0,0:0:0:0:
320,192,204201,1,0,0:0:0:0:
64,192,204268,1,0,0:0:0:0:
448,192,204268,1,0,0:0:0:0:
192,192,204335,1,0,0:0:0:0:
320,192,204401,1,0,0:0:0:0:
448,192,204401,1,0,0:0:0:0:
64,192,204468,1,0,0:0:0:0:
192,192,204535,1,0,0:0:0:0:
448,192,204601,1,0,0:0:0:0:
320,192,204668,1,0,0:0:0:0:
64,192,204668,1,0,0:0:0:0:
192,192,204735,1,0,0:0:0:0:
320,192,204801,1,0,0:0:0:0:
448,192,204801,1,0,0:0:0:0:
64,192,204868,1,0,0:0:0:0:
192,192,205068,1,0,0:0:0:0:
64,192,205068,1,0,0:0:0:0:
320,192,205135,1,0,0:0:0:0:
64,192,205201,1,0,0:0:0:0:
448,192,205201,1,0,0:0:0:0:
192,192,205268,1,0,0:0:0:0:
448,192,205468,1,0,0:0:0:0:
320,192,205468,1,0,0:0:0:0:
192,192,205535,1,0,0:0:0:0:
64,192,205601,1,0,0:0:0:0:
448,192,205601,1,0,0:0:0:0:
320,192,205668,1,0,0:0:0:0:
448,192,205868,1,0,0:0:0:0:
64,192,205868,1,0,0:0:0:0:
192,192,205935,1,0,0:0:0:0:
320,192,206001,1,0,0:0:0:0:
448,192,206001,1,0,0:0:0:0:
64,192,206068,1,0,0:0:0:0:
192,192,206268,1,0,0:0:0:0:
64,192,206268,1,0,0:0:0:0:
448,192,206357,1,0,0:0:0:0:
320,192,206357,1,0,0:0:0:0:
192,192,206446,1,0,0:0:0:0:
64,192,206446,1,0,0:0:0:0:
320,192,206535,1,0,0:0:0:0:
448,192,206535,1,0,0:0:0:0:
192,192,206623,1,0,0:0:0:0:
64,192,206623,1,0,0:0:0:0:
320,192,206712,5,0,0:0:0:0:
448,192,206712,1,0,0:0:0:0:
64,192,206801,1,0,0:0:0:0:
192,192,206801,1,0,0:0:0:0:
320,192,206868,1,0,0:0:0:0:
448,192,206935,1,0,0:0:0:0:
64,192,206935,1,0,0:0:0:0:
192,192,207001,1,0,0:0:0:0:
448,192,207201,1,0,0:0:0:0:
64,192,207201,1,0,0:0:0:0:
192,192,207268,1,0,0:0:0:0:
320,192,207335,1,0,0:0:0:0:
448,192,207335,1,0,0:0:0:0:
64,192,207401,1,0,0:0:0:0:
448,192,207601,1,0,0:0:0:0:
320,192,207601,1,0,0:0:0:0:
192,192,207668,1,0,0:0:0:0:
64,192,207735,1,0,0:0:0:0:
320,192,207735,1,0,0:0:0:0:
448,192,207801,1,0,0:0:0:0:
192,192,208001,1,0,0:0:0:0:
320,192,208001,1,0,0:0:0:0:
64,192,208068,1,0,0:0:0:0:
192,192,208135,1,0,0:0:0:0:
448,192,208135,1,0,0:0:0:0:
320,192,208201,1,0,0:0:0:0:
64,192,208401,1,0,0:0:0:0:
192,192,208401,1,0,0:0:0:0:
448,192,208490,1,0,0:0:0:0:
320,192,208490,1,0,0:0:0:0:
192,192,208579,1,0,0:0:0:0:
64,192,208579,1,0,0:0:0:0:
320,192,208668,1,0,0:0:0:0:
448,192,208668,1,0,0:0:0:0:
192,192,208757,1,0,0:0:0:0:
64,192,208757,1,0,0:0:0:0:
320,192,208846,1,0,0:0:0:0:
448,192,208846,1,0,0:0:0:0:
64,192,208935,128,0,210001:0:0:0:0:
192,192,208935,128,0,210001:0:0:0:0:
448,192,209735,128,0,210001:0:0:0:0:
64,192,210268,1,0,0:0:0:0:
192,192,210335,1,0,0:0:0:0:
320,192,210401,1,0,0:0:0:0:
448,192,210468,1,0,0:0:0:0:
64,192,210535,1,0,0:0:0:0:
192,192,210601,1,0,0:0:0:0:
320,192,210668,1,0,0:0:0:0:
448,192,210735,1,0,0:0:0:0:
192,192,210801,1,0,0:0:0:0:
64,192,210868,1,0,0:0:0:0:
320,192,210935,1,0,0:0:0:0:
448,192,211001,1,0,0:0:0:0:
64,192,211068,128,0,212135:0:0:0:0:
192,192,211068,128,0,212135:0:0:0:0:
448,192,212135,128,0,212935:0:0:0:0:
320,192,212135,128,0,212935:0:0:0:0:
64,192,212935,128,0,213201:0:0:0:0:
320,192,213201,128,0,213468:0:0:0:0:
448,192,213201,128,0,213468:0:0:0:0:
192,192,213468,128,0,214001:0:0:0:0:
64,192,213735,128,0,214001:0:0:0:0:
448,192,214001,128,0,214268:0:0:0:0:
64,192,214268,128,0,214668:0:0:0:0:
192,192,214335,1,0,0:0:0:0:
320,192,214401,1,0,0:0:0:0:
448,192,214468,1,0,0:0:0:0:
192,192,214535,1,0,0:0:0:0:
448,192,214668,128,0,215068:0:0:0:0:
320,192,214801,1,0,0:0:0:0:
192,192,214868,1,0,0:0:0:0:
64,192,214935,1,0,0:0:0:0:
320,192,215068,1,0,0:0:0:0:
192,192,215068,1,0,0:0:0:0:
64,192,215068,1,0,0:0:0:0:
320,192,215335,1,0,0:0:0:0:
448,192,215335,1,0,0:0:0:0:
64,192,215335,1,0,0:0:0:0:
192,192,215468,1,0,0:0:0:0:
320,192,215468,1,0,0:0:0:0:
448,192,215601,1,0,0:0:0:0:
64,192,215601,1,0,0:0:0:0:
192,192,215601,1,0,0:0:0:0:
320,192,215735,1,0,0:0:0:0:
192,192,215868,1,0,0:0:0:0:
64,192,215868,1,0,0:0:0:0:
320,192,216001,1,0,0:0:0:0:
192,192,216135,1,0,0:0:0:0:
320,192,216135,1,0,0:0:0:0:
448,192,216135,1,0,0:0:0:0:
64,192,216268,1,0,0:0:0:0:
192,192,216401,1,0,0:0:0:0:
448,192,216401,1,0,0:0:0:0:
192,192,216535,1,0,0:0:0:0:
64,192,216668,1,0,0:0:0:0:
448,192,216668,1,0,0:0:0:0:
320,192,216668,1,0,0:0:0:0:
192,192,216801,1,0,0:0:0:0:
448,192,216935,1,0,0:0:0:0:
320,192,216935,1,0,0:0:0:0:
448,192,217068,1,0,0:0:0:0:
320,192,217201,1,0,0:0:0:0:
64,192,217201,1,0,0:0:0:0:
192,192,217201,128,0,217468:0:0:0:0:
448,192,217335,1,0,0:0:0:0:
64,192,217468,1,0,0:0:0:0:
320,192,217468,128,0,217735:0:0:0:0:
448,192,217601,1,0,0:0:0:0:
192,192,217735,1,0,0:0:0:0:
64,192,217735,1,0,0:0:0:0:
448,192,217735,128,0,218001:0:0:0:0:
320,192,217868,1,0,0:0:0:0:
192,192,218001,1,0,0:0:0:0:
64,192,218001,128,0,218201:0:0:0:0:
448,192,218201,1,0,0:0:0:0:
320,192,218201,128,0,218268:0:0:0:0:
192,192,218268,128,0,218535:0:0:0:0:
448,192,218401,1,0,0:0:0:0:
64,192,218401,1,0,0:0:0:0:
448,192,218535,1,0,0:0:0:0:
320,192,218535,128,0,218735:0:0:0:0:
64,192,218535,1,0,0:0:0:0:
64,192,218735,1,0,0:0:0:0:
448,192,218735,1,0,0:0:0:0:
192,192,218735,128,0,218935:0:0:0:0:
64,192,218935,1,0,0:0:0:0:
320,192,218935,1,0,0:0:0:0:
448,192,218935,128,0,219135:0:0:0:0:
320,192,219135,1,0,0:0:0:0:
192,192,219135,1,0,0:0:0:0:
64,192,219135,128,0,219335:0:0:0:0:
448,192,219335,1,0,0:0:0:0:
320,192,219401,1,0,0:0:0:0:
192,192,219468,1,0,0:0:0:0:
64,192,219535,1,0,0:0:0:0:
320,192,219601,1,0,0:0:0:0:
448,192,219601,128,0,220401:0:0:0:0:
192,192,219735,1,0,0:0:0:0:
192,192,219868,1,0,0:0:0:0:
320,192,219868,1,0,0:0:0:0:
64,192,219868,1,0,0:0:0:0:
64,192,220001,1,0,0:0:0:0:
192,192,220135,1,0,0:0:0:0:
320,192,220135,1,0,0:0:0:0:
64,192,220268,1,0,0:0:0:0:
320,192,220401,1,0,0:0:0:0:
64,192,220401,1,0,0:0:0:0:
192,192,220401,1,0,0:0:0:0:
448,192,220535,1,0,0:0:0:0:
192,192,220668,1,0,0:0:0:0:
64,192,220668,1,0,0:0:0:0:
320,192,220668,1,0,0:0:0:0:
320,192,220801,1,0,0:0:0:0:
192,192,220801,1,0,0:0:0:0:
448,192,220801,1,0,0:0:0:0:
320,192,221068,1,0,0:0:0:0:
448,192,221068,1,0,0:0:0:0:
64,192,221068,1,0,0:0:0:0:
64,192,221335,1,0,0:0:0:0:
192,192,221335,1,0,0:0:0:0:
448,192,221335,1,0,0:0:0:0:
320,192,221601,1,0,0:0:0:0:
448,192,221601,1,0,0:0:0:0:
192,192,221668,1,0,0:0:0:0:
64,192,221668,1,0,0:0:0:0:
448,192,221735,1,0,0:0:0:0:
320,192,221735,128,0,222001:0:0:0:0:
192,192,221868,1,0,0:0:0:0:
448,192,222001,1,0,0:0:0:0:
192,192,222001,1,0,0:0:0:0:
64,192,222001,128,0,222268:0:0:0:0:
448,192,222268,128,0,222535:0:0:0:0:
192,192,222268,1,0,0:0:0:0:
320,192,222401,1,0,0:0:0:0:
64,192,222535,1,0,0:0:0:0:
320,192,222535,1,0,0:0:0:0:
192,192,222535,128,0,222668:0:0:0:0:
448,192,222668,1,0,0:0:0:0:
320,192,222801,128,0,222935:0:0:0:0:
192,192,222801,128,0,222935:0:0:0:0:
64,192,222801,128,0,222935:0:0:0:0:
192,192,223001,128,0,223201:0:0:0:0:
64,192,223001,128,0,223135:0:0:0:0:
320,192,223001,128,0,223135:0:0:0:0:
320,192,223201,128,0,223468:0:0:0:0:
64,192,223201,128,0,223335:0:0:0:0:
448,192,223201,128,0,223335:0:0:0:0:
448,192,223468,1,0,0:0:0:0:
192,192,223468,128,0,223735:0:0:0:0:
64,192,223468,128,0,223735:0:0:0:0:
320,192,223735,1,0,0:0:0:0:
448,192,223735,1,0,0:0:0:0:
192,192,223801,1,0,0:0:0:0:
64,192,223801,1,0,0:0:0:0:
320,192,223868,1,0,0:0:0:0:
448,192,223868,1,0,0:0:0:0:
320,192,224001,1,0,0:0:0:0:
192,192,224001,1,0,0:0:0:0:
64,192,224135,1,0,0:0:0:0:
192,192,224135,1,0,0:0:0:0:
448,192,224135,1,0,0:0:0:0:
64,192,224401,1,0,0:0:0:0:
192,192,224401,1,0,0:0:0:0:
448,192,224401,1,0,0:0:0:0:
192,192,224535,1,0,0:0:0:0:
320,192,224535,1,0,0:0:0:0:
448,192,224668,1,0,0:0:0:0:
320,192,224668,1,0,0:0:0:0:
64,192,224668,1,0,0:0:0:0:
64,192,224935,1,0,0:0:0:0:
192,192,224935,1,0,0:0:0:0:
192,192,225068,1,0,0:0:0:0:
320,192,225068,1,0,0:0:0:0:
448,192,225201,1,0,0:0:0:0:
64,192,225201,1,0,0:0:0:0:
320,192,225201,1,0,0:0:0:0:
192,192,225335,1,0,0:0:0:0:
320,192,225401,1,0,0:0:0:0:
448,192,225468,1,0,0:0:0:0:
64,192,225535,1,0,0:0:0:0:
192,192,225601,1,0,0:0:0:0:
448,192,225668,1,0,0:0:0:0:
320,192,225735,1,0,0:0:0:0:
192,192,225801,1,0,0:0:0:0:
64,192,225868,1,0,0:0:0:0:
448,192,225935,1,0,0:0:0:0:
192,192,226001,1,0,0:0:0:0:
64,192,226001,1,0,0:0:0:0:
320,192,226068,1,0,0:0:0:0:
64,192,226135,1,0,0:0:0:0:
448,192,226135,1,0,0:0:0:0:
192,192,226201,1,0,0:0:0:0:
64,192,226401,1,0,0:0:0:0:
448,192,226401,1,0,0:0:0:0:
320,192,226468,1,0,0:0:0:0:
192,192,226535,1,0,0:0:0:0:
64,192,226535,1,0,0:0:0:0:
448,192,226601,1,0,0:0:0:0:
320,192,226801,1,0,0:0:0:0:
192,192,226801,1,0,0:0:0:0:
64,192,226868,1,0,0:0:0:0:
320,192,226935,1,0,0:0:0:0:
448,192,226935,1,0,0:0:0:0:
192,192,227001,1,0,0:0:0:0:
320,192,227201,1,0,0:0:0:0:
192,192,227201,1,0,0:0:0:0:
448,192,227268,1,0,0:0:0:0:
192,192,227335,1,0,0:0:0:0:
64,192,227335,1,0,0:0:0:0:
320,192,227401,1,0,0:0:0:0:
64,192,227601,1,0,0:0:0:0:
192,192,227668,1,0,0:0:0:0:
320,192,227735,1,0,0:0:0:0:
192,192,227801,1,0,0:0:0:0:
64,192,227868,1,0,0:0:0:0:
448,192,227868,1,0,0:0:0:0:
192,192,227935,1,0,0:0:0:0:
320,192,228001,1,0,0:0:0:0:
448,192,228068,1,0,0:0:0:0:
64,192,228135,5,0,0:0:0:0:
192,192,228201,1,0,0:0:0:0:
64,192,228268,1,0,0:0:0:0:
192,192,228335,1,0,0:0:0:0:
320,192,228401,1,0,0:0:0:0:
448,192,228401,1,0,0:0:0:0:
64,192,228401,1,0,0:0:0:0:
192,192,228468,1,0,0:0:0:0:
448,192,228535,1,0,0:0:0:0:
320,192,228601,1,0,0:0:0:0:
64,192,228668,1,0,0:0:0:0:
192,192,228668,1,0,0:0:0:0:
320,192,228735,1,0,0:0:0:0:
448,192,228801,1,0,0:0:0:0:
64,192,228868,1,0,0:0:0:0:
320,192,228935,1,0,0:0:0:0:
192,192,228935,1,0,0:0:0:0:
448,192,229001,1,0,0:0:0:0:
64,192,229068,1,0,0:0:0:0:
192,192,229135,1,0,0:0:0:0:
320,192,229201,1,0,0:0:0:0:
448,192,229201,1,0,0:0:0:0:
192,192,229268,1,0,0:0:0:0:
64,192,229335,1,0,0:0:0:0:
448,192,229401,1,0,0:0:0:0:
192,192,229468,1,0,0:0:0:0:
320,192,229468,1,0,0:0:0:0:
64,192,229535,1,0,0:0:0:0:
448,192,229601,1,0,0:0:0:0:
320,192,229668,1,0,0:0:0:0:
64,192,229735,1,0,0:0:0:0:
192,192,229735,1,0,0:0:0:0:
320,192,229801,1,0,0:0:0:0:
448,192,229868,1,0,0:0:0:0:
64,192,229935,1,0,0:0:0:0:
192,192,230001,1,0,0:0:0:0:
320,192,230001,1,0,0:0:0:0:
448,192,230068,1,0,0:0:0:0:
64,192,230135,1,0,0:0:0:0:
192,192,230201,1,0,0:0:0:0:
320,192,230268,1,0,0:0:0:0:
448,192,230268,1,0,0:0:0:0:
192,192,230335,1,0,0:0:0:0:
64,192,230401,1,0,0:0:0:0:
448,192,230468,1,0,0:0:0:0:
192,192,230535,1,0,0:0:0:0:
320,192,230535,1,0,0:0:0:0:
64,192,230601,1,0,0:0:0:0:
448,192,230668,1,0,0:0:0:0:
320,192,230735,1,0,0:0:0:0:
192,192,230801,1,0,0:0:0:0:
64,192,230801,1,0,0:0:0:0:
448,192,230868,1,0,0:0:0:0:
320,192,230935,1,0,0:0:0:0:
192,192,231001,1,0,0:0:0:0:
320,192,231068,1,0,0:0:0:0:
64,192,231068,1,0,0:0:0:0:
448,192,231135,1,0,0:0:0:0:
192,192,231201,1,0,0:0:0:0:
64,192,231268,1,0,0:0:0:0:
320,192,231335,1,0,0:0:0:0:
448,192,231335,1,0,0:0:0:0:
192,192,231401,1,0,0:0:0:0:
64,192,231468,1,0,0:0:0:0:
448,192,231535,1,0,0:0:0:0:
192,192,231601,1,0,0:0:0:0:
320,192,231601,1,0,0:0:0:0:
64,192,231668,1,0,0:0:0:0:
192,192,231735,1,0,0:0:0:0:
448,192,231801,1,0,0:0:0:0:
64,192,231868,1,0,0:0:0:0:
320,192,231868,1,0,0:0:0:0:
192,192,231935,1,0,0:0:0:0:
320,192,232001,1,0,0:0:0:0:
448,192,232068,1,0,0:0:0:0:
192,192,232135,1,0,0:0:0:0:
64,192,232135,1,0,0:0:0:0:
320,192,232201,1,0,0:0:0:0:
448,192,232268,1,0,0:0:0:0:
320,192,232335,1,0,0:0:0:0:
192,192,232401,1,0,0:0:0:0:
64,192,232401,1,0,0:0:0:0:
448,192,232468,1,0,0:0:0:0:
320,192,232535,1,0,0:0:0:0:
192,192,232535,1,0,0:0:0:0:
64,192,232601,1,0,0:0:0:0:
320,192,232668,1,0,0:0:0:0:
448,192,232668,1,0,0:0:0:0:
192,192,232735,1,0,0:0:0:0:
64,192,232801,1,0,0:0:0:0:
320,192,232868,1,0,0:0:0:0:
192,192,232935,1,0,0:0:0:0:
64,192,232935,1,0,0:0:0:0:
448,192,233001,1,0,0:0:0:0:
320,192,233068,1,0,0:0:0:0:
192,192,233135,1,0,0:0:0:0:
448,192,233201,1,0,0:0:0:0:
64,192,233201,1,0,0:0:0:0:
320,192,233268,1,0,0:0:0:0:
64,192,233335,1,0,0:0:0:0:
192,192,233401,1,0,0:0:0:0:
448,192,233468,1,0,0:0:0:0:
320,192,233468,1,0,0:0:0:0:
192,192,233535,1,0,0:0:0:0:
64,192,233601,1,0,0:0:0:0:
448,192,233668,1,0,0:0:0:0:
192,192,233735,1,0,0:0:0:0:
320,192,233735,1,0,0:0:0:0:
64,192,233801,1,0,0:0:0:0:
192,192,233868,1,0,0:0:0:0:
448,192,233935,1,0,0:0:0:0:
320,192,234001,1,0,0:0:0:0:
64,192,234001,1,0,0:0:0:0:
192,192,234068,1,0,0:0:0:0:
448,192,234135,1,0,0:0:0:0:
320,192,234201,1,0,0:0:0:0:
192,192,234268,1,0,0:0:0:0:
64,192,234268,1,0,0:0:0:0:
320,192,234335,1,0,0:0:0:0:
448,192,234401,1,0,0:0:0:0:
64,192,234468,1,0,0:0:0:0:
192,192,234535,1,0,0:0:0:0:
320,192,234535,1,0,0:0:0:0:
448,192,234601,1,0,0:0:0:0:
64,192,234668,1,0,0:0:0:0:
192,192,234735,1,0,0:0:0:0:
320,192,234801,1,0,0:0:0:0:
448,192,234801,1,0,0:0:0:0:
64,192,234868,1,0,0:0:0:0:
192,192,234935,1,0,0:0:0:0:
320,192,235001,1,0,0:0:0:0:
192,192,235068,1,0,0:0:0:0:
448,192,235068,1,0,0:0:0:0:
64,192,235135,1,0,0:0:0:0:
320,192,235201,1,0,0:0:0:0:
448,192,235268,1,0,0:0:0:0:
320,192,235335,1,0,0:0:0:0:
192,192,235335,1,0,0:0:0:0:
64,192,235401,1,0,0:0:0:0:
448,192,235468,1,0,0:0:0:0:
320,192,235535,1,0,0:0:0:0:
64,192,235601,128,0,235735:0:0:0:0:
192,192,235601,128,0,235801:0:0:0:0:
448,192,235601,128,0,235735:0:0:0:0:
320,192,235801,128,0,236001:0:0:0:0:
64,192,235801,128,0,235935:0:0:0:0:
448,192,235801,128,0,235935:0:0:0:0:
64,192,236001,128,0,236135:0:0:0:0:
448,192,236001,128,0,236135:0:0:0:0:
192,192,236001,128,0,236201:0:0:0:0:
320,192,236201,1,0,0:0:0:0:
64,192,236201,1,0,0:0:0:0:
448,192,236201,1,0,0:0:0:0:
192,192,236268,1,0,0:0:0:0:
320,192,236335,1,0,0:0:0:0:
448,192,236401,1,0,0:0:0:0:
192,192,236468,1,0,0:0:0:0:
64,192,236535,1,0,0:0:0:0:
320,192,236601,1,0,0:0:0:0:
64,192,236668,1,0,0:0:0:0:
448,192,236668,1,0,0:0:0:0:
320,192,236735,1,0,0:0:0:0:
192,192,236801,1,0,0:0:0:0:
320,192,236868,1,0,0:0:0:0:
192,192,236935,1,0,0:0:0:0:
64,192,236935,1,0,0:0:0:0:
448,192,236935,1,0,0:0:0:0:
320,192,237001,1,0,0:0:0:0:
192,192,237068,1,0,0:0:0:0:
64,192,237135,1,0,0:0:0:0:
320,192,237201,1,0,0:0:0:0:
448,192,237201,1,0,0:0:0:0:
192,192,237268,1,0,0:0:0:0:
64,192,237268,1,0,0:0:0:0:
320,192,237335,1,0,0:0:0:0:
448,192,237335,1,0,0:0:0:0:
192,192,237401,1,0,0:0:0:0:
320,192,237468,1,0,0:0:0:0:
448,192,237468,1,0,0:0:0:0:
64,192,237468,1,0,0:0:0:0:
192,192,237601,1,0,0:0:0:0:
64,192,237735,1,0,0:0:0:0:
448,192,237735,1,0,0:0:0:0:
320,192,237735,1,0,0:0:0:0:
448,192,237868,1,0,0:0:0:0:
64,192,237868,1,0,0:0:0:0:
192,192,237868,128,0,238135:0:0:0:0:
448,192,238135,1,0,0:0:0:0:
64,192,238135,1,0,0:0:0:0:
320,192,238135,128,0,238401:0:0:0:0:
64,192,238401,1,0,0:0:0:0:
448,192,238401,1,0,0:0:0:0:
192,192,238401,128,0,238668:0:0:0:0:
320,192,238668,1,0,0:0:0:0:
448,192,238668,1,0,0:0:0:0:
192,192,238735,1,0,0:0:0:0:
64,192,238735,1,0,0:0:0:0:
320,192,238801,1,0,0:0:0:0:
448,192,238801,1,0,0:0:0:0:
192,192,238935,1,0,0:0:0:0:
64,192,239068,1,0,0:0:0:0:
320,192,239068,1,0,0:0:0:0:
448,192,239068,1,0,0:0:0:0:
64,192,239201,1,0,0:0:0:0:
192,192,239335,1,0,0:0:0:0:
320,192,239335,1,0,0:0:0:0:
448,192,239468,1,0,0:0:0:0:
320,192,239601,1,0,0:0:0:0:
64,192,239601,1,0,0:0:0:0:
192,192,239735,1,0,0:0:0:0:
320,192,239868,1,0,0:0:0:0:
448,192,239868,1,0,0:0:0:0:
64,192,239868,1,0,0:0:0:0:
64,192,240068,1,0,0:0:0:0:
448,192,240068,1,0,0:0:0:0:
192,192,240068,1,0,0:0:0:0:
320,192,240268,1,0,0:0:0:0:
448,192,240268,1,0,0:0:0:0:
64,192,240268,1,0,0:0:0:0:
64,192,240535,1,0,0:0:0:0:
192,192,240601,1,0,0:0:0:0:
320,192,240668,1,0,0:0:0:0:
448,192,240735,1,0,0:0:0:0:
192,192,240801,1,0,0:0:0:0:
64,192,240868,1,0,0:0:0:0:
448,192,240935,128,0,241068:0:0:0:0:
320,192,240935,128,0,241068:0:0:0:0:
64,192,241201,1,0,0:0:0:0:
192,192,241235,1,0,0:0:0:0:
320,192,241268,1,0,0:0:0:0:
448,192,241301,1,0,0:0:0:0:
64,192,241335,1,0,0:0:0:0:
192,192,241401,1,0,0:0:0:0:
320,192,241468,1,0,0:0:0:0:
448,192,241535,1,0,0:0:0:0:
192,192,241601,1,0,0:0:0:0:
64,192,241668,1,0,0:0:0:0:
320,192,241735,1,0,0:0:0:0:
448,192,241801,1,0,0:0:0:0:
320,192,241868,1,0,0:0:0:0:
192,192,241935,1,0,0:0:0:0:
64,192,241935,1,0,0:0:0:0:
320,192,242001,1,0,0:0:0:0:
448,192,242001,1,0,0:0:0:0:
192,192,242068,1,0,0:0:0:0:
64,192,242135,1,0,0:0:0:0:
320,192,242201,1,0,0:0:0:0:
448,192,242268,1,0,0:0:0:0:
64,192,242335,1,0,0:0:0:0:
192,192,242401,1,0,0:0:0:0:
320,192,242468,1,0,0:0:0:0:
448,192,242535,1,0,0:0:0:0:
64,192,242535,1,0,0:0:0:0:
192,192,242601,1,0,0:0:0:0:
320,192,242668,1,0,0:0:0:0:
64,192,242735,1,0,0:0:0:0:
448,192,242801,1,0,0:0:0:0:
320,192,242835,1,0,0:0:0:0:
192,192,242868,1,0,0:0:0:0:
64,192,242901,1,0,0:0:0:0:
448,192,242935,1,0,0:0:0:0:
192,192,243001,1,0,0:0:0:0:
64,192,243068,128,0,243335:0:0:0:0:
448,192,243068,128,0,243335:0:0:0:0:
320,192,243068,128,0,243268:0:0:0:0:
320,192,243335,128,0,243935:0:0:0:0:
64,192,243468,128,0,243935:0:0:0:0:
192,192,243468,128,0,244201:0:0:0:0:
448,192,243468,128,0,244335:0:0:0:0:
320,192,244001,128,0,244335:0:0:0:0:
64,192,244001,128,0,244201:0:0:0:0:
192,192,244268,128,0,244401:0:0:0:0:
64,192,244268,128,0,244401:0:0:0:0:
320,192,244401,128,0,244601:0:0:0:0:
448,192,244401,128,0,244601:0:0:0:0:
64,192,244535,1,0,0:0:0:0:
192,192,244601,1,0,0:0:0:0:
320,192,244668,128,0,244801:0:0:0:0:
448,192,244668,128,0,244801:0:0:0:0:
64,192,244801,128,0,244935:0:0:0:0:
192,192,244935,128,0,245201:0:0:0:0:
320,192,245201,128,0,245535:0:0:0:0:
448,192,245201,128,0,245535:0:0:0:0:
64,192,245201,128,0,245535:0:0:0:0:
192,192,245468,128,0,246068:0:0:0:0:
448,192,245601,128,0,246068:0:0:0:0:
320,192,245601,128,0,246335:0:0:0:0:
64,192,245601,128,0,246468:0:0:0:0:
192,192,246135,128,0,246468:0:0:0:0:
448,192,246135,128,0,246335:0:0:0:0:
320,192,246401,128,0,246535:0:0:0:0:
448,192,246401,128,0,246535:0:0:0:0:
192,192,246535,128,0,246735:0:0:0:0:
64,192,246535,128,0,246735:0:0:0:0:
448,192,246668,1,0,0:0:0:0:
320,192,246735,1,0,0:0:0:0:
192,192,246801,128,0,246935:0:0:0:0:
64,192,246801,128,0,246935:0:0:0:0:
192,192,247001,128,0,247135:0:0:0:0:
320,192,247001,128,0,247135:0:0:0:0:
448,192,247201,1,0,0:0:0:0:
320,192,247201,128,0,247335:0:0:0:0:
192,192,247335,128,0,247735:0:0:0:0:
64,192,247335,128,0,247668:0:0:0:0:
448,192,247335,128,0,247668:0:0:0:0:
320,192,247735,128,0,248535:0:0:0:0:
64,192,247735,128,0,248201:0:0:0:0:
448,192,247735,128,0,248201:0:0:0:0:
192,192,248135,128,0,248535:0:0:0:0:
64,192,248268,128,0,248668:0:0:0:0:
448,192,248268,128,0,248668:0:0:0:0:
320,192,248668,128,0,248935:0:0:0:0:
192,192,248668,128,0,248801:0:0:0:0:
448,192,248801,128,0,248935:0:0:0:0:
192,192,248935,128,0,249068:0:0:0:0:
64,192,248935,128,0,249068:0:0:0:0:
320,192,249068,128,0,249201:0:0:0:0:
448,192,249201,128,0,249335:0:0:0:0:
320,192,249335,128,0,249468:0:0:0:0:
192,192,249468,128,0,249868:0:0:0:0:
448,192,249468,128,0,249801:0:0:0:0:
64,192,249468,128,0,249801:0:0:0:0:
448,192,249868,128,0,250335:0:0:0:0:
320,192,249868,128,0,250401:0:0:0:0:
64,192,249868,128,0,250335:0:0:0:0:
192,192,250401,1,0,0:0:0:0:
64,192,250401,1,0,0:0:0:0:
448,192,250468,1,0,0:0:0:0:
320,192,250535,1,0,0:0:0:0:
192,192,250601,1,0,0:0:0:0:
64,192,250668,1,0,0:0:0:0:
320,192,250735,1,0,0:0:0:0:
448,192,250801,1,0,0:0:0:0:
192,192,250868,1,0,0:0:0:0:
64,192,250935,1,0,0:0:0:0:
320,192,251001,1,0,0:0:0:0:
448,192,251068,1,0,0:0:0:0:
64,192,251135,1,0,0:0:0:0:
192,192,251201,1,0,0:0:0:0:
320,192,251268,1,0,0:0:0:0:
448,192,251335,1,0,0:0:0:0:
192,192,251401,1,0,0:0:0:0:
64,192,251468,1,0,0:0:0:0:
448,192,251535,1,0,0:0:0:0:
320,192,251601,1,0,0:0:0:0:
192,192,251668,1,0,0:0:0:0:
64,192,251735,1,0,0:0:0:0:
320,192,251801,1,0,0:0:0:0:
448,192,251868,1,0,0:0:0:0:
64,192,251935,1,0,0:0:0:0:
192,192,252001,1,0,0:0:0:0:
320,192,252068,1,0,0:0:0:0:
448,192,252135,1,0,0:0:0:0:
192,192,252201,1,0,0:0:0:0:
64,192,252268,1,0,0:0:0:0:
448,192,252335,1,0,0:0:0:0:
64,192,252401,1,0,0:0:0:0:
192,192,252435,1,0,0:0:0:0:
320,192,252468,1,0,0:0:0:0:
448,192,252501,1,0,0:0:0:0:
64,192,252535,1,0,0:0:0:0:
192,192,252568,1,0,0:0:0:0:
320,192,252601,1,0,0:0:0:0:
448,192,252635,1,0,0:0:0:0:
64,192,252668,1,0,0:0:0:0:
64,192,253201,128,0,253601:0:0:0:0:
448,192,253601,128,0,253735:0:0:0:0:
192,192,253735,1,0,0:0:0:0:
320,192,253801,1,0,0:0:0:0:
192,192,253868,1,0,0:0:0:0:
320,192,253935,1,0,0:0:0:0:
192,192,254001,1,0,0:0:0:0:
64,192,254068,1,0,0:0:0:0:
448,192,254135,1,0,0:0:0:0:
64,192,254201,1,0,0:0:0:0:
448,192,254268,1,0,0:0:0:0:
64,192,254335,1,0,0:0:0:0:
192,192,254401,1,0,0:0:0:0:
320,192,254468,1,0,0:0:0:0:
64,192,254535,1,0,0:0:0:0:
448,192,254535,1,0,0:0:0:0:
192,192,254535,1,0,0:0:0:0:
320,192,254801,1,0,0:0:0:0:
448,192,254801,1,0,0:0:0:0:
64,192,254801,1,0,0:0:0:0:
192,192,254935,1,0,0:0:0:0:
320,192,254935,1,0,0:0:0:0:
320,192,255068,1,0,0:0:0:0:
448,192,255068,1,0,0:0:0:0:
64,192,255068,1,0,0:0:0:0:
192,192,255201,1,0,0:0:0:0:
64,192,255201,1,0,0:0:0:0:
448,192,255335,128,0,255601:0:0:0:0:
192,192,255335,1,0,0:0:0:0:
320,192,255335,128,0,255601:0:0:0:0:
64,192,255601,1,0,0:0:0:0:
192,192,255601,128,0,255735:0:0:0:0:
448,192,255735,1,0,0:0:0:0:
320,192,255735,128,0,255868:0:0:0:0:
64,192,255868,1,0,0:0:0:0:
448,192,255868,1,0,0:0:0:0:
192,192,255868,128,0,256001:0:0:0:0:
320,192,256001,1,0,0:0:0:0:
64,192,256001,128,0,256135:0:0:0:0:
320,192,256135,1,0,0:0:0:0:
192,192,256135,128,0,256401:0:0:0:0:
448,192,256135,1,0,0:0:0:0:
320,192,256401,1,0,0:0:0:0:
448,192,256401,128,0,256535:0:0:0:0:
64,192,256535,1,0,0:0:0:0:
192,192,256535,128,0,256668:0:0:0:0:
448,192,256668,1,0,0:0:0:0:
64,192,256668,1,0,0:0:0:0:
320,192,256668,128,0,256801:0:0:0:0:
192,192,256801,128,0,256935:0:0:0:0:
320,192,256935,1,0,0:0:0:0:
448,192,256935,1,0,0:0:0:0:
64,192,257001,1,0,0:0:0:0:
192,192,257001,128,0,257201:0:0:0:0:
448,192,257201,1,0,0:0:0:0:
64,192,257201,1,0,0:0:0:0:
320,192,257201,128,0,257468:0:0:0:0:
192,192,257468,1,0,0:0:0:0:
448,192,257468,1,0,0:0:0:0:
64,192,257468,128,0,257601:0:0:0:0:
320,192,257601,1,0,0:0:0:0:
192,192,257601,128,0,257735:0:0:0:0:
448,192,257735,1,0,0:0:0:0:
64,192,257735,1,0,0:0:0:0:
320,192,257735,128,0,257868:0:0:0:0:
192,192,257868,1,0,0:0:0:0:
64,192,257868,128,0,258001:0:0:0:0:
320,192,258001,1,0,0:0:0:0:
192,192,258001,1,0,0:0:0:0:
448,192,258001,128,0,258201:0:0:0:0:
320,192,258201,1,0,0:0:0:0:
64,192,258201,1,0,0:0:0:0:
192,192,258201,128,0,258401:0:0:0:0:
448,192,258401,1,0,0:0:0:0:
64,192,258401,1,0,0:0:0:0:
320,192,258401,128,0,258601:0:0:0:0:
64,192,258601,128,0,258801:0:0:0:0:
192,192,258601,1,0,0:0:0:0:
448,192,258601,1,0,0:0:0:0:
448,192,258801,1,0,0:0:0:0:
320,192,258868,1,0,0:0:0:0:
192,192,258935,1,0,0:0:0:0:
64,192,259001,1,0,0:0:0:0:
320,192,259068,128,0,259201:0:0:0:0:
448,192,259068,128,0,259201:0:0:0:0:
64,192,259201,1,0,0:0:0:0:
192,192,259201,1,0,0:0:0:0:
320,192,259268,1,0,0:0:0:0:
448,192,259268,1,0,0:0:0:0:
192,192,259335,1,0,0:0:0:0:
64,192,259335,1,0,0:0:0:0:
320,192,259468,1,0,0:0:0:0:
448,192,259601,1,0,0:0:0:0:
64,192,259601,1,0,0:0:0:0:
192,192,259601,128,0,259868:0:0:0:0:
320,192,259868,1,0,0:0:0:0:
448,192,259868,1,0,0:0:0:0:
64,192,259868,1,0,0:0:0:0:
192,192,260001,1,0,0:0:0:0:
64,192,260001,1,0,0:0:0:0:
320,192,260135,1,0,0:0:0:0:
448,192,260135,1,0,0:0:0:0:
192,192,260201,1,0,0:0:0:0:
64,192,260201,1,0,0:0:0:0:
320,192,260268,1,0,0:0:0:0:
448,192,260268,1,0,0:0:0:0:
64,192,260335,1,0,0:0:0:0:
192,192,260335,1,0,0:0:0:0:
320,192,260401,1,0,0:0:0:0:
448,192,260401,1,0,0:0:0:0:
192,192,260601,1,0,0:0:0:0:
64,192,260601,1,0,0:0:0:0:
448,192,260668,1,0,0:0:0:0:
320,192,260701,1,0,0:0:0:0:
192,192,260735,1,0,0:0:0:0:
64,192,260768,1,0,0:0:0:0:
448,192,260801,1,0,0:0:0:0:
192,192,260935,1,0,0:0:0:0:
320,192,260935,1,0,0:0:0:0:
192,192,261068,1,0,0:0:0:0:
320,192,261068,1,0,0:0:0:0:
64,192,261201,1,0,0:0:0:0:
448,192,261201,1,0,0:0:0:0:
320,192,261201,1,0,0:0:0:0:
192,192,261335,1,0,0:0:0:0:
64,192,261335,1,0,0:0:0:0:
320,192,261468,1,0,0:0:0:0:
448,192,261601,1,0,0:0:0:0:
320,192,261735,1,0,0:0:0:0:
192,192,261735,1,0,0:0:0:0:
64,192,261735,1,0,0:0:0:0:
320,192,261868,1,0,0:0:0:0:
448,192,261868,1,0,0:0:0:0:
64,192,262001,1,0,0:0:0:0:
192,192,262135,1,0,0:0:0:0:
320,192,262268,1,0,0:0:0:0:
448,192,262268,1,0,0:0:0:0:
64,192,262268,1,0,0:0:0:0:
192,192,262401,1,0,0:0:0:0:
320,192,262535,1,0,0:0:0:0:
192,192,262668,1,0,0:0:0:0:
448,192,262801,1,0,0:0:0:0:
64,192,262935,128,0,263201:0:0:0:0:
448,192,263201,1,0,0:0:0:0:
192,192,263335,1,0,0:0:0:0:
64,192,263335,1,0,0:0:0:0:
320,192,263401,1,0,0:0:0:0:
448,192,263401,1,0,0:0:0:0:
192,192,263468,1,0,0:0:0:0:
64,192,263468,1,0,0:0:0:0:
320,192,263535,1,0,0:0:0:0:
448,192,263535,1,0,0:0:0:0:
64,192,263601,1,0,0:0:0:0:
192,192,263668,1,0,0:0:0:0:
320,192,263735,1,0,0:0:0:0:
448,192,263801,1,0,0:0:0:0:
192,192,263868,1,0,0:0:0:0:
64,192,263868,1,0,0:0:0:0:
320,192,263935,1,0,0:0:0:0:
448,192,263935,1,0,0:0:0:0:
192,192,264001,1,0,0:0:0:0:
64,192,264001,1,0,0:0:0:0:
320,192,264068,1,0,0:0:0:0:
448,192,264068,1,0,0:0:0:0:
192,192,264135,1,0,0:0:0:0:
64,192,264201,1,0,0:0:0:0:
448,192,264268,1,0,0:0:0:0:
320,192,264335,1,0,0:0:0:0:
192,192,264401,128,0,264668:0:0:0:0:
64,192,264401,128,0,264668:0:0:0:0:
320,192,264668,1,0,0:0:0:0:
448,192,264668,1,0,0:0:0:0:
192,192,264735,1,0,0:0:0:0:
64,192,264735,1,0,0:0:0:0:
320,192,264801,1,0,0:0:0:0:
448,192,264801,1,0,0:0:0:0:
448,192,264935,1,0,0:0:0:0:
192,192,264935,1,0,0:0:0:0:
64,192,264935,1,0,0:0:0:0:
192,192,265068,1,0,0:0:0:0:
320,192,265068,1,0,0:0:0:0:
448,192,265201,1,0,0:0:0:0:
320,192,265201,128,0,265401:0:0:0:0:
64,192,265201,128,0,265401:0:0:0:0:
448,192,265468,1,0,0:0:0:0:
320,192,265535,1,0,0:0:0:0:
192,192,265601,1,0,0:0:0:0:
64,192,265668,1,0,0:0:0:0:
448,192,265735,1,0,0:0:0:0:
320,192,265801,1,0,0:0:0:0:
64,192,265868,1,0,0:0:0:0:
192,192,265901,1,0,0:0:0:0:
320,192,265935,1,0,0:0:0:0:
448,192,265968,1,0,0:0:0:0:
64,192,266001,1,0,0:0:0:0:
192,192,266068,1,0,0:0:0:0:
64,192,266135,1,0,0:0:0:0:
448,192,266201,1,0,0:0:0:0:
320,192,266268,1,0,0:0:0:0:
192,192,266335,1,0,0:0:0:0:
64,192,266401,1,0,0:0:0:0:
448,192,266468,1,0,0:0:0:0:
320,192,266535,1,0,0:0:0:0:
192,192,266535,1,0,0:0:0:0:
64,192,266535,1,0,0:0:0:0:
320,192,266668,1,0,0:0:0:0:
448,192,266668,1,0,0:0:0:0:
192,192,266735,1,0,0:0:0:0:
64,192,266735,1,0,0:0:0:0:
320,192,266801,1,0,0:0:0:0:
448,192,266801,1,0,0:0:0:0:
64,192,266935,1,0,0:0:0:0:
192,192,266935,1,0,0:0:0:0:
320,192,267001,1,0,0:0:0:0:
448,192,267001,1,0,0:0:0:0:
64,192,267068,128,0,267335:0:0:0:0:
192,192,267068,128,0,267335:0:0:0:0:
320,192,267335,128,0,267601:0:0:0:0:
448,192,267335,128,0,267601:0:0:0:0:
192,192,267601,128,0,267868:0:0:0:0:
64,192,267601,128,0,267868:0:0:0:0:
320,192,267868,1,0,0:0:0:0:
448,192,267868,1,0,0:0:0:0:
192,192,267935,1,0,0:0:0:0:
64,192,267935,1,0,0:0:0:0:
320,192,268001,1,0,0:0:0:0:
448,192,268001,1,0,0:0:0:0:
192,192,268135,1,0,0:0:0:0:
64,192,268135,1,0,0:0:0:0:
448,192,268135,1,0,0:0:0:0:
320,192,268268,1,0,0:0:0:0:
192,192,268268,1,0,0:0:0:0:
448,192,268401,1,0,0:0:0:0:
320,192,268401,1,0,0:0:0:0:
64,192,268401,128,0,268668:0:0:0:0:
192,192,268668,1,0,0:0:0:0:
320,192,268668,1,0,0:0:0:0:
448,192,268735,1,0,0:0:0:0:
64,192,268801,1,0,0:0:0:0:
192,192,268868,1,0,0:0:0:0:
320,192,268935,1,0,0:0:0:0:
448,192,268935,1,0,0:0:0:0:
64,192,269001,1,0,0:0:0:0:
192,192,269068,1,0,0:0:0:0:
448,192,269135,1,0,0:0:0:0:
320,192,269201,1,0,0:0:0:0:
64,192,269201,1,0,0:0:0:0:
192,192,269290,1,0,0:0:0:0:
64,192,269379,1,0,0:0:0:0:
448,192,269468,1,0,0:0:0:0:
320,192,269468,1,0,0:0:0:0:
192,192,269557,1,0,0:0:0:0:
320,192,269646,1,0,0:0:0:0:
192,192,269735,1,0,0:0:0:0:
64,192,269735,128,0,270001:0:0:0:0:
448,192,269735,128,0,270001:0:0:0:0:
320,192,270001,1,0,0:0:0:0:
192,192,270001,128,0,270135:0:0:0:0:
320,192,270135,1,0,0:0:0:0:
64,192,270135,128,0,270401:0:0:0:0:
448,192,270135,128,0,270401:0:0:0:0:
192,192,270401,1,0,0:0:0:0:
320,192,270401,128,0,270535:0:0:0:0:
448,192,270535,1,0,0:0:0:0:
192,192,270535,128,0,270801:0:0:0:0:
64,192,270535,128,0,270801:0:0:0:0:
448,192,270801,1,0,0:0:0:0:
320,192,270868,1,0,0:0:0:0:
192,192,270935,1,0,0:0:0:0:
64,192,271001,1,0,0:0:0:0:
192,192,271068,1,0,0:0:0:0:
320,192,271068,128,0,271335:0:0:0:0:
448,192,271068,128,0,271335:0:0:0:0:
64,192,271335,1,0,0:0:0:0:
192,192,271401,1,0,0:0:0:0:
320,192,271468,1,0,0:0:0:0:
448,192,271535,1,0,0:0:0:0:
64,192,271601,1,0,0:0:0:0:
192,192,271668,1,0,0:0:0:0:
448,192,271735,1,0,0:0:0:0:
320,192,271801,1,0,0:0:0:0:
64,192,271868,1,0,0:0:0:0:
192,192,271868,128,0,272135:0:0:0:0:
448,192,272135,1,0,0:0:0:0:
320,192,272135,1,0,0:0:0:0:
64,192,272201,1,0,0:0:0:0:
192,192,272201,1,0,0:0:0:0:
320,192,272268,1,0,0:0:0:0:
448,192,272268,1,0,0:0:0:0:
64,192,272335,1,0,0:0:0:0:
192,192,272335,1,0,0:0:0:0:
320,192,272401,128,0,272668:0:0:0:0:
448,192,272401,128,0,272668:0:0:0:0:
192,192,272668,1,0,0:0:0:0:
64,192,272668,1,0,0:0:0:0:
320,192,272735,1,0,0:0:0:0:
448,192,272735,1,0,0:0:0:0:
192,192,272801,128,0,273068:0:0:0:0:
64,192,272801,128,0,273068:0:0:0:0:
320,192,273068,1,0,0:0:0:0:
448,192,273068,1,0,0:0:0:0:
192,192,273135,1,0,0:0:0:0:
64,192,273135,1,0,0:0:0:0:
320,192,273201,128,0,273468:0:0:0:0:
448,192,273201,128,0,273468:0:0:0:0:
192,192,273468,1,0,0:0:0:0:
64,192,273468,1,0,0:0:0:0:
320,192,273535,1,0,0:0:0:0:
448,192,273535,1,0,0:0:0:0:
192,192,273601,128,0,273868:0:0:0:0:
64,192,273601,128,0,273868:0:0:0:0:
320,192,273868,1,0,0:0:0:0:
448,192,273868,1,0,0:0:0:0:
192,192,273935,1,0,0:0:0:0:
64,192,273935,1,0,0:0:0:0:
320,192,274001,128,0,274268:0:0:0:0:
448,192,274001,128,0,274268:0:0:0:0:
192,192,274268,1,0,0:0:0:0:
64,192,274268,1,0,0:0:0:0:
320,192,274335,1,0,0:0:0:0:
448,192,274335,1,0,0:0:0:0:
192,192,274401,1,0,0:0:0:0:
64,192,274401,1,0,0:0:0:0:
320,192,274468,1,0,0:0:0:0:
448,192,274468,1,0,0:0:0:0:
192,192,274535,128,0,274801:0:0:0:0:
64,192,274535,128,0,274801:0:0:0:0:
320,192,274801,1,0,0:0:0:0:
448,192,274801,1,0,0:0:0:0:
192,192,274868,1,0,0:0:0:0:
64,192,274868,1,0,0:0:0:0:
320,192,274935,128,0,275068:0:0:0:0:
448,192,274935,128,0,275068:0:0:0:0:
64,192,275068,1,0,0:0:0:0:
192,192,275068,1,0,0:0:0:0:
320,192,275135,1,0,0:0:0:0:
448,192,275135,1,0,0:0:0:0:
192,192,275201,1,0,0:0:0:0:
64,192,275201,1,0,0:0:0:0:
320,192,275268,128,0,275468:0:0:0:0:
448,192,275268,128,0,275468:0:0:0:0:
192,192,275468,1,0,0:0:0:0:
64,192,275468,1,0,0:0:0:0:
320,192,275535,1,0,0:0:0:0:
448,192,275535,1,0,0:0:0:0:
64,192,275601,128,0,275779:0:0:0:0:
192,192,275601,128,0,275779:0:0:0:0:
320,192,275779,128,0,275957:0:0:0:0:
448,192,275779,1,0,0:0:0:0:
192,192,275957,1,0,0:0:0:0:
448,192,275957,128,0,276135:0:0:0:0:
64,192,276135,1,0,0:0:0:0:
192,192,276135,128,0,276401:0:0:0:0:
320,192,276268,1,0,0:0:0:0:
320,192,276401,128,0,276668:0:0:0:0:
448,192,276401,1,0,0:0:0:0:
192,192,276468,1,0,0:0:0:0:
64,192,276468,1,0,0:0:0:0:
448,192,276535,1,0,0:0:0:0:
192,192,276668,128,0,276935:0:0:0:0:
64,192,276668,1,0,0:0:0:0:
448,192,276801,1,0,0:0:0:0:
320,192,276868,1,0,0:0:0:0:
64,192,276935,128,0,277201:0:0:0:0:
448,192,276935,128,0,277201:0:0:0:0:
320,192,277001,1,0,0:0:0:0:
192,192,277068,1,0,0:0:0:0:
192,192,277201,1,0,0:0:0:0:
320,192,277201,128,0,277601:0:0:0:0:
64,192,277268,1,0,0:0:0:0:
448,192,277335,1,0,0:0:0:0:
192,192,277401,1,0,0:0:0:0:
64,192,277468,1,0,0:0:0:0:
448,192,277468,1,0,0:0:0:0:
192,192,277601,128,0,278001:0:0:0:0:
448,192,277668,1,0,0:0:0:0:
64,192,277735,1,0,0:0:0:0:
320,192,277801,1,0,0:0:0:0:
448,192,277868,1,0,0:0:0:0:
448,192,278001,128,0,278268:0:0:0:0:
64,192,278001,1,0,0:0:0:0:
320,192,278068,1,0,0:0:0:0:
192,192,278135,1,0,0:0:0:0:
64,192,278201,1,0,0:0:0:0:
320,192,278268,128,0,278801:0:0:0:0:
192,192,278268,1,0,0:0:0:0:
448,192,278401,1,0,0:0:0:0:
64,192,278535,1,0,0:0:0:0:
192,192,278601,1,0,0:0:0:0:
448,192,278668,1,0,0:0:0:0:
64,192,278735,1,0,0:0:0:0:
192,192,278801,1,0,0:0:0:0:
448,192,278801,128,0,279068:0:0:0:0:
64,192,278935,1,0,0:0:0:0:
192,192,278935,1,0,0:0:0:0:
320,192,279001,1,0,0:0:0:0:
64,192,279068,1,0,0:0:0:0:
192,192,279157,1,0,0:0:0:0:
320,192,279246,1,0,0:0:0:0:
64,192,279335,1,0,0:0:0:0:
448,192,279335,1,0,0:0:0:0:
192,192,279335,128,0,279535:0:0:0:0:
64,192,279535,1,0,0:0:0:0:
448,192,279535,1,0,0:0:0:0:
320,192,279535,128,0,279735:0:0:0:0:
192,192,279735,1,0,0:0:0:0:
448,192,279735,1,0,0:0:0:0:
64,192,279735,128,0,279868:0:0:0:0:
320,192,279868,1,0,0:0:0:0:
192,192,279868,1,0,0:0:0:0:
448,192,279868,128,0,280068:0:0:0:0:
64,192,280068,1,0,0:0:0:0:
320,192,280068,1,0,0:0:0:0:
192,192,280068,128,0,280268:0:0:0:0:
448,192,280268,1,0,0:0:0:0:
64,192,280268,1,0,0:0:0:0:
320,192,280268,128,0,280401:0:0:0:0:
64,192,280401,1,0,0:0:0:0:
448,192,280401,1,0,0:0:0:0:
192,192,280401,128,0,280601:0:0:0:0:
320,192,280601,1,0,0:0:0:0:
64,192,280601,1,0,0:0:0:0:
448,192,280601,128,0,280801:0:0:0:0:
320,192,280801,128,0,283601:0:0:0:0:
192,192,280801,128,0,283601:0:0:0:0:
64,192,280801,128,0,283601:0:0:0:0:
