osu file format v14

[General]
AudioFilename: audio.mp3
AudioLeadIn: 0
PreviewTime: 68740
Countdown: 0
SampleSet: Soft
StackLeniency: 0.7
Mode: 3
LetterboxInBreaks: 0
SpecialStyle: 0
WidescreenStoryboard: 1

[Editor]
DistanceSpacing: 0.8
BeatDivisor: 4
GridSize: 16
TimelineZoom: 2.4

[Metadata]
Title:You Make My Life 1UP
TitleUnicode:You Make My Life 1UP
Artist:Camellia feat. Nanahira
ArtistUnicode:かめりあ feat. ななひら
Creator:My Angel RangE
Version:Rhezie's Normal
Source:Muse Dash
Tags:ppass rhezie mare featured artist fa electronic japanese video game mappers' guild mpg mg ふぉーす! force! 4orce! comic market 93 c93 kamelcamellia かめるかめりあ confetto short ver. version kccd-06 jpop pop j-pop
BeatmapID:3970714
BeatmapSetID:1911796

[Difficulty]
HPDrainRate:7
CircleSize:4
OverallDifficulty:7
ApproachRate:5
SliderMultiplier:1.4
SliderTickRate:1

[Events]
//Background and Video events
0,0,"72.jpg",0,0
//Break Periods
//Storyboard Layer 0 (Background)
//Storyboard Layer 1 (Fail)
//Storyboard Layer 2 (Pass)
//Storyboard Layer 3 (Foreground)
//Storyboard Layer 4 (Overlay)
//Storyboard Sound Samples

[TimingPoints]
824,333.333333333333,4,2,2,30,1,0

[HitObjects]
448,192,824,5,0,0:0:0:0:
64,192,824,1,0,0:0:0:0:
192,192,1157,128,0,1323:0:0:0:0:
320,192,1490,128,0,1657:0:0:0:0:
64,192,1823,128,0,1990:0:0:0:0:
448,192,2157,128,0,2323:0:0:0:0:
320,192,2490,1,0,0:0:0:0:
64,192,2823,128,0,3157:0:0:0:0:
448,192,3157,1,0,0:0:0:0:
64,192,3490,1,0,0:0:0:0:
448,192,3490,1,0,0:0:0:0:
192,192,3823,128,0,3990:0:0:0:0:
64,192,4157,128,0,4323:0:0:0:0:
448,192,4490,128,0,4657:0:0:0:0:
320,192,4823,128,0,4990:0:0:0:0:
64,192,5157,128,0,5323:0:0:0:0:
192,192,5490,128,0,5823:0:0:0:0:
448,192,5823,1,0,0:0:0:0:
448,192,6157,1,0,0:0:0:0:
64,192,6157,1,0,0:0:0:0:
320,192,6490,128,0,6657:0:0:0:0:
64,192,6823,128,0,6990:0:0:0:0:
320,192,7157,128,0,7323:0:0:0:0:
448,192,7490,128,0,7657:0:0:0:0:
192,192,7823,1,0,0:0:0:0:
448,192,8157,128,0,8323:0:0:0:0:
64,192,8490,1,0,0:0:0:0:
320,192,8657,128,0,8823:0:0:0:0:
192,192,8990,1,0,0:0:0:0:
64,192,9157,128,0,9657:0:0:0:0:
192,192,9990,1,0,0:0:0:0:
448,192,10157,1,0,0:0:0:0:
320,192,10157,128,0,10323:0:0:0:0:
64,192,10407,128,0,10573:0:0:0:0:
448,192,10657,1,0,0:0:0:0:
192,192,10823,128,0,10990:0:0:0:0:
320,192,11073,128,0,11490:0:0:0:0:
64,192,11490,1,0,0:0:0:0:
448,192,11490,1,0,0:0:0:0:
320,192,11657,1,0,0:0:0:0:
192,192,11823,1,0,0:0:0:0:
448,192,11990,1,0,0:0:0:0:
192,192,12157,1,0,0:0:0:0:
64,192,12323,1,0,0:0:0:0:
448,192,12490,1,0,0:0:0:0:
320,192,12490,1,0,0:0:0:0:
64,192,12823,1,0,0:0:0:0:
448,192,12823,1,0,0:0:0:0:
192,192,12990,1,0,0:0:0:0:
320,192,13157,1,0,0:0:0:0:
64,192,13323,1,0,0:0:0:0:
320,192,13490,1,0,0:0:0:0:
448,192,13657,1,0,0:0:0:0:
192,192,13823,1,0,0:0:0:0:
64,192,13823,1,0,0:0:0:0:
320,192,14157,1,0,0:0:0:0:
448,192,14157,128,0,14490:0:0:0:0:
64,192,14323,1,0,0:0:0:0:
192,192,14490,1,0,0:0:0:0:
448,192,14823,1,0,0:0:0:0:
320,192,14823,128,0,15157:0:0:0:0:
192,192,14990,1,0,0:0:0:0:
64,192,15157,1,0,0:0:0:0:
448,192,15490,1,0,0:0:0:0:
192,192,15490,128,0,15657:0:0:0:0:
320,192,15657,1,0,0:0:0:0:
64,192,15823,128,0,15990:0:0:0:0:
192,192,15990,1,0,0:0:0:0:
320,192,16157,128,0,16490:0:0:0:0:
448,192,16490,1,0,0:0:0:0:
64,192,16490,1,0,0:0:0:0:
192,192,16823,1,0,0:0:0:0:
64,192,16823,1,0,0:0:0:0:
448,192,17157,1,0,0:0:0:0:
320,192,17157,1,0,0:0:0:0:
192,192,17490,1,0,0:0:0:0:
64,192,17657,1,0,0:0:0:0:
448,192,17823,1,0,0:0:0:0:
320,192,17823,1,0,0:0:0:0:
192,192,18157,1,0,0:0:0:0:
448,192,18157,1,0,0:0:0:0:
320,192,18490,1,0,0:0:0:0:
64,192,18490,1,0,0:0:0:0:
448,192,18823,1,0,0:0:0:0:
192,192,18990,1,0,0:0:0:0:
64,192,19157,1,0,0:0:0:0:
320,192,19157,1,0,0:0:0:0:
192,192,19490,1,0,0:0:0:0:
320,192,19490,1,0,0:0:0:0:
64,192,19823,1,0,0:0:0:0:
448,192,19823,1,0,0:0:0:0:
192,192,20157,1,0,0:0:0:0:
320,192,20323,1,0,0:0:0:0:
64,192,20490,1,0,0:0:0:0:
448,192,20490,1,0,0:0:0:0:
320,192,20823,1,0,0:0:0:0:
448,192,20823,1,0,0:0:0:0:
192,192,21157,1,0,0:0:0:0:
64,192,21157,1,0,0:0:0:0:
448,192,21490,128,0,21823:0:0:0:0:
192,192,21657,1,0,0:0:0:0:
192,192,21823,1,0,0:0:0:0:
64,192,21823,1,0,0:0:0:0:
320,192,21990,1,0,0:0:0:0:
448,192,22157,1,0,0:0:0:0:
64,192,22157,1,0,0:0:0:0:
192,192,22490,1,0,0:0:0:0:
320,192,22490,1,0,0:0:0:0:
64,192,22823,1,0,0:0:0:0:
448,192,22990,1,0,0:0:0:0:
320,192,23157,1,0,0:0:0:0:
192,192,23157,1,0,0:0:0:0:
192,192,23490,1,0,0:0:0:0:
64,192,23490,1,0,0:0:0:0:
320,192,23823,1,0,0:0:0:0:
448,192,23823,1,0,0:0:0:0:
192,192,23990,1,0,0:0:0:0:
64,192,24157,1,0,0:0:0:0:
64,192,24323,1,0,0:0:0:0:
320,192,24490,1,0,0:0:0:0:
448,192,24490,1,0,0:0:0:0:
320,192,24657,1,0,0:0:0:0:
192,192,24823,1,0,0:0:0:0:
64,192,24823,128,0,25157:0:0:0:0:
448,192,25157,1,0,0:0:0:0:
192,192,25323,1,0,0:0:0:0:
320,192,25490,1,0,0:0:0:0:
448,192,25490,128,0,25657:0:0:0:0:
64,192,25657,1,0,0:0:0:0:
192,192,25657,128,0,25823:0:0:0:0:
320,192,25990,128,0,26323:0:0:0:0:
192,192,25990,1,0,0:0:0:0:
320,192,26657,1,0,0:0:0:0:
448,192,26657,128,0,26990:0:0:0:0:
64,192,26990,1,0,0:0:0:0:
320,192,27157,128,0,27323:0:0:0:0:
192,192,27323,128,0,27490:0:0:0:0:
64,192,27490,1,0,0:0:0:0:
448,192,27490,1,0,0:0:0:0:
320,192,27657,1,0,0:0:0:0:
192,192,27823,1,0,0:0:0:0:
448,192,27990,128,0,28157:0:0:0:0:
64,192,28157,1,0,0:0:0:0:
320,192,28323,1,0,0:0:0:0:
192,192,28407,1,0,0:0:0:0:
320,192,28573,1,0,0:0:0:0:
448,192,28657,1,0,0:0:0:0:
64,192,28740,1,0,0:0:0:0:
192,192,28823,1,0,0:0:0:0:
320,192,28990,128,0,29157:0:0:0:0:
448,192,29157,1,0,0:0:0:0:
192,192,29323,128,0,29490:0:0:0:0:
64,192,29490,1,0,0:0:0:0:
320,192,29657,1,0,0:0:0:0:
192,192,29740,1,0,0:0:0:0:
64,192,29823,1,0,0:0:0:0:
448,192,29990,128,0,30157:0:0:0:0:
64,192,30157,128,0,30490:0:0:0:0:
192,192,30157,1,0,0:0:0:0:
320,192,30323,1,0,0:0:0:0:
320,192,30490,1,0,0:0:0:0:
192,192,30657,128,0,30823:0:0:0:0:
448,192,30823,1,0,0:0:0:0:
64,192,30990,1,0,0:0:0:0:
320,192,31073,1,0,0:0:0:0:
192,192,31240,1,0,0:0:0:0:
448,192,31323,1,0,0:0:0:0:
320,192,31323,1,0,0:0:0:0:
64,192,31657,1,0,0:0:0:0:
64,192,31823,1,0,0:0:0:0:
320,192,31990,1,0,0:0:0:0:
320,192,32157,1,0,0:0:0:0:
64,192,32323,1,0,0:0:0:0:
448,192,32490,128,0,32823:0:0:0:0:
192,192,32657,1,0,0:0:0:0:
64,192,32823,1,0,0:0:0:0:
192,192,32823,1,0,0:0:0:0:
320,192,32990,1,0,0:0:0:0:
448,192,33157,1,0,0:0:0:0:
64,192,33157,1,0,0:0:0:0:
192,192,33323,1,0,0:0:0:0:
320,192,33490,1,0,0:0:0:0:
64,192,33657,1,0,0:0:0:0:
64,192,33823,128,0,33990:0:0:0:0:
448,192,33823,1,0,0:0:0:0:
320,192,34157,128,0,34323:0:0:0:0:
192,192,34490,1,0,0:0:0:0:
64,192,34490,1,0,0:0:0:0:
448,192,34657,128,0,34823:0:0:0:0:
192,192,34823,1,0,0:0:0:0:
64,192,34990,128,0,35157:0:0:0:0:
320,192,35157,1,0,0:0:0:0:
192,192,35323,128,0,35490:0:0:0:0:
448,192,35490,1,0,0:0:0:0:
64,192,35657,1,0,0:0:0:0:
192,192,35823,1,0,0:0:0:0:
320,192,35823,1,0,0:0:0:0:
448,192,35990,1,0,0:0:0:0:
64,192,36157,1,0,0:0:0:0:
320,192,36323,1,0,0:0:0:0:
64,192,36490,1,0,0:0:0:0:
192,192,36490,128,0,36657:0:0:0:0:
448,192,36823,128,0,36990:0:0:0:0:
64,192,36990,1,0,0:0:0:0:
320,192,37157,1,0,0:0:0:0:
192,192,37157,1,0,0:0:0:0:
320,192,37323,128,0,37490:0:0:0:0:
448,192,37490,1,0,0:0:0:0:
64,192,37657,128,0,37823:0:0:0:0:
192,192,37823,1,0,0:0:0:0:
448,192,37990,128,0,38823:0:0:0:0:
192,192,38157,1,0,0:0:0:0:
64,192,38157,1,0,0:0:0:0:
192,192,38490,1,0,0:0:0:0:
320,192,38490,1,0,0:0:0:0:
64,192,38823,1,0,0:0:0:0:
64,192,39157,128,0,39323:0:0:0:0:
320,192,39157,1,0,0:0:0:0:
448,192,39490,128,0,39823:0:0:0:0:
64,192,39823,1,0,0:0:0:0:
192,192,39823,1,0,0:0:0:0:
320,192,39990,128,0,40323:0:0:0:0:
64,192,40157,1,0,0:0:0:0:
192,192,40490,1,0,0:0:0:0:
448,192,40490,128,0,40657:0:0:0:0:
64,192,40823,128,0,41157:0:0:0:0:
448,192,41157,1,0,0:0:0:0:
320,192,41157,1,0,0:0:0:0:
192,192,41323,128,0,41657:0:0:0:0:
448,192,41490,1,0,0:0:0:0:
64,192,41823,128,0,41990:0:0:0:0:
320,192,41823,1,0,0:0:0:0:
192,192,42157,1,0,0:0:0:0:
448,192,42157,128,0,42490:0:0:0:0:
192,192,42490,1,0,0:0:0:0:
64,192,42490,1,0,0:0:0:0:
320,192,42657,1,0,0:0:0:0:
64,192,42823,128,0,43157:0:0:0:0:
448,192,42990,1,0,0:0:0:0:
192,192,43157,1,0,0:0:0:0:
192,192,43323,1,0,0:0:0:0:
320,192,43490,1,0,0:0:0:0:
448,192,43490,1,0,0:0:0:0:
64,192,43657,1,0,0:0:0:0:
448,192,43823,1,0,0:0:0:0:
192,192,43823,1,0,0:0:0:0:
64,192,43990,1,0,0:0:0:0:
320,192,44157,1,0,0:0:0:0:
320,192,44323,1,0,0:0:0:0:
192,192,44490,128,0,44657:0:0:0:0:
64,192,44490,1,0,0:0:0:0:
448,192,44823,1,0,0:0:0:0:
64,192,44990,1,0,0:0:0:0:
320,192,45157,1,0,0:0:0:0:
192,192,45157,1,0,0:0:0:0:
320,192,45323,128,0,45490:0:0:0:0:
64,192,45490,1,0,0:0:0:0:
448,192,45657,128,0,45823:0:0:0:0:
192,192,45823,1,0,0:0:0:0:
64,192,45990,128,0,46157:0:0:0:0:
320,192,46157,1,0,0:0:0:0:
192,192,46323,1,0,0:0:0:0:
448,192,46490,1,0,0:0:0:0:
64,192,46490,1,0,0:0:0:0:
320,192,46657,1,0,0:0:0:0:
192,192,46823,1,0,0:0:0:0:
192,192,46990,1,0,0:0:0:0:
64,192,47157,1,0,0:0:0:0:
448,192,47157,128,0,47323:0:0:0:0:
320,192,47490,128,0,47657:0:0:0:0:
64,192,47657,128,0,47823:0:0:0:0:
320,192,47823,1,0,0:0:0:0:
448,192,47823,1,0,0:0:0:0:
192,192,47990,128,0,48157:0:0:0:0:
64,192,48157,1,0,0:0:0:0:
320,192,48323,128,0,48490:0:0:0:0:
192,192,48490,1,0,0:0:0:0:
448,192,48657,128,0,49490:0:0:0:0:
192,192,48823,1,0,0:0:0:0:
64,192,48823,1,0,0:0:0:0:
192,192,49157,1,0,0:0:0:0:
320,192,49157,1,0,0:0:0:0:
64,192,49490,1,0,0:0:0:0:
192,192,49657,1,0,0:0:0:0:
192,192,49823,1,0,0:0:0:0:
448,192,49990,128,0,50157:0:0:0:0:
64,192,50157,1,0,0:0:0:0:
320,192,50323,1,0,0:0:0:0:
320,192,50490,1,0,0:0:0:0:
64,192,50657,128,0,50823:0:0:0:0:
448,192,50823,1,0,0:0:0:0:
192,192,50990,1,0,0:0:0:0:
192,192,51157,1,0,0:0:0:0:
448,192,51323,128,0,52157:0:0:0:0:
64,192,51490,1,0,0:0:0:0:
320,192,51823,1,0,0:0:0:0:
64,192,51823,1,0,0:0:0:0:
192,192,52157,1,0,0:0:0:0:
448,192,52490,1,0,0:0:0:0:
320,192,52490,1,0,0:0:0:0:
192,192,52657,1,0,0:0:0:0:
64,192,52657,1,0,0:0:0:0:
320,192,52990,1,0,0:0:0:0:
192,192,52990,1,0,0:0:0:0:
448,192,53323,1,0,0:0:0:0:
320,192,53323,1,0,0:0:0:0:
64,192,53657,1,0,0:0:0:0:
448,192,53657,1,0,0:0:0:0:
320,192,53823,128,0,54157:0:0:0:0:
192,192,53990,1,0,0:0:0:0:
192,192,54157,1,0,0:0:0:0:
64,192,54157,128,0,54823:0:0:0:0:
448,192,54490,1,0,0:0:0:0:
320,192,54823,1,0,0:0:0:0:
192,192,55157,128,0,55323:0:0:0:0:
448,192,55490,128,0,55990:0:0:0:0:
192,192,55823,1,0,0:0:0:0:
320,192,56157,128,0,56657:0:0:0:0:
64,192,56490,1,0,0:0:0:0:
192,192,56823,128,0,57490:0:0:0:0:
320,192,57157,1,0,0:0:0:0:
448,192,57490,1,0,0:0:0:0:
64,192,57823,128,0,57990:0:0:0:0:
320,192,58157,128,0,58657:0:0:0:0:
64,192,58490,1,0,0:0:0:0:
192,192,58823,128,0,59323:0:0:0:0:
448,192,59157,1,0,0:0:0:0:
64,192,59490,128,0,60657:0:0:0:0:
320,192,59823,1,0,0:0:0:0:
448,192,59990,1,0,0:0:0:0:
448,192,60157,1,0,0:0:0:0:
192,192,60323,1,0,0:0:0:0:
448,192,60490,1,0,0:0:0:0:
320,192,60657,1,0,0:0:0:0:
192,192,60823,1,0,0:0:0:0:
64,192,60823,1,0,0:0:0:0:
192,192,61157,128,0,61323:0:0:0:0:
448,192,61157,1,0,0:0:0:0:
64,192,61490,128,0,61657:0:0:0:0:
320,192,61490,1,0,0:0:0:0:
448,192,61823,128,0,61990:0:0:0:0:
64,192,61823,1,0,0:0:0:0:
320,192,62157,128,0,62490:0:0:0:0:
192,192,62157,1,0,0:0:0:0:
64,192,62490,1,0,0:0:0:0:
448,192,62490,1,0,0:0:0:0:
192,192,62657,128,0,63323:0:0:0:0:
320,192,62823,1,0,0:0:0:0:
448,192,62823,1,0,0:0:0:0:
320,192,63157,1,0,0:0:0:0:
448,192,63157,1,0,0:0:0:0:
64,192,63490,1,0,0:0:0:0:
448,192,63490,1,0,0:0:0:0:
64,192,63823,128,0,63990:0:0:0:0:
320,192,63823,1,0,0:0:0:0:
192,192,64157,128,0,64323:0:0:0:0:
448,192,64157,1,0,0:0:0:0:
192,192,64490,1,0,0:0:0:0:
320,192,64490,128,0,64657:0:0:0:0:
448,192,64823,1,0,0:0:0:0:
64,192,64823,128,0,65157:0:0:0:0:
192,192,65157,1,0,0:0:0:0:
448,192,65157,1,0,0:0:0:0:
320,192,65323,128,0,65990:0:0:0:0:
192,192,65490,1,0,0:0:0:0:
64,192,65490,1,0,0:0:0:0:
192,192,65823,1,0,0:0:0:0:
64,192,65823,1,0,0:0:0:0:
64,192,66157,128,0,67490:0:0:0:0:
448,192,66157,1,0,0:0:0:0:
192,192,66490,1,0,0:0:0:0:
320,192,66490,1,0,0:0:0:0:
192,192,66823,1,0,0:0:0:0:
448,192,66823,1,0,0:0:0:0:
192,192,67157,1,0,0:0:0:0:
320,192,67157,1,0,0:0:0:0:
448,192,67490,128,0,68823:0:0:0:0:
320,192,67490,1,0,0:0:0:0:
192,192,67657,1,0,0:0:0:0:
64,192,67823,1,0,0:0:0:0:
320,192,67990,1,0,0:0:0:0:
192,192,68157,1,0,0:0:0:0:
64,192,68323,1,0,0:0:0:0:
320,192,68490,1,0,0:0:0:0:
192,192,68657,1,0,0:0:0:0:
320,192,68823,1,0,0:0:0:0:
64,192,68823,1,0,0:0:0:0:
448,192,68990,1,0,0:0:0:0:
192,192,69157,128,0,69323:0:0:0:0:
192,192,69490,1,0,0:0:0:0:
448,192,69490,1,0,0:0:0:0:
64,192,69657,1,0,0:0:0:0:
320,192,69823,128,0,69990:0:0:0:0:
64,192,70157,1,0,0:0:0:0:
320,192,70157,1,0,0:0:0:0:
192,192,70323,1,0,0:0:0:0:
448,192,70490,1,0,0:0:0:0:
64,192,70490,1,0,0:0:0:0:
320,192,70657,1,0,0:0:0:0:
192,192,70823,1,0,0:0:0:0:
448,192,70823,128,0,71157:0:0:0:0:
320,192,71157,1,0,0:0:0:0:
64,192,71157,1,0,0:0:0:0:
192,192,71323,1,0,0:0:0:0:
64,192,71490,1,0,0:0:0:0:
448,192,71490,1,0,0:0:0:0:
192,192,71823,1,0,0:0:0:0:
320,192,71823,1,0,0:0:0:0:
192,192,71990,1,0,0:0:0:0:
64,192,72157,1,0,0:0:0:0:
320,192,72157,1,0,0:0:0:0:
320,192,72323,1,0,0:0:0:0:
64,192,72490,1,0,0:0:0:0:
448,192,72490,1,0,0:0:0:0:
64,192,72657,1,0,0:0:0:0:
192,192,72823,1,0,0:0:0:0:
448,192,72823,1,0,0:0:0:0:
448,192,72990,1,0,0:0:0:0:
192,192,73157,128,0,73323:0:0:0:0:
64,192,73157,1,0,0:0:0:0:
320,192,73323,1,0,0:0:0:0:
448,192,73490,128,0,73990:0:0:0:0:
192,192,73490,1,0,0:0:0:0:
64,192,73657,1,0,0:0:0:0:
320,192,73823,128,0,73990:0:0:0:0:
192,192,73990,1,0,0:0:0:0:
64,192,74157,1,0,0:0:0:0:
448,192,74157,1,0,0:0:0:0:
192,192,74490,1,0,0:0:0:0:
320,192,74490,1,0,0:0:0:0:
320,192,74657,1,0,0:0:0:0:
448,192,74823,1,0,0:0:0:0:
192,192,74823,1,0,0:0:0:0:
192,192,74990,1,0,0:0:0:0:
448,192,75157,1,0,0:0:0:0:
64,192,75157,1,0,0:0:0:0:
448,192,75323,1,0,0:0:0:0:
320,192,75490,1,0,0:0:0:0:
64,192,75490,1,0,0:0:0:0:
64,192,75657,1,0,0:0:0:0:
320,192,75823,1,0,0:0:0:0:
192,192,75823,1,0,0:0:0:0:
320,192,75990,1,0,0:0:0:0:
192,192,76157,128,0,76490:0:0:0:0:
64,192,76157,1,0,0:0:0:0:
448,192,76323,1,0,0:0:0:0:
448,192,76490,1,0,0:0:0:0:
320,192,76490,128,0,76823:0:0:0:0:
64,192,76657,1,0,0:0:0:0:
64,192,76823,1,0,0:0:0:0:
192,192,76823,1,0,0:0:0:0:
448,192,77157,1,0,0:0:0:0:
192,192,77157,1,0,0:0:0:0:
192,192,77323,1,0,0:0:0:0:
64,192,77490,1,0,0:0:0:0:
448,192,77490,1,0,0:0:0:0:
448,192,77657,1,0,0:0:0:0:
64,192,77823,1,0,0:0:0:0:
320,192,77823,1,0,0:0:0:0:
64,192,77990,1,0,0:0:0:0:
320,192,78157,1,0,0:0:0:0:
192,192,78157,1,0,0:0:0:0:
320,192,78323,1,0,0:0:0:0:
192,192,78490,1,0,0:0:0:0:
448,192,78490,1,0,0:0:0:0:
192,192,78657,1,0,0:0:0:0:
320,192,78823,128,0,79157:0:0:0:0:
448,192,78823,1,0,0:0:0:0:
64,192,78990,1,0,0:0:0:0:
64,192,79157,128,0,79490:0:0:0:0:
192,192,79157,1,0,0:0:0:0:
448,192,79323,1,0,0:0:0:0:
320,192,79490,1,0,0:0:0:0:
448,192,79490,1,0,0:0:0:0:
192,192,79823,128,0,79990:0:0:0:0:
64,192,79823,1,0,0:0:0:0:
448,192,80157,128,0,80657:0:0:0:0:
192,192,80157,1,0,0:0:0:0:
320,192,80490,128,0,80657:0:0:0:0:
192,192,80657,1,0,0:0:0:0:
320,192,80823,1,0,0:0:0:0:
448,192,80823,1,0,0:0:0:0:
192,192,81157,128,0,81323:0:0:0:0:
64,192,81157,1,0,0:0:0:0:
192,192,81490,1,0,0:0:0:0:
448,192,81490,128,0,81990:0:0:0:0:
320,192,81823,128,0,81990:0:0:0:0:
192,192,81990,1,0,0:0:0:0:
64,192,82157,1,0,0:0:0:0:
448,192,82157,1,0,0:0:0:0:
192,192,82490,1,0,0:0:0:0:
320,192,82490,1,0,0:0:0:0:
192,192,82657,1,0,0:0:0:0:
64,192,82823,1,0,0:0:0:0:
320,192,82823,1,0,0:0:0:0:
320,192,82990,1,0,0:0:0:0:
64,192,83157,1,0,0:0:0:0:
448,192,83157,1,0,0:0:0:0:
64,192,83323,1,0,0:0:0:0:
192,192,83490,1,0,0:0:0:0:
448,192,83490,1,0,0:0:0:0:
448,192,83657,1,0,0:0:0:0:
192,192,83823,128,0,83990:0:0:0:0:
64,192,83823,1,0,0:0:0:0:
320,192,83990,1,0,0:0:0:0:
448,192,84157,128,0,84657:0:0:0:0:
192,192,84157,1,0,0:0:0:0:
64,192,84323,1,0,0:0:0:0:
320,192,84490,128,0,84657:0:0:0:0:
192,192,84657,1,0,0:0:0:0:
64,192,84823,1,0,0:0:0:0:
448,192,84823,1,0,0:0:0:0:
192,192,85157,1,0,0:0:0:0:
320,192,85157,1,0,0:0:0:0:
320,192,85323,1,0,0:0:0:0:
448,192,85490,1,0,0:0:0:0:
192,192,85490,1,0,0:0:0:0:
192,192,85657,1,0,0:0:0:0:
448,192,85823,1,0,0:0:0:0:
64,192,85823,1,0,0:0:0:0:
448,192,85990,1,0,0:0:0:0:
320,192,86157,1,0,0:0:0:0:
64,192,86157,1,0,0:0:0:0:
64,192,86323,1,0,0:0:0:0:
320,192,86490,1,0,0:0:0:0:
192,192,86490,1,0,0:0:0:0:
320,192,86657,1,0,0:0:0:0:
192,192,86823,128,0,87157:0:0:0:0:
64,192,86823,1,0,0:0:0:0:
448,192,86990,1,0,0:0:0:0:
448,192,87157,1,0,0:0:0:0:
320,192,87157,128,0,87490:0:0:0:0:
64,192,87323,1,0,0:0:0:0:
64,192,87490,1,0,0:0:0:0:
192,192,87490,1,0,0:0:0:0:
448,192,87823,1,0,0:0:0:0:
192,192,87823,1,0,0:0:0:0:
192,192,87990,1,0,0:0:0:0:
64,192,88157,1,0,0:0:0:0:
448,192,88157,1,0,0:0:0:0:
448,192,88323,1,0,0:0:0:0:
64,192,88490,1,0,0:0:0:0:
320,192,88490,1,0,0:0:0:0:
64,192,88657,1,0,0:0:0:0:
320,192,88823,1,0,0:0:0:0:
192,192,88823,1,0,0:0:0:0:
320,192,88990,1,0,0:0:0:0:
192,192,89157,1,0,0:0:0:0:
448,192,89157,1,0,0:0:0:0:
192,192,89323,1,0,0:0:0:0:
448,192,89490,128,0,89657:0:0:0:0:
320,192,89490,1,0,0:0:0:0:
64,192,89657,1,0,0:0:0:0:
192,192,89823,1,0,0:0:0:0:
448,192,89823,1,0,0:0:0:0:
192,192,89990,128,0,90157:0:0:0:0:
64,192,90157,1,0,0:0:0:0:
320,192,90157,1,0,0:0:0:0:
448,192,90323,1,0,0:0:0:0:
448,192,90490,128,0,90823:0:0:0:0:
64,192,90657,1,0,0:0:0:0:
64,192,90823,1,0,0:0:0:0:
320,192,90990,1,0,0:0:0:0:
448,192,90990,1,0,0:0:0:0:
320,192,91157,1,0,0:0:0:0:
64,192,91323,1,0,0:0:0:0:
192,192,91407,1,0,0:0:0:0:
320,192,91490,1,0,0:0:0:0:
448,192,91490,1,0,0:0:0:0:
320,192,91740,1,0,0:0:0:0:
448,192,91740,1,0,0:0:0:0:
64,192,91990,1,0,0:0:0:0:
448,192,91990,1,0,0:0:0:0:
192,192,92157,1,0,0:0:0:0:
64,192,92157,1,0,0:0:0:0:
64,192,92407,1,0,0:0:0:0:
192,192,92407,1,0,0:0:0:0:
64,192,92657,1,0,0:0:0:0:
448,192,92657,1,0,0:0:0:0:
320,192,92823,1,0,0:0:0:0:
448,192,92823,1,0,0:0:0:0:
64,192,93157,1,0,0:0:0:0:
192,192,93157,1,0,0:0:0:0:
320,192,93490,1,0,0:0:0:0:
448,192,93657,1,0,0:0:0:0:
64,192,93823,1,0,0:0:0:0:
192,192,93823,1,0,0:0:0:0:
320,192,94157,1,0,0:0:0:0:
64,192,94157,1,0,0:0:0:0:
192,192,94490,1,0,0:0:0:0:
448,192,94490,1,0,0:0:0:0:
64,192,94823,1,0,0:0:0:0:
320,192,94990,1,0,0:0:0:0:
448,192,95157,1,0,0:0:0:0:
192,192,95157,1,0,0:0:0:0:
320,192,95490,1,0,0:0:0:0:
192,192,95490,1,0,0:0:0:0:
448,192,95823,1,0,0:0:0:0:
64,192,95823,1,0,0:0:0:0:
192,192,96157,1,0,0:0:0:0:
320,192,96323,1,0,0:0:0:0:
64,192,96490,1,0,0:0:0:0:
448,192,96490,1,0,0:0:0:0:
320,192,96823,1,0,0:0:0:0:
448,192,96823,1,0,0:0:0:0:
192,192,97157,1,0,0:0:0:0:
64,192,97157,1,0,0:0:0:0:
448,192,97490,128,0,97823:0:0:0:0:
192,192,97657,1,0,0:0:0:0:
192,192,97823,1,0,0:0:0:0:
64,192,97823,1,0,0:0:0:0:
320,192,97990,1,0,0:0:0:0:
448,192,98157,1,0,0:0:0:0:
64,192,98157,1,0,0:0:0:0:
192,192,98490,1,0,0:0:0:0:
320,192,98490,1,0,0:0:0:0:
64,192,98823,1,0,0:0:0:0:
448,192,98990,1,0,0:0:0:0:
320,192,99157,1,0,0:0:0:0:
192,192,99157,1,0,0:0:0:0:
192,192,99490,1,0,0:0:0:0:
64,192,99490,1,0,0:0:0:0:
320,192,99823,1,0,0:0:0:0:
448,192,99823,1,0,0:0:0:0:
192,192,99990,1,0,0:0:0:0:
64,192,100157,1,0,0:0:0:0:
64,192,100323,1,0,0:0:0:0:
320,192,100490,1,0,0:0:0:0:
448,192,100490,1,0,0:0:0:0:
320,192,100657,1,0,0:0:0:0:
192,192,100823,1,0,0:0:0:0:
64,192,100823,128,0,101157:0:0:0:0:
448,192,101157,1,0,0:0:0:0:
192,192,101323,1,0,0:0:0:0:
320,192,101490,1,0,0:0:0:0:
448,192,101490,128,0,101657:0:0:0:0:
64,192,101657,1,0,0:0:0:0:
192,192,101657,128,0,101823:0:0:0:0:
320,192,101990,128,0,102323:0:0:0:0:
192,192,101990,1,0,0:0:0:0:
320,192,102657,1,0,0:0:0:0:
448,192,102657,128,0,102990:0:0:0:0:
64,192,102990,1,0,0:0:0:0:
320,192,103157,128,0,103323:0:0:0:0:
192,192,103323,128,0,103490:0:0:0:0:
64,192,103490,1,0,0:0:0:0:
448,192,103490,1,0,0:0:0:0:
320,192,103657,1,0,0:0:0:0:
192,192,103823,1,0,0:0:0:0:
448,192,103990,128,0,104157:0:0:0:0:
64,192,104157,1,0,0:0:0:0:
320,192,104323,1,0,0:0:0:0:
192,192,104407,1,0,0:0:0:0:
320,192,104573,1,0,0:0:0:0:
448,192,104657,1,0,0:0:0:0:
64,192,104740,1,0,0:0:0:0:
192,192,104823,1,0,0:0:0:0:
320,192,104990,128,0,105157:0:0:0:0:
448,192,105157,1,0,0:0:0:0:
192,192,105323,128,0,105490:0:0:0:0:
64,192,105490,1,0,0:0:0:0:
320,192,105657,1,0,0:0:0:0:
192,192,105740,1,0,0:0:0:0:
64,192,105823,1,0,0:0:0:0:
448,192,105990,128,0,106157:0:0:0:0:
64,192,106157,128,0,106490:0:0:0:0:
192,192,106157,1,0,0:0:0:0:
320,192,106323,1,0,0:0:0:0:
320,192,106490,1,0,0:0:0:0:
192,192,106657,128,0,106823:0:0:0:0:
448,192,106823,1,0,0:0:0:0:
64,192,106990,1,0,0:0:0:0:
320,192,107073,1,0,0:0:0:0:
192,192,107240,1,0,0:0:0:0:
448,192,107323,1,0,0:0:0:0:
320,192,107323,1,0,0:0:0:0:
64,192,107657,1,0,0:0:0:0:
64,192,107823,1,0,0:0:0:0:
320,192,107990,1,0,0:0:0:0:
320,192,108157,1,0,0:0:0:0:
64,192,108323,1,0,0:0:0:0:
448,192,108490,128,0,108823:0:0:0:0:
192,192,108657,1,0,0:0:0:0:
64,192,108823,1,0,0:0:0:0:
192,192,108823,1,0,0:0:0:0:
320,192,108990,1,0,0:0:0:0:
448,192,109157,1,0,0:0:0:0:
64,192,109323,1,0,0:0:0:0:
320,192,109490,1,0,0:0:0:0:
192,192,109657,1,0,0:0:0:0:
448,192,109823,1,0,0:0:0:0:
64,192,109823,1,0,0:0:0:0:
320,192,110157,1,0,0:0:0:0:
448,192,110157,1,0,0:0:0:0:
192,192,110323,1,0,0:0:0:0:
64,192,110490,1,0,0:0:0:0:
448,192,110657,1,0,0:0:0:0:
192,192,110823,1,0,0:0:0:0:
320,192,110990,1,0,0:0:0:0:
448,192,111157,1,0,0:0:0:0:
64,192,111157,1,0,0:0:0:0:
320,192,111490,1,0,0:0:0:0:
448,192,111490,128,0,111823:0:0:0:0:
64,192,111657,1,0,0:0:0:0:
192,192,111823,1,0,0:0:0:0:
448,192,112157,1,0,0:0:0:0:
320,192,112157,128,0,112490:0:0:0:0:
192,192,112323,1,0,0:0:0:0:
64,192,112490,1,0,0:0:0:0:
448,192,112823,1,0,0:0:0:0:
192,192,112823,128,0,112990:0:0:0:0:
320,192,112990,1,0,0:0:0:0:
64,192,113157,128,0,113323:0:0:0:0:
192,192,113323,1,0,0:0:0:0:
448,192,113490,128,0,113823:0:0:0:0:
64,192,113657,1,0,0:0:0:0:
192,192,113823,1,0,0:0:0:0:
320,192,113990,1,0,0:0:0:0:
