osu file format v14

[General]
AudioFilename: audio.mp3
AudioLeadIn: 0
PreviewTime: 68740
Countdown: 0
SampleSet: Soft
StackLeniency: 0.7
Mode: 3
LetterboxInBreaks: 0
SpecialStyle: 0
WidescreenStoryboard: 1

[Editor]
DistanceSpacing: 0.8
BeatDivisor: 4
GridSize: 16
TimelineZoom: 2.4

[Metadata]
Title:You Make My Life 1UP
TitleUnicode:You Make My Life 1UP
Artist:Camellia feat. Nanahira
ArtistUnicode:かめりあ feat. ななひら
Creator:My Angel RangE
Version:Hard
Source:Muse Dash
Tags:ppass rhezie mare featured artist fa electronic japanese video game mappers' guild mpg mg ふぉーす! force! 4orce! comic market 93 c93 kamelcamellia かめるかめりあ confetto short ver. version kccd-06 jpop pop j-pop
BeatmapID:3961563
BeatmapSetID:1911796

[Difficulty]
HPDrainRate:7.5
CircleSize:4
OverallDifficulty:7.5
ApproachRate:5
SliderMultiplier:1.4
SliderTickRate:1

[Events]
//Background and Video events
0,0,"72.jpg",0,0
//Break Periods
//Storyboard Layer 0 (Background)
//Storyboard Layer 1 (Fail)
//Storyboard Layer 2 (Pass)
//Storyboard Layer 3 (Foreground)
//Storyboard Layer 4 (Overlay)
//Storyboard Sound Samples

[TimingPoints]
824,333.333333333333,4,2,2,30,1,0

[HitObjects]
448,192,824,128,0,1157:0:0:0:0:
320,192,824,1,0,0:0:0:0:
64,192,1157,1,0,0:0:0:0:
192,192,1323,128,0,1490:0:0:0:0:
320,192,1490,1,0,0:0:0:0:
448,192,1657,128,0,1823:0:0:0:0:
64,192,1823,1,0,0:0:0:0:
192,192,1990,128,0,2157:0:0:0:0:
320,192,2157,1,0,0:0:0:0:
448,192,2323,128,0,2490:0:0:0:0:
64,192,2490,1,0,0:0:0:0:
320,192,2657,128,0,3323:0:0:0:0:
448,192,2823,128,0,3323:0:0:0:0:
192,192,3157,128,0,3323:0:0:0:0:
64,192,3490,128,0,3823:0:0:0:0:
448,192,3490,1,0,0:0:0:0:
192,192,3823,1,0,0:0:0:0:
448,192,3990,128,0,4157:0:0:0:0:
320,192,4157,128,0,4323:0:0:0:0:
64,192,4323,128,0,4490:0:0:0:0:
192,192,4490,128,0,4657:0:0:0:0:
448,192,4657,128,0,4823:0:0:0:0:
320,192,4823,128,0,4990:0:0:0:0:
64,192,4990,128,0,5323:0:0:0:0:
448,192,5323,128,0,5490:0:0:0:0:
320,192,5490,1,0,0:0:0:0:
64,192,5657,128,0,5990:0:0:0:0:
448,192,5823,128,0,5990:0:0:0:0:
192,192,5990,1,0,0:0:0:0:
320,192,6157,128,0,6490:0:0:0:0:
448,192,6157,1,0,0:0:0:0:
64,192,6490,1,0,0:0:0:0:
192,192,6657,128,0,6823:0:0:0:0:
64,192,6823,1,0,0:0:0:0:
320,192,6990,128,0,7157:0:0:0:0:
448,192,7157,1,0,0:0:0:0:
64,192,7323,128,0,7490:0:0:0:0:
192,192,7490,1,0,0:0:0:0:
448,192,7657,128,0,7823:0:0:0:0:
320,192,7823,1,0,0:0:0:0:
64,192,7990,128,0,8323:0:0:0:0:
320,192,8323,1,0,0:0:0:0:
192,192,8407,1,0,0:0:0:0:
448,192,8490,128,0,8823:0:0:0:0:
64,192,8490,1,0,0:0:0:0:
320,192,8823,128,0,9157:0:0:0:0:
64,192,8823,1,0,0:0:0:0:
192,192,9157,1,0,0:0:0:0:
448,192,9490,128,0,9657:0:0:0:0:
64,192,9657,128,0,9990:0:0:0:0:
192,192,9990,1,0,0:0:0:0:
448,192,10157,1,0,0:0:0:0:
320,192,10240,1,0,0:0:0:0:
192,192,10323,1,0,0:0:0:0:
64,192,10407,1,0,0:0:0:0:
448,192,10490,1,0,0:0:0:0:
320,192,10573,1,0,0:0:0:0:
192,192,10657,1,0,0:0:0:0:
64,192,10740,1,0,0:0:0:0:
320,192,10823,1,0,0:0:0:0:
448,192,10907,1,0,0:0:0:0:
64,192,10990,1,0,0:0:0:0:
192,192,11073,1,0,0:0:0:0:
320,192,11157,1,0,0:0:0:0:
448,192,11240,1,0,0:0:0:0:
64,192,11323,1,0,0:0:0:0:
320,192,11490,1,0,0:0:0:0:
448,192,11490,1,0,0:0:0:0:
192,192,11573,1,0,0:0:0:0:
64,192,11657,1,0,0:0:0:0:
320,192,11740,1,0,0:0:0:0:
448,192,11823,1,0,0:0:0:0:
192,192,11907,1,0,0:0:0:0:
64,192,11990,1,0,0:0:0:0:
320,192,12073,1,0,0:0:0:0:
448,192,12157,1,0,0:0:0:0:
320,192,12240,1,0,0:0:0:0:
192,192,12323,1,0,0:0:0:0:
64,192,12407,1,0,0:0:0:0:
192,192,12490,1,0,0:0:0:0:
320,192,12490,1,0,0:0:0:0:
448,192,12657,1,0,0:0:0:0:
192,192,12823,1,0,0:0:0:0:
64,192,12823,1,0,0:0:0:0:
320,192,12907,1,0,0:0:0:0:
448,192,12990,1,0,0:0:0:0:
192,192,13073,1,0,0:0:0:0:
64,192,13157,1,0,0:0:0:0:
320,192,13240,1,0,0:0:0:0:
448,192,13323,1,0,0:0:0:0:
192,192,13407,1,0,0:0:0:0:
64,192,13490,1,0,0:0:0:0:
448,192,13573,1,0,0:0:0:0:
320,192,13657,1,0,0:0:0:0:
64,192,13740,1,0,0:0:0:0:
192,192,13823,1,0,0:0:0:0:
320,192,13823,1,0,0:0:0:0:
448,192,13990,1,0,0:0:0:0:
192,192,14157,1,0,0:0:0:0:
64,192,14157,1,0,0:0:0:0:
320,192,14240,1,0,0:0:0:0:
64,192,14323,1,0,0:0:0:0:
192,192,14407,1,0,0:0:0:0:
320,192,14490,1,0,0:0:0:0:
448,192,14490,1,0,0:0:0:0:
320,192,14823,1,0,0:0:0:0:
448,192,14823,1,0,0:0:0:0:
192,192,14907,1,0,0:0:0:0:
448,192,14990,1,0,0:0:0:0:
320,192,15073,1,0,0:0:0:0:
192,192,15157,1,0,0:0:0:0:
64,192,15157,1,0,0:0:0:0:
320,192,15490,1,0,0:0:0:0:
448,192,15490,1,0,0:0:0:0:
64,192,15657,1,0,0:0:0:0:
192,192,15823,1,0,0:0:0:0:
320,192,15823,1,0,0:0:0:0:
448,192,15990,1,0,0:0:0:0:
192,192,16157,1,0,0:0:0:0:
64,192,16157,1,0,0:0:0:0:
320,192,16323,1,0,0:0:0:0:
448,192,16490,1,0,0:0:0:0:
64,192,16490,1,0,0:0:0:0:
192,192,16657,1,0,0:0:0:0:
448,192,16823,1,0,0:0:0:0:
320,192,16823,128,0,17157:0:0:0:0:
192,192,17157,1,0,0:0:0:0:
64,192,17157,1,0,0:0:0:0:
448,192,17323,128,0,17490:0:0:0:0:
320,192,17490,1,0,0:0:0:0:
192,192,17490,1,0,0:0:0:0:
64,192,17657,128,0,17823:0:0:0:0:
320,192,17823,1,0,0:0:0:0:
448,192,17823,1,0,0:0:0:0:
192,192,17990,128,0,18157:0:0:0:0:
64,192,18157,1,0,0:0:0:0:
320,192,18157,1,0,0:0:0:0:
448,192,18323,128,0,18490:0:0:0:0:
320,192,18490,1,0,0:0:0:0:
192,192,18490,1,0,0:0:0:0:
64,192,18657,128,0,18823:0:0:0:0:
192,192,18823,1,0,0:0:0:0:
448,192,18823,128,0,19157:0:0:0:0:
320,192,18990,1,0,0:0:0:0:
192,192,19157,1,0,0:0:0:0:
64,192,19157,1,0,0:0:0:0:
320,192,19323,1,0,0:0:0:0:
64,192,19490,1,0,0:0:0:0:
192,192,19490,128,0,19823:0:0:0:0:
320,192,19823,1,0,0:0:0:0:
448,192,19823,1,0,0:0:0:0:
64,192,19990,128,0,20157:0:0:0:0:
448,192,20157,1,0,0:0:0:0:
192,192,20157,128,0,20323:0:0:0:0:
320,192,20323,128,0,20490:0:0:0:0:
448,192,20490,128,0,20657:0:0:0:0:
64,192,20490,1,0,0:0:0:0:
192,192,20657,128,0,20823:0:0:0:0:
64,192,20823,1,0,0:0:0:0:
320,192,20823,128,0,20990:0:0:0:0:
448,192,20990,128,0,21157:0:0:0:0:
192,192,21157,1,0,0:0:0:0:
64,192,21157,1,0,0:0:0:0:
320,192,21323,128,0,21490:0:0:0:0:
448,192,21490,128,0,21823:0:0:0:0:
64,192,21490,128,0,21823:0:0:0:0:
192,192,21823,1,0,0:0:0:0:
320,192,21823,1,0,0:0:0:0:
64,192,21990,1,0,0:0:0:0:
192,192,22073,1,0,0:0:0:0:
320,192,22157,1,0,0:0:0:0:
448,192,22157,128,0,22490:0:0:0:0:
192,192,22490,1,0,0:0:0:0:
64,192,22490,1,0,0:0:0:0:
320,192,22657,128,0,22823:0:0:0:0:
448,192,22823,1,0,0:0:0:0:
64,192,22823,1,0,0:0:0:0:
192,192,22990,128,0,23157:0:0:0:0:
320,192,23157,1,0,0:0:0:0:
448,192,23157,1,0,0:0:0:0:
64,192,23323,128,0,23490:0:0:0:0:
192,192,23490,1,0,0:0:0:0:
448,192,23490,1,0,0:0:0:0:
320,192,23657,128,0,23823:0:0:0:0:
448,192,23823,1,0,0:0:0:0:
192,192,23823,1,0,0:0:0:0:
64,192,23990,1,0,0:0:0:0:
192,192,24073,1,0,0:0:0:0:
320,192,24157,1,0,0:0:0:0:
448,192,24157,1,0,0:0:0:0:
320,192,24323,1,0,0:0:0:0:
192,192,24323,1,0,0:0:0:0:
192,192,24490,1,0,0:0:0:0:
64,192,24490,1,0,0:0:0:0:
320,192,24657,1,0,0:0:0:0:
448,192,24657,1,0,0:0:0:0:
192,192,24823,128,0,24990:0:0:0:0:
64,192,24823,128,0,24990:0:0:0:0:
448,192,25157,1,0,0:0:0:0:
320,192,25240,1,0,0:0:0:0:
192,192,25323,1,0,0:0:0:0:
64,192,25407,1,0,0:0:0:0:
320,192,25490,1,0,0:0:0:0:
448,192,25490,1,0,0:0:0:0:
320,192,25657,1,0,0:0:0:0:
448,192,25657,1,0,0:0:0:0:
64,192,25990,128,0,26157:0:0:0:0:
192,192,25990,128,0,26157:0:0:0:0:
448,192,26323,128,0,26490:0:0:0:0:
320,192,26490,128,0,26657:0:0:0:0:
192,192,26657,128,0,26990:0:0:0:0:
64,192,26657,128,0,26990:0:0:0:0:
448,192,27157,128,0,27490:0:0:0:0:
64,192,27490,1,0,0:0:0:0:
192,192,27490,1,0,0:0:0:0:
320,192,27573,1,0,0:0:0:0:
448,192,27657,1,0,0:0:0:0:
64,192,27740,1,0,0:0:0:0:
192,192,27823,1,0,0:0:0:0:
320,192,27823,1,0,0:0:0:0:
448,192,27990,1,0,0:0:0:0:
320,192,28073,1,0,0:0:0:0:
192,192,28157,1,0,0:0:0:0:
64,192,28157,1,0,0:0:0:0:
448,192,28323,1,0,0:0:0:0:
320,192,28407,1,0,0:0:0:0:
64,192,28490,1,0,0:0:0:0:
448,192,28490,1,0,0:0:0:0:
192,192,28573,1,0,0:0:0:0:
320,192,28657,1,0,0:0:0:0:
192,192,28740,1,0,0:0:0:0:
448,192,28823,1,0,0:0:0:0:
64,192,28823,1,0,0:0:0:0:
320,192,28990,1,0,0:0:0:0:
192,192,29073,1,0,0:0:0:0:
64,192,29157,1,0,0:0:0:0:
448,192,29157,1,0,0:0:0:0:
192,192,29323,1,0,0:0:0:0:
320,192,29407,1,0,0:0:0:0:
448,192,29490,1,0,0:0:0:0:
64,192,29490,1,0,0:0:0:0:
320,192,29657,1,0,0:0:0:0:
192,192,29740,1,0,0:0:0:0:
448,192,29823,1,0,0:0:0:0:
64,192,29823,1,0,0:0:0:0:
320,192,29990,128,0,30157:0:0:0:0:
192,192,30157,1,0,0:0:0:0:
64,192,30157,1,0,0:0:0:0:
448,192,30240,1,0,0:0:0:0:
64,192,30323,1,0,0:0:0:0:
192,192,30407,1,0,0:0:0:0:
320,192,30490,1,0,0:0:0:0:
448,192,30490,1,0,0:0:0:0:
192,192,30657,1,0,0:0:0:0:
64,192,30740,1,0,0:0:0:0:
320,192,30823,1,0,0:0:0:0:
448,192,30823,1,0,0:0:0:0:
192,192,30990,1,0,0:0:0:0:
320,192,31073,1,0,0:0:0:0:
448,192,31157,1,0,0:0:0:0:
64,192,31157,1,0,0:0:0:0:
192,192,31323,1,0,0:0:0:0:
320,192,31323,1,0,0:0:0:0:
64,192,31657,1,0,0:0:0:0:
448,192,31823,1,0,0:0:0:0:
64,192,31990,1,0,0:0:0:0:
320,192,32157,1,0,0:0:0:0:
192,192,32323,1,0,0:0:0:0:
448,192,32490,1,0,0:0:0:0:
320,192,32573,1,0,0:0:0:0:
192,192,32657,1,0,0:0:0:0:
64,192,32740,1,0,0:0:0:0:
448,192,32823,1,0,0:0:0:0:
320,192,32823,1,0,0:0:0:0:
192,192,32990,1,0,0:0:0:0:
64,192,33157,1,0,0:0:0:0:
448,192,33157,1,0,0:0:0:0:
320,192,33323,1,0,0:0:0:0:
192,192,33490,1,0,0:0:0:0:
64,192,33490,1,0,0:0:0:0:
320,192,33657,1,0,0:0:0:0:
448,192,33823,1,0,0:0:0:0:
64,192,33823,1,0,0:0:0:0:
192,192,33990,1,0,0:0:0:0:
320,192,34157,1,0,0:0:0:0:
448,192,34157,1,0,0:0:0:0:
192,192,34323,1,0,0:0:0:0:
64,192,34490,1,0,0:0:0:0:
448,192,34490,1,0,0:0:0:0:
320,192,34657,1,0,0:0:0:0:
192,192,34823,1,0,0:0:0:0:
64,192,34823,1,0,0:0:0:0:
448,192,34990,1,0,0:0:0:0:
320,192,35157,1,0,0:0:0:0:
64,192,35157,1,0,0:0:0:0:
192,192,35323,1,0,0:0:0:0:
320,192,35490,1,0,0:0:0:0:
448,192,35490,1,0,0:0:0:0:
64,192,35657,1,0,0:0:0:0:
192,192,35823,1,0,0:0:0:0:
448,192,35823,1,0,0:0:0:0:
320,192,35990,1,0,0:0:0:0:
192,192,36157,1,0,0:0:0:0:
64,192,36157,1,0,0:0:0:0:
448,192,36323,1,0,0:0:0:0:
320,192,36490,1,0,0:0:0:0:
192,192,36490,1,0,0:0:0:0:
64,192,36657,1,0,0:0:0:0:
192,192,36823,1,0,0:0:0:0:
448,192,36823,1,0,0:0:0:0:
320,192,36990,1,0,0:0:0:0:
64,192,37157,1,0,0:0:0:0:
192,192,37157,1,0,0:0:0:0:
320,192,37323,1,0,0:0:0:0:
448,192,37490,1,0,0:0:0:0:
64,192,37490,1,0,0:0:0:0:
192,192,37657,1,0,0:0:0:0:
320,192,37823,1,0,0:0:0:0:
448,192,37823,1,0,0:0:0:0:
64,192,37990,1,0,0:0:0:0:
192,192,38157,1,0,0:0:0:0:
320,192,38157,1,0,0:0:0:0:
448,192,38323,1,0,0:0:0:0:
192,192,38490,1,0,0:0:0:0:
64,192,38490,1,0,0:0:0:0:
320,192,38657,1,0,0:0:0:0:
192,192,38823,1,0,0:0:0:0:
448,192,38823,1,0,0:0:0:0:
64,192,38990,1,0,0:0:0:0:
320,192,39157,1,0,0:0:0:0:
448,192,39157,1,0,0:0:0:0:
192,192,39323,1,0,0:0:0:0:
64,192,39490,1,0,0:0:0:0:
448,192,39490,1,0,0:0:0:0:
320,192,39657,1,0,0:0:0:0:
192,192,39823,1,0,0:0:0:0:
64,192,39823,1,0,0:0:0:0:
320,192,39990,1,0,0:0:0:0:
448,192,40157,1,0,0:0:0:0:
192,192,40157,1,0,0:0:0:0:
64,192,40323,1,0,0:0:0:0:
320,192,40490,1,0,0:0:0:0:
192,192,40490,1,0,0:0:0:0:
448,192,40657,1,0,0:0:0:0:
320,192,40823,1,0,0:0:0:0:
64,192,40823,1,0,0:0:0:0:
192,192,40990,1,0,0:0:0:0:
320,192,41157,1,0,0:0:0:0:
448,192,41157,1,0,0:0:0:0:
64,192,41323,1,0,0:0:0:0:
192,192,41490,1,0,0:0:0:0:
448,192,41490,1,0,0:0:0:0:
320,192,41657,1,0,0:0:0:0:
192,192,41823,1,0,0:0:0:0:
64,192,41823,1,0,0:0:0:0:
448,192,41990,1,0,0:0:0:0:
320,192,42157,1,0,0:0:0:0:
64,192,42157,1,0,0:0:0:0:
192,192,42323,1,0,0:0:0:0:
320,192,42490,1,0,0:0:0:0:
448,192,42490,1,0,0:0:0:0:
64,192,42657,1,0,0:0:0:0:
448,192,42823,1,0,0:0:0:0:
320,192,42823,1,0,0:0:0:0:
192,192,42907,1,0,0:0:0:0:
64,192,42990,1,0,0:0:0:0:
448,192,43073,1,0,0:0:0:0:
320,192,43157,128,0,43323:0:0:0:0:
192,192,43323,128,0,43490:0:0:0:0:
64,192,43490,1,0,0:0:0:0:
448,192,43490,1,0,0:0:0:0:
320,192,43657,1,0,0:0:0:0:
192,192,43823,1,0,0:0:0:0:
64,192,43823,1,0,0:0:0:0:
448,192,43990,1,0,0:0:0:0:
320,192,44157,1,0,0:0:0:0:
192,192,44157,1,0,0:0:0:0:
64,192,44323,1,0,0:0:0:0:
448,192,44490,1,0,0:0:0:0:
320,192,44490,1,0,0:0:0:0:
192,192,44657,1,0,0:0:0:0:
64,192,44823,1,0,0:0:0:0:
448,192,44823,1,0,0:0:0:0:
320,192,44990,1,0,0:0:0:0:
192,192,45157,1,0,0:0:0:0:
64,192,45157,1,0,0:0:0:0:
448,192,45323,1,0,0:0:0:0:
320,192,45490,1,0,0:0:0:0:
192,192,45490,1,0,0:0:0:0:
64,192,45657,1,0,0:0:0:0:
448,192,45823,1,0,0:0:0:0:
320,192,45823,1,0,0:0:0:0:
192,192,45990,1,0,0:0:0:0:
64,192,46157,1,0,0:0:0:0:
448,192,46157,1,0,0:0:0:0:
320,192,46323,1,0,0:0:0:0:
192,192,46490,1,0,0:0:0:0:
64,192,46490,1,0,0:0:0:0:
448,192,46657,1,0,0:0:0:0:
320,192,46823,1,0,0:0:0:0:
192,192,46823,1,0,0:0:0:0:
448,192,46990,1,0,0:0:0:0:
64,192,47157,1,0,0:0:0:0:
320,192,47157,1,0,0:0:0:0:
192,192,47323,1,0,0:0:0:0:
448,192,47490,1,0,0:0:0:0:
64,192,47490,1,0,0:0:0:0:
320,192,47657,1,0,0:0:0:0:
192,192,47823,1,0,0:0:0:0:
448,192,47823,1,0,0:0:0:0:
64,192,47990,1,0,0:0:0:0:
192,192,48157,1,0,0:0:0:0:
320,192,48157,1,0,0:0:0:0:
448,192,48323,1,0,0:0:0:0:
320,192,48490,1,0,0:0:0:0:
64,192,48490,1,0,0:0:0:0:
192,192,48657,1,0,0:0:0:0:
320,192,48823,1,0,0:0:0:0:
448,192,48823,128,0,48990:0:0:0:0:
64,192,48990,128,0,49157:0:0:0:0:
192,192,49157,128,0,49323:0:0:0:0:
448,192,49157,1,0,0:0:0:0:
320,192,49323,128,0,49490:0:0:0:0:
448,192,49490,128,0,49657:0:0:0:0:
64,192,49490,1,0,0:0:0:0:
192,192,49657,1,0,0:0:0:0:
320,192,49823,1,0,0:0:0:0:
64,192,49823,1,0,0:0:0:0:
448,192,49990,1,0,0:0:0:0:
320,192,50157,1,0,0:0:0:0:
192,192,50157,1,0,0:0:0:0:
64,192,50323,1,0,0:0:0:0:
448,192,50490,1,0,0:0:0:0:
192,192,50490,1,0,0:0:0:0:
320,192,50657,1,0,0:0:0:0:
192,192,50823,1,0,0:0:0:0:
64,192,50823,1,0,0:0:0:0:
320,192,50990,1,0,0:0:0:0:
448,192,51157,1,0,0:0:0:0:
64,192,51157,1,0,0:0:0:0:
192,192,51323,1,0,0:0:0:0:
320,192,51490,1,0,0:0:0:0:
448,192,51490,1,0,0:0:0:0:
192,192,51657,1,0,0:0:0:0:
64,192,51823,1,0,0:0:0:0:
448,192,51823,1,0,0:0:0:0:
320,192,51990,1,0,0:0:0:0:
192,192,52157,1,0,0:0:0:0:
64,192,52157,1,0,0:0:0:0:
448,192,52323,1,0,0:0:0:0:
192,192,52490,1,0,0:0:0:0:
320,192,52490,1,0,0:0:0:0:
64,192,52657,1,0,0:0:0:0:
448,192,52657,1,0,0:0:0:0:
320,192,52990,1,0,0:0:0:0:
448,192,52990,1,0,0:0:0:0:
192,192,53323,1,0,0:0:0:0:
64,192,53323,1,0,0:0:0:0:
320,192,53657,1,0,0:0:0:0:
448,192,53657,1,0,0:0:0:0:
64,192,53823,1,0,0:0:0:0:
192,192,53907,1,0,0:0:0:0:
320,192,53990,1,0,0:0:0:0:
448,192,54073,1,0,0:0:0:0:
192,192,54157,1,0,0:0:0:0:
64,192,54157,1,0,0:0:0:0:
320,192,54323,1,0,0:0:0:0:
448,192,54490,1,0,0:0:0:0:
192,192,54657,1,0,0:0:0:0:
64,192,54823,1,0,0:0:0:0:
320,192,54990,1,0,0:0:0:0:
448,192,55157,1,0,0:0:0:0:
320,192,55323,1,0,0:0:0:0:
64,192,55490,1,0,0:0:0:0:
448,192,55490,1,0,0:0:0:0:
192,192,55657,1,0,0:0:0:0:
320,192,55823,1,0,0:0:0:0:
448,192,55990,1,0,0:0:0:0:
64,192,56157,1,0,0:0:0:0:
320,192,56157,1,0,0:0:0:0:
192,192,56323,1,0,0:0:0:0:
448,192,56490,1,0,0:0:0:0:
320,192,56657,1,0,0:0:0:0:
192,192,56823,1,0,0:0:0:0:
64,192,56823,1,0,0:0:0:0:
320,192,56990,1,0,0:0:0:0:
448,192,57157,1,0,0:0:0:0:
64,192,57323,1,0,0:0:0:0:
192,192,57490,1,0,0:0:0:0:
320,192,57657,1,0,0:0:0:0:
448,192,57823,1,0,0:0:0:0:
64,192,57823,1,0,0:0:0:0:
192,192,57990,1,0,0:0:0:0:
320,192,58157,1,0,0:0:0:0:
448,192,58157,1,0,0:0:0:0:
64,192,58323,1,0,0:0:0:0:
448,192,58490,1,0,0:0:0:0:
320,192,58657,1,0,0:0:0:0:
192,192,58823,1,0,0:0:0:0:
64,192,58823,1,0,0:0:0:0:
320,192,58990,1,0,0:0:0:0:
448,192,59157,1,0,0:0:0:0:
64,192,59323,1,0,0:0:0:0:
192,192,59490,1,0,0:0:0:0:
320,192,59490,1,0,0:0:0:0:
448,192,59657,1,0,0:0:0:0:
64,192,59823,1,0,0:0:0:0:
448,192,59990,1,0,0:0:0:0:
320,192,60073,1,0,0:0:0:0:
192,192,60157,1,0,0:0:0:0:
64,192,60240,1,0,0:0:0:0:
448,192,60323,1,0,0:0:0:0:
320,192,60407,1,0,0:0:0:0:
192,192,60490,1,0,0:0:0:0:
64,192,60573,1,0,0:0:0:0:
448,192,60657,1,0,0:0:0:0:
192,192,60823,1,0,0:0:0:0:
320,192,60823,1,0,0:0:0:0:
64,192,60990,1,0,0:0:0:0:
448,192,61157,1,0,0:0:0:0:
192,192,61157,1,0,0:0:0:0:
320,192,61323,1,0,0:0:0:0:
192,192,61490,1,0,0:0:0:0:
64,192,61490,1,0,0:0:0:0:
320,192,61657,1,0,0:0:0:0:
448,192,61823,1,0,0:0:0:0:
64,192,61823,1,0,0:0:0:0:
192,192,61990,1,0,0:0:0:0:
320,192,62157,1,0,0:0:0:0:
448,192,62157,1,0,0:0:0:0:
64,192,62323,1,0,0:0:0:0:
192,192,62490,1,0,0:0:0:0:
448,192,62490,1,0,0:0:0:0:
320,192,62657,1,0,0:0:0:0:
192,192,62823,1,0,0:0:0:0:
64,192,62823,1,0,0:0:0:0:
448,192,62990,1,0,0:0:0:0:
320,192,63157,1,0,0:0:0:0:
64,192,63157,1,0,0:0:0:0:
192,192,63323,1,0,0:0:0:0:
448,192,63490,1,0,0:0:0:0:
320,192,63490,1,0,0:0:0:0:
64,192,63657,1,0,0:0:0:0:
192,192,63823,1,0,0:0:0:0:
448,192,63823,1,0,0:0:0:0:
320,192,63990,1,0,0:0:0:0:
192,192,64157,1,0,0:0:0:0:
64,192,64157,1,0,0:0:0:0:
448,192,64323,1,0,0:0:0:0:
320,192,64490,1,0,0:0:0:0:
64,192,64490,1,0,0:0:0:0:
192,192,64657,1,0,0:0:0:0:
448,192,64823,1,0,0:0:0:0:
320,192,64823,1,0,0:0:0:0:
64,192,64990,1,0,0:0:0:0:
192,192,65157,1,0,0:0:0:0:
448,192,65157,1,0,0:0:0:0:
320,192,65323,1,0,0:0:0:0:
192,192,65490,1,0,0:0:0:0:
64,192,65490,1,0,0:0:0:0:
320,192,65657,1,0,0:0:0:0:
448,192,65823,1,0,0:0:0:0:
64,192,65823,1,0,0:0:0:0:
192,192,65990,1,0,0:0:0:0:
320,192,66157,1,0,0:0:0:0:
448,192,66157,1,0,0:0:0:0:
192,192,66323,1,0,0:0:0:0:
64,192,66323,1,0,0:0:0:0:
320,192,66490,1,0,0:0:0:0:
448,192,66490,1,0,0:0:0:0:
192,192,66657,1,0,0:0:0:0:
64,192,66657,1,0,0:0:0:0:
320,192,66823,1,0,0:0:0:0:
448,192,66823,1,0,0:0:0:0:
192,192,66990,1,0,0:0:0:0:
64,192,66990,1,0,0:0:0:0:
320,192,67157,1,0,0:0:0:0:
448,192,67157,1,0,0:0:0:0:
192,192,67323,1,0,0:0:0:0:
64,192,67323,1,0,0:0:0:0:
448,192,67490,1,0,0:0:0:0:
320,192,67573,1,0,0:0:0:0:
192,192,67657,1,0,0:0:0:0:
64,192,67740,1,0,0:0:0:0:
448,192,67823,1,0,0:0:0:0:
320,192,67907,1,0,0:0:0:0:
192,192,67990,1,0,0:0:0:0:
64,192,68073,1,0,0:0:0:0:
320,192,68157,1,0,0:0:0:0:
448,192,68240,1,0,0:0:0:0:
192,192,68323,1,0,0:0:0:0:
64,192,68407,1,0,0:0:0:0:
320,192,68490,1,0,0:0:0:0:
448,192,68573,1,0,0:0:0:0:
192,192,68657,1,0,0:0:0:0:
64,192,68740,1,0,0:0:0:0:
320,192,68823,1,0,0:0:0:0:
448,192,68823,1,0,0:0:0:0:
64,192,69157,128,0,69490:0:0:0:0:
192,192,69490,1,0,0:0:0:0:
320,192,69490,1,0,0:0:0:0:
448,192,69823,128,0,70157:0:0:0:0:
320,192,70157,128,0,70323:0:0:0:0:
192,192,70157,128,0,70323:0:0:0:0:
192,192,70490,128,0,70657:0:0:0:0:
64,192,70490,128,0,70657:0:0:0:0:
320,192,70823,128,0,70990:0:0:0:0:
448,192,70823,128,0,70990:0:0:0:0:
64,192,71157,1,0,0:0:0:0:
192,192,71240,1,0,0:0:0:0:
320,192,71323,1,0,0:0:0:0:
448,192,71407,1,0,0:0:0:0:
192,192,71490,1,0,0:0:0:0:
64,192,71490,1,0,0:0:0:0:
448,192,71657,1,0,0:0:0:0:
192,192,71823,128,0,71990:0:0:0:0:
320,192,71823,1,0,0:0:0:0:
64,192,71990,1,0,0:0:0:0:
448,192,72157,1,0,0:0:0:0:
320,192,72157,128,0,72323:0:0:0:0:
192,192,72323,1,0,0:0:0:0:
64,192,72490,1,0,0:0:0:0:
448,192,72490,128,0,72657:0:0:0:0:
320,192,72657,1,0,0:0:0:0:
64,192,72823,1,0,0:0:0:0:
192,192,72823,128,0,72990:0:0:0:0:
320,192,72990,1,0,0:0:0:0:
448,192,73157,1,0,0:0:0:0:
64,192,73157,128,0,73323:0:0:0:0:
192,192,73323,1,0,0:0:0:0:
448,192,73490,1,0,0:0:0:0:
320,192,73490,128,0,73657:0:0:0:0:
64,192,73657,1,0,0:0:0:0:
448,192,73823,1,0,0:0:0:0:
192,192,73823,128,0,73990:0:0:0:0:
320,192,73990,1,0,0:0:0:0:
64,192,74157,1,0,0:0:0:0:
448,192,74157,1,0,0:0:0:0:
192,192,74323,1,0,0:0:0:0:
448,192,74490,1,0,0:0:0:0:
320,192,74490,128,0,74657:0:0:0:0:
64,192,74657,1,0,0:0:0:0:
192,192,74823,128,0,74990:0:0:0:0:
448,192,74823,1,0,0:0:0:0:
320,192,74990,1,0,0:0:0:0:
64,192,75157,128,0,75323:0:0:0:0:
192,192,75157,1,0,0:0:0:0:
320,192,75323,1,0,0:0:0:0:
448,192,75490,128,0,75657:0:0:0:0:
64,192,75490,1,0,0:0:0:0:
192,192,75657,1,0,0:0:0:0:
320,192,75823,128,0,75990:0:0:0:0:
64,192,75823,1,0,0:0:0:0:
448,192,75990,1,0,0:0:0:0:
64,192,76157,128,0,76323:0:0:0:0:
192,192,76157,1,0,0:0:0:0:
448,192,76323,1,0,0:0:0:0:
192,192,76490,1,0,0:0:0:0:
320,192,76490,128,0,76657:0:0:0:0:
448,192,76657,1,0,0:0:0:0:
64,192,76823,1,0,0:0:0:0:
192,192,76823,1,0,0:0:0:0:
320,192,76990,1,0,0:0:0:0:
448,192,77157,1,0,0:0:0:0:
64,192,77157,128,0,77323:0:0:0:0:
192,192,77323,1,0,0:0:0:0:
320,192,77490,1,0,0:0:0:0:
448,192,77490,128,0,77657:0:0:0:0:
64,192,77657,1,0,0:0:0:0:
320,192,77823,1,0,0:0:0:0:
192,192,77823,128,0,77990:0:0:0:0:
64,192,77990,1,0,0:0:0:0:
448,192,78157,1,0,0:0:0:0:
320,192,78157,128,0,78323:0:0:0:0:
64,192,78323,1,0,0:0:0:0:
192,192,78490,1,0,0:0:0:0:
448,192,78490,128,0,78657:0:0:0:0:
320,192,78657,1,0,0:0:0:0:
192,192,78823,1,0,0:0:0:0:
64,192,78823,128,0,78990:0:0:0:0:
448,192,78990,1,0,0:0:0:0:
192,192,79157,1,0,0:0:0:0:
320,192,79157,128,0,79323:0:0:0:0:
448,192,79323,1,0,0:0:0:0:
64,192,79490,1,0,0:0:0:0:
192,192,79490,1,0,0:0:0:0:
448,192,79657,1,0,0:0:0:0:
320,192,79823,1,0,0:0:0:0:
64,192,79823,128,0,79990:0:0:0:0:
192,192,79990,128,0,80157:0:0:0:0:
320,192,80157,1,0,0:0:0:0:
448,192,80157,128,0,80323:0:0:0:0:
64,192,80323,1,0,0:0:0:0:
448,192,80490,1,0,0:0:0:0:
192,192,80490,128,0,80657:0:0:0:0:
320,192,80657,1,0,0:0:0:0:
192,192,80823,1,0,0:0:0:0:
64,192,80823,1,0,0:0:0:0:
448,192,80990,1,0,0:0:0:0:
64,192,81157,1,0,0:0:0:0:
320,192,81157,128,0,81323:0:0:0:0:
192,192,81323,128,0,81490:0:0:0:0:
64,192,81490,1,0,0:0:0:0:
448,192,81490,128,0,81657:0:0:0:0:
320,192,81657,1,0,0:0:0:0:
64,192,81823,1,0,0:0:0:0:
192,192,81823,128,0,81990:0:0:0:0:
320,192,81990,1,0,0:0:0:0:
448,192,82157,1,0,0:0:0:0:
64,192,82157,1,0,0:0:0:0:
320,192,82323,1,0,0:0:0:0:
64,192,82490,1,0,0:0:0:0:
192,192,82490,128,0,82657:0:0:0:0:
320,192,82657,1,0,0:0:0:0:
64,192,82823,1,0,0:0:0:0:
448,192,82823,128,0,82990:0:0:0:0:
192,192,82990,1,0,0:0:0:0:
448,192,83157,1,0,0:0:0:0:
320,192,83157,128,0,83323:0:0:0:0:
64,192,83323,1,0,0:0:0:0:
448,192,83490,1,0,0:0:0:0:
192,192,83490,128,0,83657:0:0:0:0:
320,192,83657,1,0,0:0:0:0:
64,192,83823,128,0,83990:0:0:0:0:
448,192,83823,1,0,0:0:0:0:
192,192,83990,1,0,0:0:0:0:
448,192,84157,1,0,0:0:0:0:
320,192,84157,128,0,84323:0:0:0:0:
192,192,84323,1,0,0:0:0:0:
64,192,84490,1,0,0:0:0:0:
448,192,84490,128,0,84657:0:0:0:0:
320,192,84657,1,0,0:0:0:0:
64,192,84823,1,0,0:0:0:0:
192,192,84823,1,0,0:0:0:0:
320,192,84990,1,0,0:0:0:0:
64,192,85157,128,0,85323:0:0:0:0:
448,192,85157,1,0,0:0:0:0:
192,192,85323,1,0,0:0:0:0:
448,192,85490,1,0,0:0:0:0:
320,192,85490,128,0,85657:0:0:0:0:
64,192,85657,1,0,0:0:0:0:
448,192,85823,1,0,0:0:0:0:
192,192,85823,128,0,85990:0:0:0:0:
320,192,85990,1,0,0:0:0:0:
448,192,86157,1,0,0:0:0:0:
64,192,86157,128,0,86323:0:0:0:0:
192,192,86323,1,0,0:0:0:0:
448,192,86490,1,0,0:0:0:0:
320,192,86490,128,0,86657:0:0:0:0:
64,192,86657,1,0,0:0:0:0:
448,192,86823,1,0,0:0:0:0:
192,192,86823,128,0,86990:0:0:0:0:
320,192,86990,1,0,0:0:0:0:
448,192,87157,1,0,0:0:0:0:
64,192,87157,128,0,87323:0:0:0:0:
192,192,87323,1,0,0:0:0:0:
448,192,87490,1,0,0:0:0:0:
320,192,87490,1,0,0:0:0:0:
64,192,87657,1,0,0:0:0:0:
448,192,87823,1,0,0:0:0:0:
192,192,87823,128,0,87990:0:0:0:0:
320,192,87990,1,0,0:0:0:0:
448,192,88157,1,0,0:0:0:0:
64,192,88157,128,0,88323:0:0:0:0:
192,192,88323,1,0,0:0:0:0:
448,192,88490,1,0,0:0:0:0:
320,192,88490,128,0,88657:0:0:0:0:
192,192,88657,1,0,0:0:0:0:
448,192,88823,1,0,0:0:0:0:
64,192,88823,128,0,88990:0:0:0:0:
192,192,88990,1,0,0:0:0:0:
448,192,89157,1,0,0:0:0:0:
320,192,89157,128,0,89323:0:0:0:0:
192,192,89323,1,0,0:0:0:0:
64,192,89490,1,0,0:0:0:0:
448,192,89490,128,0,89657:0:0:0:0:
320,192,89657,1,0,0:0:0:0:
64,192,89823,1,0,0:0:0:0:
192,192,89823,128,0,89990:0:0:0:0:
320,192,89990,1,0,0:0:0:0:
64,192,90157,128,0,90490:0:0:0:0:
448,192,90157,128,0,90490:0:0:0:0:
192,192,90490,1,0,0:0:0:0:
320,192,90657,1,0,0:0:0:0:
192,192,90823,1,0,0:0:0:0:
64,192,90990,1,0,0:0:0:0:
448,192,90990,1,0,0:0:0:0:
320,192,91323,1,0,0:0:0:0:
192,192,91323,1,0,0:0:0:0:
64,192,91407,1,0,0:0:0:0:
448,192,91490,1,0,0:0:0:0:
320,192,91490,1,0,0:0:0:0:
192,192,91740,1,0,0:0:0:0:
320,192,91740,1,0,0:0:0:0:
64,192,91990,1,0,0:0:0:0:
192,192,91990,1,0,0:0:0:0:
320,192,92157,1,0,0:0:0:0:
448,192,92157,1,0,0:0:0:0:
64,192,92407,1,0,0:0:0:0:
192,192,92407,1,0,0:0:0:0:
320,192,92657,1,0,0:0:0:0:
448,192,92657,1,0,0:0:0:0:
64,192,92823,1,0,0:0:0:0:
192,192,92823,128,0,93157:0:0:0:0:
320,192,93157,1,0,0:0:0:0:
448,192,93157,1,0,0:0:0:0:
64,192,93323,128,0,93490:0:0:0:0:
192,192,93490,1,0,0:0:0:0:
320,192,93490,1,0,0:0:0:0:
448,192,93657,128,0,93823:0:0:0:0:
192,192,93823,1,0,0:0:0:0:
64,192,93823,1,0,0:0:0:0:
320,192,93990,128,0,94157:0:0:0:0:
448,192,94157,1,0,0:0:0:0:
192,192,94157,1,0,0:0:0:0:
64,192,94323,128,0,94490:0:0:0:0:
192,192,94490,1,0,0:0:0:0:
320,192,94490,1,0,0:0:0:0:
448,192,94657,128,0,94823:0:0:0:0:
320,192,94823,1,0,0:0:0:0:
64,192,94823,128,0,95157:0:0:0:0:
192,192,94990,1,0,0:0:0:0:
320,192,95157,1,0,0:0:0:0:
448,192,95157,1,0,0:0:0:0:
192,192,95323,1,0,0:0:0:0:
448,192,95490,1,0,0:0:0:0:
320,192,95490,128,0,95823:0:0:0:0:
192,192,95823,1,0,0:0:0:0:
64,192,95823,1,0,0:0:0:0:
448,192,95990,128,0,96157:0:0:0:0:
64,192,96157,1,0,0:0:0:0:
320,192,96157,128,0,96323:0:0:0:0:
192,192,96323,128,0,96490:0:0:0:0:
64,192,96490,128,0,96657:0:0:0:0:
448,192,96490,1,0,0:0:0:0:
320,192,96657,128,0,96823:0:0:0:0:
448,192,96823,1,0,0:0:0:0:
192,192,96823,128,0,96990:0:0:0:0:
64,192,96990,128,0,97157:0:0:0:0:
320,192,97157,1,0,0:0:0:0:
448,192,97157,1,0,0:0:0:0:
192,192,97323,128,0,97490:0:0:0:0:
64,192,97490,128,0,97823:0:0:0:0:
448,192,97490,128,0,97823:0:0:0:0:
320,192,97823,1,0,0:0:0:0:
192,192,97823,1,0,0:0:0:0:
448,192,97990,1,0,0:0:0:0:
320,192,98073,1,0,0:0:0:0:
192,192,98157,1,0,0:0:0:0:
64,192,98157,128,0,98490:0:0:0:0:
320,192,98490,1,0,0:0:0:0:
448,192,98490,1,0,0:0:0:0:
192,192,98657,128,0,98823:0:0:0:0:
64,192,98823,1,0,0:0:0:0:
448,192,98823,1,0,0:0:0:0:
320,192,98990,128,0,99157:0:0:0:0:
192,192,99157,1,0,0:0:0:0:
64,192,99157,1,0,0:0:0:0:
448,192,99323,128,0,99490:0:0:0:0:
320,192,99490,1,0,0:0:0:0:
64,192,99490,1,0,0:0:0:0:
192,192,99657,128,0,99823:0:0:0:0:
64,192,99823,1,0,0:0:0:0:
320,192,99823,1,0,0:0:0:0:
448,192,99990,1,0,0:0:0:0:
320,192,100073,1,0,0:0:0:0:
192,192,100157,1,0,0:0:0:0:
64,192,100157,1,0,0:0:0:0:
192,192,100323,1,0,0:0:0:0:
320,192,100323,1,0,0:0:0:0:
320,192,100490,1,0,0:0:0:0:
448,192,100490,1,0,0:0:0:0:
192,192,100657,1,0,0:0:0:0:
64,192,100657,1,0,0:0:0:0:
320,192,100823,128,0,100990:0:0:0:0:
448,192,100823,128,0,100990:0:0:0:0:
64,192,101157,1,0,0:0:0:0:
192,192,101240,1,0,0:0:0:0:
320,192,101323,1,0,0:0:0:0:
448,192,101407,1,0,0:0:0:0:
192,192,101490,1,0,0:0:0:0:
64,192,101490,1,0,0:0:0:0:
192,192,101657,1,0,0:0:0:0:
64,192,101657,1,0,0:0:0:0:
448,192,101990,128,0,102157:0:0:0:0:
320,192,101990,128,0,102157:0:0:0:0:
64,192,102323,128,0,102490:0:0:0:0:
192,192,102490,128,0,102657:0:0:0:0:
320,192,102657,128,0,102990:0:0:0:0:
448,192,102657,128,0,102990:0:0:0:0:
64,192,103157,128,0,103490:0:0:0:0:
448,192,103490,1,0,0:0:0:0:
320,192,103490,1,0,0:0:0:0:
192,192,103573,1,0,0:0:0:0:
64,192,103657,1,0,0:0:0:0:
448,192,103740,1,0,0:0:0:0:
320,192,103823,1,0,0:0:0:0:
192,192,103823,1,0,0:0:0:0:
64,192,103990,1,0,0:0:0:0:
192,192,104073,1,0,0:0:0:0:
320,192,104157,1,0,0:0:0:0:
448,192,104157,1,0,0:0:0:0:
64,192,104323,1,0,0:0:0:0:
192,192,104407,1,0,0:0:0:0:
448,192,104490,1,0,0:0:0:0:
64,192,104490,1,0,0:0:0:0:
320,192,104573,1,0,0:0:0:0:
192,192,104657,1,0,0:0:0:0:
320,192,104740,1,0,0:0:0:0:
64,192,104823,1,0,0:0:0:0:
448,192,104823,1,0,0:0:0:0:
192,192,104990,1,0,0:0:0:0:
320,192,105073,1,0,0:0:0:0:
448,192,105157,1,0,0:0:0:0:
64,192,105157,1,0,0:0:0:0:
320,192,105323,1,0,0:0:0:0:
192,192,105407,1,0,0:0:0:0:
448,192,105490,1,0,0:0:0:0:
64,192,105490,1,0,0:0:0:0:
192,192,105657,1,0,0:0:0:0:
320,192,105740,1,0,0:0:0:0:
64,192,105823,1,0,0:0:0:0:
192,192,105823,1,0,0:0:0:0:
448,192,105990,128,0,106157:0:0:0:0:
320,192,106157,1,0,0:0:0:0:
192,192,106157,1,0,0:0:0:0:
64,192,106240,1,0,0:0:0:0:
448,192,106323,1,0,0:0:0:0:
320,192,106407,1,0,0:0:0:0:
192,192,106490,1,0,0:0:0:0:
64,192,106490,1,0,0:0:0:0:
320,192,106657,1,0,0:0:0:0:
448,192,106740,1,0,0:0:0:0:
192,192,106823,1,0,0:0:0:0:
64,192,106823,1,0,0:0:0:0:
320,192,106990,1,0,0:0:0:0:
192,192,107073,1,0,0:0:0:0:
64,192,107157,1,0,0:0:0:0:
448,192,107157,1,0,0:0:0:0:
320,192,107323,1,0,0:0:0:0:
192,192,107323,1,0,0:0:0:0:
448,192,107657,1,0,0:0:0:0:
64,192,107823,1,0,0:0:0:0:
448,192,107990,1,0,0:0:0:0:
192,192,108157,1,0,0:0:0:0:
320,192,108323,1,0,0:0:0:0:
64,192,108490,1,0,0:0:0:0:
192,192,108573,1,0,0:0:0:0:
320,192,108657,1,0,0:0:0:0:
448,192,108740,1,0,0:0:0:0:
64,192,108823,1,0,0:0:0:0:
192,192,108823,1,0,0:0:0:0:
320,192,108907,1,0,0:0:0:0:
448,192,108990,1,0,0:0:0:0:
192,192,109073,1,0,0:0:0:0:
64,192,109157,1,0,0:0:0:0:
320,192,109240,1,0,0:0:0:0:
448,192,109323,1,0,0:0:0:0:
192,192,109407,1,0,0:0:0:0:
64,192,109490,1,0,0:0:0:0:
320,192,109573,1,0,0:0:0:0:
448,192,109657,1,0,0:0:0:0:
192,192,109740,1,0,0:0:0:0:
64,192,109823,1,0,0:0:0:0:
448,192,110157,1,0,0:0:0:0:
320,192,110240,1,0,0:0:0:0:
192,192,110323,1,0,0:0:0:0:
64,192,110407,1,0,0:0:0:0:
448,192,110490,1,0,0:0:0:0:
320,192,110573,1,0,0:0:0:0:
192,192,110657,1,0,0:0:0:0:
64,192,110740,1,0,0:0:0:0:
320,192,110823,1,0,0:0:0:0:
448,192,110907,1,0,0:0:0:0:
192,192,110990,1,0,0:0:0:0:
64,192,111073,1,0,0:0:0:0:
320,192,111157,1,0,0:0:0:0:
64,192,111490,1,0,0:0:0:0:
448,192,111490,1,0,0:0:0:0:
192,192,111573,1,0,0:0:0:0:
320,192,111657,1,0,0:0:0:0:
448,192,111740,1,0,0:0:0:0:
64,192,111823,1,0,0:0:0:0:
192,192,111823,1,0,0:0:0:0:
448,192,112157,1,0,0:0:0:0:
320,192,112157,1,0,0:0:0:0:
192,192,112240,1,0,0:0:0:0:
64,192,112323,1,0,0:0:0:0:
448,192,112407,1,0,0:0:0:0:
320,192,112490,1,0,0:0:0:0:
192,192,112490,1,0,0:0:0:0:
64,192,112823,1,0,0:0:0:0:
192,192,112823,1,0,0:0:0:0:
320,192,112990,128,0,113157:0:0:0:0:
448,192,113157,1,0,0:0:0:0:
320,192,113323,128,0,113490:0:0:0:0:
64,192,113490,1,0,0:0:0:0:
448,192,113657,128,0,113823:0:0:0:0:
64,192,113823,128,0,113990:0:0:0:0:
192,192,113990,128,0,114157:0:0:0:0:
