osu file format v14

[General]
AudioFilename: audio.ogg
AudioLeadIn: 0
PreviewTime: 29696
Countdown: 0
SampleSet: Soft
StackLeniency: 0.7
Mode: 3
LetterboxInBreaks: 0
SpecialStyle: 0
WidescreenStoryboard: 0

[Editor]
Bookmarks: 50267,67410,71982,83410,99410,110839,122267,133467,151067,160215,177358,209358,220787
DistanceSpacing: 1.7
BeatDivisor: 4
GridSize: 4
TimelineZoom: 2.4

[Metadata]
Title:Yaminabe Kourin ~ni yo, waga tamashii~
TitleUnicode:闇鍋《ダークネス・インフェルノ》降臨 ──煮よ、我が魂──
Artist:Camellia feat. Nanahira
ArtistUnicode:かめりあ feat. ななひら
Creator:Rhezie
Version:Gluttonous Little Devil
Source:
Tags:confetto Masaya Oya 大箭将也 cametek kamelcamellia かめるかめりあ Simmer My Soul goin goin' まみむ mamimu 東京ビッグサイト 国際展示場 Tokyo Bigsight C96 COMIC MARKET 96 comiket コミックマーケット96 96 KCCD-007 japanese electronic FAMoss
BeatmapID:4001447
BeatmapSetID:1936023

[Difficulty]
HPDrainRate:8.7
CircleSize:4
OverallDifficulty:8.3
ApproachRate:5
SliderMultiplier:1.4
SliderTickRate:1

[Events]
//Background and Video events
0,0,"BG.jpg",0,0
//Break Periods
//Storyboard Layer 0 (Background)
//Storyboard Layer 1 (Fail)
//Storyboard Layer 2 (Pass)
//Storyboard Layer 3 (Foreground)
//Storyboard Layer 4 (Overlay)
//Storyboard Sound Samples

[TimingPoints]
1125,285.714285714286,4,2,1,45,1,0
83410,-100,4,2,1,45,0,1
92553,-100,4,2,1,45,0,0
95125,-100,4,2,1,45,0,1
106267,-100,4,2,1,45,0,0
122267,400.000000000001,4,2,1,45,1,0
122267,-71.4285714285714,4,2,1,45,0,0
159073,285.714285714286,4,2,1,45,1,0
193358,-100,4,2,1,45,0,1
202501,-100,4,2,1,45,0,0
205073,-100,4,2,1,45,0,1
216215,-100,4,2,1,45,0,0
255358,-100,4,2,1,45,0,1
266501,-100,4,2,1,45,0,0

[HitObjects]
448,192,1125,128,0,2267:0:0:0:0:
64,192,2267,128,2,2410:0:0:0:0:
192,192,2267,128,4,2410:0:0:0:0:
320,192,2267,128,0,2410:0:0:0:0:
192,192,2553,128,2,2696:0:0:0:0:
320,192,2553,128,0,2696:0:0:0:0:
448,192,2553,128,0,2696:0:0:0:0:
64,192,2839,1,0,0:0:0:0:
448,192,2982,1,0,0:0:0:0:
64,192,3125,1,0,0:0:0:0:
192,192,3267,1,0,0:0:0:0:
64,192,3410,128,2,3553:0:0:0:0:
320,192,3410,128,0,3553:0:0:0:0:
448,192,3410,128,0,3553:0:0:0:0:
64,192,3696,128,2,3839:0:0:0:0:
192,192,3696,128,0,3839:0:0:0:0:
448,192,3696,128,0,3839:0:0:0:0:
320,192,3982,1,0,0:0:0:0:
192,192,4125,1,0,0:0:0:0:
320,192,4267,1,0,0:0:0:0:
64,192,4410,1,0,0:0:0:0:
192,192,4553,128,2,4696:0:0:0:0:
320,192,4553,128,0,4696:0:0:0:0:
448,192,4553,128,0,4696:0:0:0:0:
64,192,4839,128,2,4982:0:0:0:0:
192,192,4839,128,0,4982:0:0:0:0:
320,192,4839,128,0,4982:0:0:0:0:
448,192,5125,1,0,0:0:0:0:
64,192,5267,1,0,0:0:0:0:
448,192,5410,1,0,0:0:0:0:
320,192,5553,1,0,0:0:0:0:
64,192,5696,128,2,5839:0:0:0:0:
192,192,5696,128,0,5839:0:0:0:0:
448,192,5696,128,0,5839:0:0:0:0:
64,192,5982,128,2,6125:0:0:0:0:
320,192,5982,128,0,6125:0:0:0:0:
448,192,5982,128,0,6125:0:0:0:0:
192,192,6250,1,0,0:0:0:0:
64,192,6267,1,0,0:0:0:0:
320,192,6392,1,0,0:0:0:0:
448,192,6410,1,0,0:0:0:0:
192,192,6535,1,0,0:0:0:0:
64,192,6553,1,0,0:0:0:0:
320,192,6625,1,0,0:0:0:0:
448,192,6678,1,0,0:0:0:0:
192,192,6696,1,0,0:0:0:0:
320,192,6767,1,0,0:0:0:0:
64,192,6839,128,4,6982:0:0:0:0:
192,192,6839,128,2,6982:0:0:0:0:
448,192,6839,128,0,6982:0:0:0:0:
64,192,7125,128,2,7267:0:0:0:0:
320,192,7125,128,0,7267:0:0:0:0:
448,192,7125,128,0,7267:0:0:0:0:
192,192,7410,1,0,0:0:0:0:
320,192,7553,1,0,0:0:0:0:
192,192,7696,1,0,0:0:0:0:
64,192,7839,1,0,0:0:0:0:
192,192,7982,128,2,8125:0:0:0:0:
320,192,7982,128,0,8125:0:0:0:0:
448,192,7982,128,0,8125:0:0:0:0:
64,192,8267,128,2,8410:0:0:0:0:
192,192,8267,128,0,8410:0:0:0:0:
320,192,8267,128,0,8410:0:0:0:0:
448,192,8553,1,0,0:0:0:0:
64,192,8696,1,0,0:0:0:0:
448,192,8839,1,0,0:0:0:0:
192,192,8982,1,0,0:0:0:0:
64,192,9125,128,2,9267:0:0:0:0:
320,192,9125,128,0,9267:0:0:0:0:
448,192,9125,128,0,9267:0:0:0:0:
64,192,9410,128,2,9553:0:0:0:0:
192,192,9410,128,0,9553:0:0:0:0:
448,192,9410,128,0,9553:0:0:0:0:
320,192,9696,1,0,0:0:0:0:
192,192,9839,1,0,0:0:0:0:
320,192,9982,1,0,0:0:0:0:
448,192,10125,1,0,0:0:0:0:
64,192,10267,128,2,10410:0:0:0:0:
192,192,10267,128,0,10410:0:0:0:0:
320,192,10267,128,0,10410:0:0:0:0:
192,192,10553,128,2,10696:0:0:0:0:
320,192,10553,128,0,10696:0:0:0:0:
448,192,10553,128,0,10696:0:0:0:0:
64,192,10839,1,0,0:0:0:0:
448,192,10839,1,0,0:0:0:0:
320,192,10910,1,0,0:0:0:0:
64,192,10982,1,0,0:0:0:0:
192,192,11053,1,0,0:0:0:0:
320,192,11125,1,0,0:0:0:0:
448,192,11125,1,0,0:0:0:0:
64,192,11196,1,0,0:0:0:0:
192,192,11196,1,0,0:0:0:0:
320,192,11267,1,0,0:0:0:0:
448,192,11267,1,0,0:0:0:0:
64,192,11339,1,0,0:0:0:0:
192,192,11410,1,2,0:0:0:0:
320,192,11410,128,4,11625:0:0:0:0:
448,192,11410,128,0,11696:0:0:0:0:
64,192,11696,1,0,0:0:0:0:
64,192,11839,128,0,12125:0:0:0:0:
192,192,12125,128,0,12267:0:0:0:0:
320,192,12410,128,0,13267:0:0:0:0:
64,192,12553,1,2,0:0:0:0:
192,192,12553,1,4,0:0:0:0:
448,192,12553,1,0,0:0:0:0:
64,192,12839,1,2,0:0:0:0:
192,192,12839,1,4,0:0:0:0:
448,192,12839,1,0,0:0:0:0:
64,192,12982,1,2,0:0:0:0:
192,192,12982,1,4,0:0:0:0:
448,192,12982,1,0,0:0:0:0:
64,192,13267,1,2,0:0:0:0:
192,192,13267,1,4,0:0:0:0:
448,192,13267,1,0,0:0:0:0:
320,192,13410,1,2,0:0:0:0:
448,192,13410,1,0,0:0:0:0:
64,192,13482,1,2,0:0:0:0:
192,192,13482,1,0,0:0:0:0:
320,192,13553,1,2,0:0:0:0:
448,192,13553,1,0,0:0:0:0:
192,192,13625,1,2,0:0:0:0:
64,192,13696,1,2,0:0:0:0:
320,192,13696,128,4,13910:0:0:0:0:
448,192,13696,128,0,13982:0:0:0:0:
192,192,13982,1,0,0:0:0:0:
192,192,14125,128,0,14410:0:0:0:0:
320,192,14410,128,0,14553:0:0:0:0:
448,192,14696,128,0,15553:0:0:0:0:
64,192,14839,1,2,0:0:0:0:
192,192,14839,1,4,0:0:0:0:
320,192,14839,1,0,0:0:0:0:
64,192,15125,1,2,0:0:0:0:
192,192,15125,1,4,0:0:0:0:
320,192,15125,1,0,0:0:0:0:
64,192,15267,1,2,0:0:0:0:
192,192,15267,1,4,0:0:0:0:
320,192,15267,1,0,0:0:0:0:
64,192,15553,1,2,0:0:0:0:
192,192,15553,1,4,0:0:0:0:
320,192,15553,1,0,0:0:0:0:
320,192,15696,1,2,0:0:0:0:
448,192,15696,1,0,0:0:0:0:
64,192,15767,1,2,0:0:0:0:
192,192,15767,1,0,0:0:0:0:
320,192,15839,1,2,0:0:0:0:
448,192,15839,1,0,0:0:0:0:
192,192,15910,1,2,0:0:0:0:
64,192,15982,1,2,0:0:0:0:
320,192,15982,1,4,0:0:0:0:
448,192,15982,1,0,0:0:0:0:
192,192,16053,1,0,0:0:0:0:
64,192,16125,1,0,0:0:0:0:
320,192,16267,1,0,0:0:0:0:
192,192,16339,1,0,0:0:0:0:
448,192,16410,1,0,0:0:0:0:
64,192,16482,1,0,0:0:0:0:
192,192,16553,1,2,0:0:0:0:
320,192,16553,1,4,0:0:0:0:
448,192,16553,1,0,0:0:0:0:
64,192,16696,1,0,0:0:0:0:
320,192,16767,1,0,0:0:0:0:
192,192,16839,1,0,0:0:0:0:
448,192,16910,1,0,0:0:0:0:
64,192,16982,1,0,0:0:0:0:
320,192,17053,1,0,0:0:0:0:
64,192,17125,1,2,0:0:0:0:
192,192,17125,1,4,0:0:0:0:
448,192,17125,1,0,0:0:0:0:
192,192,17267,1,2,0:0:0:0:
320,192,17267,1,4,0:0:0:0:
448,192,17267,1,0,0:0:0:0:
64,192,17553,128,2,18267:0:0:0:0:
320,192,17553,1,4,0:0:0:0:
448,192,17553,128,0,17982:0:0:0:0:
192,192,17982,128,0,18267:0:0:0:0:
320,192,18125,1,0,0:0:0:0:
320,192,18267,1,2,0:0:0:0:
448,192,18267,1,4,0:0:0:0:
64,192,18410,1,0,0:0:0:0:
64,192,18553,1,2,0:0:0:0:
320,192,18553,1,0,0:0:0:0:
192,192,18696,1,0,0:0:0:0:
320,192,18839,1,2,0:0:0:0:
448,192,18839,1,0,0:0:0:0:
192,192,18910,1,0,0:0:0:0:
64,192,18982,128,0,19125:0:0:0:0:
448,192,19053,1,0,0:0:0:0:
192,192,19125,1,2,0:0:0:0:
320,192,19125,1,0,0:0:0:0:
192,192,19267,128,0,19982:0:0:0:0:
64,192,19410,1,2,0:0:0:0:
448,192,19410,1,0,0:0:0:0:
320,192,19553,1,0,0:0:0:0:
64,192,19696,128,2,19839:0:0:0:0:
448,192,19696,128,0,19839:0:0:0:0:
320,192,19839,1,0,0:0:0:0:
64,192,19982,1,2,0:0:0:0:
320,192,19982,1,0,0:0:0:0:
448,192,20053,1,0,0:0:0:0:
192,192,20125,1,0,0:0:0:0:
320,192,20196,1,0,0:0:0:0:
64,192,20267,128,2,20410:0:0:0:0:
448,192,20267,128,0,20410:0:0:0:0:
192,192,20410,1,0,0:0:0:0:
64,192,20553,1,2,0:0:0:0:
192,192,20553,1,0,0:0:0:0:
448,192,20553,1,0,0:0:0:0:
320,192,20696,1,0,0:0:0:0:
192,192,20839,1,2,0:0:0:0:
320,192,20839,1,0,0:0:0:0:
64,192,20982,1,0,0:0:0:0:
320,192,21125,1,2,0:0:0:0:
448,192,21125,1,0,0:0:0:0:
64,192,21196,1,0,0:0:0:0:
192,192,21267,128,0,21410:0:0:0:0:
448,192,21339,1,0,0:0:0:0:
64,192,21410,1,2,0:0:0:0:
320,192,21410,1,0,0:0:0:0:
320,192,21553,128,0,22267:0:0:0:0:
64,192,21696,1,2,0:0:0:0:
448,192,21696,1,0,0:0:0:0:
192,192,21839,1,0,0:0:0:0:
64,192,21982,128,2,22125:0:0:0:0:
448,192,21982,128,0,22125:0:0:0:0:
192,192,22125,1,0,0:0:0:0:
64,192,22267,1,2,0:0:0:0:
192,192,22267,1,0,0:0:0:0:
320,192,22339,1,2,0:0:0:0:
448,192,22339,1,0,0:0:0:0:
64,192,22410,1,0,0:0:0:0:
192,192,22482,1,2,0:0:0:0:
320,192,22482,1,0,0:0:0:0:
64,192,22553,128,2,22696:0:0:0:0:
448,192,22553,128,0,22696:0:0:0:0:
320,192,22696,1,2,0:0:0:0:
192,192,22732,1,2,0:0:0:0:
64,192,22767,1,2,0:0:0:0:
448,192,22803,1,2,0:0:0:0:
192,192,22839,1,4,0:0:0:0:
320,192,22839,1,2,0:0:0:0:
192,192,22982,1,2,0:0:0:0:
448,192,22982,1,0,0:0:0:0:
320,192,23125,1,2,0:0:0:0:
448,192,23125,1,0,0:0:0:0:
192,192,23267,1,2,0:0:0:0:
320,192,23303,1,2,0:0:0:0:
448,192,23339,1,2,0:0:0:0:
64,192,23375,1,2,0:0:0:0:
192,192,23410,1,2,0:0:0:0:
320,192,23410,1,0,0:0:0:0:
64,192,23553,1,2,0:0:0:0:
320,192,23553,1,0,0:0:0:0:
64,192,23696,1,2,0:0:0:0:
192,192,23696,1,0,0:0:0:0:
448,192,23839,1,2,0:0:0:0:
320,192,23875,1,2,0:0:0:0:
192,192,23910,1,2,0:0:0:0:
64,192,23946,1,2,0:0:0:0:
320,192,23982,1,2,0:0:0:0:
192,192,24053,1,2,0:0:0:0:
64,192,24125,1,2,0:0:0:0:
448,192,24160,1,2,0:0:0:0:
320,192,24196,1,2,0:0:0:0:
192,192,24232,1,2,0:0:0:0:
64,192,24267,1,2,0:0:0:0:
448,192,24267,1,0,0:0:0:0:
320,192,24339,1,2,0:0:0:0:
64,192,24410,1,2,0:0:0:0:
192,192,24446,1,2,0:0:0:0:
320,192,24482,1,2,0:0:0:0:
448,192,24517,1,2,0:0:0:0:
192,192,24553,1,2,0:0:0:0:
320,192,24625,1,2,0:0:0:0:
448,192,24696,1,2,0:0:0:0:
64,192,24732,1,2,0:0:0:0:
192,192,24767,1,2,0:0:0:0:
320,192,24803,1,2,0:0:0:0:
64,192,24839,1,2,0:0:0:0:
448,192,24839,1,0,0:0:0:0:
192,192,24910,1,2,0:0:0:0:
448,192,24982,1,2,0:0:0:0:
320,192,25017,1,2,0:0:0:0:
192,192,25053,1,2,0:0:0:0:
64,192,25089,1,2,0:0:0:0:
320,192,25125,1,2,0:0:0:0:
448,192,25125,128,4,25267:0:0:0:0:
64,192,25267,1,0,0:0:0:0:
192,192,25410,1,8,0:0:0:0:
320,192,25410,128,0,25553:0:0:0:0:
448,192,25553,1,0,0:0:0:0:
64,192,25696,1,8,0:0:0:0:
192,192,25696,128,0,25839:0:0:0:0:
320,192,25839,1,0,0:0:0:0:
64,192,25982,128,8,26125:0:0:0:0:
448,192,25982,1,0,0:0:0:0:
192,192,26125,1,0,0:0:0:0:
320,192,26267,1,8,0:0:0:0:
448,192,26267,128,0,26410:0:0:0:0:
64,192,26410,1,0,0:0:0:0:
192,192,26553,1,8,0:0:0:0:
320,192,26553,128,0,26696:0:0:0:0:
448,192,26696,1,0,0:0:0:0:
64,192,26839,1,8,0:0:0:0:
192,192,26839,128,0,26982:0:0:0:0:
320,192,26982,1,0,0:0:0:0:
64,192,27125,128,8,27267:0:0:0:0:
448,192,27125,1,0,0:0:0:0:
192,192,27267,1,0,0:0:0:0:
320,192,27410,1,8,0:0:0:0:
448,192,27410,128,0,27553:0:0:0:0:
64,192,27553,1,8,0:0:0:0:
192,192,27553,1,0,0:0:0:0:
64,192,27696,128,8,27839:0:0:0:0:
320,192,27696,1,0,0:0:0:0:
192,192,27839,1,8,0:0:0:0:
448,192,27839,1,0,0:0:0:0:
320,192,27982,1,8,0:0:0:0:
448,192,27982,1,0,0:0:0:0:
64,192,28053,1,8,0:0:0:0:
192,192,28053,1,0,0:0:0:0:
320,192,28125,1,8,0:0:0:0:
448,192,28125,1,0,0:0:0:0:
64,192,28196,1,8,0:0:0:0:
192,192,28196,1,0,0:0:0:0:
320,192,28267,1,8,0:0:0:0:
448,192,28267,1,0,0:0:0:0:
64,192,28339,1,8,0:0:0:0:
192,192,28339,1,0,0:0:0:0:
320,192,28410,1,8,0:0:0:0:
448,192,28410,1,0,0:0:0:0:
64,192,28482,1,8,0:0:0:0:
192,192,28482,1,0,0:0:0:0:
320,192,28553,1,0,0:0:0:0:
448,192,28553,1,0,0:0:0:0:
64,192,28696,1,0,0:0:0:0:
448,192,28732,1,0,0:0:0:0:
320,192,28767,1,0,0:0:0:0:
192,192,28803,1,0,0:0:0:0:
64,192,28839,128,2,28982:0:0:0:0:
448,192,28839,128,0,28982:0:0:0:0:
320,192,28982,1,0,0:0:0:0:
64,192,29125,128,0,29267:0:0:0:0:
448,192,29125,128,0,29267:0:0:0:0:
192,192,29267,1,0,0:0:0:0:
64,192,29410,1,2,0:0:0:0:
448,192,29410,1,0,0:0:0:0:
320,192,29446,1,0,0:0:0:0:
192,192,29482,1,0,0:0:0:0:
64,192,29517,1,0,0:0:0:0:
448,192,29553,1,0,0:0:0:0:
320,192,29589,1,0,0:0:0:0:
192,192,29625,1,0,0:0:0:0:
64,192,29660,1,0,0:0:0:0:
320,192,29696,1,4,0:0:0:0:
448,192,29696,128,2,29839:0:0:0:0:
192,192,29839,1,0,0:0:0:0:
320,192,29910,1,0,0:0:0:0:
64,192,29982,1,2,0:0:0:0:
192,192,29982,1,8,0:0:0:0:
448,192,29982,1,0,0:0:0:0:
320,192,30125,1,0,0:0:0:0:
64,192,30196,1,0,0:0:0:0:
320,192,30267,1,2,0:0:0:0:
448,192,30267,128,0,30410:0:0:0:0:
192,192,30410,1,0,0:0:0:0:
320,192,30482,1,0,0:0:0:0:
64,192,30553,1,2,0:0:0:0:
192,192,30553,1,8,0:0:0:0:
448,192,30553,1,0,0:0:0:0:
320,192,30696,1,0,0:0:0:0:
64,192,30767,1,0,0:0:0:0:
320,192,30839,1,2,0:0:0:0:
448,192,30839,128,0,30982:0:0:0:0:
64,192,30982,1,0,0:0:0:0:
320,192,31053,1,0,0:0:0:0:
64,192,31125,1,2,0:0:0:0:
192,192,31125,1,8,0:0:0:0:
448,192,31125,128,0,31267:0:0:0:0:
320,192,31267,1,0,0:0:0:0:
64,192,31339,1,0,0:0:0:0:
320,192,31410,1,2,0:0:0:0:
448,192,31410,128,0,31696:0:0:0:0:
192,192,31553,1,0,0:0:0:0:
64,192,31696,1,2,0:0:0:0:
192,192,31696,1,8,0:0:0:0:
320,192,31696,1,0,0:0:0:0:
320,192,31839,1,0,0:0:0:0:
448,192,31839,1,0,0:0:0:0:
64,192,31982,1,2,0:0:0:0:
192,192,31982,128,0,32125:0:0:0:0:
320,192,32125,1,0,0:0:0:0:
64,192,32196,1,0,0:0:0:0:
192,192,32267,1,2,0:0:0:0:
320,192,32267,1,8,0:0:0:0:
448,192,32267,1,0,0:0:0:0:
64,192,32410,1,0,0:0:0:0:
448,192,32482,1,0,0:0:0:0:
64,192,32553,1,2,0:0:0:0:
192,192,32553,128,0,32696:0:0:0:0:
320,192,32696,1,0,0:0:0:0:
64,192,32767,1,0,0:0:0:0:
192,192,32839,1,2,0:0:0:0:
320,192,32839,1,8,0:0:0:0:
448,192,32839,1,0,0:0:0:0:
64,192,32982,1,0,0:0:0:0:
448,192,33053,1,0,0:0:0:0:
64,192,33125,1,2,0:0:0:0:
192,192,33125,128,0,33267:0:0:0:0:
448,192,33267,1,0,0:0:0:0:
64,192,33339,1,0,0:0:0:0:
192,192,33410,128,2,33553:0:0:0:0:
320,192,33410,1,8,0:0:0:0:
448,192,33410,1,0,0:0:0:0:
64,192,33553,1,0,0:0:0:0:
448,192,33625,1,0,0:0:0:0:
64,192,33696,1,2,0:0:0:0:
192,192,33696,128,0,33839:0:0:0:0:
448,192,33839,1,0,0:0:0:0:
64,192,33910,1,0,0:0:0:0:
192,192,33982,128,2,34125:0:0:0:0:
320,192,33982,1,8,0:0:0:0:
448,192,33982,1,0,0:0:0:0:
64,192,34125,1,0,0:0:0:0:
320,192,34267,128,4,34410:0:0:0:0:
448,192,34267,1,2,0:0:0:0:
64,192,34410,1,0,0:0:0:0:
448,192,34482,1,0,0:0:0:0:
64,192,34553,1,2,0:0:0:0:
192,192,34553,1,8,0:0:0:0:
320,192,34553,1,0,0:0:0:0:
448,192,34696,1,0,0:0:0:0:
192,192,34767,1,0,0:0:0:0:
320,192,34839,128,2,34982:0:0:0:0:
448,192,34839,1,0,0:0:0:0:
64,192,34982,1,0,0:0:0:0:
448,192,35053,1,0,0:0:0:0:
64,192,35125,1,2,0:0:0:0:
192,192,35125,1,8,0:0:0:0:
320,192,35125,1,0,0:0:0:0:
448,192,35267,1,0,0:0:0:0:
192,192,35339,1,0,0:0:0:0:
320,192,35410,128,2,35553:0:0:0:0:
448,192,35410,1,0,0:0:0:0:
192,192,35553,1,0,0:0:0:0:
448,192,35625,1,0,0:0:0:0:
64,192,35696,1,2,0:0:0:0:
192,192,35696,1,8,0:0:0:0:
320,192,35696,128,0,35839:0:0:0:0:
448,192,35839,1,0,0:0:0:0:
192,192,35910,1,0,0:0:0:0:
320,192,35982,128,2,36267:0:0:0:0:
448,192,35982,1,0,0:0:0:0:
64,192,36125,1,0,0:0:0:0:
192,192,36196,1,2,0:0:0:0:
64,192,36267,1,2,0:0:0:0:
448,192,36267,1,8,0:0:0:0:
192,192,36410,1,2,0:0:0:0:
448,192,36446,1,2,0:0:0:0:
320,192,36482,1,2,0:0:0:0:
192,192,36517,1,2,0:0:0:0:
64,192,36553,1,2,0:0:0:0:
448,192,36553,1,4,0:0:0:0:
64,192,36696,1,0,0:0:0:0:
192,192,36839,1,0,0:0:0:0:
320,192,36839,128,0,36982:0:0:0:0:
448,192,36982,1,0,0:0:0:0:
64,192,37125,1,8,0:0:0:0:
192,192,37125,1,0,0:0:0:0:
320,192,37125,1,0,0:0:0:0:
192,192,37267,1,0,0:0:0:0:
64,192,37410,128,0,37553:0:0:0:0:
448,192,37410,1,0,0:0:0:0:
320,192,37553,1,0,0:0:0:0:
192,192,37696,1,2,0:0:0:0:
448,192,37696,1,0,0:0:0:0:
192,192,37839,1,0,0:0:0:0:
64,192,37982,1,0,0:0:0:0:
320,192,37982,128,0,38125:0:0:0:0:
192,192,38125,1,0,0:0:0:0:
64,192,38267,1,8,0:0:0:0:
320,192,38267,1,0,0:0:0:0:
448,192,38267,1,0,0:0:0:0:
320,192,38410,1,0,0:0:0:0:
192,192,38553,1,0,0:0:0:0:
448,192,38553,128,0,38839:0:0:0:0:
192,192,38696,1,0,0:0:0:0:
64,192,38839,1,2,0:0:0:0:
320,192,38839,1,0,0:0:0:0:
192,192,38982,1,0,0:0:0:0:
64,192,39053,1,0,0:0:0:0:
448,192,39053,1,0,0:0:0:0:
320,192,39125,1,0,0:0:0:0:
64,192,39267,1,0,0:0:0:0:
192,192,39410,1,8,0:0:0:0:
320,192,39410,1,0,0:0:0:0:
448,192,39410,1,0,0:0:0:0:
64,192,39482,1,0,0:0:0:0:
320,192,39553,1,0,0:0:0:0:
448,192,39625,1,0,0:0:0:0:
192,192,39696,1,0,0:0:0:0:
320,192,39767,1,0,0:0:0:0:
64,192,39839,1,0,0:0:0:0:
192,192,39910,1,0,0:0:0:0:
64,192,40125,128,2,40267:0:0:0:0:
192,192,40125,128,4,40267:0:0:0:0:
320,192,40125,128,0,40267:0:0:0:0:
64,192,40410,128,2,40482:0:0:0:0:
192,192,40410,128,4,40482:0:0:0:0:
448,192,40410,128,0,40482:0:0:0:0:
64,192,40553,128,2,40696:0:0:0:0:
320,192,40553,128,4,40982:0:0:0:0:
448,192,40553,128,0,41125:0:0:0:0:
64,192,40839,128,2,41125:0:0:0:0:
192,192,40839,128,4,40982:0:0:0:0:
192,192,41125,1,2,0:0:0:0:
320,192,41125,1,0,0:0:0:0:
448,192,41267,1,0,0:0:0:0:
64,192,41410,1,2,0:0:0:0:
320,192,41410,1,0,0:0:0:0:
192,192,41553,1,0,0:0:0:0:
64,192,41696,1,2,0:0:0:0:
448,192,41696,1,0,0:0:0:0:
320,192,41839,1,0,0:0:0:0:
64,192,41982,1,2,0:0:0:0:
192,192,41982,1,0,0:0:0:0:
64,192,42125,1,0,0:0:0:0:
320,192,42267,1,2,0:0:0:0:
448,192,42267,1,0,0:0:0:0:
192,192,42410,1,0,0:0:0:0:
64,192,42553,1,2,0:0:0:0:
448,192,42553,1,0,0:0:0:0:
320,192,42696,1,0,0:0:0:0:
192,192,42839,1,2,0:0:0:0:
448,192,42839,1,0,0:0:0:0:
448,192,42982,1,0,0:0:0:0:
64,192,43125,1,2,0:0:0:0:
320,192,43125,1,0,0:0:0:0:
64,192,43267,1,0,0:0:0:0:
192,192,43410,1,2,0:0:0:0:
448,192,43410,1,0,0:0:0:0:
448,192,43553,1,0,0:0:0:0:
64,192,43696,1,2,0:0:0:0:
192,192,43696,1,0,0:0:0:0:
320,192,43839,1,0,0:0:0:0:
64,192,43982,1,2,0:0:0:0:
448,192,43982,1,0,0:0:0:0:
192,192,44125,1,0,0:0:0:0:
320,192,44267,1,2,0:0:0:0:
448,192,44267,1,0,0:0:0:0:
448,192,44410,1,0,0:0:0:0:
64,192,44553,1,2,0:0:0:0:
192,192,44553,1,0,0:0:0:0:
320,192,44696,1,0,0:0:0:0:
64,192,44839,1,2,0:0:0:0:
448,192,44839,1,0,0:0:0:0:
192,192,44982,1,0,0:0:0:0:
64,192,45125,1,2,0:0:0:0:
320,192,45125,1,0,0:0:0:0:
64,192,45267,1,0,0:0:0:0:
192,192,45410,1,2,0:0:0:0:
448,192,45410,1,0,0:0:0:0:
448,192,45553,1,0,0:0:0:0:
64,192,45696,1,2,0:0:0:0:
320,192,45696,1,0,0:0:0:0:
64,192,45839,1,0,0:0:0:0:
320,192,45982,1,2,0:0:0:0:
448,192,45982,1,0,0:0:0:0:
192,192,46125,1,0,0:0:0:0:
64,192,46267,1,2,0:0:0:0:
448,192,46267,1,0,0:0:0:0:
320,192,46410,1,0,0:0:0:0:
64,192,46553,1,2,0:0:0:0:
192,192,46553,1,0,0:0:0:0:
320,192,46553,1,0,0:0:0:0:
448,192,46553,1,0,0:0:0:0:
192,192,46696,1,0,0:0:0:0:
64,192,46839,1,2,0:0:0:0:
320,192,46839,1,0,0:0:0:0:
448,192,46839,1,0,0:0:0:0:
192,192,46982,1,0,0:0:0:0:
64,192,47125,1,2,0:0:0:0:
448,192,47125,1,0,0:0:0:0:
320,192,47267,1,0,0:0:0:0:
64,192,47410,1,2,0:0:0:0:
192,192,47410,1,0,0:0:0:0:
64,192,47553,1,0,0:0:0:0:
320,192,47696,1,2,0:0:0:0:
448,192,47696,1,0,0:0:0:0:
320,192,47839,1,0,0:0:0:0:
64,192,47982,1,2,0:0:0:0:
192,192,47982,1,0,0:0:0:0:
64,192,48125,1,0,0:0:0:0:
320,192,48267,1,2,0:0:0:0:
448,192,48267,1,0,0:0:0:0:
320,192,48410,1,0,0:0:0:0:
64,192,48553,1,2,0:0:0:0:
448,192,48553,1,0,0:0:0:0:
192,192,48696,1,0,0:0:0:0:
64,192,48839,1,2,0:0:0:0:
320,192,48839,1,0,0:0:0:0:
64,192,48982,1,0,0:0:0:0:
192,192,49125,1,2,0:0:0:0:
448,192,49125,1,0,0:0:0:0:
448,192,49267,1,0,0:0:0:0:
64,192,49410,1,2,0:0:0:0:
192,192,49410,1,0,0:0:0:0:
320,192,49553,1,0,0:0:0:0:
64,192,49696,1,2,0:0:0:0:
448,192,49696,1,0,0:0:0:0:
448,192,49982,128,0,50053:0:0:0:0:
64,192,50053,128,0,50125:0:0:0:0:
448,192,50125,128,0,50196:0:0:0:0:
192,192,50196,128,0,50267:0:0:0:0:
64,192,50267,1,2,0:0:0:0:
320,192,50267,128,4,50410:0:0:0:0:
448,192,50267,1,0,0:0:0:0:
192,192,50410,1,0,0:0:0:0:
64,192,50553,1,2,0:0:0:0:
192,192,50553,1,8,0:0:0:0:
320,192,50553,1,0,0:0:0:0:
64,192,50696,1,0,0:0:0:0:
448,192,50696,1,0,0:0:0:0:
320,192,50839,1,2,0:0:0:0:
448,192,50839,128,0,50982:0:0:0:0:
192,192,50982,1,0,0:0:0:0:
64,192,51125,1,2,0:0:0:0:
320,192,51125,1,8,0:0:0:0:
448,192,51125,1,0,0:0:0:0:
192,192,51267,1,0,0:0:0:0:
320,192,51267,1,0,0:0:0:0:
64,192,51410,1,2,0:0:0:0:
448,192,51410,1,0,0:0:0:0:
64,192,51553,1,0,0:0:0:0:
320,192,51553,1,0,0:0:0:0:
192,192,51696,1,2,0:0:0:0:
320,192,51696,1,8,0:0:0:0:
448,192,51696,1,0,0:0:0:0:
192,192,51839,128,0,52410:0:0:0:0:
64,192,51982,1,2,0:0:0:0:
448,192,51982,1,0,0:0:0:0:
320,192,52053,1,0,0:0:0:0:
448,192,52125,1,0,0:0:0:0:
64,192,52267,1,2,0:0:0:0:
320,192,52267,1,8,0:0:0:0:
320,192,52410,1,0,0:0:0:0:
64,192,52553,1,2,0:0:0:0:
448,192,52553,1,0,0:0:0:0:
192,192,52696,1,0,0:0:0:0:
448,192,52696,1,0,0:0:0:0:
64,192,52839,1,2,0:0:0:0:
192,192,52839,1,8,0:0:0:0:
320,192,52839,1,0,0:0:0:0:
320,192,52982,128,0,53125:0:0:0:0:
64,192,53125,1,2,0:0:0:0:
448,192,53125,1,0,0:0:0:0:
192,192,53267,1,0,0:0:0:0:
448,192,53267,1,0,0:0:0:0:
64,192,53410,1,2,0:0:0:0:
192,192,53410,1,8,0:0:0:0:
320,192,53410,1,0,0:0:0:0:
320,192,53553,128,0,53696:0:0:0:0:
64,192,53696,1,2,0:0:0:0:
192,192,53696,1,0,0:0:0:0:
64,192,53839,1,0,0:0:0:0:
192,192,53839,1,0,0:0:0:0:
64,192,53982,1,2,0:0:0:0:
320,192,53982,1,8,0:0:0:0:
448,192,53982,1,0,0:0:0:0:
192,192,54053,1,0,0:0:0:0:
448,192,54125,128,0,54267:0:0:0:0:
320,192,54196,1,0,0:0:0:0:
64,192,54267,1,2,0:0:0:0:
192,192,54267,1,0,0:0:0:0:
320,192,54339,1,0,0:0:0:0:
64,192,54410,1,0,0:0:0:0:
192,192,54410,1,0,0:0:0:0:
320,192,54482,1,0,0:0:0:0:
64,192,54553,1,2,0:0:0:0:
192,192,54553,1,8,0:0:0:0:
448,192,54553,1,0,0:0:0:0:
320,192,54625,1,0,0:0:0:0:
448,192,54696,128,0,54839:0:0:0:0:
64,192,54839,1,2,0:0:0:0:
192,192,54839,1,0,0:0:0:0:
320,192,54839,1,0,0:0:0:0:
64,192,54982,1,0,0:0:0:0:
448,192,54982,1,0,0:0:0:0:
192,192,55125,1,2,0:0:0:0:
320,192,55125,1,8,0:0:0:0:
448,192,55125,1,0,0:0:0:0:
64,192,55267,1,0,0:0:0:0:
320,192,55267,1,0,0:0:0:0:
64,192,55410,128,2,55553:0:0:0:0:
448,192,55410,1,0,0:0:0:0:
320,192,55553,1,0,0:0:0:0:
64,192,55696,1,2,0:0:0:0:
192,192,55696,1,8,0:0:0:0:
448,192,55696,1,0,0:0:0:0:
192,192,55839,1,0,0:0:0:0:
320,192,55839,1,0,0:0:0:0:
64,192,55982,1,2,0:0:0:0:
448,192,55982,1,0,0:0:0:0:
192,192,56125,1,0,0:0:0:0:
448,192,56125,1,0,0:0:0:0:
64,192,56267,1,2,0:0:0:0:
192,192,56267,1,8,0:0:0:0:
320,192,56267,1,0,0:0:0:0:
320,192,56410,128,0,56982:0:0:0:0:
64,192,56553,1,2,0:0:0:0:
192,192,56553,1,0,0:0:0:0:
448,192,56625,1,0,0:0:0:0:
64,192,56696,1,0,0:0:0:0:
192,192,56767,1,0,0:0:0:0:
64,192,56839,1,2,0:0:0:0:
448,192,56839,1,8,0:0:0:0:
192,192,56982,1,0,0:0:0:0:
320,192,57125,1,2,0:0:0:0:
448,192,57125,1,0,0:0:0:0:
64,192,57267,1,0,0:0:0:0:
448,192,57267,1,0,0:0:0:0:
64,192,57410,1,2,0:0:0:0:
192,192,57410,1,8,0:0:0:0:
320,192,57410,1,0,0:0:0:0:
192,192,57553,128,0,57696:0:0:0:0:
320,192,57696,1,2,0:0:0:0:
448,192,57696,1,0,0:0:0:0:
64,192,57839,1,0,0:0:0:0:
448,192,57839,1,0,0:0:0:0:
64,192,57982,1,2,0:0:0:0:
192,192,57982,1,8,0:0:0:0:
320,192,57982,1,0,0:0:0:0:
192,192,58125,128,0,58267:0:0:0:0:
320,192,58267,1,2,0:0:0:0:
448,192,58267,128,0,58410:0:0:0:0:
64,192,58410,128,0,58553:0:0:0:0:
448,192,58553,128,0,58696:0:0:0:0:
64,192,58696,128,0,58839:0:0:0:0:
320,192,58839,128,0,58982:0:0:0:0:
64,192,58982,128,2,59267:0:0:0:0:
192,192,58982,128,4,59125:0:0:0:0:
448,192,58982,1,0,0:0:0:0:
320,192,59125,128,2,59267:0:0:0:0:
448,192,59125,128,0,59267:0:0:0:0:
192,192,59267,128,0,59410:0:0:0:0:
64,192,59410,1,2,0:0:0:0:
320,192,59410,1,4,0:0:0:0:
448,192,59410,1,0,0:0:0:0:
192,192,59553,1,0,0:0:0:0:
320,192,59553,1,0,0:0:0:0:
64,192,59696,1,2,0:0:0:0:
192,192,59696,1,8,0:0:0:0:
448,192,59696,128,0,59839:0:0:0:0:
320,192,59839,1,0,0:0:0:0:
64,192,59982,1,2,0:0:0:0:
448,192,59982,1,0,0:0:0:0:
64,192,60125,1,0,0:0:0:0:
320,192,60125,1,0,0:0:0:0:
192,192,60267,1,2,0:0:0:0:
320,192,60267,1,8,0:0:0:0:
448,192,60267,1,0,0:0:0:0:
64,192,60410,1,0,0:0:0:0:
448,192,60410,1,0,0:0:0:0:
64,192,60553,1,2,0:0:0:0:
320,192,60553,1,0,0:0:0:0:
192,192,60696,1,0,0:0:0:0:
448,192,60696,1,0,0:0:0:0:
64,192,60839,1,2,0:0:0:0:
320,192,60839,1,8,0:0:0:0:
448,192,60839,1,0,0:0:0:0:
320,192,60982,128,0,61553:0:0:0:0:
192,192,61125,1,2,0:0:0:0:
448,192,61125,1,0,0:0:0:0:
64,192,61267,1,0,0:0:0:0:
64,192,61410,1,2,0:0:0:0:
192,192,61410,1,8,0:0:0:0:
448,192,61410,1,0,0:0:0:0:
448,192,61553,1,0,0:0:0:0:
64,192,61696,1,2,0:0:0:0:
192,192,61696,1,0,0:0:0:0:
320,192,61839,1,0,0:0:0:0:
448,192,61839,1,0,0:0:0:0:
64,192,61982,1,2,0:0:0:0:
192,192,61982,1,8,0:0:0:0:
448,192,61982,1,0,0:0:0:0:
320,192,62125,1,0,0:0:0:0:
64,192,62267,1,2,0:0:0:0:
192,192,62267,1,0,0:0:0:0:
320,192,62410,1,0,0:0:0:0:
448,192,62410,1,0,0:0:0:0:
64,192,62553,1,2,0:0:0:0:
192,192,62553,1,8,0:0:0:0:
448,192,62553,1,0,0:0:0:0:
192,192,62696,128,0,62839:0:0:0:0:
320,192,62839,1,2,0:0:0:0:
448,192,62839,1,0,0:0:0:0:
320,192,62982,1,0,0:0:0:0:
448,192,62982,1,0,0:0:0:0:
64,192,63125,1,2,0:0:0:0:
192,192,63125,1,8,0:0:0:0:
448,192,63125,1,0,0:0:0:0:
320,192,63196,1,0,0:0:0:0:
64,192,63267,128,0,63410:0:0:0:0:
192,192,63339,1,0,0:0:0:0:
320,192,63410,1,2,0:0:0:0:
448,192,63410,1,0,0:0:0:0:
192,192,63482,1,0,0:0:0:0:
320,192,63553,1,0,0:0:0:0:
448,192,63553,1,0,0:0:0:0:
192,192,63625,1,0,0:0:0:0:
64,192,63696,1,2,0:0:0:0:
320,192,63696,1,8,0:0:0:0:
448,192,63696,1,0,0:0:0:0:
192,192,63767,1,0,0:0:0:0:
64,192,63839,128,0,63982:0:0:0:0:
192,192,63982,128,2,64125:0:0:0:0:
320,192,63982,1,0,0:0:0:0:
448,192,63982,1,0,0:0:0:0:
448,192,64125,1,0,0:0:0:0:
64,192,64267,1,2,0:0:0:0:
192,192,64267,1,8,0:0:0:0:
320,192,64267,128,0,64410:0:0:0:0:
64,192,64410,1,0,0:0:0:0:
192,192,64553,1,2,0:0:0:0:
320,192,64553,1,0,0:0:0:0:
64,192,64696,1,0,0:0:0:0:
448,192,64696,1,0,0:0:0:0:
192,192,64839,1,2,0:0:0:0:
320,192,64839,1,8,0:0:0:0:
448,192,64839,1,0,0:0:0:0:
64,192,64982,1,0,0:0:0:0:
320,192,64982,1,0,0:0:0:0:
192,192,65125,1,2,0:0:0:0:
448,192,65125,128,0,65267:0:0:0:0:
192,192,65267,1,0,0:0:0:0:
64,192,65410,128,2,65553:0:0:0:0:
320,192,65410,1,8,0:0:0:0:
448,192,65410,1,0,0:0:0:0:
320,192,65553,1,0,0:0:0:0:
64,192,65696,1,2,0:0:0:0:
448,192,65696,1,0,0:0:0:0:
64,192,65839,1,2,0:0:0:0:
192,192,65839,1,0,0:0:0:0:
320,192,65982,1,2,0:0:0:0:
448,192,65982,1,8,0:0:0:0:
64,192,66053,1,2,0:0:0:0:
192,192,66053,1,0,0:0:0:0:
320,192,66125,1,2,0:0:0:0:
448,192,66125,1,0,0:0:0:0:
192,192,66196,1,2,0:0:0:0:
64,192,66267,1,2,0:0:0:0:
320,192,66267,1,4,0:0:0:0:
448,192,66267,1,0,0:0:0:0:
64,192,66410,1,0,0:0:0:0:
192,192,66553,1,2,0:0:0:0:
320,192,66553,1,0,0:0:0:0:
448,192,66553,1,0,0:0:0:0:
64,192,66696,1,2,0:0:0:0:
192,192,66696,1,0,0:0:0:0:
320,192,66696,1,0,0:0:0:0:
64,192,66982,1,2,0:0:0:0:
320,192,66982,1,0,0:0:0:0:
192,192,67053,1,0,0:0:0:0:
64,192,67125,1,2,0:0:0:0:
448,192,67125,1,0,0:0:0:0:
320,192,67196,1,0,0:0:0:0:
192,192,67267,1,2,0:0:0:0:
448,192,67267,1,0,0:0:0:0:
64,192,67410,1,2,0:0:0:0:
192,192,67410,1,4,0:0:0:0:
320,192,67410,1,0,0:0:0:0:
448,192,67553,1,0,0:0:0:0:
64,192,67696,1,2,0:0:0:0:
192,192,67696,1,0,0:0:0:0:
448,192,67696,128,0,67839:0:0:0:0:
192,192,67839,128,0,67982:0:0:0:0:
64,192,67982,1,2,0:0:0:0:
320,192,67982,1,0,0:0:0:0:
448,192,67982,1,0,0:0:0:0:
320,192,68125,128,0,68267:0:0:0:0:
64,192,68267,1,2,0:0:0:0:
192,192,68267,1,0,0:0:0:0:
448,192,68267,1,0,0:0:0:0:
64,192,68410,128,0,68553:0:0:0:0:
192,192,68553,1,2,0:0:0:0:
320,192,68553,1,0,0:0:0:0:
448,192,68553,1,0,0:0:0:0:
448,192,68696,128,0,68839:0:0:0:0:
64,192,68839,1,2,0:0:0:0:
192,192,68839,1,0,0:0:0:0:
320,192,68839,1,0,0:0:0:0:
192,192,68982,128,0,69125:0:0:0:0:
64,192,69125,1,2,0:0:0:0:
320,192,69125,1,0,0:0:0:0:
448,192,69125,1,0,0:0:0:0:
64,192,69267,1,2,0:0:0:0:
192,192,69267,1,0,0:0:0:0:
320,192,69267,1,0,0:0:0:0:
448,192,69410,1,0,0:0:0:0:
64,192,69446,1,0,0:0:0:0:
192,192,69482,1,0,0:0:0:0:
320,192,69517,1,0,0:0:0:0:
64,192,69553,1,2,0:0:0:0:
192,192,69553,1,0,0:0:0:0:
448,192,69553,1,0,0:0:0:0:
64,192,69696,1,2,0:0:0:0:
320,192,69696,1,0,0:0:0:0:
448,192,69696,1,0,0:0:0:0:
64,192,69839,1,2,0:0:0:0:
192,192,69839,1,0,0:0:0:0:
448,192,69839,1,0,0:0:0:0:
64,192,69982,128,2,70125:0:0:0:0:
320,192,69982,1,0,0:0:0:0:
448,192,69982,1,0,0:0:0:0:
320,192,70125,128,0,70267:0:0:0:0:
64,192,70267,1,2,0:0:0:0:
192,192,70267,1,0,0:0:0:0:
448,192,70267,1,0,0:0:0:0:
192,192,70410,128,0,70553:0:0:0:0:
64,192,70553,1,2,0:0:0:0:
320,192,70553,1,0,0:0:0:0:
448,192,70553,1,0,0:0:0:0:
448,192,70696,128,0,70839:0:0:0:0:
64,192,70839,1,2,0:0:0:0:
192,192,70839,1,4,0:0:0:0:
320,192,70839,1,0,0:0:0:0:
192,192,70982,1,2,0:0:0:0:
320,192,70982,1,0,0:0:0:0:
448,192,70982,1,0,0:0:0:0:
64,192,71125,1,2,0:0:0:0:
192,192,71125,1,0,0:0:0:0:
320,192,71125,1,0,0:0:0:0:
448,192,71267,1,0,0:0:0:0:
64,192,71339,1,2,0:0:0:0:
192,192,71339,1,0,0:0:0:0:
64,192,71410,1,2,0:0:0:0:
320,192,71410,1,4,0:0:0:0:
448,192,71410,1,0,0:0:0:0:
64,192,71625,1,2,0:0:0:0:
320,192,71625,1,4,0:0:0:0:
448,192,71625,1,0,0:0:0:0:
64,192,71839,1,2,0:0:0:0:
320,192,71839,1,4,0:0:0:0:
448,192,71839,1,0,0:0:0:0:
64,192,71982,1,4,0:0:0:0:
192,192,71982,1,2,0:0:0:0:
448,192,71982,128,0,72267:0:0:0:0:
64,192,72267,128,0,72553:0:0:0:0:
320,192,72553,128,0,72839:0:0:0:0:
192,192,72839,128,0,73125:0:0:0:0:
64,192,73125,128,0,73696:0:0:0:0:
448,192,73125,128,0,73410:0:0:0:0:
320,192,73410,128,0,73696:0:0:0:0:
192,192,73696,128,0,73982:0:0:0:0:
64,192,73982,128,0,74267:0:0:0:0:
320,192,74267,128,0,74553:0:0:0:0:
448,192,74267,128,0,74839:0:0:0:0:
64,192,74553,128,0,74839:0:0:0:0:
192,192,74839,128,0,75125:0:0:0:0:
448,192,75125,128,0,75410:0:0:0:0:
192,192,75410,128,0,75982:0:0:0:0:
320,192,75410,128,0,75696:0:0:0:0:
448,192,75696,128,0,75982:0:0:0:0:
64,192,75982,128,0,76267:0:0:0:0:
192,192,76267,128,0,76553:0:0:0:0:
320,192,76553,128,0,76839:0:0:0:0:
448,192,76553,128,0,76982:0:0:0:0:
64,192,76839,128,0,77125:0:0:0:0:
192,192,77125,128,0,77410:0:0:0:0:
320,192,77125,128,0,77553:0:0:0:0:
448,192,77410,128,0,77696:0:0:0:0:
64,192,77696,128,0,77982:0:0:0:0:
192,192,77696,128,0,78125:0:0:0:0:
320,192,77982,1,0,0:0:0:0:
64,192,78267,1,0,0:0:0:0:
448,192,78267,128,0,78696:0:0:0:0:
320,192,78339,1,0,0:0:0:0:
64,192,78410,1,0,0:0:0:0:
320,192,78482,1,0,0:0:0:0:
64,192,78553,1,0,0:0:0:0:
320,192,78625,1,0,0:0:0:0:
64,192,78696,1,0,0:0:0:0:
320,192,78767,1,0,0:0:0:0:
64,192,78839,1,8,0:0:0:0:
192,192,78839,128,2,79267:0:0:0:0:
448,192,78839,1,0,0:0:0:0:
320,192,78982,1,0,0:0:0:0:
64,192,79125,1,8,0:0:0:0:
320,192,79125,1,0,0:0:0:0:
448,192,79267,1,0,0:0:0:0:
192,192,79410,1,8,0:0:0:0:
448,192,79410,128,0,79553:0:0:0:0:
64,192,79553,1,0,0:0:0:0:
320,192,79625,1,0,0:0:0:0:
64,192,79696,128,8,79839:0:0:0:0:
192,192,79696,1,0,0:0:0:0:
320,192,79839,1,0,0:0:0:0:
320,192,79982,128,8,81125:0:0:0:0:
448,192,79982,1,0,0:0:0:0:
192,192,80125,1,0,0:0:0:0:
64,192,80267,1,8,0:0:0:0:
192,192,80267,1,0,0:0:0:0:
448,192,80410,1,0,0:0:0:0:
192,192,80553,1,8,0:0:0:0:
448,192,80553,1,0,0:0:0:0:
64,192,80696,1,0,0:0:0:0:
64,192,80839,1,8,0:0:0:0:
448,192,80839,1,0,0:0:0:0:
192,192,80982,1,0,0:0:0:0:
64,192,81125,1,8,0:0:0:0:
192,192,81125,1,2,0:0:0:0:
448,192,81125,1,4,0:0:0:0:
64,192,81267,1,8,0:0:0:0:
448,192,81267,1,0,0:0:0:0:
192,192,81410,1,8,0:0:0:0:
320,192,81410,1,0,0:0:0:0:
64,192,81553,1,8,0:0:0:0:
320,192,81553,1,0,0:0:0:0:
64,192,81696,1,8,0:0:0:0:
192,192,81696,1,2,0:0:0:0:
448,192,81696,1,4,0:0:0:0:
192,192,81839,1,8,0:0:0:0:
320,192,81839,1,0,0:0:0:0:
448,192,81839,1,0,0:0:0:0:
64,192,81982,1,8,0:0:0:0:
320,192,81982,1,0,0:0:0:0:
64,192,82125,1,8,0:0:0:0:
192,192,82125,1,0,0:0:0:0:
320,192,82267,1,10,0:0:0:0:
448,192,82267,1,4,0:0:0:0:
320,192,82363,1,8,0:0:0:0:
448,192,82363,1,2,0:0:0:0:
64,192,82458,1,8,0:0:0:0:
192,192,82458,1,2,0:0:0:0:
64,192,82553,1,10,0:0:0:0:
192,192,82553,1,4,0:0:0:0:
320,192,82648,1,8,0:0:0:0:
448,192,82648,1,2,0:0:0:0:
320,192,82744,1,8,0:0:0:0:
448,192,82744,1,2,0:0:0:0:
64,192,82839,1,2,0:0:0:0:
192,192,82839,1,4,0:0:0:0:
448,192,82839,1,8,0:0:0:0:
192,192,83125,1,2,0:0:0:0:
448,192,83125,128,0,83410:0:0:0:0:
64,192,83196,1,2,0:0:0:0:
192,192,83267,1,2,0:0:0:0:
64,192,83339,1,2,0:0:0:0:
192,192,83410,1,4,0:0:0:0:
320,192,83410,1,2,0:0:0:0:
64,192,83482,1,0,0:0:0:0:
448,192,83553,1,0,0:0:0:0:
192,192,83625,1,0,0:0:0:0:
64,192,83696,1,2,0:0:0:0:
320,192,83696,1,8,0:0:0:0:
448,192,83696,1,0,0:0:0:0:
192,192,83767,1,0,0:0:0:0:
320,192,83839,1,0,0:0:0:0:
448,192,83839,1,0,0:0:0:0:
192,192,83910,1,0,0:0:0:0:
64,192,83982,1,2,0:0:0:0:
448,192,84053,1,0,0:0:0:0:
64,192,84125,1,0,0:0:0:0:
320,192,84125,1,0,0:0:0:0:
192,192,84196,1,0,0:0:0:0:
320,192,84267,1,10,0:0:0:0:
448,192,84339,1,0,0:0:0:0:
64,192,84410,1,0,0:0:0:0:
192,192,84410,1,0,0:0:0:0:
448,192,84482,1,0,0:0:0:0:
192,192,84553,1,2,0:0:0:0:
320,192,84553,1,0,0:0:0:0:
64,192,84625,1,0,0:0:0:0:
448,192,84696,1,0,0:0:0:0:
320,192,84767,1,0,0:0:0:0:
64,192,84839,1,2,0:0:0:0:
192,192,84839,1,8,0:0:0:0:
448,192,84839,1,0,0:0:0:0:
320,192,84910,1,0,0:0:0:0:
64,192,84982,1,0,0:0:0:0:
192,192,84982,1,0,0:0:0:0:
448,192,85053,1,0,0:0:0:0:
192,192,85125,1,2,0:0:0:0:
320,192,85196,1,0,0:0:0:0:
64,192,85267,1,0,0:0:0:0:
448,192,85267,1,0,0:0:0:0:
192,192,85339,1,0,0:0:0:0:
320,192,85410,1,10,0:0:0:0:
448,192,85482,1,0,0:0:0:0:
64,192,85553,1,0,0:0:0:0:
192,192,85553,1,0,0:0:0:0:
320,192,85625,1,0,0:0:0:0:
64,192,85696,1,2,0:0:0:0:
448,192,85696,1,0,0:0:0:0:
320,192,85767,1,0,0:0:0:0:
192,192,85839,1,0,0:0:0:0:
64,192,85910,1,0,0:0:0:0:
192,192,85982,1,2,0:0:0:0:
320,192,85982,1,8,0:0:0:0:
448,192,85982,1,0,0:0:0:0:
64,192,86053,1,0,0:0:0:0:
320,192,86125,1,0,0:0:0:0:
448,192,86125,1,0,0:0:0:0:
64,192,86196,1,0,0:0:0:0:
192,192,86267,1,2,0:0:0:0:
448,192,86339,1,0,0:0:0:0:
192,192,86410,1,0,0:0:0:0:
320,192,86410,1,0,0:0:0:0:
64,192,86482,1,0,0:0:0:0:
320,192,86553,1,10,0:0:0:0:
448,192,86625,1,0,0:0:0:0:
64,192,86696,1,0,0:0:0:0:
192,192,86696,1,0,0:0:0:0:
448,192,86767,1,0,0:0:0:0:
64,192,86839,1,2,0:0:0:0:
320,192,86839,1,0,0:0:0:0:
192,192,86910,1,0,0:0:0:0:
448,192,86982,1,0,0:0:0:0:
320,192,87053,1,0,0:0:0:0:
64,192,87125,1,2,0:0:0:0:
192,192,87125,1,8,0:0:0:0:
448,192,87125,1,0,0:0:0:0:
320,192,87196,1,0,0:0:0:0:
64,192,87267,1,0,0:0:0:0:
192,192,87267,1,0,0:0:0:0:
448,192,87339,1,0,0:0:0:0:
64,192,87410,1,2,0:0:0:0:
320,192,87482,1,0,0:0:0:0:
192,192,87553,1,0,0:0:0:0:
448,192,87553,1,0,0:0:0:0:
64,192,87625,1,0,0:0:0:0:
320,192,87696,1,10,0:0:0:0:
192,192,87767,1,0,0:0:0:0:
64,192,87839,1,0,0:0:0:0:
448,192,87839,1,0,0:0:0:0:
320,192,87910,1,0,0:0:0:0:
64,192,87982,1,2,0:0:0:0:
192,192,87982,1,0,0:0:0:0:
320,192,88053,1,0,0:0:0:0:
192,192,88125,1,0,0:0:0:0:
448,192,88125,1,0,0:0:0:0:
320,192,88267,1,2,0:0:0:0:
448,192,88267,1,8,0:0:0:0:
192,192,88339,1,0,0:0:0:0:
64,192,88410,1,0,0:0:0:0:
320,192,88410,1,0,0:0:0:0:
192,192,88553,1,2,0:0:0:0:
448,192,88553,1,0,0:0:0:0:
320,192,88625,1,0,0:0:0:0:
192,192,88696,1,0,0:0:0:0:
448,192,88696,1,0,0:0:0:0:
64,192,88839,1,2,0:0:0:0:
320,192,88839,1,8,0:0:0:0:
192,192,88910,1,0,0:0:0:0:
64,192,88982,1,0,0:0:0:0:
320,192,88982,1,0,0:0:0:0:
192,192,89125,1,2,0:0:0:0:
448,192,89125,128,0,89410:0:0:0:0:
320,192,89267,128,0,89410:0:0:0:0:
64,192,89410,1,2,0:0:0:0:
192,192,89410,1,8,0:0:0:0:
64,192,89553,128,0,89696:0:0:0:0:
320,192,89696,128,2,89767:0:0:0:0:
448,192,89696,128,0,89767:0:0:0:0:
192,192,89839,128,0,89910:0:0:0:0:
320,192,89839,128,0,89910:0:0:0:0:
64,192,89982,128,2,90053:0:0:0:0:
192,192,89982,128,8,90053:0:0:0:0:
64,192,90125,128,0,90196:0:0:0:0:
320,192,90125,128,0,90196:0:0:0:0:
448,192,90267,1,0,0:0:0:0:
192,192,90339,1,0,0:0:0:0:
448,192,90410,1,0,0:0:0:0:
192,192,90482,1,0,0:0:0:0:
64,192,90553,128,2,90839:0:0:0:0:
320,192,90553,128,4,90696:0:0:0:0:
448,192,90553,128,0,90696:0:0:0:0:
192,192,90696,1,0,0:0:0:0:
320,192,90839,1,0,0:0:0:0:
448,192,90910,1,0,0:0:0:0:
64,192,90982,1,0,0:0:0:0:
192,192,91053,1,0,0:0:0:0:
64,192,91125,128,4,91410:0:0:0:0:
320,192,91125,128,2,91267:0:0:0:0:
448,192,91125,128,0,91267:0:0:0:0:
192,192,91267,1,0,0:0:0:0:
192,192,91410,128,2,91517:0:0:0:0:
320,192,91410,128,4,91482:0:0:0:0:
448,192,91410,128,0,91553:0:0:0:0:
64,192,91696,128,4,91791:0:0:0:0:
192,192,91696,128,2,91767:0:0:0:0:
320,192,91696,128,0,91767:0:0:0:0:
192,192,91839,128,2,91946:0:0:0:0:
320,192,91839,128,4,91910:0:0:0:0:
448,192,91839,128,0,91982:0:0:0:0:
64,192,92125,128,4,92553:0:0:0:0:
192,192,92125,128,2,92553:0:0:0:0:
320,192,92125,128,0,92410:0:0:0:0:
320,192,92553,128,2,92767:0:0:0:0:
448,192,92553,128,4,92839:0:0:0:0:
64,192,92839,1,0,0:0:0:0:
64,192,92982,128,0,93267:0:0:0:0:
320,192,93267,128,0,93410:0:0:0:0:
192,192,93553,128,0,94410:0:0:0:0:
64,192,93696,1,2,0:0:0:0:
320,192,93696,1,4,0:0:0:0:
448,192,93696,1,0,0:0:0:0:
64,192,93982,1,2,0:0:0:0:
320,192,93982,1,4,0:0:0:0:
448,192,93982,1,0,0:0:0:0:
64,192,94125,1,2,0:0:0:0:
320,192,94125,1,4,0:0:0:0:
448,192,94125,1,0,0:0:0:0:
64,192,94410,1,2,0:0:0:0:
320,192,94410,1,4,0:0:0:0:
448,192,94410,1,0,0:0:0:0:
64,192,94553,1,2,0:0:0:0:
448,192,94553,1,0,0:0:0:0:
192,192,94625,1,2,0:0:0:0:
320,192,94625,1,0,0:0:0:0:
64,192,94696,1,2,0:0:0:0:
448,192,94696,1,0,0:0:0:0:
192,192,94767,1,2,0:0:0:0:
320,192,94767,1,0,0:0:0:0:
64,192,94839,1,2,0:0:0:0:
448,192,94839,1,0,0:0:0:0:
192,192,94982,1,2,0:0:0:0:
320,192,94982,1,0,0:0:0:0:
64,192,95125,1,4,0:0:0:0:
192,192,95125,1,8,0:0:0:0:
448,192,95125,1,2,0:0:0:0:
320,192,95196,1,0,0:0:0:0:
64,192,95267,1,0,0:0:0:0:
192,192,95267,1,0,0:0:0:0:
448,192,95339,1,0,0:0:0:0:
320,192,95410,1,2,0:0:0:0:
64,192,95482,1,0,0:0:0:0:
192,192,95553,1,0,0:0:0:0:
320,192,95553,1,0,0:0:0:0:
448,192,95625,1,0,0:0:0:0:
192,192,95696,1,10,0:0:0:0:
64,192,95767,1,0,0:0:0:0:
320,192,95839,1,0,0:0:0:0:
448,192,95839,1,0,0:0:0:0:
64,192,95910,1,0,0:0:0:0:
192,192,95982,1,2,0:0:0:0:
448,192,95982,1,0,0:0:0:0:
320,192,96053,1,0,0:0:0:0:
64,192,96125,1,0,0:0:0:0:
192,192,96196,1,0,0:0:0:0:
64,192,96267,1,8,0:0:0:0:
320,192,96267,1,2,0:0:0:0:
448,192,96267,1,0,0:0:0:0:
192,192,96339,1,0,0:0:0:0:
320,192,96410,1,0,0:0:0:0:
448,192,96410,1,0,0:0:0:0:
64,192,96482,1,0,0:0:0:0:
320,192,96553,1,2,0:0:0:0:
192,192,96625,1,0,0:0:0:0:
64,192,96696,1,0,0:0:0:0:
448,192,96696,1,0,0:0:0:0:
320,192,96767,1,0,0:0:0:0:
192,192,96839,1,10,0:0:0:0:
448,192,96910,1,0,0:0:0:0:
64,192,96982,1,0,0:0:0:0:
320,192,96982,1,0,0:0:0:0:
192,192,97053,1,0,0:0:0:0:
64,192,97125,1,2,0:0:0:0:
320,192,97125,128,4,97267:0:0:0:0:
448,192,97125,128,0,97267:0:0:0:0:
192,192,97267,1,0,0:0:0:0:
192,192,97410,1,0,0:0:0:0:
448,192,97410,1,0,0:0:0:0:
320,192,97482,1,0,0:0:0:0:
64,192,97553,1,0,0:0:0:0:
448,192,97553,1,0,0:0:0:0:
192,192,97625,1,0,0:0:0:0:
64,192,97696,128,2,97839:0:0:0:0:
320,192,97696,1,4,0:0:0:0:
448,192,97696,128,0,97839:0:0:0:0:
192,192,97839,1,0,0:0:0:0:
320,192,97910,1,0,0:0:0:0:
64,192,97982,1,0,0:0:0:0:
192,192,97982,1,0,0:0:0:0:
320,192,98053,1,0,0:0:0:0:
448,192,98053,1,0,0:0:0:0:
64,192,98125,1,0,0:0:0:0:
192,192,98125,1,0,0:0:0:0:
320,192,98196,1,0,0:0:0:0:
64,192,98267,128,2,98410:0:0:0:0:
192,192,98267,128,4,98553:0:0:0:0:
448,192,98267,1,0,0:0:0:0:
320,192,98410,128,4,98553:0:0:0:0:
448,192,98410,128,2,98553:0:0:0:0:
64,192,98696,128,4,99410:0:0:0:0:
320,192,98696,128,2,99125:0:0:0:0:
448,192,98696,128,0,99125:0:0:0:0:
192,192,99125,128,0,99410:0:0:0:0:
320,192,99267,1,0,0:0:0:0:
320,192,99410,128,4,100553:0:0:0:0:
448,192,99410,1,2,0:0:0:0:
64,192,99553,1,0,0:0:0:0:
64,192,99696,1,8,0:0:0:0:
448,192,99696,1,2,0:0:0:0:
192,192,99839,1,0,0:0:0:0:
192,192,99982,1,2,0:0:0:0:
448,192,99982,1,0,0:0:0:0:
64,192,100053,1,0,0:0:0:0:
448,192,100125,1,0,0:0:0:0:
192,192,100196,1,0,0:0:0:0:
64,192,100267,1,8,0:0:0:0:
448,192,100267,1,2,0:0:0:0:
192,192,100410,1,0,0:0:0:0:
192,192,100553,128,2,101696:0:0:0:0:
448,192,100553,1,0,0:0:0:0:
320,192,100696,1,0,0:0:0:0:
64,192,100839,128,8,100982:0:0:0:0:
448,192,100839,128,2,100982:0:0:0:0:
320,192,100982,1,0,0:0:0:0:
64,192,101125,1,2,0:0:0:0:
320,192,101125,1,0,0:0:0:0:
448,192,101196,1,0,0:0:0:0:
64,192,101267,1,0,0:0:0:0:
320,192,101339,1,0,0:0:0:0:
64,192,101410,128,8,101553:0:0:0:0:
448,192,101410,128,2,101553:0:0:0:0:
320,192,101553,1,0,0:0:0:0:
64,192,101696,1,2,0:0:0:0:
448,192,101696,128,0,102839:0:0:0:0:
320,192,101839,1,0,0:0:0:0:
192,192,101982,1,2,0:0:0:0:
320,192,101982,1,8,0:0:0:0:
64,192,102125,1,0,0:0:0:0:
64,192,102267,1,2,0:0:0:0:
320,192,102267,1,0,0:0:0:0:
192,192,102339,1,0,0:0:0:0:
320,192,102410,1,0,0:0:0:0:
64,192,102482,1,0,0:0:0:0:
192,192,102553,1,2,0:0:0:0:
320,192,102553,1,8,0:0:0:0:
64,192,102696,1,0,0:0:0:0:
64,192,102839,1,2,0:0:0:0:
320,192,102839,128,0,103410:0:0:0:0:
192,192,102982,1,0,0:0:0:0:
64,192,103125,128,8,103267:0:0:0:0:
448,192,103125,128,2,103267:0:0:0:0:
192,192,103267,1,0,0:0:0:0:
64,192,103410,1,2,0:0:0:0:
192,192,103410,1,0,0:0:0:0:
320,192,103482,1,2,0:0:0:0:
448,192,103482,1,0,0:0:0:0:
64,192,103553,1,0,0:0:0:0:
192,192,103625,1,2,0:0:0:0:
320,192,103625,1,0,0:0:0:0:
64,192,103696,128,8,103839:0:0:0:0:
448,192,103696,128,2,103839:0:0:0:0:
320,192,103839,1,2,0:0:0:0:
192,192,103875,1,2,0:0:0:0:
64,192,103910,1,2,0:0:0:0:
320,192,103946,1,2,0:0:0:0:
192,192,103982,1,4,0:0:0:0:
448,192,103982,1,2,0:0:0:0:
64,192,104125,1,2,0:0:0:0:
448,192,104125,1,4,0:0:0:0:
64,192,104267,1,4,0:0:0:0:
320,192,104267,1,2,0:0:0:0:
192,192,104410,1,2,0:0:0:0:
320,192,104446,1,2,0:0:0:0:
448,192,104482,1,2,0:0:0:0:
192,192,104517,1,2,0:0:0:0:
64,192,104553,1,4,0:0:0:0:
320,192,104553,1,2,0:0:0:0:
64,192,104696,1,4,0:0:0:0:
448,192,104696,1,2,0:0:0:0:
192,192,104839,1,2,0:0:0:0:
448,192,104839,1,4,0:0:0:0:
320,192,104982,1,2,0:0:0:0:
448,192,105017,1,2,0:0:0:0:
192,192,105053,1,2,0:0:0:0:
64,192,105089,1,2,0:0:0:0:
320,192,105125,1,6,0:0:0:0:
192,192,105196,1,2,0:0:0:0:
64,192,105267,1,2,0:0:0:0:
448,192,105303,1,2,0:0:0:0:
320,192,105339,1,2,0:0:0:0:
192,192,105375,1,2,0:0:0:0:
64,192,105410,1,4,0:0:0:0:
448,192,105410,1,2,0:0:0:0:
320,192,105482,1,2,0:0:0:0:
192,192,105553,1,2,0:0:0:0:
64,192,105589,1,2,0:0:0:0:
320,192,105625,1,2,0:0:0:0:
448,192,105660,1,2,0:0:0:0:
192,192,105696,1,6,0:0:0:0:
320,192,105767,1,2,0:0:0:0:
448,192,105839,1,2,0:0:0:0:
64,192,105875,1,2,0:0:0:0:
192,192,105910,1,2,0:0:0:0:
320,192,105946,1,2,0:0:0:0:
64,192,105982,1,4,0:0:0:0:
448,192,105982,1,2,0:0:0:0:
192,192,106053,1,2,0:0:0:0:
320,192,106125,1,2,0:0:0:0:
448,192,106160,1,2,0:0:0:0:
192,192,106196,1,2,0:0:0:0:
64,192,106232,1,2,0:0:0:0:
320,192,106267,1,6,0:0:0:0:
448,192,106267,128,8,106410:0:0:0:0:
64,192,106410,1,0,0:0:0:0:
192,192,106553,1,8,0:0:0:0:
320,192,106553,128,0,106696:0:0:0:0:
448,192,106696,1,0,0:0:0:0:
64,192,106839,1,8,0:0:0:0:
192,192,106839,128,0,106982:0:0:0:0:
320,192,106982,1,0,0:0:0:0:
64,192,107125,128,8,107267:0:0:0:0:
448,192,107125,1,0,0:0:0:0:
192,192,107267,1,0,0:0:0:0:
320,192,107410,1,8,0:0:0:0:
448,192,107410,128,0,107553:0:0:0:0:
64,192,107553,1,0,0:0:0:0:
192,192,107696,1,8,0:0:0:0:
320,192,107696,128,0,107839:0:0:0:0:
448,192,107839,1,0,0:0:0:0:
64,192,107982,1,8,0:0:0:0:
192,192,107982,128,0,108125:0:0:0:0:
320,192,108125,1,0,0:0:0:0:
64,192,108267,128,8,108410:0:0:0:0:
448,192,108267,1,0,0:0:0:0:
192,192,108410,1,0,0:0:0:0:
320,192,108553,1,8,0:0:0:0:
448,192,108553,128,0,108696:0:0:0:0:
64,192,108696,1,8,0:0:0:0:
192,192,108696,1,0,0:0:0:0:
192,192,108839,128,8,108982:0:0:0:0:
320,192,108839,1,0,0:0:0:0:
64,192,108982,1,8,0:0:0:0:
448,192,108982,1,0,0:0:0:0:
320,192,109125,1,8,0:0:0:0:
448,192,109125,1,0,0:0:0:0:
64,192,109196,1,8,0:0:0:0:
192,192,109196,1,0,0:0:0:0:
320,192,109267,1,8,0:0:0:0:
448,192,109267,1,0,0:0:0:0:
64,192,109339,1,8,0:0:0:0:
192,192,109339,1,0,0:0:0:0:
320,192,109410,1,8,0:0:0:0:
448,192,109410,1,0,0:0:0:0:
64,192,109482,1,8,0:0:0:0:
192,192,109482,1,0,0:0:0:0:
320,192,109553,1,8,0:0:0:0:
448,192,109553,1,0,0:0:0:0:
64,192,109625,1,8,0:0:0:0:
192,192,109625,1,0,0:0:0:0:
320,192,109696,1,0,0:0:0:0:
448,192,109696,1,0,0:0:0:0:
64,192,109839,1,0,0:0:0:0:
448,192,109875,1,0,0:0:0:0:
320,192,109910,1,0,0:0:0:0:
192,192,109946,1,0,0:0:0:0:
64,192,109982,128,2,110125:0:0:0:0:
448,192,109982,128,0,110125:0:0:0:0:
320,192,110125,1,0,0:0:0:0:
64,192,110267,128,0,110410:0:0:0:0:
448,192,110267,128,0,110410:0:0:0:0:
192,192,110410,1,0,0:0:0:0:
64,192,110553,1,2,0:0:0:0:
448,192,110553,1,0,0:0:0:0:
320,192,110589,1,0,0:0:0:0:
192,192,110625,1,0,0:0:0:0:
64,192,110660,1,0,0:0:0:0:
448,192,110696,1,0,0:0:0:0:
320,192,110732,1,0,0:0:0:0:
192,192,110767,1,0,0:0:0:0:
64,192,110803,1,0,0:0:0:0:
320,192,110839,1,4,0:0:0:0:
448,192,110839,128,2,110982:0:0:0:0:
192,192,110982,1,0,0:0:0:0:
320,192,111053,1,0,0:0:0:0:
64,192,111125,1,2,0:0:0:0:
192,192,111125,1,8,0:0:0:0:
448,192,111125,1,0,0:0:0:0:
320,192,111267,1,0,0:0:0:0:
64,192,111339,1,0,0:0:0:0:
320,192,111410,1,2,0:0:0:0:
448,192,111410,128,0,111553:0:0:0:0:
192,192,111553,1,0,0:0:0:0:
320,192,111625,1,0,0:0:0:0:
64,192,111696,1,2,0:0:0:0:
192,192,111696,1,8,0:0:0:0:
448,192,111696,1,0,0:0:0:0:
320,192,111839,1,0,0:0:0:0:
64,192,111910,1,0,0:0:0:0:
320,192,111982,1,2,0:0:0:0:
448,192,111982,128,0,112125:0:0:0:0:
64,192,112125,1,0,0:0:0:0:
320,192,112196,1,0,0:0:0:0:
64,192,112267,1,2,0:0:0:0:
192,192,112267,1,8,0:0:0:0:
448,192,112267,128,0,112410:0:0:0:0:
320,192,112410,1,0,0:0:0:0:
64,192,112482,1,0,0:0:0:0:
320,192,112553,1,2,0:0:0:0:
448,192,112553,128,0,112839:0:0:0:0:
192,192,112696,1,0,0:0:0:0:
64,192,112839,1,2,0:0:0:0:
192,192,112839,1,8,0:0:0:0:
320,192,112839,1,0,0:0:0:0:
320,192,112982,1,0,0:0:0:0:
448,192,112982,1,0,0:0:0:0:
64,192,113125,1,2,0:0:0:0:
192,192,113125,128,0,113267:0:0:0:0:
320,192,113267,1,0,0:0:0:0:
64,192,113339,1,0,0:0:0:0:
192,192,113410,1,2,0:0:0:0:
320,192,113410,1,8,0:0:0:0:
448,192,113410,1,0,0:0:0:0:
64,192,113553,1,0,0:0:0:0:
448,192,113625,1,0,0:0:0:0:
64,192,113696,1,2,0:0:0:0:
192,192,113696,128,0,113839:0:0:0:0:
320,192,113839,1,0,0:0:0:0:
64,192,113910,1,0,0:0:0:0:
192,192,113982,1,2,0:0:0:0:
320,192,113982,1,8,0:0:0:0:
448,192,113982,1,0,0:0:0:0:
64,192,114125,1,0,0:0:0:0:
448,192,114196,1,0,0:0:0:0:
64,192,114267,1,2,0:0:0:0:
192,192,114267,128,0,114410:0:0:0:0:
448,192,114410,1,0,0:0:0:0:
64,192,114482,1,0,0:0:0:0:
192,192,114553,128,2,114696:0:0:0:0:
320,192,114553,1,8,0:0:0:0:
448,192,114553,1,0,0:0:0:0:
64,192,114696,1,0,0:0:0:0:
448,192,114767,1,0,0:0:0:0:
64,192,114839,1,2,0:0:0:0:
192,192,114839,128,0,114982:0:0:0:0:
448,192,114982,1,0,0:0:0:0:
64,192,115053,1,0,0:0:0:0:
192,192,115125,128,2,115267:0:0:0:0:
320,192,115125,1,8,0:0:0:0:
448,192,115125,1,0,0:0:0:0:
64,192,115267,1,0,0:0:0:0:
320,192,115410,128,4,115553:0:0:0:0:
448,192,115410,1,2,0:0:0:0:
64,192,115553,1,0,0:0:0:0:
448,192,115625,1,0,0:0:0:0:
64,192,115696,1,2,0:0:0:0:
192,192,115696,1,8,0:0:0:0:
320,192,115696,1,0,0:0:0:0:
448,192,115839,1,0,0:0:0:0:
192,192,115910,1,0,0:0:0:0:
320,192,115982,128,2,116125:0:0:0:0:
448,192,115982,1,0,0:0:0:0:
64,192,116125,1,0,0:0:0:0:
448,192,116196,1,0,0:0:0:0:
64,192,116267,1,2,0:0:0:0:
192,192,116267,1,8,0:0:0:0:
320,192,116267,1,0,0:0:0:0:
448,192,116410,1,0,0:0:0:0:
192,192,116482,1,0,0:0:0:0:
320,192,116553,128,2,116696:0:0:0:0:
448,192,116553,1,0,0:0:0:0:
192,192,116696,1,0,0:0:0:0:
448,192,116767,1,0,0:0:0:0:
64,192,116839,1,2,0:0:0:0:
192,192,116839,1,8,0:0:0:0:
320,192,116839,128,0,116982:0:0:0:0:
448,192,116982,1,0,0:0:0:0:
192,192,117053,1,0,0:0:0:0:
320,192,117125,128,2,117410:0:0:0:0:
448,192,117125,1,0,0:0:0:0:
64,192,117267,1,0,0:0:0:0:
192,192,117339,1,2,0:0:0:0:
64,192,117410,1,2,0:0:0:0:
448,192,117410,1,8,0:0:0:0:
192,192,117553,1,2,0:0:0:0:
448,192,117589,1,2,0:0:0:0:
320,192,117625,1,2,0:0:0:0:
192,192,117660,1,2,0:0:0:0:
64,192,117696,1,2,0:0:0:0:
448,192,117696,1,4,0:0:0:0:
64,192,117839,1,0,0:0:0:0:
192,192,117982,1,0,0:0:0:0:
320,192,117982,128,0,118125:0:0:0:0:
448,192,118125,1,0,0:0:0:0:
64,192,118267,1,8,0:0:0:0:
192,192,118267,1,0,0:0:0:0:
320,192,118267,1,0,0:0:0:0:
192,192,118410,1,0,0:0:0:0:
64,192,118553,128,0,118696:0:0:0:0:
448,192,118553,1,0,0:0:0:0:
320,192,118696,1,0,0:0:0:0:
192,192,118839,1,2,0:0:0:0:
448,192,118839,1,0,0:0:0:0:
192,192,118982,1,0,0:0:0:0:
64,192,119125,1,0,0:0:0:0:
320,192,119125,128,0,119267:0:0:0:0:
192,192,119267,1,0,0:0:0:0:
64,192,119410,1,8,0:0:0:0:
320,192,119410,1,0,0:0:0:0:
448,192,119410,1,0,0:0:0:0:
320,192,119553,1,0,0:0:0:0:
192,192,119696,1,0,0:0:0:0:
448,192,119696,128,0,119982:0:0:0:0:
192,192,119839,1,0,0:0:0:0:
64,192,119982,1,2,0:0:0:0:
320,192,119982,1,0,0:0:0:0:
192,192,120125,1,0,0:0:0:0:
64,192,120196,1,0,0:0:0:0:
448,192,120196,1,0,0:0:0:0:
320,192,120267,1,0,0:0:0:0:
64,192,120410,1,0,0:0:0:0:
192,192,120553,1,8,0:0:0:0:
320,192,120553,1,0,0:0:0:0:
448,192,120553,1,0,0:0:0:0:
64,192,120625,1,0,0:0:0:0:
320,192,120696,1,0,0:0:0:0:
448,192,120767,1,0,0:0:0:0:
192,192,120839,1,0,0:0:0:0:
320,192,120910,1,0,0:0:0:0:
64,192,120982,1,0,0:0:0:0:
192,192,121053,1,0,0:0:0:0:
64,192,121267,128,2,121410:0:0:0:0:
192,192,121267,128,4,121410:0:0:0:0:
320,192,121267,128,0,121410:0:0:0:0:
64,192,121553,128,2,121625:0:0:0:0:
320,192,121553,128,4,121625:0:0:0:0:
448,192,121553,128,0,121625:0:0:0:0:
64,192,121696,128,2,122125:0:0:0:0:
192,192,121696,128,4,122125:0:0:0:0:
448,192,121696,128,0,121839:0:0:0:0:
320,192,121982,128,2,122125:0:0:0:0:
448,192,121982,128,4,122267:0:0:0:0:
64,192,122267,1,4,0:0:0:0:
192,192,122267,128,2,123267:0:0:0:0:
320,192,122267,1,0,0:0:0:0:
448,192,122567,128,0,123867:0:0:0:0:
320,192,123867,128,0,125267:0:0:0:0:
64,192,125267,128,0,126667:0:0:0:0:
320,192,126267,128,0,127267:0:0:0:0:
448,192,126667,128,0,127267:0:0:0:0:
192,192,127267,128,0,128667:0:0:0:0:
320,192,127867,128,0,128667:0:0:0:0:
64,192,128667,128,0,131067:0:0:0:0:
320,192,129167,128,0,129467:0:0:0:0:
192,192,129267,128,0,129467:0:0:0:0:
448,192,129467,128,0,131467:0:0:0:0:
320,192,130267,128,0,131600:0:0:0:0:
192,192,131067,128,0,131767:0:0:0:0:
320,192,131867,1,0,0:0:0:0:
64,192,131967,1,0,0:0:0:0:
448,192,132100,1,0,0:0:0:0:
320,192,132167,1,0,0:0:0:0:
64,192,132233,1,0,0:0:0:0:
448,192,132300,1,0,0:0:0:0:
192,192,132367,1,0,0:0:0:0:
64,192,132400,1,0,0:0:0:0:
320,192,132467,1,0,0:0:0:0:
448,192,132533,1,0,0:0:0:0:
192,192,132600,1,0,0:0:0:0:
320,192,132633,1,0,0:0:0:0:
448,192,132667,1,0,0:0:0:0:
64,192,132700,1,0,0:0:0:0:
192,192,132733,1,0,0:0:0:0:
320,192,132767,1,0,0:0:0:0:
64,192,132833,1,0,0:0:0:0:
448,192,132900,1,0,0:0:0:0:
192,192,132967,1,0,0:0:0:0:
320,192,133000,1,0,0:0:0:0:
64,192,133067,1,0,0:0:0:0:
448,192,133067,1,0,0:0:0:0:
192,192,133267,1,0,0:0:0:0:
320,192,133267,1,0,0:0:0:0:
64,192,133467,1,4,0:0:0:0:
320,192,133467,1,0,0:0:0:30:LS-HKI Dark Kick 71 H.wav
448,192,133467,1,0,0:0:0:0:
64,192,133867,1,0,0:0:0:30:LS-HKI Dark Kick 71 H.wav
192,192,133867,1,0,0:0:0:0:
448,192,133867,1,0,0:0:0:0:
64,192,134267,1,0,0:0:0:30:LS-HKI Dark Kick 71 H.wav
192,192,134267,1,0,0:0:0:0:
320,192,134267,1,0,0:0:0:0:
192,192,134667,1,0,0:0:0:30:LS-HKI Dark Kick 71 H.wav
320,192,134667,1,0,0:0:0:0:
448,192,134667,1,0,0:0:0:0:
64,192,134867,1,0,0:0:0:30:LS-HKI Dark Kick 71 H.wav
192,192,134867,1,0,0:0:0:0:
320,192,134867,1,0,0:0:0:0:
192,192,135067,1,0,0:0:0:30:LS-HKI Dark Kick 71 H.wav
320,192,135067,1,0,0:0:0:0:
448,192,135067,1,0,0:0:0:0:
64,192,135467,1,0,0:0:0:30:LS-HKI Dark Kick 71 H.wav
320,192,135467,1,0,0:0:0:0:
448,192,135467,1,0,0:0:0:0:
64,192,135867,1,0,0:0:0:30:LS-HKI Dark Kick 71 H.wav
320,192,135867,1,0,0:0:0:0:
448,192,135867,1,0,0:0:0:0:
192,192,135917,1,0,0:0:0:30:LS-HKI Dark Kick 71 H.wav
64,192,135967,1,0,0:0:0:30:LS-HKI Dark Kick 71 H.wav
320,192,135967,1,0,0:0:0:0:
448,192,135967,1,0,0:0:0:0:
64,192,136067,1,0,0:0:0:30:LS-HKI Dark Kick 71 H.wav
192,192,136067,1,0,0:0:0:0:
448,192,136067,1,0,0:0:0:0:
64,192,136267,1,0,0:0:0:30:LS-HKI Dark Kick 71 H.wav
320,192,136267,1,0,0:0:0:0:
448,192,136267,1,0,0:0:0:0:
448,192,136467,1,0,0:0:0:0:
64,192,136492,1,0,0:0:0:0:
192,192,136517,1,0,0:0:0:0:
320,192,136542,1,0,0:0:0:0:
448,192,136567,1,0,0:0:0:0:
64,192,136667,1,0,0:0:0:30:LS-HKI Dark Kick 71 H.wav
192,192,136667,1,0,0:0:0:0:
320,192,136667,1,0,0:0:0:0:
192,192,136867,1,0,0:0:0:30:LS-HKI Dark Kick 71 H.wav
320,192,136867,1,0,0:0:0:0:
448,192,136867,1,0,0:0:0:0:
64,192,137067,1,0,0:0:0:30:LS-HKI Dark Kick 71 H.wav
192,192,137067,1,0,0:0:0:0:
448,192,137067,1,0,0:0:0:0:
192,192,137367,1,0,0:0:0:30:LS-HKI Dark Kick 71 H.wav
320,192,137367,1,0,0:0:0:0:
448,192,137367,1,0,0:0:0:0:
64,192,137467,1,0,0:0:0:30:LS-HKI Dark Kick 71 H.wav
192,192,137467,1,0,0:0:0:0:
320,192,137467,1,0,0:0:0:0:
192,192,137667,1,0,0:0:0:30:LS-HKI Dark Kick 71 H.wav
320,192,137667,1,0,0:0:0:0:
448,192,137667,1,0,0:0:0:0:
64,192,137867,1,0,0:0:0:30:LS-HKI Dark Kick 71 H.wav
192,192,137867,1,0,0:0:0:0:
448,192,137867,1,0,0:0:0:0:
320,192,138117,1,0,0:0:0:0:
64,192,138167,1,0,0:0:0:0:
192,192,138267,1,0,0:0:0:30:LS-HKI Dark Kick 71 H.wav
320,192,138267,1,0,0:0:0:0:
448,192,138267,1,0,0:0:0:0:
448,192,138467,1,0,0:0:0:30:LS-HKI Dark Kick 71 H.wav
64,192,138517,1,0,0:0:0:30:LS-HKI Dark Kick 71 H.wav
448,192,138567,1,0,0:0:0:30:LS-HKI Dark Kick 71 H.wav
64,192,138667,1,0,0:0:0:30:LS-HKI Dark Kick 71 H.wav
192,192,138667,1,0,0:0:0:0:
320,192,138667,1,0,0:0:0:0:
64,192,138867,1,0,0:0:0:30:LS-HKI Dark Kick 71 H.wav
320,192,138867,1,0,0:0:0:0:
448,192,138867,1,0,0:0:0:0:
64,192,138967,1,0,0:0:0:30:LS-HKI Dark Kick 71 H.wav
320,192,138967,1,0,0:0:0:0:
448,192,138967,1,0,0:0:0:0:
192,192,139067,1,0,0:0:0:30:LS-HKI Dark Kick 71 H.wav
448,192,139067,1,0,0:0:0:0:
64,192,139092,1,0,0:0:0:0:
320,192,139117,1,0,0:0:0:0:
192,192,139367,1,0,0:0:0:30:LS-HKI Dark Kick 71 H.wav
448,192,139367,1,0,0:0:0:0:
64,192,139392,1,0,0:0:0:0:
320,192,139417,1,0,0:0:0:0:
192,192,139667,1,0,0:0:0:30:LS-HKI Dark Kick 71 H.wav
448,192,139667,1,0,0:0:0:0:
64,192,139692,1,0,0:0:0:0:
320,192,139717,1,0,0:0:0:0:
64,192,139867,1,0,0:0:0:30:LS-HKI Dark Kick 71 H.wav
192,192,139867,128,0,140867:0:0:0:0:
320,192,139867,1,0,0:0:0:0:
448,192,139867,1,0,0:0:0:0:
448,192,140167,128,0,141467:0:0:0:0:
320,192,141467,128,0,143067:0:0:0:0:
64,192,142467,128,0,144067:0:0:0:0:
448,192,143067,128,0,145467:0:0:0:0:
192,192,144067,128,0,146267:0:0:0:0:
320,192,145467,128,0,146267:0:0:0:0:
64,192,146267,128,0,148667:0:0:0:0:
448,192,147067,128,0,149067:0:0:0:0:
320,192,147867,128,0,149200:0:0:0:0:
192,192,148667,128,0,149367:0:0:0:0:
320,192,149467,1,0,0:0:0:0:
64,192,149567,1,0,0:0:0:0:
448,192,149700,1,0,0:0:0:0:
320,192,149767,1,0,0:0:0:0:
64,192,149833,1,0,0:0:0:0:
448,192,149900,1,0,0:0:0:0:
192,192,149967,1,0,0:0:0:0:
64,192,150000,1,0,0:0:0:0:
320,192,150067,1,0,0:0:0:0:
448,192,150133,1,0,0:0:0:0:
192,192,150200,1,0,0:0:0:0:
320,192,150233,1,0,0:0:0:0:
448,192,150267,1,0,0:0:0:0:
64,192,150300,1,0,0:0:0:0:
192,192,150333,1,0,0:0:0:0:
320,192,150367,1,0,0:0:0:0:
64,192,150433,1,0,0:0:0:0:
448,192,150500,1,0,0:0:0:0:
192,192,150567,1,0,0:0:0:0:
320,192,150600,1,0,0:0:0:0:
64,192,150667,1,0,0:0:0:0:
448,192,150667,1,0,0:0:0:0:
192,192,150867,1,0,0:0:0:0:
320,192,150867,1,0,0:0:0:0:
64,192,151067,1,4,0:0:0:0:
320,192,151067,1,0,0:0:0:30:LS-HKI Dark Kick 71 H.wav
448,192,151067,1,0,0:0:0:0:
64,192,151467,1,0,0:0:0:30:LS-HKI Dark Kick 71 H.wav
192,192,151467,1,0,0:0:0:0:
448,192,151467,1,0,0:0:0:0:
64,192,151867,1,0,0:0:0:30:LS-HKI Dark Kick 71 H.wav
192,192,151867,1,0,0:0:0:0:
320,192,151867,1,0,0:0:0:0:
64,192,151967,1,2,0:0:0:0:
192,192,151967,1,0,0:0:0:0:
448,192,151967,1,0,0:0:0:0:
320,192,152000,1,0,0:0:0:0:
64,192,152167,1,0,0:0:0:30:LS-HKI Dark Kick 71 H.wav
192,192,152167,1,0,0:0:0:0:
320,192,152167,1,0,0:0:0:0:
64,192,152267,1,2,0:0:0:0:
192,192,152267,1,0,0:0:0:0:
448,192,152267,1,0,0:0:0:0:
320,192,152300,1,0,0:0:0:0:
192,192,152467,1,0,0:0:0:0:
448,192,152517,1,0,0:0:0:0:
192,192,152567,1,0,0:0:0:0:
448,192,152617,1,0,0:0:0:0:
64,192,152667,1,0,0:0:0:30:LS-HKI Dark Kick 71 H.wav
192,192,152667,1,0,0:0:0:0:
320,192,152667,1,0,0:0:0:0:
64,192,152867,1,0,0:0:0:30:LS-HKI Dark Kick 71 H.wav
192,192,152867,1,0,0:0:0:0:
448,192,152867,1,0,0:0:0:0:
64,192,153067,1,0,0:0:0:30:LS-HKI Dark Kick 71 H.wav
320,192,153067,1,0,0:0:0:0:
448,192,153067,1,0,0:0:0:0:
192,192,153392,1,0,0:0:0:0:
320,192,153417,1,0,0:0:0:0:
64,192,153467,1,0,0:0:0:30:LS-HKI Dark Kick 71 H.wav
192,192,153467,1,0,0:0:0:0:
448,192,153467,1,0,0:0:0:0:
64,192,153667,1,0,0:0:0:30:LS-HKI Dark Kick 71 H.wav
320,192,153667,1,0,0:0:0:0:
448,192,153667,1,0,0:0:0:0:
192,192,153867,1,0,0:0:0:30:LS-HKI Dark Kick 71 H.wav
320,192,153867,1,0,0:0:0:0:
448,192,153867,1,0,0:0:0:0:
320,192,154117,1,0,0:0:0:0:
192,192,154142,1,0,0:0:0:0:
64,192,154167,1,0,0:0:0:0:
64,192,154267,1,0,0:0:0:30:LS-HKI Dark Kick 71 H.wav
192,192,154267,1,0,0:0:0:0:
320,192,154267,1,0,0:0:0:0:
448,192,154267,1,0,0:0:0:0:
64,192,154467,1,0,0:0:0:30:LS-HKI Dark Kick 71 H.wav
192,192,154467,1,0,0:0:0:0:
320,192,154467,1,0,0:0:0:0:
448,192,154467,1,0,0:0:0:0:
64,192,154667,1,0,0:0:0:30:LS-HKI Dark Kick 71 H.wav
192,192,154667,1,0,0:0:0:0:
320,192,154667,1,0,0:0:0:0:
448,192,154667,1,0,0:0:0:0:
64,192,154967,1,0,0:0:0:30:LS-HKI Dark Kick 71 H.wav
192,192,154967,1,0,0:0:0:0:
320,192,154967,1,0,0:0:0:0:
64,192,155067,1,0,0:0:0:30:LS-HKI Dark Kick 71 H.wav
192,192,155067,1,0,0:0:0:0:
448,192,155067,1,0,0:0:0:0:
64,192,155167,1,0,0:0:0:30:LS-HKI Dark Kick 71 H.wav
320,192,155167,1,0,0:0:0:0:
448,192,155167,1,0,0:0:0:0:
64,192,155367,1,0,0:0:0:30:LS-HKI Dark Kick 71 H.wav
320,192,155367,1,0,0:0:0:0:
448,192,155367,1,0,0:0:0:0:
192,192,155467,1,0,0:0:0:30:LS-HKI Dark Kick 71 H.wav
320,192,155467,1,0,0:0:0:0:
448,192,155467,1,0,0:0:0:0:
64,192,155767,1,0,0:0:0:30:LS-HKI Dark Kick 71 H.wav
192,192,155767,1,0,0:0:0:0:
448,192,155767,1,0,0:0:0:0:
320,192,155817,1,0,0:0:0:30:LS-HKI Dark Kick 71 H.wav
64,192,155867,1,0,0:0:0:30:LS-HKI Dark Kick 71 H.wav
192,192,155867,1,0,0:0:0:0:
448,192,155867,1,0,0:0:0:0:
64,192,156167,1,0,0:0:0:30:LS-HKI Dark Kick 71 H.wav
320,192,156167,1,0,0:0:0:0:
448,192,156167,1,0,0:0:0:0:
192,192,156217,1,0,0:0:0:30:LS-HKI Dark Kick 71 H.wav
64,192,156267,1,0,0:0:0:30:LS-HKI Dark Kick 71 H.wav
320,192,156267,1,0,0:0:0:0:
448,192,156267,1,0,0:0:0:0:
64,192,156367,1,0,0:0:0:30:LS-HKI Dark Kick 71 H.wav
192,192,156367,1,0,0:0:0:0:
448,192,156367,1,0,0:0:0:0:
64,192,156567,1,0,0:0:0:30:LS-HKI Dark Kick 71 H.wav
192,192,156567,1,0,0:0:0:0:
448,192,156567,1,0,0:0:0:0:
64,192,156667,1,2,0:0:0:0:
320,192,156667,1,0,0:0:0:30:LS-HKI Dark Kick 71 H.wav
448,192,156692,1,0,0:0:0:0:
192,192,156717,1,0,0:0:0:0:
64,192,156867,1,2,0:0:0:0:
320,192,156867,1,0,0:0:0:30:LS-HKI Dark Kick 71 H.wav
448,192,156892,1,0,0:0:0:0:
192,192,156917,1,0,0:0:0:0:
64,192,157067,1,2,0:0:0:0:
448,192,157067,1,0,0:0:0:30:LS-HKI Dark Kick 71 H.wav
320,192,157092,1,0,0:0:0:0:
192,192,157117,1,0,0:0:0:0:
64,192,157267,1,2,0:0:0:0:
448,192,157267,1,0,0:0:0:30:LS-HKI Dark Kick 71 H.wav
320,192,157292,1,0,0:0:0:0:
192,192,157317,1,0,0:0:0:0:
64,192,157467,1,0,0:0:0:30:LS-HKI Dark Kick 71 H.wav
192,192,157467,1,0,0:0:0:0:
320,192,157467,1,0,0:0:0:0:
448,192,157467,1,0,0:0:0:0:
64,192,159073,1,0,0:0:0:0:
320,192,159192,1,0,0:0:0:0:
64,192,159215,1,0,0:0:0:0:
320,192,159334,1,0,0:0:0:0:
64,192,159358,1,0,0:0:0:0:
320,192,159477,1,0,0:0:0:0:
64,192,159501,1,0,0:0:0:0:
320,192,159620,1,0,0:0:0:0:
64,192,159644,1,0,0:0:0:0:
448,192,159668,1,0,0:0:0:0:
320,192,159763,1,0,0:0:0:0:
64,192,159787,1,0,0:0:0:0:
448,192,159811,1,0,0:0:0:0:
320,192,159906,1,0,0:0:0:0:
64,192,159930,1,0,0:0:0:0:
448,192,159953,1,0,0:0:0:0:
320,192,160049,1,0,0:0:0:0:
64,192,160073,1,0,0:0:0:0:
448,192,160096,1,0,0:0:0:0:
320,192,160192,1,0,0:0:0:0:
64,192,160215,128,6,160430:0:0:0:0:
448,192,160239,128,0,160358:0:0:0:0:
192,192,160287,128,0,160394:0:0:0:0:
448,192,160465,1,0,0:0:0:0:
320,192,160501,1,0,0:0:0:0:
320,192,160644,1,0,0:0:0:0:
64,192,160787,1,8,0:0:0:0:
192,192,160787,1,0,0:0:0:0:
448,192,160787,1,0,0:0:0:0:
192,192,160930,1,0,0:0:0:0:
320,192,160930,1,0,0:0:0:0:
320,192,161073,1,0,0:0:0:0:
448,192,161108,128,0,161287:0:0:0:0:
64,192,161215,1,0,0:0:0:0:
192,192,161215,1,0,0:0:0:0:
320,192,161358,128,2,161537:0:0:0:0:
448,192,161358,1,0,0:0:0:0:
192,192,161394,128,0,161573:0:0:0:0:
64,192,161501,1,0,0:0:0:0:
192,192,161644,1,0,0:0:0:0:
448,192,161668,1,0,0:0:0:0:
320,192,161787,1,0,0:0:0:0:
448,192,161811,1,0,0:0:0:0:
64,192,161930,1,8,0:0:0:0:
192,192,161930,1,0,0:0:0:0:
320,192,161953,1,0,0:0:0:0:
192,192,162073,1,0,0:0:0:0:
64,192,162096,1,0,0:0:0:0:
448,192,162215,1,0,0:0:0:0:
448,192,162287,1,0,0:0:0:0:
192,192,162358,1,0,0:0:0:0:
192,192,162430,1,0,0:0:0:0:
64,192,162501,1,2,0:0:0:0:
320,192,162501,1,0,0:0:0:0:
64,192,162644,1,0,0:0:0:0:
320,192,162644,1,0,0:0:0:0:
192,192,162787,1,0,0:0:0:0:
448,192,162787,1,0,0:0:0:0:
448,192,162930,128,0,163073:0:0:0:0:
64,192,163073,1,8,0:0:0:0:
192,192,163073,1,0,0:0:0:0:
320,192,163073,1,0,0:0:0:0:
64,192,163215,1,0,0:0:0:0:
320,192,163215,1,0,0:0:0:0:
192,192,163358,1,0,0:0:0:0:
448,192,163358,1,0,0:0:0:0:
448,192,163501,128,0,163644:0:0:0:0:
64,192,163644,128,2,163823:0:0:0:0:
320,192,163644,1,0,0:0:0:0:
192,192,163680,128,0,163858:0:0:0:0:
320,192,163930,128,0,164144:0:0:0:0:
448,192,163965,128,0,164073:0:0:0:0:
192,192,164001,128,0,164108:0:0:0:0:
64,192,164073,1,0,0:0:0:0:
64,192,164215,128,8,164358:0:0:0:0:
448,192,164215,1,0,0:0:0:0:
192,192,164287,1,0,0:0:0:0:
320,192,164358,1,0,0:0:0:0:
192,192,164430,1,0,0:0:0:0:
320,192,164501,128,0,164715:0:0:0:0:
448,192,164573,1,0,0:0:0:0:
64,192,164644,1,0,0:0:0:0:
192,192,164715,1,0,0:0:0:0:
64,192,164787,128,2,165001:0:0:0:0:
320,192,164787,1,0,0:0:0:0:
448,192,164811,128,0,164930:0:0:0:0:
192,192,164858,128,0,164965:0:0:0:0:
448,192,165037,1,0,0:0:0:0:
320,192,165073,1,0,0:0:0:0:
320,192,165215,1,0,0:0:0:0:
64,192,165358,1,8,0:0:0:0:
192,192,165358,1,0,0:0:0:0:
448,192,165358,1,0,0:0:0:0:
192,192,165501,1,0,0:0:0:0:
320,192,165501,1,0,0:0:0:0:
320,192,165644,1,0,0:0:0:0:
448,192,165680,128,0,165858:0:0:0:0:
64,192,165787,1,0,0:0:0:0:
192,192,165787,1,0,0:0:0:0:
320,192,165930,128,2,166108:0:0:0:0:
448,192,165930,1,0,0:0:0:0:
192,192,165965,128,0,166144:0:0:0:0:
64,192,166073,1,0,0:0:0:0:
192,192,166215,1,0,0:0:0:0:
448,192,166239,1,0,0:0:0:0:
320,192,166358,1,0,0:0:0:0:
448,192,166382,1,0,0:0:0:0:
64,192,166501,1,8,0:0:0:0:
192,192,166501,1,0,0:0:0:0:
320,192,166525,1,0,0:0:0:0:
192,192,166644,1,0,0:0:0:0:
64,192,166668,1,0,0:0:0:0:
320,192,166787,1,0,0:0:0:0:
320,192,166858,1,0,0:0:0:0:
192,192,166930,1,0,0:0:0:0:
192,192,167001,1,0,0:0:0:0:
64,192,167073,1,2,0:0:0:0:
448,192,167073,1,0,0:0:0:0:
64,192,167215,1,0,0:0:0:0:
448,192,167215,1,0,0:0:0:0:
192,192,167358,1,0,0:0:0:0:
320,192,167358,1,0,0:0:0:0:
192,192,167501,128,0,167644:0:0:0:0:
64,192,167644,1,8,0:0:0:0:
320,192,167644,1,0,0:0:0:0:
448,192,167644,1,0,0:0:0:0:
64,192,167787,1,0,0:0:0:0:
448,192,167787,1,0,0:0:0:0:
192,192,167930,1,0,0:0:0:0:
320,192,167930,1,0,0:0:0:0:
192,192,168073,128,0,168215:0:0:0:0:
64,192,168215,1,2,0:0:0:0:
448,192,168215,1,0,0:0:0:0:
448,192,168358,1,0,0:0:0:0:
192,192,168501,1,0,0:0:0:0:
192,192,168644,128,0,168787:0:0:0:0:
448,192,168787,1,0,0:0:0:0:
64,192,168930,128,2,169001:0:0:0:0:
192,192,168930,128,0,169001:0:0:0:0:
320,192,168930,128,0,169215:0:0:0:0:
448,192,168930,128,0,169215:0:0:0:0:
64,192,169073,128,2,169358:0:0:0:0:
192,192,169073,128,0,169215:0:0:0:0:
448,192,169358,128,6,169573:0:0:0:0:
192,192,169382,128,0,169501:0:0:0:0:
320,192,169430,128,0,169537:0:0:0:0:
64,192,169608,1,0,0:0:0:0:
192,192,169644,1,0,0:0:0:0:
320,192,169692,1,0,0:0:0:0:
192,192,169787,1,0,0:0:0:0:
320,192,169858,1,0,0:0:0:0:
192,192,169894,1,0,0:0:0:0:
64,192,169930,1,8,0:0:0:0:
448,192,169930,1,0,0:0:0:0:
448,192,170073,1,0,0:0:0:0:
64,192,170108,1,0,0:0:0:0:
192,192,170144,1,0,0:0:0:0:
320,192,170180,1,0,0:0:0:0:
192,192,170287,1,0,0:0:0:0:
320,192,170323,1,0,0:0:0:0:
448,192,170358,1,0,0:0:0:0:
64,192,170430,1,0,0:0:0:0:
192,192,170501,1,2,0:0:0:0:
448,192,170501,1,0,0:0:0:0:
320,192,170537,128,0,170715:0:0:0:0:
64,192,170644,128,0,170787:0:0:0:0:
192,192,170787,1,0,0:0:0:0:
448,192,170858,1,0,0:0:0:0:
192,192,170930,1,0,0:0:0:0:
64,192,171073,1,8,0:0:0:0:
320,192,171073,1,0,0:0:0:0:
448,192,171073,1,0,0:0:0:0:
448,192,171144,1,0,0:0:0:0:
64,192,171215,1,0,0:0:0:0:
192,192,171358,1,0,0:0:0:0:
192,192,171430,1,0,0:0:0:0:
448,192,171501,1,0,0:0:0:0:
192,192,171573,1,0,0:0:0:0:
64,192,171644,128,2,171858:0:0:0:0:
320,192,171644,1,0,0:0:0:0:
320,192,171787,128,0,171930:0:0:0:0:
192,192,171894,1,0,0:0:0:0:
448,192,171930,1,0,0:0:0:0:
448,192,172073,128,0,172215:0:0:0:0:
64,192,172215,128,8,172430:0:0:0:0:
192,192,172215,1,0,0:0:0:0:
320,192,172215,1,0,0:0:0:0:
320,192,172358,128,0,172501:0:0:0:0:
192,192,172465,1,0,0:0:0:0:
448,192,172501,1,0,0:0:0:0:
64,192,172573,1,0,0:0:0:0:
448,192,172644,128,0,172787:0:0:0:0:
64,192,172715,1,0,0:0:0:0:
192,192,172787,1,2,0:0:0:0:
320,192,172787,128,0,172858:0:0:0:0:
64,192,172823,128,0,172930:0:0:0:0:
448,192,172894,1,0,0:0:0:0:
320,192,172930,1,0,0:0:0:0:
192,192,173073,128,0,173144:0:0:0:0:
448,192,173108,128,0,173215:0:0:0:0:
64,192,173180,1,0,0:0:0:0:
192,192,173215,1,0,0:0:0:0:
64,192,173358,1,8,0:0:0:0:
320,192,173358,128,0,173430:0:0:0:0:
448,192,173394,128,0,173644:0:0:0:0:
192,192,173537,128,0,173644:0:0:0:0:
64,192,173644,128,0,173787:0:0:0:0:
320,192,173787,1,0,0:0:0:0:
192,192,173930,1,2,0:0:0:0:
320,192,173930,1,0,0:0:0:0:
448,192,173930,128,0,174073:0:0:0:0:
192,192,174073,1,0,0:0:0:0:
64,192,174215,128,0,174358:0:0:0:0:
320,192,174215,1,0,0:0:0:0:
320,192,174358,1,0,0:0:0:0:
64,192,174501,1,8,0:0:0:0:
192,192,174501,1,0,0:0:0:0:
448,192,174501,1,0,0:0:0:0:
64,192,174644,1,0,0:0:0:0:
320,192,174644,1,0,0:0:0:0:
192,192,174787,1,0,0:0:0:0:
320,192,174787,1,0,0:0:0:0:
192,192,174930,1,0,0:0:0:0:
448,192,174930,1,0,0:0:0:0:
64,192,175073,1,2,0:0:0:0:
320,192,175073,128,0,175215:0:0:0:0:
64,192,175215,1,0,0:0:0:0:
192,192,175358,128,0,175501:0:0:0:0:
448,192,175358,1,0,0:0:0:0:
64,192,175501,1,0,0:0:0:0:
448,192,175501,1,0,0:0:0:0:
64,192,175644,128,8,175787:0:0:0:0:
192,192,175644,1,0,0:0:0:0:
320,192,175644,1,0,0:0:0:0:
320,192,175787,1,2,0:0:0:0:
448,192,175787,1,0,0:0:0:0:
64,192,175930,1,2,0:0:0:0:
192,192,175930,1,0,0:0:0:0:
320,192,176001,1,2,0:0:0:0:
448,192,176001,1,0,0:0:0:0:
64,192,176073,1,2,0:0:0:0:
192,192,176073,1,0,0:0:0:0:
320,192,176144,1,2,0:0:0:0:
64,192,176215,1,2,0:0:0:0:
192,192,176215,1,4,0:0:0:0:
448,192,176215,1,0,0:0:0:0:
448,192,176358,1,0,0:0:0:0:
64,192,176501,1,2,0:0:0:0:
192,192,176501,1,0,0:0:0:0:
320,192,176501,1,0,0:0:0:0:
192,192,176644,1,2,0:0:0:0:
320,192,176644,1,0,0:0:0:0:
448,192,176644,1,0,0:0:0:0:
64,192,176930,1,2,0:0:0:0:
320,192,176930,1,0,0:0:0:0:
448,192,177001,1,0,0:0:0:0:
192,192,177073,1,2,0:0:0:0:
320,192,177073,1,0,0:0:0:0:
64,192,177144,1,0,0:0:0:0:
192,192,177215,1,2,0:0:0:0:
448,192,177215,1,0,0:0:0:0:
64,192,177358,1,4,0:0:0:0:
320,192,177358,1,2,0:0:0:0:
448,192,177358,1,0,0:0:0:0:
192,192,177501,1,0,0:0:0:0:
192,192,177644,128,2,177787:0:0:0:0:
320,192,177644,1,0,0:0:0:0:
448,192,177644,1,0,0:0:0:0:
448,192,177787,128,0,177930:0:0:0:0:
64,192,177930,1,2,0:0:0:0:
192,192,177930,1,0,0:0:0:0:
320,192,177930,1,0,0:0:0:0:
64,192,178073,128,0,178215:0:0:0:0:
192,192,178215,1,2,0:0:0:0:
320,192,178215,1,0,0:0:0:0:
448,192,178215,1,0,0:0:0:0:
320,192,178358,128,0,178501:0:0:0:0:
64,192,178501,1,2,0:0:0:0:
192,192,178501,1,0,0:0:0:0:
448,192,178501,1,0,0:0:0:0:
192,192,178644,128,0,178787:0:0:0:0:
64,192,178787,1,2,0:0:0:0:
320,192,178787,1,0,0:0:0:0:
448,192,178787,1,0,0:0:0:0:
448,192,178930,128,0,179073:0:0:0:0:
64,192,179073,1,2,0:0:0:0:
192,192,179073,1,0,0:0:0:0:
320,192,179073,1,0,0:0:0:0:
64,192,179215,1,2,0:0:0:0:
320,192,179215,1,0,0:0:0:0:
448,192,179215,1,0,0:0:0:0:
192,192,179358,1,0,0:0:0:0:
320,192,179394,1,0,0:0:0:0:
448,192,179430,1,0,0:0:0:0:
64,192,179465,1,0,0:0:0:0:
192,192,179501,1,2,0:0:0:0:
320,192,179501,1,0,0:0:0:0:
448,192,179501,1,0,0:0:0:0:
64,192,179644,1,2,0:0:0:0:
192,192,179644,1,0,0:0:0:0:
320,192,179644,1,0,0:0:0:0:
192,192,179787,1,2,0:0:0:0:
320,192,179787,1,0,0:0:0:0:
448,192,179787,1,0,0:0:0:0:
64,192,179930,1,4,0:0:0:0:
192,192,179930,1,2,0:0:0:0:
320,192,179930,128,0,180073:0:0:0:0:
64,192,180073,128,0,180215:0:0:0:0:
192,192,180215,1,2,0:0:0:0:
320,192,180215,1,0,0:0:0:0:
448,192,180215,1,0,0:0:0:0:
448,192,180358,128,0,180501:0:0:0:0:
64,192,180501,1,2,0:0:0:0:
192,192,180501,1,0,0:0:0:0:
320,192,180501,1,0,0:0:0:0:
192,192,180644,128,0,180787:0:0:0:0:
64,192,180787,1,2,0:0:0:0:
320,192,180787,1,0,0:0:0:0:
448,192,180787,1,0,0:0:0:0:
64,192,180930,1,2,0:0:0:0:
192,192,180930,1,0,0:0:0:0:
448,192,180930,1,0,0:0:0:0:
64,192,181073,1,2,0:0:0:0:
320,192,181073,1,0,0:0:0:0:
448,192,181073,1,0,0:0:0:0:
192,192,181215,1,0,0:0:0:0:
320,192,181287,1,2,0:0:0:0:
448,192,181287,1,0,0:0:0:0:
64,192,181358,1,4,0:0:0:0:
192,192,181358,1,2,0:0:0:0:
320,192,181358,1,0,0:0:0:0:
64,192,181573,1,4,0:0:0:0:
192,192,181573,1,2,0:0:0:0:
320,192,181573,1,0,0:0:0:0:
64,192,181787,1,2,0:0:0:0:
192,192,181787,1,4,0:0:0:0:
320,192,181787,1,0,0:0:0:0:
64,192,181930,128,4,182215:0:0:0:0:
320,192,181930,1,2,0:0:0:0:
448,192,181930,1,0,0:0:0:0:
448,192,182215,128,0,182501:0:0:0:0:
192,192,182501,128,0,182787:0:0:0:0:
320,192,182787,128,0,183073:0:0:0:0:
64,192,183073,128,0,183358:0:0:0:0:
448,192,183073,128,0,183644:0:0:0:0:
192,192,183358,128,0,183644:0:0:0:0:
320,192,183644,128,0,183930:0:0:0:0:
64,192,183930,128,0,184215:0:0:0:0:
320,192,184215,128,0,184787:0:0:0:0:
448,192,184215,128,0,184501:0:0:0:0:
192,192,184501,128,0,184787:0:0:0:0:
64,192,184787,128,0,185073:0:0:0:0:
320,192,185073,128,0,185358:0:0:0:0:
64,192,185358,128,0,185930:0:0:0:0:
448,192,185358,128,0,185644:0:0:0:0:
192,192,185644,128,0,185930:0:0:0:0:
320,192,185930,128,0,186215:0:0:0:0:
64,192,186215,128,0,186501:0:0:0:0:
320,192,186501,128,0,186930:0:0:0:0:
448,192,186501,128,0,186787:0:0:0:0:
64,192,186787,128,0,187073:0:0:0:0:
192,192,187073,128,0,187501:0:0:0:0:
320,192,187073,128,0,187358:0:0:0:0:
448,192,187358,128,0,187644:0:0:0:0:
64,192,187644,128,0,188073:0:0:0:0:
192,192,187644,128,0,187930:0:0:0:0:
320,192,187930,1,0,0:0:0:0:
192,192,188215,1,0,0:0:0:0:
320,192,188215,128,0,188644:0:0:0:0:
448,192,188287,1,0,0:0:0:0:
192,192,188358,1,0,0:0:0:0:
448,192,188430,1,0,0:0:0:0:
192,192,188501,1,0,0:0:0:0:
448,192,188573,1,0,0:0:0:0:
192,192,188644,1,0,0:0:0:0:
448,192,188715,1,0,0:0:0:0:
64,192,188787,128,8,189215:0:0:0:0:
192,192,188787,1,2,0:0:0:0:
320,192,188787,1,0,0:0:0:0:
448,192,188930,1,0,0:0:0:0:
192,192,189073,1,8,0:0:0:0:
448,192,189073,1,0,0:0:0:0:
320,192,189215,1,0,0:0:0:0:
64,192,189358,1,8,0:0:0:0:
320,192,189358,128,0,189501:0:0:0:0:
192,192,189501,1,0,0:0:0:0:
448,192,189573,1,0,0:0:0:0:
64,192,189644,1,8,0:0:0:0:
192,192,189644,128,0,189787:0:0:0:0:
448,192,189787,1,0,0:0:0:0:
320,192,189930,1,8,0:0:0:0:
448,192,189930,128,0,191073:0:0:0:0:
192,192,190073,1,0,0:0:0:0:
64,192,190215,1,8,0:0:0:0:
192,192,190215,1,0,0:0:0:0:
320,192,190358,1,0,0:0:0:0:
192,192,190501,1,8,0:0:0:0:
320,192,190501,1,0,0:0:0:0:
64,192,190644,1,0,0:0:0:0:
64,192,190787,1,8,0:0:0:0:
320,192,190787,1,0,0:0:0:0:
192,192,190930,1,0,0:0:0:0:
64,192,191073,1,8,0:0:0:0:
192,192,191073,1,2,0:0:0:0:
320,192,191073,1,4,0:0:0:0:
64,192,191215,1,8,0:0:0:0:
320,192,191215,1,0,0:0:0:0:
192,192,191358,1,8,0:0:0:0:
448,192,191358,1,0,0:0:0:0:
64,192,191501,1,8,0:0:0:0:
320,192,191501,1,0,0:0:0:0:
192,192,191644,1,8,0:0:0:0:
320,192,191644,1,2,0:0:0:0:
448,192,191644,1,4,0:0:0:0:
64,192,191787,1,8,0:0:0:0:
192,192,191787,1,0,0:0:0:0:
448,192,191787,1,0,0:0:0:0:
64,192,191930,1,8,0:0:0:0:
320,192,191930,1,0,0:0:0:0:
320,192,192073,1,8,0:0:0:0:
448,192,192073,1,0,0:0:0:0:
64,192,192215,1,10,0:0:0:0:
192,192,192215,1,4,0:0:0:0:
64,192,192311,1,8,0:0:0:0:
192,192,192311,1,2,0:0:0:0:
320,192,192406,1,8,0:0:0:0:
448,192,192406,1,2,0:0:0:0:
320,192,192501,1,10,0:0:0:0:
448,192,192501,1,4,0:0:0:0:
64,192,192596,1,8,0:0:0:0:
192,192,192596,1,2,0:0:0:0:
64,192,192692,1,8,0:0:0:0:
192,192,192692,1,2,0:0:0:0:
64,192,192787,1,2,0:0:0:0:
320,192,192787,1,4,0:0:0:0:
448,192,192787,1,8,0:0:0:0:
64,192,193073,128,2,193358:0:0:0:0:
320,192,193073,1,0,0:0:0:0:
448,192,193144,1,2,0:0:0:0:
320,192,193215,1,2,0:0:0:0:
448,192,193287,1,2,0:0:0:0:
192,192,193358,1,4,0:0:0:0:
320,192,193358,1,2,0:0:0:0:
448,192,193430,1,0,0:0:0:0:
64,192,193501,1,0,0:0:0:0:
320,192,193573,1,0,0:0:0:0:
64,192,193644,1,2,0:0:0:0:
192,192,193644,1,8,0:0:0:0:
448,192,193644,1,0,0:0:0:0:
320,192,193715,1,0,0:0:0:0:
64,192,193787,1,0,0:0:0:0:
192,192,193787,1,0,0:0:0:0:
320,192,193858,1,0,0:0:0:0:
448,192,193930,1,2,0:0:0:0:
192,192,194001,1,0,0:0:0:0:
64,192,194073,1,0,0:0:0:0:
448,192,194073,1,0,0:0:0:0:
320,192,194144,1,0,0:0:0:0:
64,192,194215,1,10,0:0:0:0:
192,192,194287,1,0,0:0:0:0:
320,192,194358,1,0,0:0:0:0:
448,192,194358,1,0,0:0:0:0:
192,192,194430,1,0,0:0:0:0:
64,192,194501,1,2,0:0:0:0:
320,192,194501,1,0,0:0:0:0:
448,192,194573,1,0,0:0:0:0:
192,192,194644,1,0,0:0:0:0:
64,192,194715,1,0,0:0:0:0:
192,192,194787,1,2,0:0:0:0:
320,192,194787,1,8,0:0:0:0:
448,192,194787,1,0,0:0:0:0:
64,192,194858,1,0,0:0:0:0:
320,192,194930,1,0,0:0:0:0:
448,192,194930,1,0,0:0:0:0:
192,192,195001,1,0,0:0:0:0:
320,192,195073,1,2,0:0:0:0:
64,192,195144,1,0,0:0:0:0:
192,192,195215,1,0,0:0:0:0:
448,192,195215,1,0,0:0:0:0:
320,192,195287,1,0,0:0:0:0:
64,192,195358,1,10,0:0:0:0:
192,192,195430,1,0,0:0:0:0:
320,192,195501,1,0,0:0:0:0:
448,192,195501,1,0,0:0:0:0:
64,192,195573,1,0,0:0:0:0:
192,192,195644,1,2,0:0:0:0:
448,192,195644,1,0,0:0:0:0:
64,192,195715,1,0,0:0:0:0:
320,192,195787,1,0,0:0:0:0:
448,192,195858,1,0,0:0:0:0:
64,192,195930,1,2,0:0:0:0:
192,192,195930,1,8,0:0:0:0:
320,192,195930,1,0,0:0:0:0:
448,192,196001,1,0,0:0:0:0:
64,192,196073,1,0,0:0:0:0:
192,192,196073,1,0,0:0:0:0:
448,192,196144,1,0,0:0:0:0:
320,192,196215,1,2,0:0:0:0:
192,192,196287,1,0,0:0:0:0:
64,192,196358,1,0,0:0:0:0:
320,192,196358,1,0,0:0:0:0:
448,192,196430,1,0,0:0:0:0:
64,192,196501,1,10,0:0:0:0:
192,192,196573,1,0,0:0:0:0:
320,192,196644,1,0,0:0:0:0:
448,192,196644,1,0,0:0:0:0:
192,192,196715,1,0,0:0:0:0:
64,192,196787,1,2,0:0:0:0:
448,192,196787,1,0,0:0:0:0:
320,192,196858,1,0,0:0:0:0:
192,192,196930,1,0,0:0:0:0:
64,192,197001,1,0,0:0:0:0:
192,192,197073,1,2,0:0:0:0:
320,192,197073,1,8,0:0:0:0:
448,192,197073,1,0,0:0:0:0:
64,192,197144,1,0,0:0:0:0:
320,192,197215,1,0,0:0:0:0:
448,192,197215,1,0,0:0:0:0:
192,192,197287,1,0,0:0:0:0:
448,192,197358,1,2,0:0:0:0:
64,192,197430,1,0,0:0:0:0:
192,192,197501,1,0,0:0:0:0:
320,192,197501,1,0,0:0:0:0:
448,192,197573,1,0,0:0:0:0:
64,192,197644,1,10,0:0:0:0:
320,192,197715,1,0,0:0:0:0:
192,192,197787,1,0,0:0:0:0:
448,192,197787,1,0,0:0:0:0:
64,192,197858,1,0,0:0:0:0:
320,192,197930,1,2,0:0:0:0:
448,192,197930,1,0,0:0:0:0:
64,192,198073,1,0,0:0:0:0:
192,192,198073,1,0,0:0:0:0:
320,192,198144,1,0,0:0:0:0:
64,192,198215,1,2,0:0:0:0:
192,192,198215,1,8,0:0:0:0:
448,192,198215,1,0,0:0:0:0:
320,192,198287,1,0,0:0:0:0:
64,192,198358,1,0,0:0:0:0:
448,192,198358,1,0,0:0:0:0:
64,192,198501,1,2,0:0:0:0:
192,192,198501,1,0,0:0:0:0:
320,192,198644,1,0,0:0:0:0:
448,192,198644,1,0,0:0:0:0:
192,192,198715,1,0,0:0:0:0:
64,192,198787,1,2,0:0:0:0:
320,192,198787,1,8,0:0:0:0:
448,192,198787,1,0,0:0:0:0:
192,192,198858,1,0,0:0:0:0:
64,192,198930,1,0,0:0:0:0:
448,192,198930,1,0,0:0:0:0:
192,192,199073,1,2,0:0:0:0:
448,192,199073,128,0,199358:0:0:0:0:
192,192,199215,128,0,199501:0:0:0:0:
320,192,199215,1,0,0:0:0:0:
64,192,199358,1,2,0:0:0:0:
320,192,199358,128,8,199501:0:0:0:0:
64,192,199501,128,0,199644:0:0:0:0:
320,192,199644,128,2,199715:0:0:0:0:
448,192,199644,128,0,199715:0:0:0:0:
192,192,199787,128,0,199858:0:0:0:0:
320,192,199787,128,0,199858:0:0:0:0:
64,192,199930,128,2,200001:0:0:0:0:
192,192,199930,128,8,200001:0:0:0:0:
64,192,200073,128,0,200144:0:0:0:0:
320,192,200073,128,0,200144:0:0:0:0:
448,192,200215,1,0,0:0:0:0:
192,192,200287,1,0,0:0:0:0:
448,192,200358,1,0,0:0:0:0:
192,192,200430,1,0,0:0:0:0:
64,192,200501,128,2,200787:0:0:0:0:
320,192,200501,128,4,200644:0:0:0:0:
448,192,200501,128,0,200644:0:0:0:0:
192,192,200644,1,0,0:0:0:0:
320,192,200787,1,0,0:0:0:0:
448,192,200858,1,0,0:0:0:0:
64,192,200930,1,0,0:0:0:0:
192,192,201001,1,0,0:0:0:0:
64,192,201073,128,4,201358:0:0:0:0:
320,192,201073,128,2,201215:0:0:0:0:
448,192,201073,128,0,201215:0:0:0:0:
192,192,201215,1,0,0:0:0:0:
192,192,201358,128,2,201465:0:0:0:0:
320,192,201358,128,4,201430:0:0:0:0:
448,192,201358,128,0,201501:0:0:0:0:
64,192,201644,128,4,201739:0:0:0:0:
192,192,201644,128,2,201715:0:0:0:0:
320,192,201644,128,0,201715:0:0:0:0:
192,192,201787,128,2,201894:0:0:0:0:
320,192,201787,128,4,201858:0:0:0:0:
448,192,201787,128,0,201930:0:0:0:0:
64,192,202073,128,4,202501:0:0:0:0:
192,192,202073,128,2,202501:0:0:0:0:
320,192,202073,128,0,202358:0:0:0:0:
320,192,202501,128,2,202715:0:0:0:0:
448,192,202501,128,4,202787:0:0:0:0:
64,192,202787,1,0,0:0:0:0:
64,192,202930,128,0,203215:0:0:0:0:
448,192,203215,128,0,203358:0:0:0:0:
192,192,203501,128,0,204358:0:0:0:0:
64,192,203644,1,2,0:0:0:0:
320,192,203644,1,4,0:0:0:0:
448,192,203644,1,0,0:0:0:0:
64,192,203930,1,2,0:0:0:0:
320,192,203930,1,4,0:0:0:0:
448,192,203930,1,0,0:0:0:0:
64,192,204073,1,2,0:0:0:0:
320,192,204073,1,4,0:0:0:0:
448,192,204073,1,0,0:0:0:0:
64,192,204358,1,2,0:0:0:0:
320,192,204358,1,4,0:0:0:0:
448,192,204358,1,0,0:0:0:0:
64,192,204501,1,2,0:0:0:0:
448,192,204501,1,0,0:0:0:0:
192,192,204573,1,2,0:0:0:0:
320,192,204573,1,0,0:0:0:0:
64,192,204644,1,2,0:0:0:0:
448,192,204644,1,0,0:0:0:0:
192,192,204715,1,2,0:0:0:0:
320,192,204715,1,0,0:0:0:0:
64,192,204787,1,2,0:0:0:0:
448,192,204787,1,0,0:0:0:0:
192,192,204930,1,2,0:0:0:0:
320,192,204930,1,0,0:0:0:0:
64,192,205073,1,4,0:0:0:0:
192,192,205073,1,8,0:0:0:0:
448,192,205073,1,2,0:0:0:0:
320,192,205144,1,0,0:0:0:0:
64,192,205215,1,0,0:0:0:0:
192,192,205215,1,0,0:0:0:0:
448,192,205287,1,0,0:0:0:0:
320,192,205358,1,2,0:0:0:0:
64,192,205430,1,0,0:0:0:0:
192,192,205501,1,0,0:0:0:0:
320,192,205501,1,0,0:0:0:0:
448,192,205573,1,0,0:0:0:0:
192,192,205644,1,10,0:0:0:0:
64,192,205715,1,0,0:0:0:0:
320,192,205787,1,0,0:0:0:0:
448,192,205787,1,0,0:0:0:0:
64,192,205858,1,0,0:0:0:0:
192,192,205930,1,2,0:0:0:0:
448,192,205930,1,0,0:0:0:0:
320,192,206001,1,0,0:0:0:0:
64,192,206073,1,0,0:0:0:0:
192,192,206144,1,0,0:0:0:0:
64,192,206215,1,8,0:0:0:0:
320,192,206215,1,2,0:0:0:0:
448,192,206215,1,0,0:0:0:0:
192,192,206287,1,0,0:0:0:0:
320,192,206358,1,0,0:0:0:0:
448,192,206358,1,0,0:0:0:0:
64,192,206430,1,0,0:0:0:0:
320,192,206501,1,2,0:0:0:0:
192,192,206573,1,0,0:0:0:0:
64,192,206644,1,0,0:0:0:0:
448,192,206644,1,0,0:0:0:0:
320,192,206715,1,0,0:0:0:0:
192,192,206787,1,10,0:0:0:0:
448,192,206858,1,0,0:0:0:0:
64,192,206930,1,0,0:0:0:0:
320,192,206930,1,0,0:0:0:0:
192,192,207001,1,0,0:0:0:0:
64,192,207073,1,2,0:0:0:0:
320,192,207073,128,4,207215:0:0:0:0:
448,192,207073,128,0,207215:0:0:0:0:
192,192,207215,1,0,0:0:0:0:
192,192,207358,1,0,0:0:0:0:
448,192,207358,1,0,0:0:0:0:
320,192,207430,1,0,0:0:0:0:
64,192,207501,1,0,0:0:0:0:
448,192,207501,1,0,0:0:0:0:
192,192,207573,1,0,0:0:0:0:
64,192,207644,128,2,207787:0:0:0:0:
320,192,207644,1,4,0:0:0:0:
448,192,207644,128,0,207787:0:0:0:0:
192,192,207787,1,0,0:0:0:0:
320,192,207858,1,0,0:0:0:0:
64,192,207930,1,0,0:0:0:0:
192,192,207930,1,0,0:0:0:0:
320,192,208001,1,0,0:0:0:0:
448,192,208001,1,0,0:0:0:0:
64,192,208073,1,0,0:0:0:0:
192,192,208073,1,0,0:0:0:0:
320,192,208144,1,0,0:0:0:0:
64,192,208215,128,2,208358:0:0:0:0:
192,192,208215,128,4,208501:0:0:0:0:
448,192,208215,1,0,0:0:0:0:
320,192,208358,128,4,208501:0:0:0:0:
448,192,208358,128,2,208501:0:0:0:0:
64,192,208644,128,4,209358:0:0:0:0:
320,192,208644,128,2,209073:0:0:0:0:
448,192,208644,128,0,209073:0:0:0:0:
192,192,209073,128,0,209358:0:0:0:0:
320,192,209215,1,0,0:0:0:0:
320,192,209358,128,4,210501:0:0:0:0:
448,192,209358,1,2,0:0:0:0:
64,192,209501,1,0,0:0:0:0:
64,192,209644,1,8,0:0:0:0:
448,192,209644,1,2,0:0:0:0:
192,192,209787,1,0,0:0:0:0:
192,192,209930,1,2,0:0:0:0:
448,192,209930,1,0,0:0:0:0:
64,192,210001,1,0,0:0:0:0:
448,192,210073,1,0,0:0:0:0:
192,192,210144,1,0,0:0:0:0:
64,192,210215,1,8,0:0:0:0:
448,192,210215,1,2,0:0:0:0:
192,192,210358,1,0,0:0:0:0:
192,192,210501,128,2,211644:0:0:0:0:
448,192,210501,1,0,0:0:0:0:
320,192,210644,1,0,0:0:0:0:
64,192,210787,128,8,210930:0:0:0:0:
448,192,210787,128,2,210930:0:0:0:0:
320,192,210930,1,0,0:0:0:0:
64,192,211073,1,2,0:0:0:0:
320,192,211073,1,0,0:0:0:0:
448,192,211144,1,0,0:0:0:0:
64,192,211215,1,0,0:0:0:0:
320,192,211287,1,0,0:0:0:0:
64,192,211358,128,8,211501:0:0:0:0:
448,192,211358,128,2,211501:0:0:0:0:
320,192,211501,1,0,0:0:0:0:
64,192,211644,1,2,0:0:0:0:
448,192,211644,128,0,212787:0:0:0:0:
320,192,211787,1,0,0:0:0:0:
192,192,211930,1,2,0:0:0:0:
320,192,211930,1,8,0:0:0:0:
64,192,212073,1,0,0:0:0:0:
64,192,212215,1,2,0:0:0:0:
320,192,212215,1,0,0:0:0:0:
192,192,212287,1,0,0:0:0:0:
320,192,212358,1,0,0:0:0:0:
64,192,212430,1,0,0:0:0:0:
192,192,212501,1,2,0:0:0:0:
320,192,212501,1,8,0:0:0:0:
64,192,212644,1,0,0:0:0:0:
64,192,212787,1,2,0:0:0:0:
320,192,212787,128,0,213358:0:0:0:0:
192,192,212930,1,0,0:0:0:0:
64,192,213073,128,8,213215:0:0:0:0:
448,192,213073,128,2,213215:0:0:0:0:
192,192,213215,1,0,0:0:0:0:
64,192,213358,1,2,0:0:0:0:
192,192,213358,1,0,0:0:0:0:
320,192,213430,1,2,0:0:0:0:
448,192,213430,1,0,0:0:0:0:
64,192,213501,1,0,0:0:0:0:
192,192,213573,1,2,0:0:0:0:
320,192,213573,1,0,0:0:0:0:
64,192,213644,128,8,213787:0:0:0:0:
448,192,213644,128,2,213787:0:0:0:0:
320,192,213787,1,2,0:0:0:0:
192,192,213823,1,2,0:0:0:0:
64,192,213858,1,2,0:0:0:0:
448,192,213894,1,2,0:0:0:0:
192,192,213930,1,4,0:0:0:0:
320,192,213930,1,2,0:0:0:0:
192,192,214073,1,2,0:0:0:0:
448,192,214073,1,4,0:0:0:0:
320,192,214215,1,4,0:0:0:0:
448,192,214215,1,2,0:0:0:0:
192,192,214358,1,2,0:0:0:0:
320,192,214394,1,2,0:0:0:0:
448,192,214430,1,2,0:0:0:0:
64,192,214465,1,2,0:0:0:0:
192,192,214501,1,4,0:0:0:0:
320,192,214501,1,2,0:0:0:0:
64,192,214644,1,4,0:0:0:0:
320,192,214644,1,2,0:0:0:0:
64,192,214787,1,2,0:0:0:0:
192,192,214787,1,4,0:0:0:0:
448,192,214930,1,2,0:0:0:0:
320,192,214965,1,2,0:0:0:0:
192,192,215001,1,2,0:0:0:0:
64,192,215037,1,2,0:0:0:0:
320,192,215073,1,6,0:0:0:0:
192,192,215144,1,2,0:0:0:0:
64,192,215215,1,2,0:0:0:0:
448,192,215251,1,2,0:0:0:0:
320,192,215287,1,2,0:0:0:0:
192,192,215323,1,2,0:0:0:0:
64,192,215358,1,4,0:0:0:0:
448,192,215358,1,2,0:0:0:0:
320,192,215430,1,2,0:0:0:0:
64,192,215501,1,2,0:0:0:0:
192,192,215537,1,2,0:0:0:0:
320,192,215573,1,2,0:0:0:0:
448,192,215608,1,2,0:0:0:0:
192,192,215644,1,6,0:0:0:0:
320,192,215715,1,2,0:0:0:0:
448,192,215787,1,2,0:0:0:0:
64,192,215823,1,2,0:0:0:0:
192,192,215858,1,2,0:0:0:0:
320,192,215894,1,2,0:0:0:0:
64,192,215930,1,4,0:0:0:0:
448,192,215930,1,2,0:0:0:0:
192,192,216001,1,2,0:0:0:0:
448,192,216073,1,2,0:0:0:0:
320,192,216108,1,2,0:0:0:0:
192,192,216144,1,2,0:0:0:0:
64,192,216180,1,2,0:0:0:0:
320,192,216215,1,6,0:0:0:0:
448,192,216215,128,8,216358:0:0:0:0:
64,192,216358,1,0,0:0:0:0:
192,192,216501,1,8,0:0:0:0:
320,192,216501,128,0,216644:0:0:0:0:
448,192,216644,1,0,0:0:0:0:
64,192,216787,1,8,0:0:0:0:
192,192,216787,128,0,216930:0:0:0:0:
320,192,216930,1,0,0:0:0:0:
64,192,217073,128,8,217215:0:0:0:0:
448,192,217073,1,0,0:0:0:0:
192,192,217215,1,0,0:0:0:0:
320,192,217358,1,8,0:0:0:0:
448,192,217358,128,0,217501:0:0:0:0:
64,192,217501,1,0,0:0:0:0:
192,192,217644,1,8,0:0:0:0:
320,192,217644,128,0,217787:0:0:0:0:
448,192,217787,1,0,0:0:0:0:
64,192,217930,1,8,0:0:0:0:
192,192,217930,128,0,218073:0:0:0:0:
320,192,218073,1,0,0:0:0:0:
64,192,218215,128,8,218358:0:0:0:0:
448,192,218215,1,0,0:0:0:0:
192,192,218358,1,0,0:0:0:0:
320,192,218501,1,8,0:0:0:0:
448,192,218501,128,0,218644:0:0:0:0:
64,192,218644,1,8,0:0:0:0:
192,192,218644,1,0,0:0:0:0:
192,192,218787,128,8,218930:0:0:0:0:
320,192,218787,1,0,0:0:0:0:
64,192,218930,1,8,0:0:0:0:
448,192,218930,1,0,0:0:0:0:
320,192,219073,1,8,0:0:0:0:
448,192,219073,1,0,0:0:0:0:
64,192,219144,1,8,0:0:0:0:
192,192,219144,1,0,0:0:0:0:
320,192,219215,1,8,0:0:0:0:
448,192,219215,1,0,0:0:0:0:
64,192,219287,1,8,0:0:0:0:
192,192,219287,1,0,0:0:0:0:
320,192,219358,1,8,0:0:0:0:
448,192,219358,1,0,0:0:0:0:
64,192,219430,1,8,0:0:0:0:
192,192,219430,1,0,0:0:0:0:
320,192,219501,1,8,0:0:0:0:
448,192,219501,1,0,0:0:0:0:
64,192,219573,1,8,0:0:0:0:
192,192,219573,1,0,0:0:0:0:
320,192,219644,1,0,0:0:0:0:
448,192,219644,1,0,0:0:0:0:
64,192,219787,1,0,0:0:0:0:
448,192,219823,1,0,0:0:0:0:
192,192,219858,1,0,0:0:0:0:
320,192,219894,1,0,0:0:0:0:
64,192,219930,128,0,220073:0:0:0:0:
448,192,219930,128,0,220073:0:0:0:0:
192,192,220073,1,0,0:0:0:0:
64,192,220215,128,0,220358:0:0:0:0:
448,192,220215,128,0,220358:0:0:0:0:
320,192,220358,1,0,0:0:0:0:
64,192,220501,128,0,220644:0:0:0:0:
448,192,220501,128,0,220644:0:0:0:0:
192,192,220644,1,0,0:0:0:0:
64,192,220787,1,4,0:0:0:0:
320,192,220787,1,2,0:0:0:0:
448,192,220787,1,0,0:0:0:0:
320,192,220930,1,0,0:0:0:0:
192,192,221073,1,0,0:0:0:0:
448,192,221073,1,0,0:0:0:0:
192,192,221215,1,0,0:0:0:0:
64,192,221358,1,0,0:0:0:0:
320,192,221430,1,0,0:0:0:0:
64,192,221501,1,0,0:0:0:0:
192,192,221573,1,0,0:0:0:0:
320,192,221644,1,0,0:0:0:0:
448,192,221644,1,0,0:0:0:0:
320,192,221787,1,0,0:0:0:0:
64,192,221930,1,0,0:0:0:0:
192,192,221930,1,0,0:0:0:0:
192,192,222073,1,0,0:0:0:0:
320,192,222073,1,0,0:0:0:0:
448,192,222073,1,0,0:0:0:0:
64,192,222215,1,0,0:0:0:0:
320,192,222215,1,0,0:0:0:0:
192,192,222358,1,0,0:0:0:0:
448,192,222358,1,0,0:0:0:0:
64,192,222501,1,0,0:0:0:0:
448,192,222501,1,0,0:0:0:0:
320,192,222549,1,0,0:0:0:0:
192,192,222596,1,0,0:0:0:0:
64,192,222644,1,0,0:0:0:0:
448,192,222692,1,0,0:0:0:0:
320,192,222739,1,0,0:0:0:0:
64,192,222787,1,0,0:0:0:0:
192,192,222787,1,0,0:0:0:0:
320,192,222858,1,0,0:0:0:0:
448,192,222858,1,0,0:0:0:0:
64,192,222930,1,0,0:0:0:0:
192,192,222930,1,0,0:0:0:0:
320,192,223001,1,0,0:0:0:0:
64,192,223073,128,2,223644:0:0:0:0:
192,192,223073,1,4,0:0:0:0:
448,192,223073,1,0,0:0:0:0:
320,192,223215,1,0,0:0:0:0:
192,192,223358,1,2,0:0:0:0:
320,192,223358,1,0,0:0:0:0:
448,192,223358,1,0,0:0:0:0:
192,192,223501,1,0,0:0:0:0:
320,192,223644,128,2,224215:0:0:0:0:
448,192,223644,1,0,0:0:0:0:
192,192,223787,1,0,0:0:0:0:
64,192,223930,1,2,0:0:0:0:
192,192,223930,1,0,0:0:0:0:
448,192,223930,1,0,0:0:0:0:
448,192,224073,1,0,0:0:0:0:
64,192,224215,128,2,224501:0:0:0:0:
192,192,224215,1,0,0:0:0:0:
448,192,224358,1,0,0:0:0:0:
192,192,224501,1,2,0:0:0:0:
320,192,224501,1,0,0:0:0:0:
448,192,224501,128,0,224787:0:0:0:0:
64,192,224644,1,0,0:0:0:0:
192,192,224787,128,2,225073:0:0:0:0:
320,192,224787,1,0,0:0:0:0:
64,192,224930,1,0,0:0:0:0:
64,192,225073,1,2,0:0:0:0:
320,192,225073,128,0,225358:0:0:0:0:
448,192,225073,1,0,0:0:0:0:
448,192,225215,1,0,0:0:0:0:
64,192,225358,128,2,227644:0:0:0:0:
192,192,225358,128,0,225501:0:0:0:0:
448,192,225501,1,0,0:0:0:0:
192,192,225644,1,2,0:0:0:0:
320,192,225644,1,0,0:0:0:0:
448,192,225644,1,0,0:0:0:0:
192,192,225787,1,0,0:0:0:0:
320,192,225930,128,2,226073:0:0:0:0:
448,192,225930,1,0,0:0:0:0:
192,192,226073,1,0,0:0:0:0:
192,192,226215,1,2,0:0:0:0:
320,192,226215,1,0,0:0:0:0:
448,192,226215,1,0,0:0:0:0:
320,192,226358,1,0,0:0:0:0:
192,192,226501,1,2,0:0:0:0:
448,192,226501,128,0,226644:0:0:0:0:
320,192,226644,1,0,0:0:0:0:
192,192,226787,128,2,226930:0:0:0:0:
320,192,226787,1,0,0:0:0:0:
448,192,226787,1,0,0:0:0:0:
448,192,226930,1,0,0:0:0:0:
192,192,227073,1,2,0:0:0:0:
320,192,227073,128,0,227215:0:0:0:0:
448,192,227215,1,0,0:0:0:0:
192,192,227358,1,2,0:0:0:0:
320,192,227358,1,0,0:0:0:0:
448,192,227358,128,0,227501:0:0:0:0:
320,192,227501,1,0,0:0:0:0:
192,192,227644,128,2,228215:0:0:0:0:
448,192,227644,1,0,0:0:0:0:
320,192,227787,1,0,0:0:0:0:
64,192,227930,1,2,0:0:0:0:
320,192,227930,1,0,0:0:0:0:
448,192,227930,1,0,0:0:0:0:
64,192,228073,1,0,0:0:0:0:
320,192,228215,128,2,228787:0:0:0:0:
448,192,228215,1,0,0:0:0:0:
64,192,228358,1,0,0:0:0:0:
64,192,228501,1,2,0:0:0:0:
192,192,228501,1,0,0:0:0:0:
448,192,228501,1,0,0:0:0:0:
448,192,228644,1,0,0:0:0:0:
64,192,228787,128,2,229073:0:0:0:0:
192,192,228787,1,0,0:0:0:0:
448,192,228930,1,0,0:0:0:0:
192,192,229073,1,2,0:0:0:0:
320,192,229073,1,0,0:0:0:0:
448,192,229073,128,0,229358:0:0:0:0:
64,192,229215,1,0,0:0:0:0:
192,192,229358,128,2,229644:0:0:0:0:
320,192,229358,1,0,0:0:0:0:
64,192,229501,1,0,0:0:0:0:
64,192,229644,1,2,0:0:0:0:
320,192,229644,128,0,229930:0:0:0:0:
448,192,229644,1,0,0:0:0:0:
192,192,229787,1,0,0:0:0:0:
64,192,229930,1,2,0:0:0:0:
448,192,229930,128,0,231073:0:0:0:0:
320,192,230073,1,0,0:0:0:0:
64,192,230215,1,2,0:0:0:0:
192,192,230215,1,0,0:0:0:0:
320,192,230215,1,0,0:0:0:0:
192,192,230358,1,0,0:0:0:0:
64,192,230501,1,2,0:0:0:0:
320,192,230501,1,0,0:0:0:0:
192,192,230644,1,0,0:0:0:0:
64,192,230787,1,2,0:0:0:0:
192,192,230787,1,0,0:0:0:0:
320,192,230787,1,0,0:0:0:0:
320,192,230930,1,0,0:0:0:0:
64,192,231073,128,2,231644:0:0:0:0:
192,192,231073,1,0,0:0:0:0:
448,192,231215,1,0,0:0:0:0:
192,192,231358,128,2,231644:0:0:0:0:
448,192,231358,1,0,0:0:0:0:
320,192,231501,1,0,0:0:0:0:
320,192,231644,128,2,232215:0:0:0:0:
448,192,231644,1,0,0:0:0:0:
64,192,231787,1,0,0:0:0:0:
64,192,231930,1,2,0:0:0:0:
448,192,231930,128,0,232215:0:0:0:0:
192,192,232073,1,0,0:0:0:0:
64,192,232215,1,4,0:0:0:0:
192,192,232215,128,2,232787:0:0:0:0:
320,192,232358,1,0,0:0:0:0:
64,192,232501,1,2,0:0:0:0:
320,192,232501,1,0,0:0:0:0:
448,192,232501,1,0,0:0:0:0:
64,192,232644,1,0,0:0:0:0:
320,192,232787,128,2,233358:0:0:0:0:
448,192,232787,1,0,0:0:0:0:
64,192,232930,1,0,0:0:0:0:
64,192,233073,1,2,0:0:0:0:
192,192,233073,1,0,0:0:0:0:
448,192,233073,1,0,0:0:0:0:
448,192,233215,1,0,0:0:0:0:
64,192,233358,1,2,0:0:0:0:
192,192,233358,128,0,233644:0:0:0:0:
448,192,233501,1,0,0:0:0:0:
64,192,233644,1,2,0:0:0:0:
320,192,233644,1,0,0:0:0:0:
448,192,233644,128,0,233930:0:0:0:0:
192,192,233787,1,0,0:0:0:0:
64,192,233930,128,2,234215:0:0:0:0:
320,192,233930,1,0,0:0:0:0:
192,192,234073,1,0,0:0:0:0:
192,192,234215,1,2,0:0:0:0:
320,192,234215,128,0,234501:0:0:0:0:
448,192,234215,1,0,0:0:0:0:
448,192,234358,1,0,0:0:0:0:
64,192,234501,128,2,234644:0:0:0:0:
192,192,234501,128,0,236787:0:0:0:0:
448,192,234644,1,0,0:0:0:0:
64,192,234787,1,2,0:0:0:0:
320,192,234787,1,0,0:0:0:0:
448,192,234787,1,0,0:0:0:0:
64,192,234930,1,0,0:0:0:0:
320,192,235073,128,2,235215:0:0:0:0:
448,192,235073,1,0,0:0:0:0:
64,192,235215,1,0,0:0:0:0:
64,192,235358,1,2,0:0:0:0:
320,192,235358,1,0,0:0:0:0:
448,192,235358,1,0,0:0:0:0:
320,192,235501,1,0,0:0:0:0:
64,192,235644,1,2,0:0:0:0:
448,192,235644,128,0,235787:0:0:0:0:
320,192,235787,1,0,0:0:0:0:
64,192,235930,128,2,236073:0:0:0:0:
320,192,235930,1,0,0:0:0:0:
448,192,235930,1,0,0:0:0:0:
448,192,236073,1,0,0:0:0:0:
64,192,236215,1,2,0:0:0:0:
320,192,236215,128,0,236358:0:0:0:0:
448,192,236358,1,0,0:0:0:0:
64,192,236501,1,2,0:0:0:0:
320,192,236501,1,0,0:0:0:0:
448,192,236501,128,0,236644:0:0:0:0:
320,192,236644,1,0,0:0:0:0:
64,192,236787,128,2,237358:0:0:0:0:
448,192,236787,1,0,0:0:0:0:
320,192,236930,1,0,0:0:0:0:
192,192,237073,1,2,0:0:0:0:
320,192,237073,1,0,0:0:0:0:
448,192,237073,1,0,0:0:0:0:
192,192,237215,1,0,0:0:0:0:
320,192,237358,128,2,237930:0:0:0:0:
448,192,237358,1,0,0:0:0:0:
192,192,237501,1,0,0:0:0:0:
64,192,237644,1,2,0:0:0:0:
192,192,237644,1,0,0:0:0:0:
448,192,237644,1,0,0:0:0:0:
448,192,237787,1,0,0:0:0:0:
64,192,237930,1,2,0:0:0:0:
192,192,237930,128,0,238215:0:0:0:0:
448,192,238073,1,0,0:0:0:0:
64,192,238215,1,2,0:0:0:0:
320,192,238215,1,0,0:0:0:0:
448,192,238215,128,0,238501:0:0:0:0:
192,192,238358,1,0,0:0:0:0:
64,192,238501,128,2,238787:0:0:0:0:
320,192,238501,1,0,0:0:0:0:
192,192,238644,1,0,0:0:0:0:
192,192,238787,128,2,239073:0:0:0:0:
320,192,238787,1,0,0:0:0:0:
448,192,238787,1,0,0:0:0:0:
448,192,238930,1,0,0:0:0:0:
64,192,239073,1,2,0:0:0:0:
320,192,239073,128,0,240215:0:0:0:0:
192,192,239215,1,0,0:0:0:0:
64,192,239358,1,2,0:0:0:0:
192,192,239358,1,0,0:0:0:0:
448,192,239358,1,0,0:0:0:0:
448,192,239501,1,0,0:0:0:0:
64,192,239644,1,2,0:0:0:0:
192,192,239644,1,0,0:0:0:0:
448,192,239787,1,0,0:0:0:0:
64,192,239930,1,2,0:0:0:0:
192,192,239930,1,0,0:0:0:0:
448,192,239930,1,0,0:0:0:0:
192,192,240073,1,0,0:0:0:0:
64,192,240215,1,2,0:0:0:0:
448,192,240215,128,0,241215:0:0:0:0:
192,192,240358,1,0,0:0:0:0:
64,192,240501,1,2,0:0:0:0:
192,192,240501,1,0,0:0:0:0:
320,192,240501,1,0,0:0:0:0:
64,192,240644,1,0,0:0:0:0:
192,192,240787,1,2,0:0:0:0:
320,192,240787,1,0,0:0:0:0:
64,192,240930,1,0,0:0:0:0:
64,192,241073,1,2,0:0:0:0:
192,192,241073,1,0,0:0:0:0:
320,192,241073,1,0,0:0:0:0:
192,192,241215,1,0,0:0:0:0:
64,192,241358,1,2,0:0:0:0:
320,192,241358,1,4,0:0:0:0:
448,192,241358,1,0,0:0:0:0:
64,192,241930,1,4,0:0:0:0:
320,192,241930,1,2,0:0:0:0:
448,192,241930,1,0,0:0:0:0:
64,192,242073,1,0,0:0:0:0:
448,192,242073,1,0,0:0:0:0:
320,192,242501,1,10,0:0:0:0:
448,192,242501,1,4,0:0:0:0:
320,192,242596,1,8,0:0:0:0:
448,192,242596,1,2,0:0:0:0:
64,192,242692,1,8,0:0:0:0:
192,192,242692,1,2,0:0:0:0:
64,192,242787,1,10,0:0:0:0:
192,192,242787,1,4,0:0:0:0:
320,192,242882,1,8,0:0:0:0:
448,192,242882,1,2,0:0:0:0:
320,192,242977,1,8,0:0:0:0:
448,192,242977,1,2,0:0:0:0:
64,192,243073,1,2,0:0:0:0:
192,192,243073,1,4,0:0:0:0:
448,192,243073,1,8,0:0:0:0:
64,192,243358,1,2,0:0:0:0:
192,192,243358,1,0,0:0:0:0:
448,192,243430,1,2,0:0:0:0:
64,192,243501,1,2,0:0:0:0:
320,192,243501,1,0,0:0:0:0:
192,192,243573,1,2,0:0:0:0:
64,192,243644,1,4,0:0:0:0:
320,192,243644,128,2,243858:0:0:0:0:
448,192,243644,128,0,243930:0:0:0:0:
64,192,243930,1,0,0:0:0:0:
64,192,244073,128,0,244358:0:0:0:0:
192,192,244358,128,0,244501:0:0:0:0:
320,192,244644,128,0,245501:0:0:0:0:
64,192,244787,1,2,0:0:0:0:
192,192,244787,1,4,0:0:0:0:
448,192,244787,1,0,0:0:0:0:
64,192,245073,1,4,0:0:0:0:
192,192,245073,1,2,0:0:0:0:
448,192,245073,1,0,0:0:0:0:
64,192,245215,1,2,0:0:0:0:
192,192,245215,1,4,0:0:0:0:
448,192,245215,1,0,0:0:0:0:
64,192,245501,1,4,0:0:0:0:
192,192,245501,1,2,0:0:0:0:
448,192,245501,1,0,0:0:0:0:
320,192,245644,1,2,0:0:0:0:
448,192,245644,1,0,0:0:0:0:
64,192,245715,1,2,0:0:0:0:
192,192,245715,1,0,0:0:0:0:
320,192,245787,1,2,0:0:0:0:
448,192,245787,1,0,0:0:0:0:
192,192,245858,1,2,0:0:0:0:
64,192,245930,1,2,0:0:0:0:
320,192,245930,128,4,246144:0:0:0:0:
448,192,245930,128,0,246215:0:0:0:0:
192,192,246215,1,0,0:0:0:0:
192,192,246358,128,0,246644:0:0:0:0:
320,192,246644,128,0,246787:0:0:0:0:
448,192,246930,128,0,247787:0:0:0:0:
64,192,247073,1,4,0:0:0:0:
192,192,247073,1,2,0:0:0:0:
320,192,247073,1,0,0:0:0:0:
64,192,247358,1,2,0:0:0:0:
192,192,247358,1,4,0:0:0:0:
320,192,247358,1,0,0:0:0:0:
64,192,247501,1,4,0:0:0:0:
192,192,247501,1,2,0:0:0:0:
320,192,247501,1,0,0:0:0:0:
64,192,247787,1,2,0:0:0:0:
192,192,247787,1,4,0:0:0:0:
320,192,247787,1,0,0:0:0:0:
320,192,247930,1,2,0:0:0:0:
448,192,247930,1,0,0:0:0:0:
64,192,248001,1,2,0:0:0:0:
192,192,248001,1,0,0:0:0:0:
320,192,248073,1,2,0:0:0:0:
448,192,248073,1,0,0:0:0:0:
192,192,248144,1,2,0:0:0:0:
64,192,248215,1,2,0:0:0:0:
320,192,248215,1,4,0:0:0:0:
448,192,248215,1,0,0:0:0:0:
192,192,248358,1,0,0:0:0:0:
448,192,248430,1,0,0:0:0:0:
64,192,248501,1,0,0:0:0:0:
192,192,248644,1,0,0:0:0:0:
448,192,248715,1,0,0:0:0:0:
64,192,248787,1,0,0:0:0:0:
320,192,248930,1,0,0:0:0:0:
192,192,249001,1,0,0:0:0:0:
64,192,249073,1,0,0:0:0:0:
320,192,249073,1,0,0:0:0:0:
64,192,249215,1,0,0:0:0:0:
320,192,249287,1,0,0:0:0:0:
192,192,249358,1,0,0:0:0:0:
448,192,249358,1,0,0:0:0:0:
192,192,249501,1,0,0:0:0:0:
320,192,249501,1,0,0:0:0:0:
64,192,249644,1,0,0:0:0:0:
320,192,249644,1,0,0:0:0:0:
64,192,249787,128,0,249930:0:0:0:0:
448,192,249930,128,0,250001:0:0:0:0:
320,192,249930,128,0,250001:0:0:0:0:
320,192,250073,128,0,250144:0:0:0:0:
192,192,250073,128,0,250144:0:0:0:0:
192,192,250215,128,0,250287:0:0:0:0:
64,192,250215,128,0,250287:0:0:0:0:
64,192,250358,128,0,250430:0:0:0:0:
320,192,250358,128,0,250430:0:0:0:0:
448,192,250430,1,0,0:0:0:0:
192,192,250501,1,0,0:0:0:0:
320,192,250573,1,0,0:0:0:0:
448,192,250644,1,0,0:0:0:0:
192,192,250715,1,0,0:0:0:0:
64,192,250787,128,2,251073:0:0:0:0:
320,192,250787,128,4,250930:0:0:0:0:
448,192,250787,128,0,250930:0:0:0:0:
192,192,250930,1,0,0:0:0:0:
320,192,251073,1,0,0:0:0:0:
448,192,251144,1,0,0:0:0:0:
64,192,251215,1,0,0:0:0:0:
192,192,251287,1,0,0:0:0:0:
64,192,251358,128,4,251644:0:0:0:0:
320,192,251358,128,2,251501:0:0:0:0:
448,192,251358,128,0,251501:0:0:0:0:
192,192,251501,1,0,0:0:0:0:
192,192,251644,128,2,251751:0:0:0:0:
320,192,251644,128,4,251715:0:0:0:0:
448,192,251644,128,0,251787:0:0:0:0:
64,192,251930,128,4,252025:0:0:0:0:
192,192,251930,128,2,252001:0:0:0:0:
320,192,251930,128,0,252001:0:0:0:0:
192,192,252073,128,2,252180:0:0:0:0:
320,192,252073,128,4,252144:0:0:0:0:
448,192,252073,128,0,252215:0:0:0:0:
64,192,252358,128,4,252787:0:0:0:0:
192,192,252358,128,2,252787:0:0:0:0:
320,192,252358,128,0,252644:0:0:0:0:
320,192,252787,128,2,253001:0:0:0:0:
448,192,252787,128,4,253073:0:0:0:0:
64,192,253073,1,0,0:0:0:0:
64,192,253215,128,0,253501:0:0:0:0:
320,192,253501,128,0,253644:0:0:0:0:
192,192,253787,128,0,254644:0:0:0:0:
64,192,253930,1,2,0:0:0:0:
320,192,253930,1,4,0:0:0:0:
448,192,253930,1,0,0:0:0:0:
64,192,254215,1,2,0:0:0:0:
320,192,254215,1,4,0:0:0:0:
448,192,254215,1,0,0:0:0:0:
64,192,254358,1,2,0:0:0:0:
320,192,254358,1,4,0:0:0:0:
448,192,254358,1,0,0:0:0:0:
64,192,254644,1,2,0:0:0:0:
320,192,254644,1,4,0:0:0:0:
448,192,254644,1,0,0:0:0:0:
64,192,254787,1,2,0:0:0:0:
448,192,254787,1,0,0:0:0:0:
192,192,254858,1,2,0:0:0:0:
320,192,254858,1,0,0:0:0:0:
64,192,254930,1,2,0:0:0:0:
448,192,254930,1,0,0:0:0:0:
192,192,255001,1,2,0:0:0:0:
320,192,255001,1,0,0:0:0:0:
64,192,255073,1,2,0:0:0:0:
448,192,255073,1,0,0:0:0:0:
192,192,255215,1,2,0:0:0:0:
320,192,255215,1,0,0:0:0:0:
64,192,255358,1,4,0:0:0:0:
320,192,255358,1,8,0:0:0:0:
448,192,255358,1,2,0:0:0:0:
192,192,255430,1,0,0:0:0:0:
320,192,255501,1,0,0:0:0:0:
448,192,255501,1,0,0:0:0:0:
64,192,255573,1,0,0:0:0:0:
192,192,255644,1,2,0:0:0:0:
448,192,255715,1,0,0:0:0:0:
192,192,255787,1,0,0:0:0:0:
320,192,255787,1,0,0:0:0:0:
64,192,255858,1,0,0:0:0:0:
320,192,255930,1,10,0:0:0:0:
448,192,256001,1,0,0:0:0:0:
64,192,256073,1,0,0:0:0:0:
192,192,256073,1,0,0:0:0:0:
448,192,256144,1,0,0:0:0:0:
64,192,256215,1,2,0:0:0:0:
320,192,256215,1,0,0:0:0:0:
192,192,256287,1,0,0:0:0:0:
448,192,256358,1,0,0:0:0:0:
320,192,256430,1,0,0:0:0:0:
64,192,256501,1,8,0:0:0:0:
192,192,256501,1,2,0:0:0:0:
448,192,256501,1,0,0:0:0:0:
320,192,256573,1,0,0:0:0:0:
64,192,256644,1,0,0:0:0:0:
192,192,256644,1,0,0:0:0:0:
448,192,256715,1,0,0:0:0:0:
192,192,256787,1,2,0:0:0:0:
320,192,256858,1,0,0:0:0:0:
64,192,256930,1,0,0:0:0:0:
448,192,256930,1,0,0:0:0:0:
192,192,257001,1,0,0:0:0:0:
320,192,257073,1,10,0:0:0:0:
64,192,257144,1,0,0:0:0:0:
192,192,257215,1,0,0:0:0:0:
448,192,257215,1,0,0:0:0:0:
320,192,257287,1,0,0:0:0:0:
64,192,257358,128,2,257501:0:0:0:0:
192,192,257358,128,4,257501:0:0:0:0:
448,192,257358,1,0,0:0:0:0:
320,192,257501,1,0,0:0:0:0:
64,192,257644,1,0,0:0:0:0:
320,192,257644,1,0,0:0:0:0:
192,192,257715,1,0,0:0:0:0:
64,192,257787,1,0,0:0:0:0:
448,192,257787,1,0,0:0:0:0:
320,192,257858,1,0,0:0:0:0:
64,192,257930,128,2,258073:0:0:0:0:
192,192,257930,1,4,0:0:0:0:
448,192,257930,128,0,258073:0:0:0:0:
320,192,258073,1,0,0:0:0:0:
192,192,258144,1,0,0:0:0:0:
320,192,258215,1,0,0:0:0:0:
448,192,258215,1,0,0:0:0:0:
64,192,258287,1,0,0:0:0:0:
192,192,258287,1,0,0:0:0:0:
320,192,258358,1,0,0:0:0:0:
448,192,258358,1,0,0:0:0:0:
192,192,258430,1,0,0:0:0:0:
64,192,258501,1,2,0:0:0:0:
320,192,258501,128,4,258787:0:0:0:0:
448,192,258501,128,0,258644:0:0:0:0:
64,192,258644,128,4,258787:0:0:0:0:
192,192,258644,128,2,258787:0:0:0:0:
64,192,258930,128,4,259358:0:0:0:0:
192,192,258930,128,2,259358:0:0:0:0:
448,192,258930,128,0,259644:0:0:0:0:
320,192,259358,128,0,259644:0:0:0:0:
192,192,259501,1,0,0:0:0:0:
64,192,259644,1,4,0:0:0:0:
192,192,259644,128,2,260787:0:0:0:0:
448,192,259787,1,0,0:0:0:0:
64,192,259930,1,8,0:0:0:0:
448,192,259930,1,2,0:0:0:0:
320,192,260073,1,0,0:0:0:0:
64,192,260215,1,2,0:0:0:0:
320,192,260215,1,0,0:0:0:0:
448,192,260287,1,0,0:0:0:0:
64,192,260358,1,0,0:0:0:0:
320,192,260430,1,0,0:0:0:0:
64,192,260501,1,8,0:0:0:0:
448,192,260501,1,2,0:0:0:0:
320,192,260644,1,0,0:0:0:0:
64,192,260787,1,2,0:0:0:0:
320,192,260787,128,0,261930:0:0:0:0:
192,192,260930,1,0,0:0:0:0:
64,192,261073,128,8,261215:0:0:0:0:
448,192,261073,128,2,261215:0:0:0:0:
192,192,261215,1,0,0:0:0:0:
192,192,261358,1,2,0:0:0:0:
448,192,261358,1,0,0:0:0:0:
64,192,261430,1,0,0:0:0:0:
448,192,261501,1,0,0:0:0:0:
192,192,261573,1,0,0:0:0:0:
64,192,261644,128,8,261787:0:0:0:0:
448,192,261644,128,2,261787:0:0:0:0:
192,192,261787,1,0,0:0:0:0:
64,192,261930,128,2,263073:0:0:0:0:
448,192,261930,1,0,0:0:0:0:
192,192,262073,1,0,0:0:0:0:
192,192,262215,1,2,0:0:0:0:
320,192,262215,1,8,0:0:0:0:
448,192,262358,1,0,0:0:0:0:
192,192,262501,1,2,0:0:0:0:
448,192,262501,1,0,0:0:0:0:
320,192,262573,1,0,0:0:0:0:
192,192,262644,1,0,0:0:0:0:
448,192,262715,1,0,0:0:0:0:
192,192,262787,1,2,0:0:0:0:
320,192,262787,1,8,0:0:0:0:
448,192,262930,1,0,0:0:0:0:
192,192,263073,128,2,263644:0:0:0:0:
448,192,263073,1,0,0:0:0:0:
320,192,263215,1,0,0:0:0:0:
64,192,263358,128,8,263501:0:0:0:0:
448,192,263358,128,2,263501:0:0:0:0:
320,192,263501,1,0,0:0:0:0:
320,192,263644,1,2,0:0:0:0:
448,192,263644,1,0,0:0:0:0:
64,192,263715,1,2,0:0:0:0:
192,192,263715,1,0,0:0:0:0:
448,192,263787,1,0,0:0:0:0:
192,192,263858,1,2,0:0:0:0:
320,192,263858,1,0,0:0:0:0:
64,192,263930,128,8,264073:0:0:0:0:
448,192,263930,128,2,264073:0:0:0:0:
320,192,264073,1,2,0:0:0:0:
192,192,264108,1,2,0:0:0:0:
64,192,264144,1,2,0:0:0:0:
320,192,264180,1,2,0:0:0:0:
192,192,264215,1,4,0:0:0:0:
448,192,264215,1,2,0:0:0:0:
64,192,264358,1,2,0:0:0:0:
448,192,264358,1,4,0:0:0:0:
64,192,264501,1,4,0:0:0:0:
320,192,264501,1,2,0:0:0:0:
192,192,264644,1,2,0:0:0:0:
320,192,264680,1,2,0:0:0:0:
448,192,264715,1,2,0:0:0:0:
192,192,264751,1,2,0:0:0:0:
64,192,264787,1,4,0:0:0:0:
320,192,264787,1,2,0:0:0:0:
64,192,264930,1,4,0:0:0:0:
448,192,264930,1,2,0:0:0:0:
192,192,265073,1,2,0:0:0:0:
448,192,265073,1,4,0:0:0:0:
320,192,265215,1,2,0:0:0:0:
448,192,265251,1,2,0:0:0:0:
192,192,265287,1,2,0:0:0:0:
64,192,265323,1,2,0:0:0:0:
320,192,265358,1,6,0:0:0:0:
192,192,265430,1,2,0:0:0:0:
64,192,265501,1,2,0:0:0:0:
448,192,265537,1,2,0:0:0:0:
320,192,265573,1,2,0:0:0:0:
192,192,265608,1,2,0:0:0:0:
64,192,265644,1,4,0:0:0:0:
448,192,265644,1,2,0:0:0:0:
320,192,265715,1,2,0:0:0:0:
192,192,265787,1,2,0:0:0:0:
64,192,265823,1,2,0:0:0:0:
320,192,265858,1,2,0:0:0:0:
448,192,265894,1,2,0:0:0:0:
192,192,265930,1,6,0:0:0:0:
320,192,266001,1,2,0:0:0:0:
448,192,266073,1,2,0:0:0:0:
64,192,266108,1,2,0:0:0:0:
192,192,266144,1,2,0:0:0:0:
320,192,266180,1,2,0:0:0:0:
64,192,266215,1,4,0:0:0:0:
448,192,266215,1,2,0:0:0:0:
192,192,266287,1,2,0:0:0:0:
320,192,266358,1,2,0:0:0:0:
448,192,266394,1,2,0:0:0:0:
192,192,266430,1,2,0:0:0:0:
64,192,266465,1,2,0:0:0:0:
320,192,266501,1,6,0:0:0:0:
448,192,266501,128,8,266644:0:0:0:0:
64,192,266644,1,0,0:0:0:0:
192,192,266787,1,8,0:0:0:0:
320,192,266787,128,0,266930:0:0:0:0:
448,192,266930,1,0,0:0:0:0:
64,192,267073,1,8,0:0:0:0:
192,192,267073,128,0,267215:0:0:0:0:
320,192,267215,1,0,0:0:0:0:
64,192,267358,128,8,267501:0:0:0:0:
448,192,267358,1,0,0:0:0:0:
192,192,267501,1,0,0:0:0:0:
320,192,267644,1,8,0:0:0:0:
448,192,267644,128,0,267787:0:0:0:0:
64,192,267787,1,0,0:0:0:0:
192,192,267930,1,8,0:0:0:0:
320,192,267930,128,0,268073:0:0:0:0:
448,192,268073,1,0,0:0:0:0:
64,192,268215,1,8,0:0:0:0:
192,192,268215,128,0,268358:0:0:0:0:
320,192,268358,1,0,0:0:0:0:
64,192,268501,128,8,268644:0:0:0:0:
448,192,268501,1,0,0:0:0:0:
192,192,268644,1,0,0:0:0:0:
320,192,268787,1,8,0:0:0:0:
448,192,268787,128,0,268930:0:0:0:0:
64,192,268930,1,8,0:0:0:0:
192,192,268930,1,0,0:0:0:0:
192,192,269073,128,8,269215:0:0:0:0:
320,192,269073,1,0,0:0:0:0:
64,192,269215,1,8,0:0:0:0:
448,192,269215,1,0,0:0:0:0:
320,192,269358,1,8,0:0:0:0:
448,192,269358,1,0,0:0:0:0:
64,192,269430,1,8,0:0:0:0:
192,192,269430,1,0,0:0:0:0:
320,192,269501,1,8,0:0:0:0:
448,192,269501,1,0,0:0:0:0:
64,192,269573,1,8,0:0:0:0:
192,192,269573,1,0,0:0:0:0:
320,192,269644,1,8,0:0:0:0:
448,192,269644,1,0,0:0:0:0:
64,192,269715,1,8,0:0:0:0:
192,192,269715,1,0,0:0:0:0:
320,192,269787,1,8,0:0:0:0:
448,192,269787,1,0,0:0:0:0:
64,192,269858,1,8,0:0:0:0:
192,192,269858,1,0,0:0:0:0:
320,192,269930,1,0,0:0:0:0:
448,192,269930,1,0,0:0:0:0:
64,192,270073,1,0,0:0:0:0:
448,192,270108,1,0,0:0:0:0:
320,192,270144,1,0,0:0:0:0:
192,192,270180,1,0,0:0:0:0:
64,192,270215,128,2,270358:0:0:0:0:
448,192,270215,128,0,270358:0:0:0:0:
320,192,270358,1,0,0:0:0:0:
64,192,270501,128,0,270644:0:0:0:0:
448,192,270501,128,0,270644:0:0:0:0:
192,192,270644,1,0,0:0:0:0:
64,192,270787,1,2,0:0:0:0:
448,192,270787,1,0,0:0:0:0:
320,192,270823,1,0,0:0:0:0:
192,192,270858,1,0,0:0:0:0:
64,192,270894,1,0,0:0:0:0:
448,192,270930,1,0,0:0:0:0:
320,192,270965,1,0,0:0:0:0:
192,192,271001,1,0,0:0:0:0:
64,192,271037,1,0,0:0:0:0:
320,192,271073,1,4,0:0:0:0:
448,192,271073,128,2,271215:0:0:0:0:
192,192,271215,1,0,0:0:0:0:
320,192,271287,1,0,0:0:0:0:
64,192,271358,1,2,0:0:0:0:
192,192,271358,1,8,0:0:0:0:
448,192,271358,1,0,0:0:0:0:
320,192,271501,1,0,0:0:0:0:
64,192,271573,1,0,0:0:0:0:
320,192,271644,1,2,0:0:0:0:
448,192,271644,128,0,271787:0:0:0:0:
192,192,271787,1,0,0:0:0:0:
320,192,271858,1,0,0:0:0:0:
64,192,271930,1,2,0:0:0:0:
192,192,271930,1,8,0:0:0:0:
448,192,271930,1,0,0:0:0:0:
320,192,272073,1,0,0:0:0:0:
64,192,272144,1,0,0:0:0:0:
320,192,272215,1,2,0:0:0:0:
448,192,272215,128,0,272358:0:0:0:0:
64,192,272358,1,0,0:0:0:0:
320,192,272430,1,0,0:0:0:0:
64,192,272501,1,2,0:0:0:0:
192,192,272501,1,8,0:0:0:0:
448,192,272501,128,0,272644:0:0:0:0:
320,192,272644,1,0,0:0:0:0:
64,192,272715,1,0,0:0:0:0:
320,192,272787,1,2,0:0:0:0:
448,192,272787,128,0,273073:0:0:0:0:
192,192,272930,1,0,0:0:0:0:
64,192,273073,1,2,0:0:0:0:
192,192,273073,1,8,0:0:0:0:
320,192,273073,1,0,0:0:0:0:
320,192,273215,1,0,0:0:0:0:
448,192,273215,1,0,0:0:0:0:
64,192,273358,1,2,0:0:0:0:
192,192,273358,128,0,273501:0:0:0:0:
320,192,273501,1,0,0:0:0:0:
64,192,273573,1,0,0:0:0:0:
192,192,273644,1,2,0:0:0:0:
320,192,273644,1,8,0:0:0:0:
448,192,273644,1,0,0:0:0:0:
64,192,273787,1,0,0:0:0:0:
448,192,273858,1,0,0:0:0:0:
64,192,273930,1,2,0:0:0:0:
192,192,273930,128,0,274073:0:0:0:0:
320,192,274073,1,0,0:0:0:0:
64,192,274144,1,0,0:0:0:0:
192,192,274215,1,2,0:0:0:0:
320,192,274215,1,8,0:0:0:0:
448,192,274215,1,0,0:0:0:0:
64,192,274358,1,0,0:0:0:0:
448,192,274430,1,0,0:0:0:0:
64,192,274501,1,2,0:0:0:0:
192,192,274501,128,0,274644:0:0:0:0:
448,192,274644,1,0,0:0:0:0:
64,192,274715,1,0,0:0:0:0:
192,192,274787,128,2,274930:0:0:0:0:
320,192,274787,1,8,0:0:0:0:
448,192,274787,1,0,0:0:0:0:
64,192,274930,1,0,0:0:0:0:
448,192,275001,1,0,0:0:0:0:
64,192,275073,1,2,0:0:0:0:
192,192,275073,128,0,275215:0:0:0:0:
448,192,275215,1,0,0:0:0:0:
64,192,275287,1,0,0:0:0:0:
192,192,275358,128,2,275501:0:0:0:0:
320,192,275358,1,8,0:0:0:0:
448,192,275358,1,0,0:0:0:0:
64,192,275501,1,0,0:0:0:0:
320,192,275644,128,4,275787:0:0:0:0:
448,192,275644,1,2,0:0:0:0:
64,192,275787,1,0,0:0:0:0:
448,192,275858,1,0,0:0:0:0:
64,192,275930,1,2,0:0:0:0:
192,192,275930,1,8,0:0:0:0:
320,192,275930,1,0,0:0:0:0:
448,192,276073,1,0,0:0:0:0:
192,192,276144,1,0,0:0:0:0:
320,192,276215,128,2,276358:0:0:0:0:
448,192,276215,1,0,0:0:0:0:
64,192,276358,1,0,0:0:0:0:
448,192,276430,1,0,0:0:0:0:
64,192,276501,1,2,0:0:0:0:
192,192,276501,1,8,0:0:0:0:
320,192,276501,1,0,0:0:0:0:
448,192,276644,1,0,0:0:0:0:
192,192,276715,1,0,0:0:0:0:
320,192,276787,128,2,276930:0:0:0:0:
448,192,276787,1,0,0:0:0:0:
192,192,276930,1,0,0:0:0:0:
448,192,277001,1,0,0:0:0:0:
64,192,277073,1,2,0:0:0:0:
192,192,277073,1,8,0:0:0:0:
320,192,277073,128,0,277215:0:0:0:0:
448,192,277215,1,0,0:0:0:0:
192,192,277287,1,0,0:0:0:0:
320,192,277358,128,2,277644:0:0:0:0:
448,192,277358,1,0,0:0:0:0:
64,192,277501,1,0,0:0:0:0:
192,192,277573,1,2,0:0:0:0:
64,192,277644,1,2,0:0:0:0:
448,192,277644,1,8,0:0:0:0:
192,192,277787,1,2,0:0:0:0:
448,192,277823,1,2,0:0:0:0:
320,192,277858,1,2,0:0:0:0:
192,192,277894,1,2,0:0:0:0:
64,192,277930,1,2,0:0:0:0:
448,192,277930,1,4,0:0:0:0:
64,192,278073,1,0,0:0:0:0:
192,192,278215,1,0,0:0:0:0:
320,192,278215,128,0,278358:0:0:0:0:
448,192,278358,1,0,0:0:0:0:
64,192,278501,1,8,0:0:0:0:
192,192,278501,1,0,0:0:0:0:
320,192,278501,1,0,0:0:0:0:
192,192,278644,1,0,0:0:0:0:
64,192,278787,128,0,278930:0:0:0:0:
448,192,278787,1,0,0:0:0:0:
320,192,278930,1,0,0:0:0:0:
192,192,279073,1,2,0:0:0:0:
448,192,279073,1,0,0:0:0:0:
192,192,279215,1,0,0:0:0:0:
64,192,279358,1,0,0:0:0:0:
320,192,279358,128,0,279501:0:0:0:0:
192,192,279501,1,0,0:0:0:0:
64,192,279644,1,8,0:0:0:0:
320,192,279644,1,0,0:0:0:0:
448,192,279644,1,0,0:0:0:0:
320,192,279787,1,0,0:0:0:0:
192,192,279930,1,0,0:0:0:0:
448,192,279930,128,0,280215:0:0:0:0:
192,192,280073,1,0,0:0:0:0:
64,192,280215,1,2,0:0:0:0:
320,192,280215,1,0,0:0:0:0:
192,192,280358,1,0,0:0:0:0:
64,192,280430,1,0,0:0:0:0:
448,192,280430,1,0,0:0:0:0:
320,192,280501,1,0,0:0:0:0:
64,192,280644,1,0,0:0:0:0:
192,192,280787,1,8,0:0:0:0:
320,192,280787,1,0,0:0:0:0:
448,192,280787,1,0,0:0:0:0:
64,192,280858,1,0,0:0:0:0:
320,192,280930,1,0,0:0:0:0:
448,192,281001,1,0,0:0:0:0:
192,192,281073,1,0,0:0:0:0:
320,192,281144,1,0,0:0:0:0:
64,192,281215,1,0,0:0:0:0:
192,192,281287,1,0,0:0:0:0:
64,192,281501,128,2,281644:0:0:0:0:
192,192,281501,128,4,281644:0:0:0:0:
320,192,281501,128,0,281644:0:0:0:0:
192,192,281787,128,2,281858:0:0:0:0:
320,192,281787,128,4,281858:0:0:0:0:
448,192,281787,128,0,281858:0:0:0:0:
64,192,281930,128,2,282501:0:0:0:0:
192,192,281930,128,4,282501:0:0:0:0:
320,192,281930,128,0,282215:0:0:0:0:
448,192,282215,128,2,282501:0:0:0:0:
64,192,282644,128,4,282787:0:0:0:0:
320,192,282644,128,2,282787:0:0:0:0:
448,192,282644,128,0,282787:0:0:0:0:
64,192,282930,128,2,283001:0:0:0:0:
192,192,282930,128,4,283001:0:0:0:0:
448,192,282930,128,0,283001:0:0:0:0:
192,192,283073,128,4,283501:0:0:0:0:
320,192,283073,128,2,283501:0:0:0:0:
448,192,283073,128,0,283358:0:0:0:0:
64,192,283358,128,2,283644:0:0:0:0:
192,192,283644,128,4,284573:0:0:0:0:
320,192,283644,128,2,284644:0:0:0:0:
448,192,283644,128,0,284715:0:0:0:0:
64,192,284787,1,4,0:0:0:0:
192,192,284787,1,0,0:0:0:0:
320,192,284787,1,0,0:0:0:0:
