osu file format v14

[General]
AudioFilename: audio.mp3
AudioLeadIn: 0
PreviewTime: 243720
Countdown: 0
SampleSet: Soft
StackLeniency: 0.7
Mode: 3
LetterboxInBreaks: 0
SpecialStyle: 0
WidescreenStoryboard: 1

[Editor]
Bookmarks: 27721,49054,59720,81054,91720,102388,123721,158388,179721,201054,211721,222388,243721
DistanceSpacing: 5
BeatDivisor: 8
GridSize: 8
TimelineZoom: 2.200001

[Metadata]
Title:We Love Hardcore
TitleUnicode:ウィー・ラヴ・ハードコア
Artist:Camellia feat. Nanahira
ArtistUnicode:かめりあ feat. ななひら
Creator:Rhezie
Version:Ui Ravu Hadokoa
Source:
Tags:Masaya Oya 大箭将也 cametek かめるかめりあ kamelcamellia MEGANTO METEOR QWCE-90001 EXIT TUNES EDP EXITTUNES DANCE PRODUCTIONS Electronic Instrumental Japanese
BeatmapID:4060790
BeatmapSetID:1959708

[Difficulty]
HPDrainRate:8.5
CircleSize:4
OverallDifficulty:7.8
ApproachRate:5
SliderMultiplier:1.4
SliderTickRate:1

[Events]
//Background and Video events
0,0,"BG.jpg",0,0
//Break Periods
//Storyboard Layer 0 (Background)
//Storyboard Layer 1 (Fail)
//Storyboard Layer 2 (Pass)
//Storyboard Layer 3 (Foreground)
//Storyboard Layer 4 (Overlay)
//Storyboard Sound Samples

[TimingPoints]
1389,333.333333333333,4,2,1,40,1,0
27721,333.333333333333,4,2,1,40,1,0
81054,-100,4,2,1,40,0,1
97054,-100,4,2,1,40,0,0
102387,-100,4,2,1,40,0,1
123720,-100,4,2,1,40,0,0
222387,-100,4,2,1,40,0,1
238387,-100,4,2,1,40,0,0
243720,-100,4,2,1,40,0,1
265054,-100,4,2,1,40,0,0

[HitObjects]
192,192,5388,128,0,6722:0:0:0:0:
64,192,6722,128,0,6888:0:0:0:0:
320,192,7055,128,0,7222:0:0:0:0:
64,192,7388,128,0,7555:0:0:0:0:
448,192,7722,128,0,8055:0:0:0:0:
192,192,8222,128,0,8388:0:0:0:0:
320,192,8555,1,0,0:0:0:0:
320,192,8722,128,0,8888:0:0:0:0:
64,192,9055,128,0,9388:0:0:0:0:
448,192,9555,128,0,10388:0:0:0:0:
192,192,12055,128,0,12222:0:0:0:0:
320,192,12388,128,0,12555:0:0:0:0:
64,192,12722,128,0,12888:0:0:0:0:
448,192,13055,128,0,13388:0:0:0:0:
192,192,13555,128,0,13722:0:0:0:0:
320,192,13888,1,0,0:0:0:0:
64,192,14055,128,0,14305:0:0:0:0:
64,192,14388,128,0,14722:0:0:0:0:
192,192,14888,128,0,15388:0:0:0:0:
320,192,15388,1,0,0:0:0:0:
320,192,15555,128,0,15888:0:0:0:0:
448,192,16055,1,0,0:0:0:0:
448,192,16222,128,0,16888:0:0:0:0:
192,192,16722,128,0,17388:0:0:0:0:
320,192,17388,128,0,17555:0:0:0:0:
64,192,17722,128,0,17888:0:0:0:0:
192,192,18055,128,0,18222:0:0:0:0:
448,192,18388,128,0,18722:0:0:0:0:
320,192,18888,128,0,19138:0:0:0:0:
64,192,19222,1,0,0:0:0:0:
64,192,19388,128,0,19555:0:0:0:0:
320,192,19722,128,0,20055:0:0:0:0:
448,192,20222,128,0,21055:0:0:0:0:
192,192,22055,128,0,22222:0:0:0:0:
448,192,22388,128,0,22722:0:0:0:0:
64,192,22722,1,0,0:0:0:0:
64,192,22888,128,0,23055:0:0:0:0:
320,192,23222,128,0,23388:0:0:0:0:
192,192,23555,128,0,24222:0:0:0:0:
64,192,24722,128,0,24888:0:0:0:0:
320,192,25055,128,0,25388:0:0:0:0:
192,192,25388,1,0,0:0:0:0:
192,192,25555,128,0,25722:0:0:0:0:
448,192,25888,128,0,26055:0:0:0:0:
64,192,26222,128,0,27055:0:0:0:0:
448,192,27055,128,0,27721:0:0:0:0:
320,192,27721,1,0,0:0:0:0:
192,192,27721,128,0,28221:0:0:0:0:
64,192,27721,1,0,0:0:0:0:
448,192,28387,128,0,28887:0:0:0:0:
64,192,29054,128,0,29387:0:0:0:0:
320,192,29554,128,0,29887:0:0:0:0:
192,192,30220,1,0,0:0:0:0:
448,192,30387,1,0,0:0:0:0:
448,192,30554,128,0,30720:0:0:0:0:
320,192,30887,128,0,31054:0:0:0:0:
192,192,31220,128,0,31387:0:0:0:0:
64,192,31554,128,0,31720:0:0:0:0:
320,192,31887,1,0,0:0:0:0:
448,192,32054,128,0,32637:0:0:0:0:
64,192,32220,128,0,32304:0:0:0:0:
192,192,32387,128,0,32470:0:0:0:0:
320,192,32554,128,0,32637:0:0:0:0:
192,192,32720,128,0,32804:0:0:0:0:
64,192,32887,128,0,32970:0:0:0:0:
192,192,33054,128,0,33554:0:0:0:0:
448,192,33720,128,0,34220:0:0:0:0:
64,192,34387,128,0,34720:0:0:0:0:
320,192,34887,128,0,35220:0:0:0:0:
448,192,35554,128,0,35637:0:0:0:0:
64,192,35720,128,0,35804:0:0:0:0:
64,192,35887,128,0,36054:0:0:0:0:
64,192,36220,128,0,36304:0:0:0:0:
64,192,36387,128,0,36554:0:0:0:0:
64,192,36720,128,0,36804:0:0:0:0:
64,192,36887,128,0,37054:0:0:0:0:
64,192,37220,128,0,37304:0:0:0:0:
64,192,37387,128,0,37887:0:0:0:0:
320,192,37720,128,0,38387:0:0:0:0:
64,192,38387,1,0,0:0:0:0:
192,192,38387,128,0,38887:0:0:0:0:
448,192,38720,1,0,0:0:0:0:
64,192,38720,1,0,0:0:0:0:
448,192,39054,128,0,39554:0:0:0:0:
64,192,39054,1,0,0:0:0:0:
64,192,39387,1,0,0:0:0:0:
320,192,39387,1,0,0:0:0:0:
64,192,39720,128,0,40054:0:0:0:0:
192,192,39720,1,0,0:0:0:0:
448,192,40054,1,0,0:0:0:0:
320,192,40054,1,0,0:0:0:0:
320,192,40220,128,0,40554:0:0:0:0:
64,192,40387,1,0,0:0:0:0:
448,192,40387,1,0,0:0:0:0:
320,192,40720,1,0,0:0:0:0:
64,192,40720,1,0,0:0:0:0:
192,192,40887,1,0,0:0:0:0:
448,192,41054,1,0,0:0:0:0:
64,192,41054,1,0,0:0:0:0:
448,192,41220,128,0,41387:0:0:0:0:
192,192,41387,1,0,0:0:0:0:
64,192,41387,1,0,0:0:0:0:
320,192,41554,128,0,41720:0:0:0:0:
64,192,41720,1,0,0:0:0:0:
448,192,41720,1,0,0:0:0:0:
192,192,41887,128,0,42054:0:0:0:0:
64,192,42054,1,0,0:0:0:0:
320,192,42054,1,0,0:0:0:0:
192,192,42220,128,0,42387:0:0:0:0:
64,192,42387,1,0,0:0:0:0:
320,192,42387,1,0,0:0:0:0:
448,192,42554,1,0,0:0:0:0:
64,192,42720,128,0,43304:0:0:0:0:
192,192,42720,1,0,0:0:0:0:
448,192,42887,128,0,42970:0:0:0:0:
448,192,43054,1,0,0:0:0:0:
320,192,43054,128,0,43137:0:0:0:0:
192,192,43220,128,0,43304:0:0:0:0:
320,192,43387,128,0,43470:0:0:0:0:
64,192,43387,1,0,0:0:0:0:
448,192,43554,128,0,43637:0:0:0:0:
64,192,43720,1,0,0:0:0:0:
192,192,43720,128,0,44220:0:0:0:0:
448,192,44054,1,0,0:0:0:0:
64,192,44054,1,0,0:0:0:0:
448,192,44387,128,0,44887:0:0:0:0:
64,192,44387,1,0,0:0:0:0:
64,192,44720,1,0,0:0:0:0:
320,192,44720,1,0,0:0:0:0:
64,192,45054,128,0,45387:0:0:0:0:
192,192,45054,1,0,0:0:0:0:
448,192,45387,5,0,0:0:0:0:
320,192,45387,1,0,0:0:0:0:
320,192,45554,128,0,45887:0:0:0:0:
64,192,45720,1,0,0:0:0:0:
448,192,45720,1,0,0:0:0:0:
320,192,46054,1,0,0:0:0:0:
64,192,46054,1,0,0:0:0:0:
448,192,46220,128,0,46304:0:0:0:0:
64,192,46387,128,0,46470:0:0:0:0:
192,192,46387,128,0,46470:0:0:0:0:
64,192,46554,128,0,46804:0:0:0:0:
192,192,46554,128,0,46804:0:0:0:0:
64,192,46887,128,0,46970:0:0:0:0:
320,192,46887,128,0,46970:0:0:0:0:
64,192,47054,128,0,47304:0:0:0:0:
320,192,47054,128,0,47304:0:0:0:0:
64,192,47387,128,0,47470:0:0:0:0:
448,192,47387,128,0,47470:0:0:0:0:
64,192,47554,128,0,48720:0:0:0:0:
448,192,47554,128,0,48720:0:0:0:0:
192,192,48720,5,0,0:0:0:0:
320,192,48720,1,0,0:0:0:0:
64,192,49054,1,0,0:0:0:0:
448,192,49054,128,0,49554:0:0:0:0:
320,192,49137,128,0,49720:0:0:0:0:
64,192,49554,128,0,49637:0:0:0:0:
448,192,49720,1,0,0:0:0:0:
192,192,49720,128,0,49804:0:0:0:0:
64,192,49720,1,0,0:0:0:0:
192,192,49887,128,0,49970:0:0:0:0:
320,192,50054,128,0,50137:0:0:0:0:
448,192,50220,128,0,50387:0:0:0:0:
320,192,50387,1,0,0:0:0:0:
192,192,50387,128,0,50804:0:0:0:0:
64,192,50470,128,0,50804:0:0:0:0:
448,192,50887,1,0,0:0:0:0:
320,192,50887,128,0,51387:0:0:0:0:
192,192,50970,128,0,51720:0:0:0:0:
64,192,51387,1,0,0:0:0:0:
448,192,51470,1,0,0:0:0:0:
64,192,51554,1,0,0:0:0:0:
448,192,51637,1,0,0:0:0:0:
64,192,51720,1,0,0:0:0:0:
320,192,51720,128,0,52262:0:0:0:0:
448,192,51804,128,0,52220:0:0:0:0:
64,192,52054,128,0,52304:0:0:0:0:
192,192,52387,1,0,0:0:0:0:
320,192,52429,1,0,0:0:0:0:
64,192,52470,1,0,0:0:0:0:
192,192,52512,1,0,0:0:0:0:
320,192,52554,128,0,52804:0:0:0:0:
448,192,52554,128,0,52804:0:0:0:0:
192,192,52887,1,0,0:0:0:0:
64,192,52929,1,0,0:0:0:0:
320,192,52970,1,0,0:0:0:0:
448,192,53012,1,0,0:0:0:0:
64,192,53054,1,0,0:0:0:0:
192,192,53054,128,0,53470:0:0:0:0:
320,192,53137,128,0,53470:0:0:0:0:
448,192,53554,1,0,0:0:0:0:
64,192,53554,128,0,54054:0:0:0:0:
192,192,53637,128,0,54054:0:0:0:0:
448,192,54054,1,0,0:0:0:0:
320,192,54109,1,0,0:0:0:0:
192,192,54165,1,0,0:0:0:0:
320,192,54220,1,0,0:0:0:0:
64,192,54276,1,0,0:0:0:0:
448,192,54332,1,0,0:0:0:0:
192,192,54387,1,0,0:0:0:0:
64,192,54387,128,0,54887:0:0:0:0:
320,192,54470,128,0,55054:0:0:0:0:
448,192,54887,128,0,54970:0:0:0:0:
64,192,55054,1,0,0:0:0:0:
192,192,55054,128,0,55137:0:0:0:0:
448,192,55054,1,0,0:0:0:0:
192,192,55220,128,0,55304:0:0:0:0:
64,192,55304,1,0,0:0:0:0:
320,192,55387,128,0,55491:0:0:0:0:
448,192,55470,128,0,55720:0:0:0:0:
64,192,55554,1,0,0:0:0:0:
320,192,55720,1,0,0:0:0:0:
192,192,55720,128,0,56137:0:0:0:0:
64,192,55804,128,0,56137:0:0:0:0:
448,192,56220,1,0,0:0:0:0:
320,192,56220,128,0,56804:0:0:0:0:
192,192,56304,128,0,56887:0:0:0:0:
64,192,56720,128,0,56970:0:0:0:0:
320,192,57054,1,0,0:0:0:0:
448,192,57054,128,0,57220:0:0:0:0:
192,192,57054,1,0,0:0:0:0:
64,192,57220,1,0,0:0:0:0:
448,192,57304,128,0,57387:0:0:0:0:
64,192,57387,1,0,0:0:0:0:
192,192,57387,1,0,0:0:0:0:
448,192,57554,128,0,57720:0:0:0:0:
64,192,57720,1,0,0:0:0:0:
192,192,57720,1,0,0:0:0:0:
64,192,57887,128,0,58054:0:0:0:0:
320,192,58054,128,0,58179:0:0:0:0:
448,192,58054,128,0,58179:0:0:0:0:
64,192,58220,128,0,58345:0:0:0:0:
192,192,58220,128,0,58345:0:0:0:0:
320,192,58387,1,0,0:0:0:0:
448,192,58387,128,0,58554:0:0:0:0:
64,192,58554,1,0,0:0:0:0:
448,192,58637,128,0,58720:0:0:0:0:
192,192,58720,1,0,0:0:0:0:
64,192,58720,1,0,0:0:0:0:
448,192,58887,128,0,59054:0:0:0:0:
192,192,59054,1,0,0:0:0:0:
64,192,59054,1,0,0:0:0:0:
64,192,59220,128,0,59387:0:0:0:0:
448,192,59387,1,0,0:0:0:0:
192,192,59387,128,0,59470:0:0:0:0:
320,192,59470,128,0,59554:0:0:0:0:
448,192,59554,128,0,59637:0:0:0:0:
64,192,59637,128,0,59720:0:0:0:0:
192,192,59720,1,0,0:0:0:0:
320,192,59720,128,0,60220:0:0:0:0:
448,192,59804,128,0,60387:0:0:0:0:
64,192,60220,128,0,60304:0:0:0:0:
320,192,60387,1,0,0:0:0:0:
192,192,60387,128,0,60470:0:0:0:0:
64,192,60387,1,0,0:0:0:0:
192,192,60554,128,0,60637:0:0:0:0:
320,192,60720,128,0,60804:0:0:0:0:
448,192,60887,128,0,61054:0:0:0:0:
320,192,61054,1,0,0:0:0:0:
192,192,61054,128,0,61470:0:0:0:0:
64,192,61137,128,0,61470:0:0:0:0:
320,192,61220,128,0,61470:0:0:0:0:
320,192,61554,1,0,0:0:0:0:
448,192,61554,128,0,62054:0:0:0:0:
192,192,61637,128,0,62387:0:0:0:0:
64,192,62054,1,0,0:0:0:0:
320,192,62137,1,0,0:0:0:0:
64,192,62220,1,0,0:0:0:0:
320,192,62304,1,0,0:0:0:0:
64,192,62387,1,0,0:0:0:0:
448,192,62387,128,0,62887:0:0:0:0:
320,192,62470,128,0,62929:0:0:0:0:
64,192,62720,128,0,62970:0:0:0:0:
320,192,63220,1,0,0:0:0:0:
192,192,63241,128,0,63387:0:0:0:0:
448,192,63387,128,0,63470:0:0:0:0:
448,192,63554,128,0,63720:0:0:0:0:
320,192,63720,1,0,0:0:0:0:
64,192,63720,128,0,64137:0:0:0:0:
192,192,63804,128,0,64137:0:0:0:0:
320,192,64220,1,0,0:0:0:0:
448,192,64220,128,0,64720:0:0:0:0:
64,192,64304,128,0,64720:0:0:0:0:
320,192,64720,128,0,64804:0:0:0:0:
192,192,64887,1,0,0:0:0:0:
320,192,64929,1,0,0:0:0:0:
448,192,64970,1,0,0:0:0:0:
192,192,65054,1,0,0:0:0:0:
64,192,65054,128,0,65554:0:0:0:0:
448,192,65137,128,0,65720:0:0:0:0:
320,192,65554,128,0,65637:0:0:0:0:
64,192,65720,1,0,0:0:0:0:
192,192,65720,128,0,65804:0:0:0:0:
320,192,65720,1,0,0:0:0:0:
192,192,65887,128,0,65970:0:0:0:0:
64,192,65970,1,0,0:0:0:0:
320,192,66054,128,0,66158:0:0:0:0:
448,192,66137,128,0,66387:0:0:0:0:
64,192,66220,1,0,0:0:0:0:
320,192,66387,1,0,0:0:0:0:
192,192,66387,128,0,66804:0:0:0:0:
64,192,66470,128,0,66804:0:0:0:0:
448,192,66887,1,0,0:0:0:0:
320,192,66887,128,0,67470:0:0:0:0:
192,192,66970,128,0,67554:0:0:0:0:
64,192,67387,128,0,67637:0:0:0:0:
320,192,67720,1,0,0:0:0:0:
448,192,67720,128,0,67887:0:0:0:0:
192,192,67720,1,0,0:0:0:0:
64,192,67887,1,0,0:0:0:0:
448,192,67970,128,0,68054:0:0:0:0:
64,192,68054,1,0,0:0:0:0:
192,192,68054,1,0,0:0:0:0:
320,192,68054,1,0,0:0:0:0:
448,192,68220,128,0,68387:0:0:0:0:
64,192,68387,1,0,0:0:0:0:
192,192,68387,1,0,0:0:0:0:
64,192,68554,128,0,68720:0:0:0:0:
448,192,68720,1,0,0:0:0:0:
320,192,68720,1,0,0:0:0:0:
192,192,68762,1,0,0:0:0:0:
64,192,68804,1,0,0:0:0:0:
320,192,68845,1,0,0:0:0:0:
448,192,68887,5,0,0:0:0:0:
64,192,68929,1,0,0:0:0:0:
320,192,69054,5,0,0:0:0:0:
448,192,69054,128,0,69220:0:0:0:0:
64,192,69220,1,0,0:0:0:0:
448,192,69304,128,0,69387:0:0:0:0:
192,192,69387,1,0,0:0:0:0:
64,192,69387,1,0,0:0:0:0:
320,192,69387,1,0,0:0:0:0:
448,192,69554,128,0,69720:0:0:0:0:
192,192,69720,1,0,0:0:0:0:
64,192,69720,128,0,70054:0:0:0:0:
320,192,69887,1,0,0:0:0:0:
448,192,70054,5,0,0:0:0:0:
320,192,70054,1,0,0:0:0:0:
192,192,70109,1,0,0:0:0:0:
64,192,70165,1,0,0:0:0:0:
448,192,70220,1,0,0:0:0:0:
320,192,70276,1,0,0:0:0:0:
192,192,70332,1,0,0:0:0:0:
64,192,70387,1,0,0:0:0:0:
320,192,70387,1,0,0:0:0:0:
448,192,70387,128,0,70720:0:0:0:0:
192,192,70720,1,0,0:0:0:0:
64,192,70720,1,0,0:0:0:0:
320,192,70887,128,0,71054:0:0:0:0:
448,192,70943,1,0,0:0:0:0:
64,192,71054,1,0,0:0:0:0:
192,192,71054,1,0,0:0:0:0:
448,192,71137,1,0,0:0:0:0:
320,192,71220,128,0,71304:0:0:0:0:
64,192,71387,1,0,0:0:0:0:
448,192,71387,1,0,0:0:0:0:
320,192,71443,128,0,71554:0:0:0:0:
192,192,71720,1,0,0:0:0:0:
64,192,71720,1,0,0:0:0:0:
448,192,71887,128,0,72012:0:0:0:0:
192,192,72054,1,0,0:0:0:0:
64,192,72054,1,0,0:0:0:0:
320,192,72220,128,0,72387:0:0:0:0:
448,192,72276,1,0,0:0:0:0:
192,192,72387,1,0,0:0:0:0:
64,192,72387,1,0,0:0:0:0:
448,192,72470,1,0,0:0:0:0:
320,192,72554,128,0,72637:0:0:0:0:
192,192,72720,1,0,0:0:0:0:
64,192,72720,1,0,0:0:0:0:
320,192,72776,128,0,72887:0:0:0:0:
64,192,72887,1,0,0:0:0:0:
448,192,72887,1,0,0:0:0:0:
192,192,73054,1,0,0:0:0:0:
448,192,73054,128,0,73387:0:0:0:0:
64,192,73387,1,0,0:0:0:0:
192,192,73387,1,0,0:0:0:0:
320,192,73554,128,0,73720:0:0:0:0:
448,192,73609,1,0,0:0:0:0:
64,192,73720,1,0,0:0:0:0:
192,192,73720,1,0,0:0:0:0:
448,192,73804,1,0,0:0:0:0:
320,192,73887,128,0,73970:0:0:0:0:
192,192,74054,1,0,0:0:0:0:
448,192,74054,1,0,0:0:0:0:
320,192,74109,128,0,74220:0:0:0:0:
192,192,74304,1,0,0:0:0:0:
64,192,74387,128,0,74470:0:0:0:0:
448,192,74387,1,0,0:0:0:0:
320,192,74554,1,0,0:0:0:0:
64,192,74609,128,0,74720:0:0:0:0:
320,192,74720,1,0,0:0:0:0:
448,192,74720,1,0,0:0:0:0:
192,192,74804,1,0,0:0:0:0:
448,192,74887,128,0,74970:0:0:0:0:
192,192,75054,1,0,0:0:0:0:
64,192,75054,1,0,0:0:0:0:
448,192,75109,128,0,75220:0:0:0:0:
64,192,75387,1,0,0:0:0:0:
192,192,75387,1,0,0:0:0:0:
448,192,75470,1,0,0:0:0:0:
320,192,75470,1,0,0:0:0:0:
192,192,75554,1,0,0:0:0:0:
64,192,75554,1,0,0:0:0:0:
448,192,75637,1,0,0:0:0:0:
320,192,75637,1,0,0:0:0:0:
64,192,75720,128,0,75887:0:0:0:0:
192,192,75720,1,0,0:0:0:0:
448,192,75887,1,0,0:0:0:0:
320,192,75887,1,0,0:0:0:0:
64,192,76054,128,0,76220:0:0:0:0:
448,192,76054,1,0,0:0:0:0:
448,192,76220,1,0,0:0:0:0:
320,192,76220,1,0,0:0:0:0:
320,192,76304,1,0,0:0:0:0:
448,192,76304,1,0,0:0:0:0:
192,192,76387,128,0,76554:0:0:0:0:
64,192,76387,1,0,0:0:0:0:
448,192,76554,1,0,0:0:0:0:
64,192,76554,1,0,0:0:0:0:
192,192,76720,128,0,76887:0:0:0:0:
64,192,76720,1,0,0:0:0:0:
320,192,76887,1,0,0:0:0:0:
448,192,76887,1,0,0:0:0:0:
192,192,76970,1,0,0:0:0:0:
64,192,76970,1,0,0:0:0:0:
320,192,77054,128,0,77220:0:0:0:0:
448,192,77054,1,0,0:0:0:0:
64,192,77220,1,0,0:0:0:0:
192,192,77220,1,0,0:0:0:0:
320,192,77387,128,0,77554:0:0:0:0:
64,192,77387,1,0,0:0:0:0:
192,192,77554,1,0,0:0:0:0:
64,192,77554,1,0,0:0:0:0:
64,192,77637,1,0,0:0:0:0:
192,192,77637,1,0,0:0:0:0:
448,192,77720,128,0,77887:0:0:0:0:
320,192,77720,1,0,0:0:0:0:
320,192,77887,1,0,0:0:0:0:
64,192,77887,1,0,0:0:0:0:
448,192,78054,128,0,78220:0:0:0:0:
320,192,78054,1,0,0:0:0:0:
192,192,78220,1,0,0:0:0:0:
64,192,78220,1,0,0:0:0:0:
448,192,78304,1,0,0:0:0:0:
320,192,78304,1,0,0:0:0:0:
64,192,78387,1,0,0:0:0:0:
192,192,78387,1,0,0:0:0:0:
448,192,78470,1,0,0:0:0:0:
320,192,78470,1,0,0:0:0:0:
64,192,78554,1,0,0:0:0:0:
192,192,78554,1,0,0:0:0:0:
192,192,78637,1,0,0:0:0:0:
448,192,78720,1,0,0:0:0:0:
320,192,78720,1,0,0:0:0:0:
320,192,78804,1,0,0:0:0:0:
64,192,78887,1,0,0:0:0:0:
192,192,78887,1,0,0:0:0:0:
192,192,78970,1,0,0:0:0:0:
320,192,79054,1,0,0:0:0:0:
448,192,79054,1,0,0:0:0:0:
64,192,79095,1,0,0:0:0:0:
192,192,79137,1,0,0:0:0:0:
320,192,79179,1,0,0:0:0:0:
448,192,79220,1,0,0:0:0:0:
64,192,79262,1,0,0:0:0:0:
192,192,79304,1,0,0:0:0:0:
320,192,79345,1,0,0:0:0:0:
448,192,79387,1,0,0:0:0:0:
64,192,79429,1,0,0:0:0:0:
192,192,79470,1,0,0:0:0:0:
320,192,79512,1,0,0:0:0:0:
448,192,79554,1,0,0:0:0:0:
64,192,79595,1,0,0:0:0:0:
192,192,79637,1,0,0:0:0:0:
320,192,79679,1,0,0:0:0:0:
448,192,79720,128,0,79970:0:0:0:0:
64,192,79720,128,0,80054:0:0:0:0:
448,192,80054,128,0,80220:0:0:0:0:
192,192,80095,128,0,80220:0:0:0:0:
192,192,80387,128,0,80595:0:0:0:0:
320,192,80387,128,0,80595:0:0:0:0:
64,192,80387,128,0,80595:0:0:0:0:
320,192,80700,1,0,0:0:0:0:
192,192,80720,128,0,80887:0:0:0:0:
64,192,80720,128,0,80887:0:0:0:0:
448,192,80720,128,0,80887:0:0:0:0:
64,192,81054,1,0,0:0:0:0:
448,192,81054,1,0,0:0:0:0:
320,192,81054,1,0,0:0:0:0:
192,192,81109,1,0,0:0:0:0:
320,192,81165,1,0,0:0:0:0:
448,192,81220,1,0,0:0:0:0:
192,192,81276,1,0,0:0:0:0:
64,192,81332,1,0,0:0:0:0:
448,192,81387,1,0,0:0:0:0:
320,192,81387,1,0,0:0:0:0:
64,192,81498,128,0,81609:0:0:0:0:
320,192,81554,128,0,81665:0:0:0:0:
192,192,81637,128,0,81720:0:0:0:0:
448,192,81720,1,0,0:0:0:0:
64,192,81720,1,0,0:0:0:0:
320,192,81915,1,0,0:0:0:0:
192,192,81943,1,0,0:0:0:0:
448,192,81970,1,0,0:0:0:0:
64,192,82054,1,0,0:0:0:0:
320,192,82054,1,0,0:0:0:0:
192,192,82054,1,0,0:0:0:0:
64,192,82248,1,0,0:0:0:0:
320,192,82276,1,0,0:0:0:0:
192,192,82304,1,0,0:0:0:0:
320,192,82387,1,0,0:0:0:0:
448,192,82387,1,0,0:0:0:0:
448,192,82498,1,0,0:0:0:0:
64,192,82582,1,0,0:0:0:0:
64,192,82665,1,0,0:0:0:0:
320,192,82720,1,0,0:0:0:0:
448,192,82720,1,0,0:0:0:0:
192,192,82720,1,0,0:0:0:0:
320,192,82915,1,0,0:0:0:0:
64,192,82943,1,0,0:0:0:0:
448,192,82970,1,0,0:0:0:0:
320,192,83054,1,0,0:0:0:0:
192,192,83054,1,0,0:0:0:0:
192,192,83248,1,0,0:0:0:0:
64,192,83276,1,0,0:0:0:0:
320,192,83304,1,0,0:0:0:0:
64,192,83387,1,0,0:0:0:0:
448,192,83387,1,0,0:0:0:0:
192,192,83387,1,0,0:0:0:0:
320,192,83470,128,0,83720:0:0:0:0:
448,192,83720,1,0,0:0:0:0:
64,192,83720,1,0,0:0:0:0:
192,192,83804,128,0,83970:0:0:0:0:
448,192,83915,128,0,83998:0:0:0:0:
320,192,83943,128,0,84026:0:0:0:0:
192,192,84054,1,0,0:0:0:0:
64,192,84054,1,0,0:0:0:0:
448,192,84165,1,0,0:0:0:0:
64,192,84220,128,0,84304:0:0:0:0:
320,192,84248,128,0,84359:0:0:0:0:
192,192,84387,1,0,0:0:0:0:
64,192,84387,1,0,0:0:0:0:
192,192,84470,1,0,0:0:0:0:
448,192,84554,1,0,0:0:0:0:
320,192,84582,1,0,0:0:0:0:
192,192,84609,1,0,0:0:0:0:
448,192,84720,1,0,0:0:0:0:
64,192,84720,1,0,0:0:0:0:
320,192,84720,1,0,0:0:0:0:
320,192,84804,1,0,0:0:0:0:
64,192,84887,1,0,0:0:0:0:
192,192,84915,1,0,0:0:0:0:
320,192,84943,1,0,0:0:0:0:
64,192,85054,1,0,0:0:0:0:
448,192,85054,1,0,0:0:0:0:
192,192,85165,1,0,0:0:0:0:
320,192,85248,1,0,0:0:0:0:
320,192,85332,1,0,0:0:0:0:
64,192,85387,1,0,0:0:0:0:
448,192,85387,1,0,0:0:0:0:
192,192,85387,1,0,0:0:0:0:
320,192,85498,1,0,0:0:0:0:
192,192,85582,1,0,0:0:0:0:
192,192,85665,1,0,0:0:0:0:
448,192,85720,128,0,85887:0:0:0:0:
64,192,85720,128,0,86054:0:0:0:0:
192,192,85887,1,0,0:0:0:0:
192,192,86054,128,0,86165:0:0:0:0:
320,192,86054,1,0,0:0:0:0:
448,192,86137,128,0,86220:0:0:0:0:
64,192,86220,1,0,0:0:0:0:
192,192,86248,1,0,0:0:0:0:
320,192,86276,1,0,0:0:0:0:
448,192,86304,1,0,0:0:0:0:
64,192,86387,1,0,0:0:0:0:
192,192,86387,1,0,0:0:0:0:
448,192,86443,1,0,0:0:0:0:
320,192,86498,1,0,0:0:0:0:
64,192,86554,1,0,0:0:0:0:
192,192,86609,1,0,0:0:0:0:
320,192,86665,1,0,0:0:0:0:
192,192,86720,1,0,0:0:0:0:
448,192,86720,1,0,0:0:0:0:
320,192,86832,128,0,86943:0:0:0:0:
64,192,86887,128,0,86998:0:0:0:0:
448,192,86970,128,0,87054:0:0:0:0:
320,192,87054,1,0,0:0:0:0:
192,192,87054,1,0,0:0:0:0:
448,192,87248,1,0,0:0:0:0:
64,192,87276,1,0,0:0:0:0:
320,192,87304,1,0,0:0:0:0:
64,192,87387,1,0,0:0:0:0:
448,192,87387,1,0,0:0:0:0:
192,192,87387,1,0,0:0:0:0:
192,192,87582,1,0,0:0:0:0:
448,192,87609,1,0,0:0:0:0:
64,192,87637,1,0,0:0:0:0:
320,192,87720,1,0,0:0:0:0:
448,192,87720,1,0,0:0:0:0:
320,192,87832,1,0,0:0:0:0:
192,192,87915,1,0,0:0:0:0:
192,192,87998,1,0,0:0:0:0:
64,192,88054,1,0,0:0:0:0:
320,192,88054,1,0,0:0:0:0:
448,192,88054,1,0,0:0:0:0:
64,192,88248,1,0,0:0:0:0:
320,192,88276,1,0,0:0:0:0:
192,192,88304,1,0,0:0:0:0:
64,192,88387,1,0,0:0:0:0:
448,192,88387,1,0,0:0:0:0:
320,192,88582,1,0,0:0:0:0:
64,192,88609,1,0,0:0:0:0:
448,192,88637,1,0,0:0:0:0:
64,192,88720,1,0,0:0:0:0:
192,192,88720,128,0,88776:0:0:0:0:
320,192,88748,128,0,88804:0:0:0:0:
320,192,88887,128,0,88943:0:0:0:0:
448,192,88915,128,0,88970:0:0:0:0:
192,192,89054,1,0,0:0:0:0:
64,192,89054,128,0,89137:0:0:0:0:
64,192,89220,128,0,89387:0:0:0:0:
448,192,89387,1,0,0:0:0:0:
320,192,89387,1,0,0:0:0:0:
192,192,89387,1,0,0:0:0:0:
64,192,89554,128,0,89637:0:0:0:0:
320,192,89720,1,0,0:0:0:0:
64,192,89720,128,0,89887:0:0:0:0:
448,192,89832,128,0,89943:0:0:0:0:
320,192,89915,1,0,0:0:0:0:
192,192,89970,1,0,0:0:0:0:
448,192,90054,1,0,0:0:0:0:
320,192,90054,1,0,0:0:0:0:
64,192,90054,128,0,90137:0:0:0:0:
64,192,90220,128,0,90387:0:0:0:0:
320,192,90262,1,0,0:0:0:0:
192,192,90387,128,0,90470:0:0:0:0:
448,192,90387,128,0,90470:0:0:0:0:
192,192,90554,128,0,90637:0:0:0:0:
448,192,90554,128,0,90637:0:0:0:0:
192,192,90720,1,0,0:0:0:0:
320,192,90720,128,0,90804:0:0:0:0:
64,192,90720,128,0,90804:0:0:0:0:
320,192,90887,128,0,90970:0:0:0:0:
64,192,90887,128,0,90970:0:0:0:0:
192,192,91054,128,0,91137:0:0:0:0:
448,192,91054,128,0,91137:0:0:0:0:
448,192,91220,128,0,91304:0:0:0:0:
192,192,91220,128,0,91304:0:0:0:0:
320,192,91387,1,0,0:0:0:0:
64,192,91387,128,0,91470:0:0:0:0:
448,192,91387,1,0,0:0:0:0:
192,192,91470,128,0,91554:0:0:0:0:
320,192,91554,128,0,91637:0:0:0:0:
448,192,91637,128,0,91720:0:0:0:0:
192,192,91720,1,0,0:0:0:0:
64,192,91720,1,0,0:0:0:0:
320,192,91776,1,0,0:0:0:0:
192,192,91832,1,0,0:0:0:0:
64,192,91887,1,0,0:0:0:0:
320,192,91943,1,0,0:0:0:0:
448,192,91998,1,0,0:0:0:0:
192,192,92054,1,0,0:0:0:0:
64,192,92054,1,0,0:0:0:0:
448,192,92165,128,0,92276:0:0:0:0:
192,192,92220,128,0,92332:0:0:0:0:
320,192,92304,128,0,92387:0:0:0:0:
448,192,92387,1,0,0:0:0:0:
64,192,92387,1,0,0:0:0:0:
192,192,92582,1,0,0:0:0:0:
320,192,92609,1,0,0:0:0:0:
64,192,92637,1,0,0:0:0:0:
448,192,92720,1,0,0:0:0:0:
192,192,92720,1,0,0:0:0:0:
320,192,92720,1,0,0:0:0:0:
448,192,92915,1,0,0:0:0:0:
192,192,92943,1,0,0:0:0:0:
320,192,92970,1,0,0:0:0:0:
192,192,93054,1,0,0:0:0:0:
64,192,93054,1,0,0:0:0:0:
64,192,93165,1,0,0:0:0:0:
448,192,93248,1,0,0:0:0:0:
448,192,93332,1,0,0:0:0:0:
192,192,93387,1,0,0:0:0:0:
64,192,93387,1,0,0:0:0:0:
320,192,93387,1,0,0:0:0:0:
192,192,93582,1,0,0:0:0:0:
448,192,93609,1,0,0:0:0:0:
64,192,93637,1,0,0:0:0:0:
192,192,93720,1,0,0:0:0:0:
320,192,93720,1,0,0:0:0:0:
192,192,93915,1,0,0:0:0:0:
64,192,93943,1,0,0:0:0:0:
320,192,93970,1,0,0:0:0:0:
448,192,94054,1,0,0:0:0:0:
64,192,94054,1,0,0:0:0:0:
192,192,94054,1,0,0:0:0:0:
320,192,94137,128,0,94387:0:0:0:0:
448,192,94387,1,0,0:0:0:0:
64,192,94387,1,0,0:0:0:0:
192,192,94470,128,0,94637:0:0:0:0:
448,192,94582,128,0,94665:0:0:0:0:
320,192,94609,128,0,94693:0:0:0:0:
192,192,94720,1,0,0:0:0:0:
64,192,94720,1,0,0:0:0:0:
448,192,94832,1,0,0:0:0:0:
64,192,94887,128,0,94970:0:0:0:0:
320,192,94915,128,0,95026:0:0:0:0:
192,192,95054,1,0,0:0:0:0:
64,192,95054,1,0,0:0:0:0:
192,192,95137,1,0,0:0:0:0:
448,192,95220,1,0,0:0:0:0:
320,192,95248,1,0,0:0:0:0:
192,192,95276,1,0,0:0:0:0:
448,192,95387,1,0,0:0:0:0:
64,192,95387,1,0,0:0:0:0:
320,192,95387,1,0,0:0:0:0:
320,192,95470,1,0,0:0:0:0:
64,192,95554,1,0,0:0:0:0:
192,192,95582,1,0,0:0:0:0:
320,192,95609,1,0,0:0:0:0:
64,192,95720,1,0,0:0:0:0:
448,192,95720,1,0,0:0:0:0:
192,192,95832,1,0,0:0:0:0:
192,192,95915,1,0,0:0:0:0:
448,192,95970,1,0,0:0:0:0:
320,192,95970,1,0,0:0:0:0:
64,192,96054,1,0,0:0:0:0:
448,192,96054,1,0,0:0:0:0:
320,192,96054,1,0,0:0:0:0:
192,192,96109,1,0,0:0:0:0:
320,192,96165,1,0,0:0:0:0:
64,192,96220,1,0,0:0:0:0:
448,192,96220,1,0,0:0:0:0:
192,192,96332,1,0,0:0:0:0:
320,192,96387,128,0,96720:0:0:0:0:
64,192,96387,128,0,96554:0:0:0:0:
448,192,96554,1,0,0:0:0:0:
192,192,96720,1,0,0:0:0:0:
448,192,96720,128,0,96832:0:0:0:0:
64,192,96804,128,0,96887:0:0:0:0:
320,192,96887,1,0,0:0:0:0:
448,192,96915,1,0,0:0:0:0:
192,192,96943,1,0,0:0:0:0:
64,192,96970,1,0,0:0:0:0:
448,192,97054,1,0,0:0:0:0:
320,192,97054,1,0,0:0:0:0:
192,192,97109,1,0,0:0:0:0:
320,192,97165,1,0,0:0:0:0:
448,192,97220,1,0,0:0:0:0:
64,192,97276,1,0,0:0:0:0:
192,192,97332,1,0,0:0:0:0:
448,192,97387,1,0,0:0:0:0:
320,192,97387,1,0,0:0:0:0:
64,192,97470,1,0,0:0:0:0:
192,192,97470,1,0,0:0:0:0:
448,192,97554,1,0,0:0:0:0:
320,192,97554,1,0,0:0:0:0:
192,192,97637,1,0,0:0:0:0:
64,192,97637,1,0,0:0:0:0:
448,192,97720,1,0,0:0:0:0:
320,192,97720,1,0,0:0:0:0:
192,192,97804,1,0,0:0:0:0:
64,192,97887,1,0,0:0:0:0:
320,192,97887,1,0,0:0:0:0:
448,192,97970,1,0,0:0:0:0:
64,192,98054,1,0,0:0:0:0:
192,192,98054,128,0,98109:0:0:0:0:
320,192,98082,128,0,98137:0:0:0:0:
320,192,98220,128,0,98276:0:0:0:0:
448,192,98248,128,0,98304:0:0:0:0:
192,192,98387,1,0,0:0:0:0:
64,192,98387,1,0,0:0:0:0:
320,192,98443,1,0,0:0:0:0:
192,192,98498,1,0,0:0:0:0:
64,192,98554,1,0,0:0:0:0:
448,192,98609,1,0,0:0:0:0:
320,192,98665,1,0,0:0:0:0:
64,192,98720,1,0,0:0:0:0:
192,192,98720,1,0,0:0:0:0:
448,192,98804,1,0,0:0:0:0:
320,192,98804,1,0,0:0:0:0:
192,192,98887,1,0,0:0:0:0:
64,192,98887,1,0,0:0:0:0:
448,192,98970,1,0,0:0:0:0:
320,192,98970,1,0,0:0:0:0:
64,192,99054,1,0,0:0:0:0:
192,192,99054,1,0,0:0:0:0:
448,192,99137,1,0,0:0:0:0:
192,192,99220,1,0,0:0:0:0:
448,192,99304,1,0,0:0:0:0:
320,192,99387,1,0,0:0:0:0:
64,192,99387,1,0,0:0:0:0:
448,192,99498,1,0,0:0:0:0:
64,192,99554,128,0,99637:0:0:0:0:
320,192,99582,128,0,99693:0:0:0:0:
192,192,99720,1,0,0:0:0:0:
64,192,99720,1,0,0:0:0:0:
320,192,99804,1,0,0:0:0:0:
448,192,99804,1,0,0:0:0:0:
64,192,99887,1,0,0:0:0:0:
320,192,99970,1,0,0:0:0:0:
448,192,99970,1,0,0:0:0:0:
64,192,100054,1,0,0:0:0:0:
192,192,100054,1,0,0:0:0:0:
448,192,100137,1,0,0:0:0:0:
192,192,100220,1,0,0:0:0:0:
64,192,100220,1,0,0:0:0:0:
64,192,100304,1,0,0:0:0:0:
448,192,100304,1,0,0:0:0:0:
192,192,100387,1,0,0:0:0:0:
320,192,100470,1,0,0:0:0:0:
448,192,100470,1,0,0:0:0:0:
448,192,100554,1,0,0:0:0:0:
64,192,100554,1,0,0:0:0:0:
320,192,100637,1,0,0:0:0:0:
64,192,100720,1,0,0:0:0:0:
192,192,100720,1,0,0:0:0:0:
448,192,100762,1,0,0:0:0:0:
320,192,100804,1,0,0:0:0:0:
192,192,100845,1,0,0:0:0:0:
64,192,100887,1,0,0:0:0:0:
448,192,100929,1,0,0:0:0:0:
320,192,100970,1,0,0:0:0:0:
192,192,101012,1,0,0:0:0:0:
448,192,101054,128,0,101304:0:0:0:0:
64,192,101054,128,0,101387:0:0:0:0:
448,192,101387,128,0,101554:0:0:0:0:
192,192,101429,128,0,101554:0:0:0:0:
192,192,101720,128,0,101929:0:0:0:0:
320,192,101720,128,0,101929:0:0:0:0:
64,192,101720,128,0,101929:0:0:0:0:
64,192,102054,1,0,0:0:0:0:
192,192,102054,1,0,0:0:0:0:
448,192,102054,1,0,0:0:0:0:
320,192,102220,1,0,0:0:0:0:
448,192,102220,1,0,0:0:0:0:
192,192,102387,1,0,0:0:0:0:
320,192,102387,1,0,0:0:0:0:
448,192,102387,1,0,0:0:0:0:
64,192,102470,128,0,102595:0:0:0:0:
448,192,102554,128,0,102637:0:0:0:0:
320,192,102720,1,0,0:0:0:0:
64,192,102720,1,0,0:0:0:0:
192,192,102720,1,0,0:0:0:0:
448,192,102804,1,0,0:0:0:0:
192,192,102887,1,0,0:0:0:0:
192,192,102970,1,0,0:0:0:0:
64,192,103054,1,0,0:0:0:0:
448,192,103054,1,0,0:0:0:0:
320,192,103137,1,0,0:0:0:0:
320,192,103220,1,0,0:0:0:0:
64,192,103304,1,0,0:0:0:0:
448,192,103387,1,0,0:0:0:0:
192,192,103387,1,0,0:0:0:0:
320,192,103387,1,0,0:0:0:0:
448,192,103554,1,0,0:0:0:0:
448,192,103637,1,0,0:0:0:0:
320,192,103720,1,0,0:0:0:0:
64,192,103720,1,0,0:0:0:0:
192,192,103804,1,0,0:0:0:0:
64,192,103887,1,0,0:0:0:0:
192,192,104054,1,0,0:0:0:0:
320,192,104054,1,0,0:0:0:0:
448,192,104054,1,0,0:0:0:0:
64,192,104137,1,0,0:0:0:0:
64,192,104220,1,0,0:0:0:0:
448,192,104304,1,0,0:0:0:0:
64,192,104387,1,0,0:0:0:0:
192,192,104387,1,0,0:0:0:0:
320,192,104470,1,0,0:0:0:0:
320,192,104554,1,0,0:0:0:0:
192,192,104637,1,0,0:0:0:0:
448,192,104720,1,0,0:0:0:0:
320,192,104720,1,0,0:0:0:0:
64,192,104720,128,0,104804:0:0:0:0:
192,192,104887,1,0,0:0:0:0:
448,192,104887,128,0,104970:0:0:0:0:
192,192,105054,1,0,0:0:0:0:
320,192,105054,1,0,0:0:0:0:
448,192,105109,1,0,0:0:0:0:
64,192,105165,1,0,0:0:0:0:
192,192,105220,1,0,0:0:0:0:
320,192,105276,1,0,0:0:0:0:
448,192,105332,1,0,0:0:0:0:
64,192,105387,1,0,0:0:0:0:
192,192,105387,1,0,0:0:0:0:
448,192,105470,128,0,105609:0:0:0:0:
192,192,105554,128,0,105665:0:0:0:0:
320,192,105637,1,0,0:0:0:0:
64,192,105720,1,0,0:0:0:0:
448,192,105720,1,0,0:0:0:0:
192,192,105804,1,0,0:0:0:0:
64,192,105887,128,0,106054:0:0:0:0:
320,192,105970,128,0,106054:0:0:0:0:
192,192,106054,1,0,0:0:0:0:
448,192,106054,1,0,0:0:0:0:
64,192,106137,1,0,0:0:0:0:
320,192,106220,128,0,106304:0:0:0:0:
448,192,106304,1,0,0:0:0:0:
64,192,106387,1,0,0:0:0:0:
192,192,106387,1,0,0:0:0:0:
320,192,106429,1,0,0:0:0:0:
448,192,106470,1,0,0:0:0:0:
64,192,106554,1,0,0:0:0:0:
320,192,106637,1,0,0:0:0:0:
192,192,106679,1,0,0:0:0:0:
64,192,106720,1,0,0:0:0:0:
448,192,106720,1,0,0:0:0:0:
320,192,106720,1,0,0:0:0:0:
192,192,106804,1,0,0:0:0:0:
448,192,106887,1,0,0:0:0:0:
448,192,106970,1,0,0:0:0:0:
192,192,107054,1,0,0:0:0:0:
64,192,107054,1,0,0:0:0:0:
320,192,107095,1,0,0:0:0:0:
448,192,107137,1,0,0:0:0:0:
64,192,107179,1,0,0:0:0:0:
192,192,107220,1,0,0:0:0:0:
320,192,107262,1,0,0:0:0:0:
64,192,107387,1,0,0:0:0:0:
192,192,107387,1,0,0:0:0:0:
448,192,107429,1,0,0:0:0:0:
320,192,107470,1,0,0:0:0:0:
192,192,107512,1,0,0:0:0:0:
64,192,107554,1,0,0:0:0:0:
448,192,107595,1,0,0:0:0:0:
320,192,107637,1,0,0:0:0:0:
192,192,107679,1,0,0:0:0:0:
64,192,107720,1,0,0:0:0:0:
448,192,107720,1,0,0:0:0:0:
192,192,107804,128,0,107929:0:0:0:0:
320,192,107887,128,0,107970:0:0:0:0:
448,192,108054,1,0,0:0:0:0:
64,192,108054,1,0,0:0:0:0:
192,192,108054,1,0,0:0:0:0:
320,192,108137,1,0,0:0:0:0:
64,192,108220,1,0,0:0:0:0:
64,192,108304,1,0,0:0:0:0:
192,192,108387,1,0,0:0:0:0:
320,192,108387,1,0,0:0:0:0:
448,192,108470,1,0,0:0:0:0:
448,192,108554,1,0,0:0:0:0:
192,192,108637,1,0,0:0:0:0:
448,192,108720,1,0,0:0:0:0:
64,192,108720,1,0,0:0:0:0:
320,192,108720,1,0,0:0:0:0:
320,192,108887,1,0,0:0:0:0:
320,192,108970,1,0,0:0:0:0:
448,192,109054,1,0,0:0:0:0:
192,192,109054,1,0,0:0:0:0:
64,192,109137,1,0,0:0:0:0:
192,192,109220,1,0,0:0:0:0:
64,192,109387,1,0,0:0:0:0:
320,192,109387,1,0,0:0:0:0:
448,192,109387,1,0,0:0:0:0:
192,192,109470,1,0,0:0:0:0:
192,192,109554,1,0,0:0:0:0:
320,192,109637,1,0,0:0:0:0:
64,192,109720,1,0,0:0:0:0:
192,192,109720,1,0,0:0:0:0:
448,192,109804,1,0,0:0:0:0:
448,192,109887,1,0,0:0:0:0:
192,192,109970,1,0,0:0:0:0:
448,192,110054,1,0,0:0:0:0:
320,192,110054,1,0,0:0:0:0:
64,192,110054,128,0,110137:0:0:0:0:
192,192,110220,1,0,0:0:0:0:
320,192,110220,128,0,110304:0:0:0:0:
64,192,110387,1,0,0:0:0:0:
192,192,110387,1,0,0:0:0:0:
448,192,110443,1,0,0:0:0:0:
320,192,110498,1,0,0:0:0:0:
64,192,110554,1,0,0:0:0:0:
192,192,110609,1,0,0:0:0:0:
320,192,110665,1,0,0:0:0:0:
448,192,110720,1,0,0:0:0:0:
64,192,110720,1,0,0:0:0:0:
192,192,110804,1,0,0:0:0:0:
320,192,110887,128,0,110970:0:0:0:0:
64,192,110970,128,0,111054:0:0:0:0:
320,192,111054,128,0,111220:0:0:0:0:
448,192,111054,1,0,0:0:0:0:
64,192,111137,1,0,0:0:0:0:
192,192,111220,128,0,111304:0:0:0:0:
320,192,111387,128,0,111470:0:0:0:0:
192,192,111387,1,0,0:0:0:0:
448,192,111387,1,0,0:0:0:0:
64,192,111470,128,0,111554:0:0:0:0:
320,192,111554,128,0,111720:0:0:0:0:
64,192,111720,128,0,112220:0:0:0:0:
192,192,111720,128,0,111804:0:0:0:0:
192,192,111887,128,0,111970:0:0:0:0:
448,192,112054,128,0,112554:0:0:0:0:
192,192,112054,1,0,0:0:0:0:
320,192,112054,128,0,112137:0:0:0:0:
320,192,112220,128,0,112304:0:0:0:0:
192,192,112387,128,0,112887:0:0:0:0:
64,192,112387,128,0,112470:0:0:0:0:
64,192,112554,128,0,112637:0:0:0:0:
320,192,112720,128,0,113054:0:0:0:0:
64,192,112720,1,0,0:0:0:0:
448,192,112720,128,0,112804:0:0:0:0:
448,192,112887,128,0,112970:0:0:0:0:
192,192,113054,1,0,0:0:0:0:
64,192,113054,1,0,0:0:0:0:
320,192,113165,1,0,0:0:0:0:
64,192,113220,128,0,113304:0:0:0:0:
448,192,113248,128,0,113359:0:0:0:0:
64,192,113387,1,0,0:0:0:0:
320,192,113387,1,0,0:0:0:0:
192,192,113387,1,0,0:0:0:0:
448,192,113470,1,0,0:0:0:0:
192,192,113554,1,0,0:0:0:0:
192,192,113637,1,0,0:0:0:0:
64,192,113720,1,0,0:0:0:0:
320,192,113720,1,0,0:0:0:0:
448,192,113720,1,0,0:0:0:0:
192,192,113804,1,0,0:0:0:0:
448,192,113887,1,0,0:0:0:0:
320,192,113970,1,0,0:0:0:0:
64,192,114054,1,0,0:0:0:0:
192,192,114054,1,0,0:0:0:0:
448,192,114054,1,0,0:0:0:0:
320,192,114220,1,0,0:0:0:0:
320,192,114304,1,0,0:0:0:0:
448,192,114387,1,0,0:0:0:0:
192,192,114387,1,0,0:0:0:0:
64,192,114387,1,0,0:0:0:0:
320,192,114470,1,0,0:0:0:0:
192,192,114554,1,0,0:0:0:0:
64,192,114720,1,0,0:0:0:0:
192,192,114720,1,0,0:0:0:0:
448,192,114720,1,0,0:0:0:0:
320,192,114804,1,0,0:0:0:0:
320,192,114887,1,0,0:0:0:0:
64,192,114970,1,0,0:0:0:0:
320,192,115054,1,0,0:0:0:0:
192,192,115054,1,0,0:0:0:0:
448,192,115054,1,0,0:0:0:0:
64,192,115137,1,0,0:0:0:0:
64,192,115220,1,0,0:0:0:0:
448,192,115304,1,0,0:0:0:0:
64,192,115387,1,0,0:0:0:0:
192,192,115387,1,0,0:0:0:0:
320,192,115387,128,0,115470:0:0:0:0:
448,192,115554,1,0,0:0:0:0:
192,192,115554,128,0,115637:0:0:0:0:
320,192,115720,1,0,0:0:0:0:
64,192,115720,1,0,0:0:0:0:
448,192,115776,1,0,0:0:0:0:
192,192,115832,1,0,0:0:0:0:
64,192,115887,1,0,0:0:0:0:
320,192,115943,1,0,0:0:0:0:
448,192,115998,1,0,0:0:0:0:
64,192,116054,1,0,0:0:0:0:
192,192,116054,1,0,0:0:0:0:
448,192,116137,128,0,116276:0:0:0:0:
192,192,116220,128,0,116332:0:0:0:0:
320,192,116304,1,0,0:0:0:0:
64,192,116387,1,0,0:0:0:0:
448,192,116387,1,0,0:0:0:0:
192,192,116470,1,0,0:0:0:0:
64,192,116554,128,0,116720:0:0:0:0:
320,192,116637,128,0,116720:0:0:0:0:
192,192,116720,1,0,0:0:0:0:
448,192,116720,1,0,0:0:0:0:
64,192,116804,1,0,0:0:0:0:
320,192,116887,128,0,116970:0:0:0:0:
448,192,116970,1,0,0:0:0:0:
64,192,117054,1,0,0:0:0:0:
192,192,117054,1,0,0:0:0:0:
320,192,117095,1,0,0:0:0:0:
448,192,117137,1,0,0:0:0:0:
64,192,117220,1,0,0:0:0:0:
320,192,117304,1,0,0:0:0:0:
192,192,117345,1,0,0:0:0:0:
64,192,117387,1,0,0:0:0:0:
448,192,117387,1,0,0:0:0:0:
320,192,117387,1,0,0:0:0:0:
192,192,117470,1,0,0:0:0:0:
448,192,117554,1,0,0:0:0:0:
448,192,117637,1,0,0:0:0:0:
64,192,117720,1,0,0:0:0:0:
320,192,117720,1,0,0:0:0:0:
192,192,117804,1,0,0:0:0:0:
320,192,117887,1,0,0:0:0:0:
192,192,117970,1,0,0:0:0:0:
320,192,118054,1,0,0:0:0:0:
448,192,118095,1,0,0:0:0:0:
64,192,118137,1,0,0:0:0:0:
192,192,118179,1,0,0:0:0:0:
320,192,118220,1,0,0:0:0:0:
448,192,118262,1,0,0:0:0:0:
64,192,118304,1,0,0:0:0:0:
192,192,118345,1,0,0:0:0:0:
320,192,118387,1,0,0:0:0:0:
448,192,118387,1,0,0:0:0:0:
64,192,118470,128,0,118595:0:0:0:0:
448,192,118554,128,0,118637:0:0:0:0:
64,192,118720,1,0,0:0:0:0:
192,192,118720,1,0,0:0:0:0:
320,192,118720,1,0,0:0:0:0:
448,192,118804,1,0,0:0:0:0:
192,192,118887,1,0,0:0:0:0:
192,192,118970,1,0,0:0:0:0:
64,192,119054,1,0,0:0:0:0:
320,192,119054,1,0,0:0:0:0:
448,192,119054,1,0,0:0:0:0:
192,192,119137,1,0,0:0:0:0:
448,192,119220,1,0,0:0:0:0:
320,192,119304,1,0,0:0:0:0:
64,192,119387,1,0,0:0:0:0:
192,192,119387,1,0,0:0:0:0:
448,192,119387,1,0,0:0:0:0:
320,192,119554,1,0,0:0:0:0:
320,192,119637,1,0,0:0:0:0:
448,192,119720,1,0,0:0:0:0:
192,192,119720,1,0,0:0:0:0:
64,192,119720,1,0,0:0:0:0:
320,192,119804,1,0,0:0:0:0:
192,192,119887,1,0,0:0:0:0:
64,192,120054,1,0,0:0:0:0:
192,192,120054,1,0,0:0:0:0:
320,192,120054,1,0,0:0:0:0:
448,192,120137,1,0,0:0:0:0:
448,192,120220,1,0,0:0:0:0:
64,192,120304,1,0,0:0:0:0:
320,192,120387,1,0,0:0:0:0:
192,192,120387,1,0,0:0:0:0:
448,192,120387,1,0,0:0:0:0:
64,192,120470,1,0,0:0:0:0:
64,192,120554,1,0,0:0:0:0:
320,192,120637,1,0,0:0:0:0:
64,192,120720,1,0,0:0:0:0:
192,192,120720,1,0,0:0:0:0:
448,192,120720,1,0,0:0:0:0:
320,192,120887,1,0,0:0:0:0:
320,192,120970,1,0,0:0:0:0:
192,192,121054,1,0,0:0:0:0:
64,192,121075,1,0,0:0:0:0:
448,192,121095,1,0,0:0:0:0:
320,192,121116,1,0,0:0:0:0:
64,192,121220,1,0,0:0:0:0:
192,192,121220,1,0,0:0:0:0:
448,192,121220,1,0,0:0:0:0:
192,192,121387,1,0,0:0:0:0:
64,192,121387,1,0,0:0:0:0:
448,192,121387,1,0,0:0:0:0:
448,192,121554,1,0,0:0:0:0:
320,192,121575,1,0,0:0:0:0:
64,192,121595,1,0,0:0:0:0:
192,192,121616,1,0,0:0:0:0:
448,192,121720,1,0,0:0:0:0:
320,192,121720,1,0,0:0:0:0:
64,192,121720,1,0,0:0:0:0:
320,192,121887,1,0,0:0:0:0:
448,192,121887,1,0,0:0:0:0:
64,192,121887,1,0,0:0:0:0:
192,192,122054,5,0,0:0:0:0:
64,192,122075,1,0,0:0:0:0:
320,192,122095,1,0,0:0:0:0:
448,192,122116,1,0,0:0:0:0:
192,192,122220,5,0,0:0:0:0:
64,192,122220,1,0,0:0:0:0:
448,192,122276,1,0,0:0:0:0:
320,192,122332,1,0,0:0:0:0:
192,192,122387,1,0,0:0:0:0:
64,192,122450,1,0,0:0:0:0:
448,192,122512,1,0,0:0:0:0:
320,192,122575,5,0,0:0:0:0:
192,192,122637,1,0,0:0:0:0:
64,192,122720,1,0,0:0:0:0:
448,192,122804,1,0,0:0:0:0:
320,192,122887,1,0,0:0:0:0:
192,192,122970,1,0,0:0:0:0:
64,192,123054,1,0,0:0:0:0:
448,192,123165,1,0,0:0:0:0:
320,192,123276,1,0,0:0:0:0:
192,192,123415,1,0,0:0:0:0:
64,192,123582,1,0,0:0:0:0:
192,192,123720,5,0,0:0:0:0:
320,192,123720,1,0,0:0:0:0:
448,192,123720,1,0,0:0:0:0:
64,192,124387,1,0,0:0:0:0:
192,192,125054,1,0,0:0:0:0:
320,192,125554,1,0,0:0:0:0:
448,192,129054,1,0,0:0:0:0:
64,192,129720,1,0,0:0:0:0:
192,192,130387,1,0,0:0:0:0:
320,192,130887,1,0,0:0:0:0:
192,192,133387,128,0,134720:0:0:0:0:
64,192,134720,128,0,134887:0:0:0:0:
320,192,135054,128,0,135220:0:0:0:0:
192,192,135387,128,0,135554:0:0:0:0:
448,192,135720,128,0,136054:0:0:0:0:
64,192,136220,128,0,136387:0:0:0:0:
320,192,136554,1,0,0:0:0:0:
320,192,136720,128,0,136887:0:0:0:0:
192,192,137054,128,0,137387:0:0:0:0:
448,192,137387,1,0,0:0:0:0:
448,192,137554,128,0,138387:0:0:0:0:
64,192,140054,128,0,140220:0:0:0:0:
320,192,140387,128,0,140554:0:0:0:0:
192,192,140720,128,0,140887:0:0:0:0:
448,192,141054,128,0,141387:0:0:0:0:
64,192,141554,128,0,141720:0:0:0:0:
320,192,141887,1,0,0:0:0:0:
192,192,142054,128,0,142220:0:0:0:0:
64,192,142387,128,0,142720:0:0:0:0:
192,192,142887,128,0,143387:0:0:0:0:
320,192,143387,1,0,0:0:0:0:
320,192,143554,128,0,143887:0:0:0:0:
448,192,144054,1,0,0:0:0:0:
448,192,144220,128,0,144887:0:0:0:0:
192,192,144720,128,0,145387:0:0:0:0:
64,192,145054,1,0,0:0:0:0:
320,192,145387,128,0,145554:0:0:0:0:
64,192,145387,1,0,0:0:0:0:
192,192,145720,128,0,145887:0:0:0:0:
64,192,145720,1,0,0:0:0:0:
64,192,146054,128,0,146220:0:0:0:0:
320,192,146054,1,0,0:0:0:0:
448,192,146387,128,0,146720:0:0:0:0:
64,192,146387,1,0,0:0:0:0:
320,192,146720,1,0,0:0:0:0:
64,192,146720,1,0,0:0:0:0:
320,192,146887,128,0,147054:0:0:0:0:
64,192,147054,1,0,0:0:0:0:
320,192,147220,1,0,0:0:0:0:
320,192,147387,128,0,147720:0:0:0:0:
64,192,147387,1,0,0:0:0:0:
448,192,147720,1,0,0:0:0:0:
64,192,147720,128,0,148054:0:0:0:0:
192,192,148054,1,0,0:0:0:0:
448,192,148220,128,0,149387:0:0:0:0:
64,192,148387,1,0,0:0:0:0:
64,192,148720,1,0,0:0:0:0:
64,192,149054,1,0,0:0:0:0:
64,192,149387,1,0,0:0:0:0:
64,192,149720,1,0,0:0:0:0:
192,192,150054,128,0,150220:0:0:0:0:
64,192,150054,1,0,0:0:0:0:
320,192,150387,128,0,150720:0:0:0:0:
64,192,150387,1,0,0:0:0:0:
64,192,150720,1,0,0:0:0:0:
448,192,150720,1,0,0:0:0:0:
64,192,150887,128,0,151054:0:0:0:0:
192,192,151054,1,0,0:0:0:0:
448,192,151220,128,0,151387:0:0:0:0:
64,192,151387,1,0,0:0:0:0:
320,192,151554,128,0,152220:0:0:0:0:
64,192,151720,1,0,0:0:0:0:
64,192,152054,1,0,0:0:0:0:
64,192,152387,1,0,0:0:0:0:
64,192,152720,128,0,152887:0:0:0:0:
320,192,152720,1,0,0:0:0:0:
448,192,153054,128,0,153387:0:0:0:0:
64,192,153054,1,0,0:0:0:0:
64,192,153387,1,0,0:0:0:0:
192,192,153387,1,0,0:0:0:0:
64,192,153554,128,0,153720:0:0:0:0:
448,192,153720,1,0,0:0:0:0:
320,192,153887,128,0,154054:0:0:0:0:
64,192,154054,1,0,0:0:0:0:
192,192,154220,128,0,155720:0:0:0:0:
448,192,155054,128,0,158387:0:0:0:0:
320,192,157054,128,0,158387:0:0:0:0:
192,192,158387,128,0,159054:0:0:0:0:
64,192,158387,1,0,0:0:0:0:
320,192,159054,1,0,0:0:0:0:
64,192,159720,128,0,160054:0:0:0:0:
448,192,159720,1,0,0:0:0:0:
192,192,160220,128,0,160720:0:0:0:0:
320,192,160220,1,0,0:0:0:0:
448,192,160887,1,0,0:0:0:0:
192,192,161054,128,0,161720:0:0:0:0:
64,192,161054,1,0,0:0:0:0:
448,192,161220,1,0,0:0:0:0:
320,192,161554,1,0,0:0:0:0:
64,192,161887,1,0,0:0:0:0:
320,192,162220,1,0,0:0:0:0:
64,192,162387,128,0,162720:0:0:0:0:
320,192,162554,1,0,0:0:0:0:
448,192,162720,1,0,0:0:0:0:
192,192,162887,128,0,163387:0:0:0:0:
192,192,163720,128,0,164387:0:0:0:0:
64,192,163720,1,0,0:0:0:0:
320,192,164387,1,0,0:0:0:0:
64,192,165054,128,0,165387:0:0:0:0:
448,192,165054,1,0,0:0:0:0:
192,192,165554,128,0,166054:0:0:0:0:
320,192,165554,1,0,0:0:0:0:
448,192,166220,1,0,0:0:0:0:
192,192,166387,128,0,166720:0:0:0:0:
320,192,166387,1,0,0:0:0:0:
320,192,166554,1,0,0:0:0:0:
64,192,166887,128,0,167387:0:0:0:0:
448,192,166887,1,0,0:0:0:0:
448,192,167054,1,0,0:0:0:0:
320,192,167387,1,0,0:0:0:0:
320,192,167554,1,0,0:0:0:0:
64,192,167720,128,0,168054:0:0:0:0:
448,192,167887,1,0,0:0:0:0:
448,192,168054,1,0,0:0:0:0:
192,192,168220,128,0,168720:0:0:0:0:
448,192,168720,1,0,0:0:0:0:
320,192,168776,1,0,0:0:0:0:
64,192,168832,1,0,0:0:0:0:
192,192,168887,1,0,0:0:0:0:
320,192,168943,1,0,0:0:0:0:
448,192,168998,1,0,0:0:0:0:
64,192,169054,1,0,0:0:0:0:
192,192,169054,128,0,169554:0:0:0:0:
448,192,169720,128,0,170220:0:0:0:0:
64,192,170387,128,0,170720:0:0:0:0:
320,192,170887,128,0,171220:0:0:0:0:
192,192,171554,1,0,0:0:0:0:
448,192,171720,1,0,0:0:0:0:
448,192,171887,128,0,172054:0:0:0:0:
320,192,172220,128,0,172387:0:0:0:0:
192,192,172554,128,0,172720:0:0:0:0:
192,192,172887,128,0,173054:0:0:0:0:
448,192,173054,1,0,0:0:0:0:
64,192,173220,1,0,0:0:0:0:
64,192,173387,128,0,174054:0:0:0:0:
448,192,173554,128,0,173637:0:0:0:0:
320,192,173720,128,0,173804:0:0:0:0:
192,192,173887,128,0,173970:0:0:0:0:
320,192,174054,128,0,174137:0:0:0:0:
448,192,174220,128,0,174304:0:0:0:0:
192,192,174387,128,0,174887:0:0:0:0:
64,192,174387,1,0,0:0:0:0:
64,192,174720,1,0,0:0:0:0:
320,192,174720,1,0,0:0:0:0:
448,192,175054,128,0,175554:0:0:0:0:
64,192,175054,1,0,0:0:0:0:
320,192,175387,1,0,0:0:0:0:
64,192,175387,1,0,0:0:0:0:
64,192,175720,128,0,176054:0:0:0:0:
192,192,175720,1,0,0:0:0:0:
448,192,176054,1,0,0:0:0:0:
320,192,176054,1,0,0:0:0:0:
192,192,176220,128,0,176554:0:0:0:0:
448,192,176387,1,0,0:0:0:0:
64,192,176387,1,0,0:0:0:0:
320,192,176720,1,0,0:0:0:0:
64,192,176720,1,0,0:0:0:0:
448,192,176887,128,0,176970:0:0:0:0:
64,192,177054,128,0,177137:0:0:0:0:
192,192,177054,128,0,177137:0:0:0:0:
64,192,177220,128,0,177387:0:0:0:0:
192,192,177220,128,0,177387:0:0:0:0:
64,192,177554,128,0,177637:0:0:0:0:
320,192,177554,128,0,177637:0:0:0:0:
64,192,177720,128,0,177887:0:0:0:0:
320,192,177720,128,0,177887:0:0:0:0:
64,192,178054,128,0,178137:0:0:0:0:
448,192,178054,128,0,178137:0:0:0:0:
64,192,178220,128,0,179387:0:0:0:0:
448,192,178220,128,0,179387:0:0:0:0:
320,192,179387,1,0,0:0:0:0:
192,192,179387,1,0,0:0:0:0:
64,192,179720,1,0,0:0:0:0:
448,192,179720,128,0,180220:0:0:0:0:
320,192,179804,128,0,180387:0:0:0:0:
64,192,180220,128,0,180283:0:0:0:0:
448,192,180387,1,0,0:0:0:0:
192,192,180387,128,0,180470:0:0:0:0:
64,192,180387,1,0,0:0:0:0:
192,192,180554,128,0,180637:0:0:0:0:
320,192,180720,128,0,180804:0:0:0:0:
448,192,180887,128,0,181054:0:0:0:0:
320,192,181054,1,0,0:0:0:0:
192,192,181054,128,0,181470:0:0:0:0:
64,192,181137,128,0,181470:0:0:0:0:
320,192,181554,1,0,0:0:0:0:
448,192,181554,128,0,182054:0:0:0:0:
192,192,181637,128,0,182387:0:0:0:0:
320,192,182054,1,0,0:0:0:0:
64,192,182137,1,0,0:0:0:0:
448,192,182220,1,0,0:0:0:0:
64,192,182304,1,0,0:0:0:0:
448,192,182387,1,0,0:0:0:0:
320,192,182387,128,0,182526:0:0:0:0:
64,192,182443,128,0,182582:0:0:0:0:
448,192,182582,1,0,0:0:0:0:
320,192,182609,1,0,0:0:0:0:
192,192,182637,1,0,0:0:0:0:
64,192,182720,1,0,0:0:0:0:
448,192,182720,128,0,182887:0:0:0:0:
192,192,182804,128,0,183054:0:0:0:0:
320,192,183054,1,0,0:0:0:0:
64,192,183116,1,0,0:0:0:0:
320,192,183220,1,0,0:0:0:0:
448,192,183220,128,0,183387:0:0:0:0:
192,192,183304,128,0,183554:0:0:0:0:
320,192,183554,128,0,183679:0:0:0:0:
448,192,183554,128,0,183679:0:0:0:0:
192,192,183720,1,0,0:0:0:0:
64,192,183720,128,0,183887:0:0:0:0:
448,192,183804,128,0,183970:0:0:0:0:
320,192,183970,1,0,0:0:0:0:
192,192,183970,128,0,184137:0:0:0:0:
64,192,184054,128,0,184220:0:0:0:0:
448,192,184220,1,0,0:0:0:0:
320,192,184220,128,0,184387:0:0:0:0:
192,192,184304,128,0,184470:0:0:0:0:
64,192,184470,1,0,0:0:0:0:
448,192,184470,128,0,184637:0:0:0:0:
320,192,184554,128,0,184720:0:0:0:0:
64,192,184720,128,0,185054:0:0:0:0:
320,192,185054,1,0,0:0:0:0:
192,192,185054,1,0,0:0:0:0:
448,192,185095,1,0,0:0:0:0:
64,192,185179,1,0,0:0:0:0:
64,192,185304,1,0,0:0:0:0:
320,192,185429,1,0,0:0:0:0:
320,192,185554,1,0,0:0:0:0:
448,192,185720,1,0,0:0:0:0:
192,192,185720,128,0,185804:0:0:0:0:
64,192,185720,128,0,186304:0:0:0:0:
192,192,185887,128,0,185970:0:0:0:0:
320,192,186054,128,0,186158:0:0:0:0:
448,192,186137,128,0,186387:0:0:0:0:
64,192,186387,1,0,0:0:0:0:
320,192,186387,128,0,186804:0:0:0:0:
192,192,186470,128,0,186804:0:0:0:0:
64,192,186887,1,0,0:0:0:0:
448,192,186887,128,0,187387:0:0:0:0:
320,192,186970,128,0,187387:0:0:0:0:
64,192,187387,128,0,187470:0:0:0:0:
192,192,187470,128,0,187554:0:0:0:0:
448,192,187554,128,0,187637:0:0:0:0:
320,192,187637,128,0,187720:0:0:0:0:
64,192,187720,1,0,0:0:0:0:
192,192,187720,128,0,187887:0:0:0:0:
448,192,187720,1,0,0:0:0:0:
320,192,187887,1,0,0:0:0:0:
192,192,187970,128,0,188054:0:0:0:0:
448,192,188054,1,0,0:0:0:0:
320,192,188054,1,0,0:0:0:0:
192,192,188220,128,0,188387:0:0:0:0:
448,192,188387,1,0,0:0:0:0:
320,192,188387,1,0,0:0:0:0:
320,192,188554,128,0,188720:0:0:0:0:
64,192,188720,128,0,188845:0:0:0:0:
192,192,188762,128,0,188845:0:0:0:0:
448,192,188887,128,0,189012:0:0:0:0:
320,192,188929,128,0,189012:0:0:0:0:
64,192,189054,1,0,0:0:0:0:
192,192,189054,128,0,189220:0:0:0:0:
320,192,189220,1,0,0:0:0:0:
192,192,189304,128,0,189387:0:0:0:0:
320,192,189387,1,0,0:0:0:0:
448,192,189387,1,0,0:0:0:0:
192,192,189554,128,0,189720:0:0:0:0:
320,192,189720,1,0,0:0:0:0:
448,192,189720,1,0,0:0:0:0:
320,192,189887,128,0,190054:0:0:0:0:
448,192,190054,1,0,0:0:0:0:
64,192,190054,128,0,190137:0:0:0:0:
192,192,190137,128,0,190220:0:0:0:0:
320,192,190220,128,0,190304:0:0:0:0:
448,192,190304,128,0,190387:0:0:0:0:
64,192,190387,1,0,0:0:0:0:
192,192,190387,128,0,190637:0:0:0:0:
320,192,190470,128,0,190637:0:0:0:0:
64,192,190554,128,0,190720:0:0:0:0:
448,192,190720,1,0,0:0:0:0:
192,192,190720,1,0,0:0:0:0:
320,192,190720,1,0,0:0:0:0:
192,192,190887,128,0,191054:0:0:0:0:
448,192,190887,128,0,191220:0:0:0:0:
320,192,191137,128,0,191220:0:0:0:0:
64,192,191220,128,0,191345:0:0:0:0:
448,192,191387,1,0,0:0:0:0:
320,192,191415,1,0,0:0:0:0:
192,192,191443,1,0,0:0:0:0:
64,192,191470,1,0,0:0:0:0:
448,192,191554,128,0,191720:0:0:0:0:
320,192,191720,1,0,0:0:0:0:
64,192,191720,128,0,192137:0:0:0:0:
192,192,191804,128,0,192137:0:0:0:0:
64,192,192220,1,0,0:0:0:0:
320,192,192220,128,0,192720:0:0:0:0:
448,192,192304,128,0,192720:0:0:0:0:
64,192,192720,1,0,0:0:0:0:
192,192,192720,1,0,0:0:0:0:
448,192,192804,1,0,0:0:0:0:
320,192,192804,1,0,0:0:0:0:
192,192,192887,1,0,0:0:0:0:
64,192,192887,1,0,0:0:0:0:
320,192,192970,1,0,0:0:0:0:
448,192,192970,1,0,0:0:0:0:
192,192,193054,1,0,0:0:0:0:
64,192,193137,1,0,0:0:0:0:
448,192,193220,1,0,0:0:0:0:
320,192,193304,1,0,0:0:0:0:
192,192,193387,1,0,0:0:0:0:
64,192,193470,1,0,0:0:0:0:
64,192,193720,1,0,0:0:0:0:
192,192,193720,1,0,0:0:0:0:
448,192,193720,1,0,0:0:0:0:
320,192,193832,128,0,193915:0:0:0:0:
448,192,193915,128,0,193998:0:0:0:0:
192,192,193998,128,0,194082:0:0:0:0:
320,192,194082,128,0,194165:0:0:0:0:
64,192,194220,128,0,194304:0:0:0:0:
320,192,194554,1,0,0:0:0:0:
192,192,194575,128,0,194720:0:0:0:0:
448,192,194720,128,0,194804:0:0:0:0:
448,192,194887,128,0,195054:0:0:0:0:
192,192,195054,128,0,195137:0:0:0:0:
320,192,195054,128,0,195137:0:0:0:0:
64,192,195304,128,0,195387:0:0:0:0:
192,192,195304,128,0,195387:0:0:0:0:
320,192,195554,128,0,195637:0:0:0:0:
448,192,195554,128,0,195637:0:0:0:0:
192,192,195720,1,0,0:0:0:0:
64,192,195720,128,0,196220:0:0:0:0:
448,192,195804,128,0,196387:0:0:0:0:
320,192,196220,128,0,196304:0:0:0:0:
64,192,196387,1,0,0:0:0:0:
192,192,196387,128,0,196470:0:0:0:0:
320,192,196387,1,0,0:0:0:0:
192,192,196554,128,0,196637:0:0:0:0:
64,192,196637,1,0,0:0:0:0:
320,192,196720,128,0,196825:0:0:0:0:
448,192,196804,128,0,197054:0:0:0:0:
64,192,196887,1,0,0:0:0:0:
320,192,197054,1,0,0:0:0:0:
192,192,197054,128,0,197470:0:0:0:0:
64,192,197137,128,0,197470:0:0:0:0:
448,192,197554,1,0,0:0:0:0:
320,192,197554,128,0,198054:0:0:0:0:
192,192,197637,128,0,198054:0:0:0:0:
64,192,198054,1,0,0:0:0:0:
448,192,198095,128,0,198220:0:0:0:0:
320,192,198220,1,0,0:0:0:0:
64,192,198262,1,0,0:0:0:0:
192,192,198304,1,0,0:0:0:0:
320,192,198345,1,0,0:0:0:0:
192,192,198387,128,0,198554:0:0:0:0:
64,192,198387,1,0,0:0:0:0:
448,192,198387,1,0,0:0:0:0:
320,192,198554,1,0,0:0:0:0:
192,192,198637,128,0,198720:0:0:0:0:
448,192,198720,1,0,0:0:0:0:
320,192,198720,1,0,0:0:0:0:
64,192,198720,1,0,0:0:0:0:
192,192,198887,128,0,199054:0:0:0:0:
448,192,199054,1,0,0:0:0:0:
320,192,199054,1,0,0:0:0:0:
320,192,199220,128,0,199387:0:0:0:0:
192,192,199387,1,0,0:0:0:0:
64,192,199387,1,0,0:0:0:0:
448,192,199429,1,0,0:0:0:0:
320,192,199470,1,0,0:0:0:0:
64,192,199512,1,0,0:0:0:0:
192,192,199554,5,0,0:0:0:0:
320,192,199595,1,0,0:0:0:0:
64,192,199720,5,0,0:0:0:0:
192,192,199720,128,0,199887:0:0:0:0:
448,192,199887,1,0,0:0:0:0:
192,192,199970,128,0,200054:0:0:0:0:
320,192,200054,1,0,0:0:0:0:
448,192,200054,1,0,0:0:0:0:
64,192,200054,1,0,0:0:0:0:
192,192,200220,128,0,200387:0:0:0:0:
448,192,200387,1,0,0:0:0:0:
64,192,200387,128,0,200720:0:0:0:0:
320,192,200554,1,0,0:0:0:0:
448,192,200720,5,0,0:0:0:0:
320,192,200720,1,0,0:0:0:0:
192,192,200776,1,0,0:0:0:0:
64,192,200832,1,0,0:0:0:0:
448,192,200887,1,0,0:0:0:0:
320,192,200943,1,0,0:0:0:0:
192,192,200998,1,0,0:0:0:0:
64,192,201054,1,0,0:0:0:0:
320,192,201054,1,0,0:0:0:0:
448,192,201054,128,0,201387:0:0:0:0:
64,192,201387,1,0,0:0:0:0:
192,192,201387,1,0,0:0:0:0:
320,192,201554,128,0,201720:0:0:0:0:
448,192,201609,1,0,0:0:0:0:
192,192,201720,1,0,0:0:0:0:
64,192,201720,1,0,0:0:0:0:
448,192,201804,1,0,0:0:0:0:
320,192,201887,128,0,201970:0:0:0:0:
192,192,202054,1,0,0:0:0:0:
64,192,202054,1,0,0:0:0:0:
320,192,202109,128,0,202220:0:0:0:0:
64,192,202387,1,0,0:0:0:0:
192,192,202387,1,0,0:0:0:0:
448,192,202554,128,0,202679:0:0:0:0:
64,192,202720,1,0,0:0:0:0:
192,192,202720,1,0,0:0:0:0:
320,192,202887,128,0,203054:0:0:0:0:
448,192,202943,1,0,0:0:0:0:
64,192,203054,1,0,0:0:0:0:
192,192,203054,1,0,0:0:0:0:
448,192,203137,1,0,0:0:0:0:
320,192,203220,128,0,203304:0:0:0:0:
64,192,203387,1,0,0:0:0:0:
192,192,203387,1,0,0:0:0:0:
320,192,203443,128,0,203554:0:0:0:0:
448,192,203554,1,0,0:0:0:0:
64,192,203554,1,0,0:0:0:0:
448,192,203720,128,0,204054:0:0:0:0:
192,192,203720,1,0,0:0:0:0:
192,192,204054,1,0,0:0:0:0:
64,192,204054,1,0,0:0:0:0:
320,192,204220,128,0,204387:0:0:0:0:
448,192,204276,1,0,0:0:0:0:
192,192,204387,1,0,0:0:0:0:
64,192,204387,1,0,0:0:0:0:
448,192,204470,1,0,0:0:0:0:
320,192,204554,128,0,204637:0:0:0:0:
448,192,204720,1,0,0:0:0:0:
192,192,204720,1,0,0:0:0:0:
320,192,204776,128,0,204887:0:0:0:0:
192,192,204970,1,0,0:0:0:0:
64,192,205054,128,0,205137:0:0:0:0:
448,192,205054,1,0,0:0:0:0:
320,192,205220,1,0,0:0:0:0:
64,192,205276,128,0,205387:0:0:0:0:
448,192,205387,1,0,0:0:0:0:
320,192,205387,1,0,0:0:0:0:
192,192,205470,1,0,0:0:0:0:
448,192,205554,128,0,205637:0:0:0:0:
192,192,205720,1,0,0:0:0:0:
64,192,205720,128,0,206054:0:0:0:0:
448,192,205776,128,0,205887:0:0:0:0:
320,192,205887,128,0,206054:0:0:0:0:
448,192,206054,1,0,0:0:0:0:
192,192,206054,128,0,206220:0:0:0:0:
320,192,206137,1,0,0:0:0:0:
448,192,206220,1,0,0:0:0:0:
64,192,206220,128,0,206387:0:0:0:0:
320,192,206304,1,0,0:0:0:0:
448,192,206387,128,0,206720:0:0:0:0:
192,192,206387,1,0,0:0:0:0:
64,192,206720,1,0,0:0:0:0:
192,192,206720,1,0,0:0:0:0:
320,192,206887,128,0,207054:0:0:0:0:
448,192,206943,1,0,0:0:0:0:
192,192,207054,1,0,0:0:0:0:
64,192,207054,1,0,0:0:0:0:
448,192,207137,1,0,0:0:0:0:
320,192,207220,128,0,207304:0:0:0:0:
448,192,207387,1,0,0:0:0:0:
64,192,207387,1,0,0:0:0:0:
320,192,207443,128,0,207554:0:0:0:0:
64,192,207720,1,0,0:0:0:0:
192,192,207720,1,0,0:0:0:0:
448,192,207887,128,0,208012:0:0:0:0:
64,192,208054,1,0,0:0:0:0:
192,192,208054,1,0,0:0:0:0:
320,192,208220,128,0,208387:0:0:0:0:
448,192,208276,1,0,0:0:0:0:
64,192,208387,1,0,0:0:0:0:
192,192,208387,1,0,0:0:0:0:
448,192,208470,1,0,0:0:0:0:
320,192,208554,128,0,208637:0:0:0:0:
64,192,208720,1,0,0:0:0:0:
192,192,208720,1,0,0:0:0:0:
320,192,208776,128,0,208887:0:0:0:0:
448,192,208887,1,0,0:0:0:0:
64,192,208887,1,0,0:0:0:0:
448,192,209054,128,0,209387:0:0:0:0:
192,192,209054,1,0,0:0:0:0:
192,192,209387,1,0,0:0:0:0:
64,192,209387,1,0,0:0:0:0:
320,192,209554,128,0,209720:0:0:0:0:
448,192,209609,1,0,0:0:0:0:
192,192,209720,1,0,0:0:0:0:
64,192,209720,1,0,0:0:0:0:
448,192,209804,1,0,0:0:0:0:
320,192,209887,128,0,209970:0:0:0:0:
448,192,210054,1,0,0:0:0:0:
192,192,210054,1,0,0:0:0:0:
320,192,210109,128,0,210220:0:0:0:0:
192,192,210304,1,0,0:0:0:0:
64,192,210387,128,0,210470:0:0:0:0:
448,192,210387,1,0,0:0:0:0:
320,192,210554,1,0,0:0:0:0:
64,192,210609,128,0,210720:0:0:0:0:
448,192,210720,1,0,0:0:0:0:
320,192,210720,1,0,0:0:0:0:
192,192,210804,1,0,0:0:0:0:
448,192,210887,128,0,210970:0:0:0:0:
64,192,211054,1,0,0:0:0:0:
192,192,211054,1,0,0:0:0:0:
448,192,211109,128,0,211220:0:0:0:0:
448,192,211387,1,0,0:0:0:0:
64,192,211387,1,0,0:0:0:0:
192,192,211470,1,0,0:0:0:0:
320,192,211470,1,0,0:0:0:0:
64,192,211554,1,0,0:0:0:0:
448,192,211554,1,0,0:0:0:0:
320,192,211637,1,0,0:0:0:0:
64,192,211720,1,0,0:0:0:0:
448,192,211720,1,0,0:0:0:0:
192,192,211720,128,0,212054:0:0:0:0:
320,192,211887,1,0,0:0:0:0:
320,192,212054,1,0,0:0:0:0:
448,192,212054,1,0,0:0:0:0:
64,192,212220,128,0,212387:0:0:0:0:
192,192,212220,1,0,0:0:0:0:
320,192,212304,1,0,0:0:0:0:
192,192,212387,1,0,0:0:0:0:
448,192,212387,1,0,0:0:0:0:
64,192,212554,128,0,212637:0:0:0:0:
320,192,212554,1,0,0:0:0:0:
320,192,212720,1,0,0:0:0:0:
448,192,212720,1,0,0:0:0:0:
64,192,212776,128,0,212887:0:0:0:0:
192,192,212887,1,0,0:0:0:0:
448,192,212887,1,0,0:0:0:0:
320,192,212970,1,0,0:0:0:0:
64,192,213054,1,0,0:0:0:0:
192,192,213054,1,0,0:0:0:0:
448,192,213220,128,0,213345:0:0:0:0:
320,192,213220,1,0,0:0:0:0:
64,192,213387,1,0,0:0:0:0:
192,192,213387,1,0,0:0:0:0:
320,192,213554,128,0,213720:0:0:0:0:
448,192,213554,1,0,0:0:0:0:
64,192,213637,1,0,0:0:0:0:
192,192,213720,1,0,0:0:0:0:
448,192,213720,1,0,0:0:0:0:
320,192,213887,128,0,213970:0:0:0:0:
64,192,213887,1,0,0:0:0:0:
192,192,214054,1,0,0:0:0:0:
64,192,214054,1,0,0:0:0:0:
320,192,214109,128,0,214220:0:0:0:0:
448,192,214220,1,0,0:0:0:0:
192,192,214220,1,0,0:0:0:0:
64,192,214304,1,0,0:0:0:0:
448,192,214387,128,0,214720:0:0:0:0:
320,192,214387,1,0,0:0:0:0:
192,192,214554,1,0,0:0:0:0:
192,192,214720,1,0,0:0:0:0:
320,192,214720,1,0,0:0:0:0:
64,192,214887,128,0,215054:0:0:0:0:
448,192,214887,1,0,0:0:0:0:
192,192,214970,1,0,0:0:0:0:
320,192,215054,1,0,0:0:0:0:
448,192,215054,1,0,0:0:0:0:
192,192,215220,128,0,215304:0:0:0:0:
320,192,215220,1,0,0:0:0:0:
64,192,215387,1,0,0:0:0:0:
448,192,215387,1,0,0:0:0:0:
192,192,215443,128,0,215554:0:0:0:0:
320,192,215554,1,0,0:0:0:0:
448,192,215554,1,0,0:0:0:0:
64,192,215637,1,0,0:0:0:0:
320,192,215720,128,0,215804:0:0:0:0:
192,192,215720,1,0,0:0:0:0:
448,192,215887,1,0,0:0:0:0:
64,192,215887,1,0,0:0:0:0:
320,192,215943,128,0,216054:0:0:0:0:
192,192,216054,1,0,0:0:0:0:
64,192,216054,1,0,0:0:0:0:
448,192,216220,128,0,216304:0:0:0:0:
320,192,216220,1,0,0:0:0:0:
192,192,216304,1,0,0:0:0:0:
64,192,216387,1,0,0:0:0:0:
320,192,216387,1,0,0:0:0:0:
448,192,216443,128,0,216554:0:0:0:0:
192,192,216554,1,0,0:0:0:0:
64,192,216554,1,0,0:0:0:0:
320,192,216720,128,0,216804:0:0:0:0:
192,192,216720,1,0,0:0:0:0:
64,192,216887,1,0,0:0:0:0:
448,192,216887,1,0,0:0:0:0:
320,192,216970,1,0,0:0:0:0:
192,192,217054,1,0,0:0:0:0:
64,192,217054,1,0,0:0:0:0:
448,192,217054,128,0,217554:0:0:0:0:
320,192,217220,1,0,0:0:0:0:
192,192,217220,1,0,0:0:0:0:
320,192,217387,128,0,217554:0:0:0:0:
64,192,217387,1,0,0:0:0:0:
64,192,217554,1,0,0:0:0:0:
192,192,217554,1,0,0:0:0:0:
320,192,217637,1,0,0:0:0:0:
192,192,217720,1,0,0:0:0:0:
64,192,217720,1,0,0:0:0:0:
448,192,217720,128,0,217887:0:0:0:0:
192,192,217887,1,0,0:0:0:0:
320,192,217887,1,0,0:0:0:0:
448,192,218054,128,0,218220:0:0:0:0:
64,192,218054,1,0,0:0:0:0:
192,192,218220,1,0,0:0:0:0:
64,192,218220,1,0,0:0:0:0:
320,192,218304,1,0,0:0:0:0:
448,192,218387,128,0,218554:0:0:0:0:
192,192,218387,1,0,0:0:0:0:
64,192,218387,1,0,0:0:0:0:
320,192,218554,1,0,0:0:0:0:
192,192,218554,1,0,0:0:0:0:
448,192,218720,128,0,218887:0:0:0:0:
64,192,218720,1,0,0:0:0:0:
192,192,218887,1,0,0:0:0:0:
64,192,218887,1,0,0:0:0:0:
320,192,218970,1,0,0:0:0:0:
448,192,219054,128,0,219220:0:0:0:0:
192,192,219054,1,0,0:0:0:0:
64,192,219054,1,0,0:0:0:0:
320,192,219220,1,0,0:0:0:0:
192,192,219220,1,0,0:0:0:0:
448,192,219387,128,0,219554:0:0:0:0:
64,192,219387,1,0,0:0:0:0:
64,192,219554,1,0,0:0:0:0:
192,192,219554,1,0,0:0:0:0:
320,192,219637,1,0,0:0:0:0:
64,192,219720,5,0,0:0:0:0:
192,192,219720,1,0,0:0:0:0:
448,192,219720,1,0,0:0:0:0:
192,192,219804,1,0,0:0:0:0:
64,192,219804,1,0,0:0:0:0:
320,192,219887,1,0,0:0:0:0:
448,192,219887,1,0,0:0:0:0:
192,192,219970,1,0,0:0:0:0:
64,192,219970,1,0,0:0:0:0:
64,192,220054,1,0,0:0:0:0:
320,192,220054,1,0,0:0:0:0:
448,192,220054,1,0,0:0:0:0:
320,192,220137,1,0,0:0:0:0:
448,192,220137,1,0,0:0:0:0:
64,192,220220,1,0,0:0:0:0:
192,192,220220,1,0,0:0:0:0:
320,192,220304,1,0,0:0:0:0:
448,192,220304,1,0,0:0:0:0:
192,192,220387,1,0,0:0:0:0:
64,192,220387,1,0,0:0:0:0:
448,192,220429,1,0,0:0:0:0:
320,192,220470,1,0,0:0:0:0:
192,192,220512,1,0,0:0:0:0:
64,192,220554,1,0,0:0:0:0:
448,192,220595,1,0,0:0:0:0:
320,192,220637,1,0,0:0:0:0:
192,192,220679,1,0,0:0:0:0:
64,192,220720,1,0,0:0:0:0:
448,192,220762,1,0,0:0:0:0:
320,192,220804,1,0,0:0:0:0:
192,192,220845,1,0,0:0:0:0:
64,192,220887,1,0,0:0:0:0:
448,192,220929,1,0,0:0:0:0:
320,192,220970,1,0,0:0:0:0:
192,192,221012,1,0,0:0:0:0:
448,192,221054,128,0,221304:0:0:0:0:
64,192,221054,128,0,221387:0:0:0:0:
448,192,221387,128,0,221554:0:0:0:0:
192,192,221429,128,0,221554:0:0:0:0:
192,192,221720,128,0,221929:0:0:0:0:
320,192,221720,128,0,221929:0:0:0:0:
64,192,221720,128,0,221929:0:0:0:0:
320,192,222033,1,0,0:0:0:0:
192,192,222054,128,0,222220:0:0:0:0:
64,192,222054,128,0,222220:0:0:0:0:
448,192,222054,128,0,222220:0:0:0:0:
320,192,222387,1,0,0:0:0:0:
448,192,222387,1,0,0:0:0:0:
64,192,222387,1,0,0:0:0:0:
192,192,222470,128,0,222637:0:0:0:0:
320,192,222554,128,0,222637:0:0:0:0:
448,192,222595,128,0,222720:0:0:0:0:
64,192,222637,128,0,222720:0:0:0:0:
192,192,222720,1,0,0:0:0:0:
320,192,222720,1,0,0:0:0:0:
448,192,222804,128,0,222970:0:0:0:0:
192,192,222887,128,0,222970:0:0:0:0:
64,192,222887,128,0,223054:0:0:0:0:
448,192,223054,1,0,0:0:0:0:
192,192,223054,1,0,0:0:0:0:
320,192,223137,128,0,223304:0:0:0:0:
64,192,223220,128,0,223387:0:0:0:0:
448,192,223220,128,0,223304:0:0:0:0:
192,192,223304,128,0,223387:0:0:0:0:
320,192,223387,1,0,0:0:0:0:
448,192,223387,1,0,0:0:0:0:
192,192,223470,128,0,223637:0:0:0:0:
448,192,223554,128,0,223720:0:0:0:0:
320,192,223554,128,0,223720:0:0:0:0:
192,192,223720,1,0,0:0:0:0:
64,192,223720,1,0,0:0:0:0:
448,192,223804,128,0,223970:0:0:0:0:
192,192,223887,128,0,223970:0:0:0:0:
64,192,223929,128,0,224054:0:0:0:0:
320,192,223970,128,0,224054:0:0:0:0:
448,192,224054,1,0,0:0:0:0:
192,192,224054,1,0,0:0:0:0:
64,192,224137,128,0,224304:0:0:0:0:
448,192,224220,128,0,224304:0:0:0:0:
320,192,224220,128,0,224387:0:0:0:0:
64,192,224387,1,0,0:0:0:0:
448,192,224387,1,0,0:0:0:0:
192,192,224470,128,0,224637:0:0:0:0:
320,192,224554,128,0,224720:0:0:0:0:
64,192,224554,128,0,224637:0:0:0:0:
448,192,224637,128,0,224720:0:0:0:0:
192,192,224720,1,0,0:0:0:0:
64,192,224720,1,0,0:0:0:0:
448,192,224804,128,0,224970:0:0:0:0:
64,192,224887,128,0,224970:0:0:0:0:
192,192,224887,128,0,224970:0:0:0:0:
320,192,225054,1,0,0:0:0:0:
192,192,225054,1,0,0:0:0:0:
448,192,225054,1,0,0:0:0:0:
64,192,225137,128,0,225304:0:0:0:0:
320,192,225220,128,0,225304:0:0:0:0:
448,192,225262,128,0,225387:0:0:0:0:
192,192,225304,128,0,225387:0:0:0:0:
320,192,225387,1,0,0:0:0:0:
64,192,225387,1,0,0:0:0:0:
448,192,225470,128,0,225637:0:0:0:0:
192,192,225554,128,0,225720:0:0:0:0:
64,192,225554,128,0,225637:0:0:0:0:
64,192,225720,1,0,0:0:0:0:
448,192,225720,1,0,0:0:0:0:
320,192,225804,128,0,225970:0:0:0:0:
448,192,225887,128,0,225970:0:0:0:0:
192,192,225887,128,0,226054:0:0:0:0:
64,192,225970,128,0,226054:0:0:0:0:
448,192,226054,1,0,0:0:0:0:
320,192,226054,1,0,0:0:0:0:
64,192,226137,128,0,226304:0:0:0:0:
448,192,226220,128,0,226387:0:0:0:0:
320,192,226220,128,0,226387:0:0:0:0:
64,192,226387,1,0,0:0:0:0:
192,192,226387,1,0,0:0:0:0:
320,192,226470,128,0,226637:0:0:0:0:
64,192,226554,128,0,226720:0:0:0:0:
448,192,226554,128,0,226637:0:0:0:0:
192,192,226637,128,0,226720:0:0:0:0:
448,192,226720,1,0,0:0:0:0:
320,192,226720,1,0,0:0:0:0:
448,192,226887,128,0,226970:0:0:0:0:
64,192,226970,128,0,227054:0:0:0:0:
320,192,227054,1,0,0:0:0:0:
448,192,227054,1,0,0:0:0:0:
192,192,227095,1,0,0:0:0:0:
64,192,227137,1,0,0:0:0:0:
320,192,227179,1,0,0:0:0:0:
448,192,227220,1,0,0:0:0:0:
192,192,227262,128,0,227345:0:0:0:0:
448,192,227387,1,0,0:0:0:0:
64,192,227387,1,0,0:0:0:0:
320,192,227429,1,0,0:0:0:0:
192,192,227470,1,0,0:0:0:0:
64,192,227512,1,0,0:0:0:0:
320,192,227554,128,0,227637:0:0:0:0:
448,192,227554,128,0,227637:0:0:0:0:
64,192,227720,1,0,0:0:0:0:
192,192,227720,1,0,0:0:0:0:
448,192,227720,1,0,0:0:0:0:
320,192,227804,128,0,227970:0:0:0:0:
64,192,227887,128,0,227970:0:0:0:0:
192,192,227929,128,0,228054:0:0:0:0:
448,192,227970,128,0,228054:0:0:0:0:
320,192,228054,1,0,0:0:0:0:
64,192,228054,1,0,0:0:0:0:
192,192,228137,128,0,228304:0:0:0:0:
320,192,228220,128,0,228304:0:0:0:0:
448,192,228220,128,0,228387:0:0:0:0:
192,192,228387,1,0,0:0:0:0:
320,192,228387,1,0,0:0:0:0:
64,192,228470,128,0,228637:0:0:0:0:
448,192,228554,128,0,228720:0:0:0:0:
192,192,228554,128,0,228637:0:0:0:0:
320,192,228637,128,0,228720:0:0:0:0:
192,192,228720,1,0,0:0:0:0:
64,192,228720,1,0,0:0:0:0:
320,192,228804,128,0,228970:0:0:0:0:
192,192,228887,128,0,229054:0:0:0:0:
64,192,228887,128,0,229054:0:0:0:0:
320,192,229054,1,0,0:0:0:0:
448,192,229054,1,0,0:0:0:0:
192,192,229137,128,0,229304:0:0:0:0:
320,192,229220,128,0,229304:0:0:0:0:
448,192,229262,128,0,229387:0:0:0:0:
64,192,229304,128,0,229387:0:0:0:0:
192,192,229387,1,0,0:0:0:0:
320,192,229387,1,0,0:0:0:0:
448,192,229470,128,0,229637:0:0:0:0:
192,192,229554,128,0,229637:0:0:0:0:
64,192,229554,128,0,229720:0:0:0:0:
448,192,229720,1,0,0:0:0:0:
192,192,229720,1,0,0:0:0:0:
320,192,229804,128,0,229970:0:0:0:0:
64,192,229887,128,0,230054:0:0:0:0:
448,192,229887,128,0,229970:0:0:0:0:
192,192,229970,128,0,230054:0:0:0:0:
320,192,230054,1,0,0:0:0:0:
448,192,230054,1,0,0:0:0:0:
192,192,230137,128,0,230304:0:0:0:0:
448,192,230220,128,0,230304:0:0:0:0:
320,192,230304,128,0,230387:0:0:0:0:
64,192,230387,128,0,230637:0:0:0:0:
448,192,230387,128,0,230470:0:0:0:0:
192,192,230470,128,0,230554:0:0:0:0:
448,192,230554,128,0,230637:0:0:0:0:
320,192,230637,128,0,230720:0:0:0:0:
64,192,230720,1,0,0:0:0:0:
192,192,230720,128,0,230804:0:0:0:0:
320,192,230887,128,0,230970:0:0:0:0:
192,192,230970,128,0,231054:0:0:0:0:
64,192,231054,1,0,0:0:0:0:
448,192,231054,128,0,231220:0:0:0:0:
320,192,231137,128,0,231220:0:0:0:0:
64,192,231220,128,0,231304:0:0:0:0:
192,192,231304,128,0,231387:0:0:0:0:
320,192,231387,1,0,0:0:0:0:
448,192,231387,1,0,0:0:0:0:
192,192,231554,128,0,231720:0:0:0:0:
320,192,231720,1,0,0:0:0:0:
448,192,231720,128,0,231804:0:0:0:0:
64,192,231804,128,0,231887:0:0:0:0:
448,192,231887,128,0,232054:0:0:0:0:
192,192,231887,128,0,231970:0:0:0:0:
320,192,231970,128,0,232054:0:0:0:0:
192,192,232054,1,0,0:0:0:0:
64,192,232054,128,0,232137:0:0:0:0:
320,192,232137,128,0,232220:0:0:0:0:
64,192,232220,128,0,232304:0:0:0:0:
192,192,232220,128,0,232304:0:0:0:0:
448,192,232304,128,0,232387:0:0:0:0:
192,192,232387,128,0,232470:0:0:0:0:
320,192,232387,128,0,232470:0:0:0:0:
64,192,232470,128,0,232554:0:0:0:0:
448,192,232554,128,0,232637:0:0:0:0:
320,192,232554,128,0,232637:0:0:0:0:
192,192,232637,128,0,232720:0:0:0:0:
448,192,232720,1,0,0:0:0:0:
320,192,232720,128,0,232804:0:0:0:0:
64,192,232804,128,0,232887:0:0:0:0:
448,192,232887,128,0,232970:0:0:0:0:
192,192,232970,128,0,233054:0:0:0:0:
64,192,233054,1,0,0:0:0:0:
320,192,233054,1,0,0:0:0:0:
448,192,233054,1,0,0:0:0:0:
192,192,233137,128,0,233304:0:0:0:0:
320,192,233220,128,0,233304:0:0:0:0:
448,192,233262,128,0,233387:0:0:0:0:
64,192,233304,128,0,233387:0:0:0:0:
192,192,233387,1,0,0:0:0:0:
320,192,233387,1,0,0:0:0:0:
448,192,233470,128,0,233637:0:0:0:0:
192,192,233554,128,0,233637:0:0:0:0:
64,192,233554,128,0,233720:0:0:0:0:
448,192,233720,1,0,0:0:0:0:
192,192,233720,1,0,0:0:0:0:
320,192,233804,128,0,233970:0:0:0:0:
64,192,233887,128,0,234054:0:0:0:0:
448,192,233887,128,0,233970:0:0:0:0:
192,192,233970,128,0,234054:0:0:0:0:
320,192,234054,1,0,0:0:0:0:
448,192,234054,1,0,0:0:0:0:
192,192,234137,128,0,234304:0:0:0:0:
448,192,234220,128,0,234387:0:0:0:0:
320,192,234220,128,0,234387:0:0:0:0:
192,192,234387,1,0,0:0:0:0:
64,192,234387,1,0,0:0:0:0:
448,192,234470,128,0,234637:0:0:0:0:
192,192,234554,128,0,234637:0:0:0:0:
64,192,234595,128,0,234720:0:0:0:0:
320,192,234637,128,0,234720:0:0:0:0:
448,192,234720,1,0,0:0:0:0:
192,192,234720,1,0,0:0:0:0:
64,192,234804,128,0,234970:0:0:0:0:
448,192,234887,128,0,234970:0:0:0:0:
320,192,234887,128,0,235054:0:0:0:0:
64,192,235054,1,0,0:0:0:0:
448,192,235054,1,0,0:0:0:0:
192,192,235137,128,0,235304:0:0:0:0:
320,192,235220,128,0,235387:0:0:0:0:
64,192,235220,128,0,235304:0:0:0:0:
448,192,235304,128,0,235387:0:0:0:0:
192,192,235387,1,0,0:0:0:0:
64,192,235387,1,0,0:0:0:0:
448,192,235470,128,0,235637:0:0:0:0:
64,192,235554,128,0,235637:0:0:0:0:
192,192,235554,128,0,235637:0:0:0:0:
448,192,235720,1,0,0:0:0:0:
320,192,235720,1,0,0:0:0:0:
192,192,235720,1,0,0:0:0:0:
64,192,235804,128,0,235970:0:0:0:0:
320,192,235887,128,0,235970:0:0:0:0:
448,192,235929,128,0,236054:0:0:0:0:
192,192,235970,128,0,236054:0:0:0:0:
320,192,236054,1,0,0:0:0:0:
64,192,236054,1,0,0:0:0:0:
448,192,236137,128,0,236304:0:0:0:0:
192,192,236220,128,0,236387:0:0:0:0:
64,192,236220,128,0,236304:0:0:0:0:
64,192,236387,1,0,0:0:0:0:
448,192,236387,1,0,0:0:0:0:
320,192,236470,128,0,236637:0:0:0:0:
448,192,236554,128,0,236637:0:0:0:0:
192,192,236554,128,0,236720:0:0:0:0:
64,192,236637,128,0,236720:0:0:0:0:
448,192,236720,1,0,0:0:0:0:
320,192,236720,1,0,0:0:0:0:
64,192,236804,128,0,236970:0:0:0:0:
448,192,236887,128,0,237054:0:0:0:0:
320,192,236887,128,0,237054:0:0:0:0:
192,192,237054,1,0,0:0:0:0:
64,192,237054,1,0,0:0:0:0:
320,192,237137,128,0,237304:0:0:0:0:
448,192,237220,128,0,237304:0:0:0:0:
64,192,237304,128,0,237387:0:0:0:0:
192,192,237304,128,0,237387:0:0:0:0:
320,192,237387,1,0,0:0:0:0:
448,192,237387,1,0,0:0:0:0:
192,192,237554,128,0,237637:0:0:0:0:
448,192,237554,128,0,237637:0:0:0:0:
320,192,237637,128,0,237720:0:0:0:0:
192,192,237720,1,0,0:0:0:0:
64,192,237720,128,0,237804:0:0:0:0:
448,192,237804,128,0,237859:0:0:0:0:
320,192,237825,128,0,237970:0:0:0:0:
64,192,237970,128,0,238054:0:0:0:0:
320,192,238054,128,0,238109:0:0:0:0:
448,192,238075,128,0,238220:0:0:0:0:
192,192,238220,128,0,238387:0:0:0:0:
448,192,238387,5,0,0:0:0:0:
320,192,238387,1,0,0:0:0:0:
64,192,238387,1,0,0:0:0:0:
320,192,238470,1,0,0:0:0:0:
448,192,238470,1,0,0:0:0:0:
192,192,238554,1,0,0:0:0:0:
64,192,238554,1,0,0:0:0:0:
448,192,238637,1,0,0:0:0:0:
320,192,238679,1,0,0:0:0:0:
192,192,238720,1,0,0:0:0:0:
64,192,238720,1,0,0:0:0:0:
448,192,238804,1,0,0:0:0:0:
320,192,238804,1,0,0:0:0:0:
64,192,238887,1,0,0:0:0:0:
192,192,238929,1,0,0:0:0:0:
320,192,238970,1,0,0:0:0:0:
448,192,239012,1,0,0:0:0:0:
64,192,239054,1,0,0:0:0:0:
192,192,239054,1,0,0:0:0:0:
320,192,239137,1,0,0:0:0:0:
320,192,239220,1,0,0:0:0:0:
192,192,239304,1,0,0:0:0:0:
448,192,239387,1,0,0:0:0:0:
320,192,239387,1,0,0:0:0:0:
64,192,239387,1,0,0:0:0:0:
448,192,239720,1,0,0:0:0:0:
64,192,239720,1,0,0:0:0:0:
192,192,239720,1,0,0:0:0:0:
192,192,239804,1,0,0:0:0:0:
64,192,239804,1,0,0:0:0:0:
320,192,239887,1,0,0:0:0:0:
448,192,239887,1,0,0:0:0:0:
64,192,239970,1,0,0:0:0:0:
192,192,240012,1,0,0:0:0:0:
320,192,240054,1,0,0:0:0:0:
448,192,240054,1,0,0:0:0:0:
64,192,240137,1,0,0:0:0:0:
192,192,240137,1,0,0:0:0:0:
448,192,240220,1,0,0:0:0:0:
320,192,240262,1,0,0:0:0:0:
192,192,240304,1,0,0:0:0:0:
64,192,240345,1,0,0:0:0:0:
448,192,240387,1,0,0:0:0:0:
320,192,240387,1,0,0:0:0:0:
192,192,240470,1,0,0:0:0:0:
192,192,240554,1,0,0:0:0:0:
320,192,240637,1,0,0:0:0:0:
64,192,240720,1,0,0:0:0:0:
192,192,240720,1,0,0:0:0:0:
448,192,240720,1,0,0:0:0:0:
448,192,241054,1,0,0:0:0:0:
320,192,241054,1,0,0:0:0:0:
64,192,241054,1,0,0:0:0:0:
64,192,241137,1,0,0:0:0:0:
192,192,241137,1,0,0:0:0:0:
320,192,241220,1,0,0:0:0:0:
192,192,241304,1,0,0:0:0:0:
448,192,241304,1,0,0:0:0:0:
64,192,241304,1,0,0:0:0:0:
448,192,241387,1,0,0:0:0:0:
320,192,241387,1,0,0:0:0:0:
192,192,241470,1,0,0:0:0:0:
320,192,241554,1,0,0:0:0:0:
448,192,241554,1,0,0:0:0:0:
64,192,241554,1,0,0:0:0:0:
192,192,241637,1,0,0:0:0:0:
64,192,241637,1,0,0:0:0:0:
320,192,241720,1,0,0:0:0:0:
64,192,241804,1,0,0:0:0:0:
192,192,241804,1,0,0:0:0:0:
448,192,241804,1,0,0:0:0:0:
448,192,241887,5,0,0:0:0:0:
320,192,241887,1,0,0:0:0:0:
192,192,241970,1,0,0:0:0:0:
448,192,242054,5,0,0:0:0:0:
320,192,242054,1,0,0:0:0:0:
64,192,242095,5,0,0:0:0:0:
192,192,242137,1,0,0:0:0:0:
320,192,242179,1,0,0:0:0:0:
448,192,242220,1,0,0:0:0:0:
64,192,242262,1,0,0:0:0:0:
192,192,242304,1,0,0:0:0:0:
320,192,242345,1,0,0:0:0:0:
64,192,242387,128,0,242720:0:0:0:0:
448,192,242387,128,0,242637:0:0:0:0:
448,192,242720,128,0,242887:0:0:0:0:
192,192,242762,128,0,242887:0:0:0:0:
64,192,243054,128,0,243262:0:0:0:0:
320,192,243054,128,0,243262:0:0:0:0:
192,192,243054,128,0,243262:0:0:0:0:
448,192,243387,1,0,0:0:0:0:
320,192,243387,1,0,0:0:0:0:
64,192,243387,1,0,0:0:0:0:
192,192,243554,1,0,0:0:0:0:
448,192,243554,1,0,0:0:0:0:
448,192,243720,1,0,0:0:0:0:
192,192,243720,128,0,244220:0:0:0:0:
64,192,243720,1,0,0:0:0:0:
320,192,243804,1,0,0:0:0:0:
64,192,243887,1,0,0:0:0:0:
448,192,243970,1,0,0:0:0:0:
320,192,244054,1,0,0:0:0:0:
64,192,244054,1,0,0:0:0:0:
320,192,244220,1,0,0:0:0:0:
64,192,244304,1,0,0:0:0:0:
448,192,244387,128,0,244887:0:0:0:0:
192,192,244387,1,0,0:0:0:0:
320,192,244470,1,0,0:0:0:0:
64,192,244554,1,0,0:0:0:0:
320,192,244637,1,0,0:0:0:0:
64,192,244720,1,0,0:0:0:0:
192,192,244720,1,0,0:0:0:0:
320,192,244804,1,0,0:0:0:0:
64,192,244887,1,0,0:0:0:0:
192,192,244970,1,0,0:0:0:0:
64,192,245054,128,0,245387:0:0:0:0:
448,192,245054,1,0,0:0:0:0:
320,192,245137,1,0,0:0:0:0:
448,192,245220,1,0,0:0:0:0:
192,192,245304,1,0,0:0:0:0:
448,192,245387,1,0,0:0:0:0:
320,192,245387,1,0,0:0:0:0:
192,192,245470,1,0,0:0:0:0:
320,192,245554,128,0,245887:0:0:0:0:
64,192,245637,1,0,0:0:0:0:
448,192,245720,1,0,0:0:0:0:
192,192,245720,1,0,0:0:0:0:
64,192,245804,1,0,0:0:0:0:
448,192,245887,1,0,0:0:0:0:
192,192,245970,1,0,0:0:0:0:
64,192,246054,1,0,0:0:0:0:
320,192,246054,1,0,0:0:0:0:
448,192,246137,1,0,0:0:0:0:
192,192,246220,128,0,246387:0:0:0:0:
320,192,246304,1,0,0:0:0:0:
448,192,246387,1,0,0:0:0:0:
64,192,246387,1,0,0:0:0:0:
320,192,246470,1,0,0:0:0:0:
448,192,246554,128,0,246720:0:0:0:0:
192,192,246637,1,0,0:0:0:0:
64,192,246720,1,0,0:0:0:0:
320,192,246720,1,0,0:0:0:0:
192,192,246804,1,0,0:0:0:0:
320,192,246887,128,0,247054:0:0:0:0:
64,192,246970,1,0,0:0:0:0:
192,192,247054,1,0,0:0:0:0:
448,192,247054,1,0,0:0:0:0:
64,192,247137,1,0,0:0:0:0:
192,192,247220,128,0,247387:0:0:0:0:
448,192,247304,1,0,0:0:0:0:
320,192,247387,1,0,0:0:0:0:
64,192,247387,1,0,0:0:0:0:
448,192,247470,1,0,0:0:0:0:
64,192,247554,128,0,247720:0:0:0:0:
192,192,247637,1,0,0:0:0:0:
320,192,247720,1,0,0:0:0:0:
448,192,247720,1,0,0:0:0:0:
192,192,247804,1,0,0:0:0:0:
320,192,247887,128,0,248054:0:0:0:0:
64,192,247970,1,0,0:0:0:0:
448,192,248054,128,0,248637:0:0:0:0:
192,192,248054,1,0,0:0:0:0:
64,192,248137,1,0,0:0:0:0:
320,192,248220,1,0,0:0:0:0:
192,192,248304,1,0,0:0:0:0:
64,192,248387,1,0,0:0:0:0:
320,192,248387,1,0,0:0:0:0:
192,192,248470,1,0,0:0:0:0:
64,192,248554,1,0,0:0:0:0:
320,192,248637,1,0,0:0:0:0:
64,192,248720,128,0,248804:0:0:0:0:
192,192,248720,128,0,248804:0:0:0:0:
448,192,248887,128,0,248970:0:0:0:0:
320,192,248887,128,0,248970:0:0:0:0:
192,192,249054,128,0,249554:0:0:0:0:
64,192,249054,1,0,0:0:0:0:
448,192,249054,1,0,0:0:0:0:
320,192,249137,1,0,0:0:0:0:
64,192,249220,1,0,0:0:0:0:
448,192,249304,1,0,0:0:0:0:
64,192,249387,1,0,0:0:0:0:
320,192,249387,1,0,0:0:0:0:
320,192,249554,1,0,0:0:0:0:
64,192,249637,1,0,0:0:0:0:
192,192,249720,1,0,0:0:0:0:
448,192,249720,128,0,250220:0:0:0:0:
320,192,249804,1,0,0:0:0:0:
64,192,249887,1,0,0:0:0:0:
320,192,249970,1,0,0:0:0:0:
192,192,250054,1,0,0:0:0:0:
64,192,250054,1,0,0:0:0:0:
320,192,250137,1,0,0:0:0:0:
64,192,250220,1,0,0:0:0:0:
192,192,250304,1,0,0:0:0:0:
448,192,250387,1,0,0:0:0:0:
64,192,250387,128,0,250720:0:0:0:0:
320,192,250470,1,0,0:0:0:0:
448,192,250554,1,0,0:0:0:0:
192,192,250637,1,0,0:0:0:0:
320,192,250720,1,0,0:0:0:0:
448,192,250720,1,0,0:0:0:0:
192,192,250804,1,0,0:0:0:0:
320,192,250887,128,0,251220:0:0:0:0:
64,192,250970,1,0,0:0:0:0:
192,192,251054,1,0,0:0:0:0:
448,192,251054,1,0,0:0:0:0:
64,192,251137,1,0,0:0:0:0:
448,192,251220,1,0,0:0:0:0:
192,192,251304,1,0,0:0:0:0:
320,192,251387,1,0,0:0:0:0:
64,192,251387,1,0,0:0:0:0:
448,192,251470,1,0,0:0:0:0:
192,192,251554,128,0,251637:0:0:0:0:
320,192,251637,1,0,0:0:0:0:
64,192,251720,128,0,251804:0:0:0:0:
448,192,251720,1,0,0:0:0:0:
320,192,251804,1,0,0:0:0:0:
64,192,251887,128,0,252054:0:0:0:0:
448,192,251887,1,0,0:0:0:0:
320,192,251970,1,0,0:0:0:0:
192,192,252054,1,0,0:0:0:0:
448,192,252054,1,0,0:0:0:0:
64,192,252220,128,0,252304:0:0:0:0:
320,192,252220,1,0,0:0:0:0:
192,192,252304,1,0,0:0:0:0:
64,192,252387,128,0,252554:0:0:0:0:
448,192,252387,1,0,0:0:0:0:
192,192,252470,1,0,0:0:0:0:
320,192,252554,1,0,0:0:0:0:
64,192,252720,128,0,252804:0:0:0:0:
448,192,252720,1,0,0:0:0:0:
320,192,252804,1,0,0:0:0:0:
64,192,252887,128,0,253054:0:0:0:0:
448,192,252887,1,0,0:0:0:0:
320,192,252970,1,0,0:0:0:0:
448,192,253054,1,0,0:0:0:0:
192,192,253054,1,0,0:0:0:0:
64,192,253220,128,0,253304:0:0:0:0:
320,192,253220,1,0,0:0:0:0:
192,192,253304,1,0,0:0:0:0:
64,192,253387,128,0,253887:0:0:0:0:
448,192,253387,1,0,0:0:0:0:
320,192,253470,1,0,0:0:0:0:
192,192,253554,1,0,0:0:0:0:
448,192,253637,1,0,0:0:0:0:
320,192,253720,1,0,0:0:0:0:
192,192,253804,1,0,0:0:0:0:
448,192,253887,1,0,0:0:0:0:
192,192,253970,1,0,0:0:0:0:
448,192,254054,128,0,254137:0:0:0:0:
320,192,254054,1,0,0:0:0:0:
64,192,254137,128,0,254220:0:0:0:0:
320,192,254220,128,0,254304:0:0:0:0:
64,192,254387,5,0,0:0:0:0:
448,192,254387,1,0,0:0:0:0:
192,192,254387,128,0,254887:0:0:0:0:
320,192,254470,1,0,0:0:0:0:
64,192,254554,1,0,0:0:0:0:
448,192,254637,1,0,0:0:0:0:
64,192,254720,1,0,0:0:0:0:
320,192,254720,1,0,0:0:0:0:
448,192,254804,1,0,0:0:0:0:
320,192,254887,1,0,0:0:0:0:
192,192,254970,1,0,0:0:0:0:
448,192,255054,128,0,255554:0:0:0:0:
64,192,255054,1,0,0:0:0:0:
320,192,255054,1,0,0:0:0:0:
192,192,255137,1,0,0:0:0:0:
64,192,255220,1,0,0:0:0:0:
320,192,255304,1,0,0:0:0:0:
64,192,255387,1,0,0:0:0:0:
192,192,255387,1,0,0:0:0:0:
320,192,255470,1,0,0:0:0:0:
192,192,255554,1,0,0:0:0:0:
320,192,255637,1,0,0:0:0:0:
64,192,255720,128,0,256054:0:0:0:0:
192,192,255720,1,0,0:0:0:0:
448,192,255720,1,0,0:0:0:0:
320,192,255804,1,0,0:0:0:0:
448,192,255887,1,0,0:0:0:0:
192,192,255970,1,0,0:0:0:0:
320,192,256054,1,0,0:0:0:0:
448,192,256054,1,0,0:0:0:0:
64,192,256137,1,0,0:0:0:0:
320,192,256220,128,0,256554:0:0:0:0:
192,192,256304,1,0,0:0:0:0:
64,192,256387,1,0,0:0:0:0:
448,192,256387,1,0,0:0:0:0:
192,192,256470,1,0,0:0:0:0:
64,192,256554,1,0,0:0:0:0:
448,192,256637,1,0,0:0:0:0:
192,192,256720,1,0,0:0:0:0:
64,192,256720,1,0,0:0:0:0:
320,192,256720,1,0,0:0:0:0:
448,192,256804,1,0,0:0:0:0:
320,192,256887,1,0,0:0:0:0:
192,192,256970,1,0,0:0:0:0:
448,192,257054,1,0,0:0:0:0:
64,192,257054,1,0,0:0:0:0:
320,192,257054,1,0,0:0:0:0:
192,192,257137,1,0,0:0:0:0:
448,192,257220,128,0,257387:0:0:0:0:
64,192,257304,1,0,0:0:0:0:
192,192,257387,1,0,0:0:0:0:
320,192,257387,1,0,0:0:0:0:
64,192,257470,1,0,0:0:0:0:
320,192,257554,128,0,257720:0:0:0:0:
448,192,257637,1,0,0:0:0:0:
192,192,257720,1,0,0:0:0:0:
64,192,257720,1,0,0:0:0:0:
448,192,257804,1,0,0:0:0:0:
192,192,257887,128,0,258054:0:0:0:0:
320,192,257970,1,0,0:0:0:0:
448,192,258054,1,0,0:0:0:0:
64,192,258054,1,0,0:0:0:0:
320,192,258137,1,0,0:0:0:0:
192,192,258220,128,0,258387:0:0:0:0:
448,192,258304,1,0,0:0:0:0:
64,192,258387,1,0,0:0:0:0:
320,192,258387,1,0,0:0:0:0:
192,192,258470,1,0,0:0:0:0:
448,192,258554,1,0,0:0:0:0:
320,192,258637,1,0,0:0:0:0:
64,192,258720,128,0,259304:0:0:0:0:
448,192,258720,1,0,0:0:0:0:
192,192,258720,1,0,0:0:0:0:
320,192,258804,1,0,0:0:0:0:
192,192,258887,1,0,0:0:0:0:
448,192,258970,1,0,0:0:0:0:
192,192,259054,1,0,0:0:0:0:
320,192,259054,1,0,0:0:0:0:
448,192,259137,1,0,0:0:0:0:
320,192,259220,1,0,0:0:0:0:
192,192,259304,1,0,0:0:0:0:
320,192,259387,128,0,259470:0:0:0:0:
448,192,259387,128,0,259470:0:0:0:0:
192,192,259554,128,0,259637:0:0:0:0:
64,192,259554,128,0,259637:0:0:0:0:
320,192,259720,1,0,0:0:0:0:
448,192,259720,1,0,0:0:0:0:
64,192,259720,1,0,0:0:0:0:
192,192,259804,1,0,0:0:0:0:
320,192,259887,1,0,0:0:0:0:
448,192,259887,1,0,0:0:0:0:
192,192,259970,1,0,0:0:0:0:
64,192,260054,1,0,0:0:0:0:
320,192,260054,1,0,0:0:0:0:
448,192,260054,1,0,0:0:0:0:
192,192,260137,1,0,0:0:0:0:
64,192,260220,1,0,0:0:0:0:
448,192,260220,1,0,0:0:0:0:
320,192,260304,1,0,0:0:0:0:
192,192,260387,1,0,0:0:0:0:
64,192,260387,1,0,0:0:0:0:
448,192,260387,1,0,0:0:0:0:
320,192,260470,1,0,0:0:0:0:
192,192,260554,1,0,0:0:0:0:
64,192,260554,1,0,0:0:0:0:
320,192,260637,1,0,0:0:0:0:
192,192,260720,1,0,0:0:0:0:
64,192,260720,1,0,0:0:0:0:
448,192,260720,1,0,0:0:0:0:
320,192,260804,1,0,0:0:0:0:
448,192,260887,1,0,0:0:0:0:
64,192,260887,1,0,0:0:0:0:
192,192,260970,1,0,0:0:0:0:
320,192,261054,1,0,0:0:0:0:
448,192,261054,1,0,0:0:0:0:
192,192,261137,1,0,0:0:0:0:
64,192,261137,1,0,0:0:0:0:
320,192,261220,1,0,0:0:0:0:
448,192,261220,1,0,0:0:0:0:
192,192,261304,1,0,0:0:0:0:
448,192,261387,1,0,0:0:0:0:
64,192,261387,1,0,0:0:0:0:
320,192,261470,1,0,0:0:0:0:
192,192,261470,1,0,0:0:0:0:
448,192,261554,1,0,0:0:0:0:
64,192,261554,1,0,0:0:0:0:
320,192,261637,1,0,0:0:0:0:
64,192,261720,1,0,0:0:0:0:
192,192,261720,1,0,0:0:0:0:
448,192,261804,1,0,0:0:0:0:
320,192,261804,1,0,0:0:0:0:
192,192,261887,1,0,0:0:0:0:
64,192,261887,1,0,0:0:0:0:
320,192,261970,1,0,0:0:0:0:
448,192,261970,1,0,0:0:0:0:
64,192,262054,1,0,0:0:0:0:
192,192,262095,1,0,0:0:0:0:
320,192,262137,1,0,0:0:0:0:
448,192,262179,1,0,0:0:0:0:
64,192,262220,1,0,0:0:0:0:
192,192,262262,1,0,0:0:0:0:
320,192,262304,1,0,0:0:0:0:
448,192,262345,1,0,0:0:0:0:
64,192,262387,128,0,262470:0:0:0:0:
192,192,262387,128,0,262470:0:0:0:0:
64,192,262554,128,0,262804:0:0:0:0:
192,192,262554,128,0,262804:0:0:0:0:
64,192,262887,128,0,262970:0:0:0:0:
320,192,262887,128,0,262970:0:0:0:0:
64,192,263054,128,0,263304:0:0:0:0:
320,192,263054,128,0,263304:0:0:0:0:
64,192,263387,128,0,263470:0:0:0:0:
448,192,263387,128,0,263470:0:0:0:0:
64,192,263554,128,0,264554:0:0:0:0:
448,192,263554,128,0,265054:0:0:0:0:
320,192,265054,1,0,0:0:0:0:
192,192,265054,1,0,0:0:0:0:
64,192,265054,1,0,0:0:0:0:
