osu file format v14

[General]
AudioFilename: weluvardkor.mp3
AudioLeadIn: 0
PreviewTime: 90429
Countdown: 0
SampleSet: Normal
StackLeniency: 0.7
Mode: 1
LetterboxInBreaks: 0
WidescreenStoryboard: 0

[Editor]
Bookmarks: 1097,6763,27763,38429,49096,59762,67762,70429,78429,81096,86429,91762,102429,113096,123762,134429,145429,155762,169096,179762,190429,198429
DistanceSpacing: 1.4
BeatDivisor: 4
GridSize: 32
TimelineZoom: 2.2

[Metadata]
Title:We Love Hardcore
TitleUnicode:ウィー・ラヴ・ハードコア
Artist:Camellia feat. Nanahira
ArtistUnicode:かめりあ feat. ななひら
Creator:Kin
Version:Hardcore
Source:
Tags:MEGANTO METEOR cametek 大箭マサヤ Oya Masaya
BeatmapID:1610609
BeatmapSetID:766080

[Difficulty]
HPDrainRate:5
CircleSize:2
OverallDifficulty:6.5
ApproachRate:5
SliderMultiplier:1.4
SliderTickRate:1

[Events]
//Background and Video events
0,0,"bgbggg.jpg",0,0
//Break Periods
//Storyboard Layer 0 (Background)
//Storyboard Layer 1 (Fail)
//Storyboard Layer 2 (Pass)
//Storyboard Layer 3 (Foreground)
//Storyboard Sound Samples

[TimingPoints]
1097,333.333333333333,4,1,0,5,1,0
2420,-125,4,1,0,10,0,0
3753,-125,4,1,0,15,0,0
5086,-125,4,1,0,20,0,0
17419,-125,4,1,0,30,0,0
22752,-125,4,1,0,35,0,0
27753,-111.111111111111,4,1,0,70,0,0
38419,-105.263157894737,4,1,0,80,0,0
48586,-103.896103896104,4,1,0,80,0,0
48752,-102.564102564103,4,1,0,80,0,0
48919,-101.26582278481,4,1,0,80,0,0
49086,-100,4,1,0,90,0,0
57252,-102.564102564103,4,1,0,90,0,0
57586,-108.108108108108,4,1,0,90,0,0
57752,-111.111111111111,4,1,0,90,0,0
58086,-117.647058823529,4,1,0,90,0,0
58252,-121.212121212121,4,1,0,90,0,0
58419,-125,4,1,0,90,0,0
59419,-100,4,1,0,90,0,0
59752,-83.3333333333333,4,1,0,90,0,0
60419,-62.5,4,1,0,90,0,0
60586,-66.6666666666667,4,1,0,90,0,0
60752,-71.4285714285714,4,1,0,90,0,0
60919,-76.9230769230769,4,1,0,90,0,0
61086,-83.3333333333333,4,1,0,90,0,0
61586,-71.4285714285714,4,1,0,90,0,0
62086,-100,4,1,0,90,0,0
62419,-83.3333333333333,4,1,0,90,0,0
62919,-100,4,1,0,90,0,0
63752,-83.3333333333333,4,1,0,90,0,0
64252,-71.4285714285714,4,1,0,90,0,0
64752,-100,4,1,0,90,0,0
65086,-71.4285714285714,4,1,0,90,0,0
65732,-62.5,4,1,0,90,0,0
65899,-66.6666666666667,4,1,0,90,0,0
66065,-71.4285714285714,4,1,0,90,0,0
66232,-76.9230769230769,4,1,0,90,0,0
66399,-83.3333333333333,4,1,0,90,0,0
66919,-71.4285714285714,4,1,0,90,0,0
67419,-111.111111111111,4,1,0,90,0,0
67586,-105.263157894737,4,1,0,90,0,0
67752,-100,4,1,0,90,0,0
70086,-93.7505859411621,4,1,0,90,0,0
70169,-90.9090909090909,4,1,0,90,0,0
70252,-88.2355536339813,4,1,0,90,0,0
70419,-83.3333333333333,4,1,0,90,0,0
71065,-62.5,4,1,0,90,0,0
71232,-66.6666666666667,4,1,0,90,0,0
71398,-71.4285714285714,4,1,0,90,0,0
71565,-76.9230769230769,4,1,0,90,0,0
71732,-83.3333333333333,4,1,0,90,0,0
72252,-71.4285714285714,4,1,0,90,0,0
72752,-100,4,1,0,90,0,0
73086,-83.3333333333333,4,1,0,90,0,0
73752,-100,4,1,0,90,0,0
74086,-93.7505859411621,4,1,0,90,0,0
74252,-88.2353200692118,4,1,0,90,0,0
74419,-83.3333333333333,4,1,0,90,0,0
74919,-71.4285714285714,4,1,0,90,0,0
75419,-100,4,1,0,90,0,0
75752,-83.3333333333333,4,1,0,90,0,0
76336,-62.5,4,1,0,90,0,0
76503,-66.6666666666667,4,1,0,90,0,0
76669,-71.4285714285714,4,1,0,90,0,0
76836,-76.9230769230769,4,1,0,90,0,0
77003,-83.3333333333333,4,1,0,90,0,0
77523,-71.4285714285714,4,1,0,90,0,0
78023,-111.111111111111,4,1,0,90,0,0
78190,-105.263157894737,4,1,0,90,0,0
78356,-100,4,1,0,90,0,0
81086,-100,4,1,0,80,0,0
85836,-98.7654320987654,4,1,0,80,0,0
85919,-97.5609756097561,4,1,0,80,0,0
86002,-96.3855421686747,4,1,0,80,0,0
86086,-95.2380952380952,4,1,0,80,0,0
86169,-94.1176470588235,4,1,0,80,0,0
86252,-93.0232558139535,4,1,0,80,0,0
86419,-90.9090909090909,4,1,0,90,0,0
91763,-90.9090909090909,4,1,0,100,0,1
107763,-90.9090909090909,4,1,0,100,0,0
112752,-100,4,1,0,100,0,0
112919,-95.2380952380952,4,1,0,100,0,0
113096,-90.9090909090909,4,1,0,100,0,1
123763,-90.9090909090909,4,1,0,100,0,0
124096,-90.9090909090909,4,1,0,100,0,1
133864,-92.3076951479291,4,1,0,100,0,1
133975,-93.7500585937866,4,1,0,100,0,1
134086,-95.2380952380952,4,1,0,100,0,1
134252,-97.5609756097561,4,1,0,100,0,1
134430,-100,4,1,0,100,0,0
134752,-125,4,1,0,40,0,0
155752,-111.111111111111,4,1,0,60,0,0
169086,-125,4,1,0,60,0,0
179752,-111.111111111111,4,1,0,60,0,0
184753,-107.143239797285,4,1,0,60,0,0
184920,-103.448989303375,4,1,0,60,0,0
185086,-100,4,1,0,70,0,0
187752,-100,4,1,0,80,0,0
187836,-102.564102564103,4,1,0,90,0,0
188170,-108.108108108108,4,1,0,90,0,0
188336,-111.111111111111,4,1,0,90,0,0
188670,-117.647058823529,4,1,0,90,0,0
188836,-121.212121212121,4,1,0,90,0,0
189003,-125,4,1,0,90,0,0
190086,-100,4,1,0,90,0,0
191002,-71.4285714285714,4,1,0,90,0,0
191169,-75.6143667296786,4,1,0,90,0,0
191335,-80,4,1,0,90,0,0
191502,-85.1063829787234,4,1,0,90,0,0
191669,-90.9090909090909,4,1,0,90,0,0
192169,-71.4285714285714,4,1,0,90,0,0
192752,-100,4,1,0,90,0,0
193086,-105.263157894737,4,1,0,90,0,0
193419,-83.3333333333333,4,1,0,90,0,0
193752,-100,4,1,0,90,0,0
193919,-83.3333333333333,4,1,0,90,0,0
194086,-86.9565217391304,4,1,0,90,0,0
194169,-88.8888888888889,4,1,0,90,0,0
194252,-90.9090909090909,4,1,0,90,0,0
194419,-83.3333333333333,4,1,0,90,0,0
194669,-76.9230769230769,4,1,0,90,0,0
194919,-71.4285714285714,4,1,0,90,0,0
195169,-66.6666666666667,4,1,0,90,0,0
195419,-77.7725929382486,4,1,0,90,0,0
195752,-100,4,1,0,90,0,0
197086,-83.3333333333333,4,1,0,90,0,0
197419,-100,4,1,0,90,0,0
197586,-83.3333333333333,4,1,0,90,0,0
198086,-111.111111111111,4,1,0,90,0,0
198169,-108.108108108108,4,1,0,90,0,0
198252,-105.263157894737,4,1,0,90,0,0
198419,-100,4,1,0,90,0,0
200752,-93.7505859411621,4,1,0,90,0,0
200836,-90.9090909090909,4,1,0,90,0,0
200919,-88.2355536339813,4,1,0,90,0,0
201086,-83.3333333333333,4,1,0,90,0,0
201419,-100,4,1,0,90,0,0
202086,-96.774505724212,4,1,0,90,0,0
202252,-93.7505859411621,4,1,0,90,0,0
202419,-83.3333333333333,4,1,0,90,0,0
202919,-71.4285714285714,4,1,0,90,0,0
203419,-100,4,1,0,90,0,0
206419,-83.3333333333333,4,1,0,90,0,0
207002,-71.4285714285714,4,1,0,90,0,0
207169,-75.4716981132076,4,1,0,90,0,0
207335,-80,4,1,0,90,0,0
207502,-85.1063829787234,4,1,0,90,0,0
207669,-90.9090909090909,4,1,0,90,0,0
208169,-71.4285714285714,4,1,0,90,0,0
208669,-100,4,1,0,90,0,0
221815,-98.7654320987654,4,1,0,80,0,0
221898,-97.5609756097561,4,1,0,80,0,0
222065,-95.2380952380952,4,1,0,80,0,0
222231,-93.0232558139535,4,1,0,80,0,0
222419,-90.9090909090909,4,1,0,80,0,0
233096,-90.9090909090909,4,1,0,100,0,1
248430,-90.9090909090909,4,1,0,100,0,0
248502,-91.9540229885057,4,1,0,90,0,0
248669,-94.1176470588235,4,1,0,90,0,0
248752,-95.2380952380952,4,1,0,90,0,0
248919,-97.5609756097561,4,1,0,90,0,0
249086,-100,4,1,0,90,0,0
254252,-95.2380952380952,4,1,0,90,0,0
254430,-90.9090909090909,4,1,0,100,0,1
273096,-90.9090909090909,4,1,0,100,0,0
273586,-100,4,1,0,100,0,0
274086,-111.111111111111,4,1,0,100,0,0
274419,-125,4,1,0,100,0,0
275752,-125,4,1,0,60,0,0
278419,-125,4,1,0,55,0,0
281086,-125,4,1,0,50,0,0
283752,-125,4,1,0,45,0,0
286419,-125,4,1,0,40,0,0
289086,-125,4,1,0,35,0,0
291752,-125,4,1,0,30,0,0
294419,-125,4,1,0,25,0,0
295752,-125,4,1,0,20,0,0
297086,-142.857142857143,4,1,0,15,0,0
298419,-166.666666666667,4,1,0,10,0,0
299086,-166.666666666667,4,1,0,5,0,0
299752,-200,4,1,0,5,0,0
301086,-250,4,1,0,5,0,0

[HitObjects]
256,192,1097,12,0,6430,0:0:0:0:
252,196,6763,5,0,0:0:0:0:
252,196,7096,1,0,0:0:0:0:
252,196,7430,1,0,0:0:0:0:
252,196,7763,1,8,0:0:0:0:
252,196,8263,1,8,0:0:0:0:
252,196,8596,1,8,0:0:0:0:
252,196,8763,1,8,0:0:0:0:
252,196,9096,1,0,0:0:0:0:
252,196,9596,1,8,0:0:0:0:
252,196,10430,1,0,0:0:0:0:
252,196,10763,1,8,0:0:0:0:
252,196,10930,1,8,0:0:0:0:
252,196,12096,1,0,0:0:0:0:
252,196,12430,1,0,0:0:0:0:
252,196,12763,1,0,0:0:0:0:
252,196,13096,1,8,0:0:0:0:
252,196,13596,1,8,0:0:0:0:
252,196,13930,1,8,0:0:0:0:
252,196,14096,1,8,0:0:0:0:
252,196,14430,1,0,0:0:0:0:
252,196,14930,1,0,0:0:0:0:
252,196,15430,1,0,0:0:0:0:
252,196,15596,1,8,0:0:0:0:
252,196,16096,1,8,0:0:0:0:
252,196,16263,1,0,0:0:0:0:
256,192,16763,12,0,17096,0:0:0:0:
252,196,17430,5,0,0:0:0:0:
252,196,17763,1,0,0:0:0:0:
252,196,18096,1,0,0:0:0:0:
252,196,18430,1,8,0:0:0:0:
252,196,18930,1,8,0:0:0:0:
252,196,19263,1,8,0:0:0:0:
252,196,19430,1,8,0:0:0:0:
252,196,19763,1,0,0:0:0:0:
252,196,20263,1,8,0:0:0:0:
252,196,21096,1,0,0:0:0:0:
252,196,21430,1,8,0:0:0:0:
252,196,21596,1,8,0:0:0:0:
252,196,22096,1,0,0:0:0:0:
252,196,22430,1,8,0:0:0:0:
252,196,22763,1,8,0:0:0:0:
252,196,22930,1,8,0:0:0:0:
252,196,23263,1,0,0:0:0:0:
252,196,23596,1,8,0:0:0:0:
252,196,24763,1,8,0:0:0:0:
252,196,25096,1,0,0:0:0:0:
252,196,25430,1,8,0:0:0:0:
252,196,25596,1,8,0:0:0:0:
252,196,25930,1,8,0:0:0:0:
252,196,26263,1,0,0:0:0:0:
256,192,27096,12,0,27430,0:0:0:0:
252,196,27763,5,4,0:0:0:0:
252,196,28430,1,0,0:0:0:0:
252,196,29096,1,8,0:0:0:0:
252,196,29596,1,8,0:0:0:0:
252,196,30263,1,0,0:0:0:0:
252,196,30430,1,8,0:0:0:0:
252,196,30596,1,8,0:0:0:0:
252,196,30930,1,0,0:0:0:0:
252,196,31263,1,8,0:0:0:0:
252,196,31596,1,0,0:0:0:0:
252,196,31930,1,0,0:0:0:0:
252,196,32096,1,8,0:0:0:0:
252,196,32596,1,0,0:0:0:0:
252,196,32763,1,8,0:0:0:0:
252,196,32930,1,8,0:0:0:0:
252,196,33096,1,0,0:0:0:0:
252,196,33763,1,8,0:0:0:0:
252,196,34430,1,8,0:0:0:0:
252,196,34930,1,8,0:0:0:0:
252,196,35430,1,0,0:0:0:0:
252,196,35596,1,0,0:0:0:0:
252,196,35763,1,8,0:0:0:0:
252,196,35930,1,8,0:0:0:0:
252,196,36263,1,8,0:0:0:0:
252,196,36430,1,8,0:0:0:0:
252,196,36763,1,8,0:0:0:0:
252,196,36930,1,8,0:0:0:0:
252,196,37263,1,8,0:0:0:0:
252,196,37430,1,8,0:0:0:0:
252,196,37930,1,0,0:0:0:0:
252,196,38096,1,8,0:0:0:0:
252,196,38263,1,8,0:0:0:0:
252,196,38430,1,4,0:0:0:0:
252,196,38930,1,0,0:0:0:0:
252,196,39096,1,8,0:0:0:0:
252,196,39430,1,8,0:0:0:0:
252,196,39596,1,8,0:0:0:0:
252,196,39763,1,0,0:0:0:0:
252,196,40096,1,0,0:0:0:0:
252,196,40263,1,8,0:0:0:0:
252,196,40596,1,8,0:0:0:0:
252,196,40763,1,8,0:0:0:0:
252,196,40930,1,0,0:0:0:0:
252,196,41096,1,8,0:0:0:0:
252,196,41263,1,0,0:0:0:0:
252,196,41596,1,8,0:0:0:0:
252,196,41930,1,8,0:0:0:0:
252,196,42263,1,0,0:0:0:0:
252,196,42596,1,0,0:0:0:0:
252,196,42763,1,8,0:0:0:0:
252,196,43096,1,0,0:0:0:0:
252,196,43263,1,0,0:0:0:0:
252,196,43430,1,8,0:0:0:0:
252,196,43596,1,8,0:0:0:0:
252,196,43763,1,0,0:0:0:0:
252,196,44263,1,0,0:0:0:0:
252,196,44430,1,8,0:0:0:0:
252,196,44763,1,0,0:0:0:0:
252,196,44930,1,0,0:0:0:0:
252,196,45096,1,8,0:0:0:0:
252,196,45430,1,0,0:0:0:0:
252,196,45596,1,8,0:0:0:0:
252,196,45930,1,8,0:0:0:0:
252,196,46096,1,8,0:0:0:0:
252,196,46263,1,0,0:0:0:0:
252,196,46430,1,8,0:0:0:0:
252,196,46596,1,8,0:0:0:0:
252,196,46930,1,8,0:0:0:0:
252,196,47096,1,8,0:0:0:0:
252,196,47430,1,8,0:0:0:0:
252,196,47596,1,8,0:0:0:0:
252,196,47930,1,8,0:0:0:0:
252,196,48096,1,8,0:0:0:0:
252,196,48430,1,0,0:0:0:0:
252,196,48596,1,0,0:0:0:0:
252,196,48763,1,8,0:0:0:0:
252,196,48930,1,8,0:0:0:0:
252,196,49096,1,4,0:0:0:0:
252,196,49430,1,0,0:0:0:0:
252,196,49596,1,8,0:0:0:0:
252,196,49763,1,0,0:0:0:0:
252,196,49930,1,8,0:0:0:0:
252,196,50013,1,8,0:0:0:0:
252,196,50096,1,0,0:0:0:0:
252,196,50263,1,8,0:0:0:0:
252,196,50430,1,0,0:0:0:0:
252,196,50763,1,0,0:0:0:0:
252,196,50930,1,8,0:0:0:0:
252,196,51013,1,8,0:0:0:0:
252,196,51096,1,0,0:0:0:0:
252,196,51263,1,8,0:0:0:0:
252,196,51430,1,0,0:0:0:0:
252,196,51596,1,8,0:0:0:0:
252,196,51763,1,0,0:0:0:0:
252,196,52013,1,8,0:0:0:0:
252,196,52096,1,0,0:0:0:0:
252,196,52263,1,8,0:0:0:0:
252,196,52430,1,0,0:0:0:0:
252,196,52596,1,8,0:0:0:0:
252,196,52680,1,8,0:0:0:0:
252,196,52763,1,0,0:0:0:0:
252,196,52930,1,8,0:0:0:0:
252,196,53096,1,0,0:0:0:0:
252,196,53430,1,0,0:0:0:0:
252,196,53596,1,8,0:0:0:0:
252,196,53763,1,0,0:0:0:0:
252,196,53930,1,8,0:0:0:0:
252,196,54013,1,8,0:0:0:0:
252,196,54096,1,0,0:0:0:0:
252,196,54263,1,0,0:0:0:0:
252,196,54430,1,8,0:0:0:0:
252,196,54763,1,0,0:0:0:0:
252,196,54930,1,8,0:0:0:0:
252,196,55096,1,0,0:0:0:0:
252,196,55263,1,8,0:0:0:0:
252,196,55346,1,8,0:0:0:0:
252,196,55430,1,0,0:0:0:0:
252,196,55596,1,8,0:0:0:0:
252,196,55763,1,0,0:0:0:0:
252,196,56013,1,8,0:0:0:0:
252,196,56096,1,0,0:0:0:0:
252,196,56263,1,8,0:0:0:0:
252,196,56346,1,8,0:0:0:0:
252,196,56430,1,0,0:0:0:0:
252,196,56596,1,8,0:0:0:0:
252,196,56763,1,0,0:0:0:0:
252,196,56930,1,8,0:0:0:0:
252,196,57096,1,4,0:0:0:0:
252,196,57263,1,0,0:0:0:0:
252,196,57596,1,4,0:0:0:0:
252,196,57763,1,0,0:0:0:0:
252,196,58096,1,4,0:0:0:0:
252,196,58263,1,0,0:0:0:0:
256,192,58430,12,0,59263,0:0:0:0:
256,200,59430,5,14,0:0:0:0:
256,200,59763,1,4,0:0:0:0:
256,200,60430,1,14,0:0:0:0:
256,200,60596,1,8,0:0:0:0:
256,200,60763,1,0,0:0:0:0:
256,200,60930,1,8,0:0:0:0:
256,200,61096,1,4,0:0:0:0:
256,200,61596,1,4,0:0:0:0:
256,200,62096,1,0,0:0:0:0:
256,200,62180,1,0,0:0:0:0:
256,200,62263,1,0,0:0:0:0:
256,200,62430,1,4,0:0:0:0:
256,200,63096,1,0,0:0:0:0:
256,200,63263,1,8,0:0:0:0:
256,200,63596,1,8,0:0:0:0:
256,200,63763,1,4,0:0:0:0:
100,172,64263,1,4,0:0:0:0:
256,192,64763,12,0,64930,0:0:0:0:
256,192,65096,5,4,0:0:0:0:
256,192,65763,1,14,0:0:0:0:
256,192,65930,1,0,0:0:0:0:
256,192,66096,1,8,0:0:0:0:
256,192,66263,1,8,0:0:0:0:
256,192,66430,1,4,0:0:0:0:
256,192,66930,1,4,0:0:0:0:
256,192,67430,1,8,0:0:0:0:
256,192,67596,1,8,0:0:0:0:
256,192,67763,1,4,0:0:0:0:
256,192,68013,1,8,0:0:0:0:
256,192,68096,1,0,0:0:0:0:
256,192,68263,1,8,0:0:0:0:
256,192,68430,1,0,0:0:0:0:
256,192,68513,1,0,0:0:0:0:
256,192,68596,1,8,0:0:0:0:
256,192,68680,1,0,0:0:0:0:
256,192,68763,1,8,0:0:0:0:
256,192,68930,1,0,0:0:0:0:
256,192,69096,1,8,0:0:0:0:
256,192,69346,1,8,0:0:0:0:
256,192,69430,1,0,0:0:0:0:
256,192,69596,1,8,0:0:0:0:
256,192,69680,1,8,0:0:0:0:
256,192,69763,1,0,0:0:0:0:
256,192,69930,1,8,0:0:0:0:
256,192,70096,1,0,0:0:0:0:
256,192,70180,1,0,0:0:0:0:
256,192,70263,1,8,0:0:0:0:
256,192,70430,1,4,0:0:0:0:
256,192,71096,1,14,0:0:0:0:
256,192,71263,1,8,0:0:0:0:
256,192,71430,1,0,0:0:0:0:
256,192,71596,1,8,0:0:0:0:
256,192,71763,1,4,0:0:0:0:
256,192,72263,1,4,0:0:0:0:
256,192,72763,1,0,0:0:0:0:
256,192,72846,1,0,0:0:0:0:
256,192,72930,1,8,0:0:0:0:
256,192,73096,1,4,0:0:0:0:
256,192,73930,1,8,0:0:0:0:
256,192,74096,1,8,0:0:0:0:
256,192,74263,1,8,0:0:0:0:
256,192,74430,1,4,0:0:0:0:
256,192,74930,1,4,0:0:0:0:
256,192,75430,1,8,0:0:0:0:
256,192,75471,1,8,0:0:0:0:
256,192,75596,1,8,0:0:0:0:
256,192,75638,1,8,0:0:0:0:
256,192,75763,1,4,0:0:0:0:
256,192,76430,1,14,0:0:0:0:
256,192,76596,1,8,0:0:0:0:
256,192,76763,1,0,0:0:0:0:
256,192,76930,1,8,0:0:0:0:
256,192,77096,1,4,0:0:0:0:
256,192,77596,1,4,0:0:0:0:
256,192,78096,1,8,0:0:0:0:
256,192,78263,1,8,0:0:0:0:
256,192,78430,1,4,0:0:0:0:
256,192,78680,1,8,0:0:0:0:
256,192,78763,1,0,0:0:0:0:
256,192,78930,1,8,0:0:0:0:
256,192,79096,1,0,0:0:0:0:
256,192,79180,1,0,0:0:0:0:
256,192,79263,1,8,0:0:0:0:
256,192,79430,1,8,0:0:0:0:
256,192,79485,1,8,0:0:0:0:
256,192,79541,1,8,0:0:0:0:
256,192,79596,1,0,0:0:0:0:
256,192,79763,1,8,0:0:0:0:
256,192,80013,1,8,0:0:0:0:
256,192,80096,1,8,0:0:0:0:
256,192,80263,1,0,0:0:0:0:
256,192,80430,1,8,0:0:0:0:
256,192,80596,1,0,0:0:0:0:
256,192,80763,1,8,0:0:0:0:
256,192,80846,1,8,0:0:0:0:
256,192,80930,1,0,0:0:0:0:
256,192,81096,1,4,0:0:0:0:
256,192,81430,1,0,0:0:0:0:
256,192,81596,1,8,0:0:0:0:
256,192,81763,1,0,0:0:0:0:
256,192,81846,1,0,0:0:0:0:
256,192,81930,1,0,0:0:0:0:
256,192,82096,1,8,0:0:0:0:
256,192,82430,1,8,0:0:0:0:
256,192,82596,1,0,0:0:0:0:
256,192,82763,1,8,0:0:0:0:
256,192,82930,1,0,0:0:0:0:
256,192,83013,1,0,0:0:0:0:
256,192,83096,1,8,0:0:0:0:
256,192,83263,1,8,0:0:0:0:
256,192,83430,1,0,0:0:0:0:
256,192,83596,1,8,0:0:0:0:
256,192,83763,1,0,0:0:0:0:
256,192,84013,1,8,0:0:0:0:
256,192,84096,1,0,0:0:0:0:
256,192,84263,1,8,0:0:0:0:
256,192,84430,1,0,0:0:0:0:
256,192,84513,1,0,0:0:0:0:
256,192,84596,1,8,0:0:0:0:
256,192,84763,1,0,0:0:0:0:
256,192,84930,1,0,0:0:0:0:
256,192,85096,1,8,0:0:0:0:
256,192,85263,1,0,0:0:0:0:
256,192,85346,1,0,0:0:0:0:
256,192,85430,1,8,0:0:0:0:
256,192,85596,1,0,0:0:0:0:
256,192,85763,1,8,0:0:0:0:
256,192,85846,1,8,0:0:0:0:
256,192,85930,1,0,0:0:0:0:
256,192,86013,1,0,0:0:0:0:
256,192,86096,1,8,0:0:0:0:
256,192,86180,1,0,0:0:0:0:
256,192,86263,1,8,0:0:0:0:
256,192,86430,1,0,0:0:0:0:
256,192,86596,1,0,0:0:0:0:
256,192,86763,1,8,0:0:0:0:
256,192,86930,1,0,0:0:0:0:
256,192,87013,1,0,0:0:0:0:
256,192,87096,1,8,0:0:0:0:
256,192,87180,1,0,0:0:0:0:
256,192,87263,1,8,0:0:0:0:
256,192,87346,1,8,0:0:0:0:
256,192,87430,1,0,0:0:0:0:
256,192,87596,1,8,0:0:0:0:
256,192,87680,1,8,0:0:0:0:
256,192,87763,1,0,0:0:0:0:
256,192,87930,1,8,0:0:0:0:
256,192,88096,1,0,0:0:0:0:
256,192,88180,1,0,0:0:0:0:
256,192,88263,1,8,0:0:0:0:
256,192,88346,1,8,0:0:0:0:
256,192,88430,1,0,0:0:0:0:
256,192,88513,1,0,0:0:0:0:
256,192,88596,1,8,0:0:0:0:
256,192,88763,1,8,0:0:0:0:
256,192,88930,1,0,0:0:0:0:
256,192,89013,1,0,0:0:0:0:
256,192,89096,1,8,0:0:0:0:
256,192,89180,1,0,0:0:0:0:
256,192,89263,1,8,0:0:0:0:
256,192,89346,1,8,0:0:0:0:
256,192,89430,1,0,0:0:0:0:
256,192,89513,1,0,0:0:0:0:
256,192,89596,1,0,0:0:0:0:
256,192,89680,1,0,0:0:0:0:
256,192,89763,1,8,0:0:0:0:
256,192,89819,1,8,0:0:0:0:
256,192,89874,1,8,0:0:0:0:
256,192,89930,1,0,0:0:0:0:
256,192,90013,1,0,0:0:0:0:
256,192,90096,1,8,0:0:0:0:
256,192,90152,1,0,0:0:0:0:
256,192,90208,1,0,0:0:0:0:
256,192,90263,1,8,0:0:0:0:
256,192,90346,1,8,0:0:0:0:
256,192,90430,1,0,0:0:0:0:
256,192,91096,1,0,0:0:0:0:
256,192,91263,1,0,0:0:0:0:
256,192,91430,1,14,0:0:0:0:
256,192,91763,1,4,0:0:0:0:
256,192,91930,1,8,0:0:0:0:
256,192,92013,1,8,0:0:0:0:
256,192,92096,1,0,0:0:0:0:
256,192,92180,1,8,0:0:0:0:
256,192,92263,1,8,0:0:0:0:
256,192,92430,1,0,0:0:0:0:
256,192,92596,1,8,0:0:0:0:
256,192,92652,1,8,0:0:0:0:
256,192,92708,1,8,0:0:0:0:
256,192,92763,1,0,0:0:0:0:
256,192,92930,1,8,0:0:0:0:
256,192,92985,1,8,0:0:0:0:
256,192,93041,1,8,0:0:0:0:
256,192,93096,1,0,0:0:0:0:
256,192,93221,1,8,0:0:0:0:
256,192,93305,1,8,0:0:0:0:
256,192,93388,1,0,0:0:0:0:
256,192,93596,1,8,0:0:0:0:
256,192,93763,1,0,0:0:0:0:
256,192,93846,1,0,0:0:0:0:
256,192,93930,1,8,0:0:0:0:
256,192,94096,1,0,0:0:0:0:
256,192,94152,1,0,0:0:0:0:
256,192,94208,1,0,0:0:0:0:
256,192,94263,1,8,0:0:0:0:
256,192,94430,1,8,0:0:0:0:
256,192,94485,1,8,0:0:0:0:
256,192,94541,1,8,0:0:0:0:
256,192,94596,1,0,0:0:0:0:
256,192,94763,1,8,0:0:0:0:
256,192,94819,1,0,0:0:0:0:
256,192,94874,1,0,0:0:0:0:
256,192,94930,1,8,0:0:0:0:
256,192,95096,1,0,0:0:0:0:
256,192,95263,1,8,0:0:0:0:
256,192,95346,1,8,0:0:0:0:
256,192,95430,1,0,0:0:0:0:
256,192,95513,1,0,0:0:0:0:
256,192,95596,1,8,0:0:0:0:
256,192,95680,1,0,0:0:0:0:
256,192,95763,1,8,0:0:0:0:
256,192,95929,1,0,0:0:0:0:
256,192,96013,1,8,0:0:0:0:
256,192,96096,1,8,0:0:0:0:
256,192,96180,1,0,0:0:0:0:
256,192,96263,1,8,0:0:0:0:
256,192,96430,1,0,0:0:0:0:
256,192,96513,1,0,0:0:0:0:
256,192,96596,1,8,0:0:0:0:
256,192,96763,1,0,0:0:0:0:
256,192,96930,1,8,0:0:0:0:
256,192,96985,1,8,0:0:0:0:
256,192,97041,1,8,0:0:0:0:
256,192,97096,1,8,0:0:0:0:
256,192,97263,1,0,0:0:0:0:
256,192,97430,1,8,0:0:0:0:
256,192,97513,1,0,0:0:0:0:
256,192,97596,1,8,0:0:0:0:
256,192,97680,1,8,0:0:0:0:
256,192,97763,1,0,0:0:0:0:
256,192,97930,1,8,0:0:0:0:
256,192,97985,1,8,0:0:0:0:
256,192,98041,1,8,0:0:0:0:
256,192,98096,1,0,0:0:0:0:
256,192,98263,1,8,0:0:0:0:
256,192,98319,1,8,0:0:0:0:
256,192,98374,1,8,0:0:0:0:
256,192,98430,1,0,0:0:0:0:
256,192,98555,1,8,0:0:0:0:
256,192,98638,1,8,0:0:0:0:
256,192,98721,1,0,0:0:0:0:
256,192,98930,1,8,0:0:0:0:
256,192,99096,1,0,0:0:0:0:
256,192,99263,1,8,0:0:0:0:
256,192,99319,1,8,0:0:0:0:
256,192,99374,1,8,0:0:0:0:
256,192,99430,1,0,0:0:0:0:
256,192,99596,1,8,0:0:0:0:
256,192,99652,1,0,0:0:0:0:
256,192,99708,1,0,0:0:0:0:
256,192,99763,1,8,0:0:0:0:
256,192,99930,1,0,0:0:0:0:
256,192,100013,1,0,0:0:0:0:
256,192,100096,1,8,0:0:0:0:
256,192,100180,1,0,0:0:0:0:
256,192,100263,1,8,0:0:0:0:
256,192,100430,1,0,0:0:0:0:
256,192,100513,1,0,0:0:0:0:
256,192,100596,1,0,0:0:0:0:
256,192,100763,1,8,0:0:0:0:
256,192,100930,1,8,0:0:0:0:
256,192,101096,1,0,0:0:0:0:
256,192,101180,1,0,0:0:0:0:
256,192,101263,1,0,0:0:0:0:
256,192,101346,1,0,0:0:0:0:
256,192,101430,1,8,0:0:0:0:
256,192,101596,1,8,0:0:0:0:
256,192,101680,1,8,0:0:0:0:
256,192,101763,1,0,0:0:0:0:
256,192,101930,1,0,0:0:0:0:
256,192,102013,1,0,0:0:0:0:
256,192,102096,1,8,0:0:0:0:
256,192,102180,1,0,0:0:0:0:
256,192,102263,1,8,0:0:0:0:
256,192,102430,1,4,0:0:0:0:
256,192,102596,1,8,0:0:0:0:
256,192,102680,1,8,0:0:0:0:
256,192,102763,1,0,0:0:0:0:
256,192,102846,1,8,0:0:0:0:
256,192,102930,1,8,0:0:0:0:
256,192,103013,1,0,0:0:0:0:
256,192,103096,1,8,0:0:0:0:
256,192,103263,1,8,0:0:0:0:
256,192,103319,1,8,0:0:0:0:
256,192,103374,1,8,0:0:0:0:
256,192,103430,1,0,0:0:0:0:
256,192,103596,1,8,0:0:0:0:
256,192,103652,1,8,0:0:0:0:
256,192,103708,1,8,0:0:0:0:
256,192,103763,1,0,0:0:0:0:
256,192,103888,1,8,0:0:0:0:
256,192,103971,1,8,0:0:0:0:
256,192,104055,1,0,0:0:0:0:
256,192,104263,1,8,0:0:0:0:
256,192,104430,1,0,0:0:0:0:
256,192,104513,1,0,0:0:0:0:
256,192,104596,1,8,0:0:0:0:
256,192,104763,1,0,0:0:0:0:
256,192,104819,1,0,0:0:0:0:
256,192,104874,1,0,0:0:0:0:
256,192,104930,1,8,0:0:0:0:
256,192,105096,1,8,0:0:0:0:
256,192,105152,1,8,0:0:0:0:
256,192,105208,1,8,0:0:0:0:
256,192,105263,1,0,0:0:0:0:
256,192,105430,1,8,0:0:0:0:
256,192,105485,1,0,0:0:0:0:
256,192,105541,1,0,0:0:0:0:
256,192,105596,1,8,0:0:0:0:
256,192,105763,1,0,0:0:0:0:
256,192,105930,1,8,0:0:0:0:
256,192,106013,1,8,0:0:0:0:
256,192,106096,1,0,0:0:0:0:
256,192,106180,1,0,0:0:0:0:
256,192,106263,1,8,0:0:0:0:
256,192,106430,1,0,0:0:0:0:
256,192,106596,1,8,0:0:0:0:
256,192,106680,1,0,0:0:0:0:
256,192,106846,1,0,0:0:0:0:
256,192,106930,1,8,0:0:0:0:
256,192,107096,12,0,107596,0:0:0:0:
256,192,107763,5,4,0:0:0:0:
256,192,107930,1,8,0:0:0:0:
256,192,108096,1,0,0:0:0:0:
256,192,108152,1,8,0:0:0:0:
256,192,108208,1,8,0:0:0:0:
256,192,108263,1,0,0:0:0:0:
256,192,108319,1,8,0:0:0:0:
256,192,108374,1,8,0:0:0:0:
256,192,108430,1,0,0:0:0:0:
256,192,108485,1,8,0:0:0:0:
256,192,108541,1,8,0:0:0:0:
256,192,108596,1,0,0:0:0:0:
256,192,108652,1,8,0:0:0:0:
256,192,108708,1,8,0:0:0:0:
256,192,108763,1,0,0:0:0:0:
256,192,108930,1,8,0:0:0:0:
256,192,108971,1,8,0:0:0:0:
256,192,109096,1,0,0:0:0:0:
256,192,109152,1,0,0:0:0:0:
256,192,109208,1,0,0:0:0:0:
256,192,109263,1,8,0:0:0:0:
256,192,109430,1,8,0:0:0:0:
256,192,109485,1,0,0:0:0:0:
256,192,109541,1,0,0:0:0:0:
256,192,109596,1,8,0:0:0:0:
256,192,109652,1,0,0:0:0:0:
256,192,109708,1,0,0:0:0:0:
256,192,109763,1,8,0:0:0:0:
256,192,109819,1,0,0:0:0:0:
256,192,109874,1,0,0:0:0:0:
256,192,109930,1,8,0:0:0:0:
256,192,109985,1,0,0:0:0:0:
256,192,110041,1,0,0:0:0:0:
256,192,110096,1,8,0:0:0:0:
256,192,110430,1,4,0:0:0:0:
256,192,110596,1,8,0:0:0:0:
256,192,110680,1,0,0:0:0:0:
256,192,110763,1,8,0:0:0:0:
256,192,110846,1,8,0:0:0:0:
256,192,110930,1,0,0:0:0:0:
256,192,111013,1,8,0:0:0:0:
256,192,111096,1,8,0:0:0:0:
256,192,111180,1,0,0:0:0:0:
256,192,111263,1,8,0:0:0:0:
256,192,111346,1,8,0:0:0:0:
256,192,111430,1,0,0:0:0:0:
256,192,111513,1,0,0:0:0:0:
256,192,111596,1,8,0:0:0:0:
256,192,111680,1,8,0:0:0:0:
256,192,111763,1,0,0:0:0:0:
256,192,112763,1,8,0:0:0:0:
256,192,112930,1,8,0:0:0:0:
256,192,113096,1,4,0:0:0:0:
256,192,113263,1,8,0:0:0:0:
256,192,113346,1,8,0:0:0:0:
256,192,113430,1,0,0:0:0:0:
256,192,113513,1,0,0:0:0:0:
256,192,113596,1,8,0:0:0:0:
256,192,113680,1,0,0:0:0:0:
256,192,113763,1,8,0:0:0:0:
256,192,113930,1,8,0:0:0:0:
256,192,114013,1,0,0:0:0:0:
256,192,114096,1,8,0:0:0:0:
256,192,114180,1,8,0:0:0:0:
256,192,114263,1,0,0:0:0:0:
256,192,114346,1,0,0:0:0:0:
256,192,114430,1,8,0:0:0:0:
256,192,114596,1,0,0:0:0:0:
256,192,114680,1,0,0:0:0:0:
256,192,114763,1,8,0:0:0:0:
256,192,114846,1,0,0:0:0:0:
256,192,114930,1,8,0:0:0:0:
256,192,115013,1,8,0:0:0:0:
256,192,115096,1,0,0:0:0:0:
256,192,115263,1,8,0:0:0:0:
256,192,115346,1,8,0:0:0:0:
256,192,115430,1,0,0:0:0:0:
256,192,115513,1,8,0:0:0:0:
256,192,115596,1,0,0:0:0:0:
256,192,115763,1,8,0:0:0:0:
256,192,115819,1,8,0:0:0:0:
256,192,115874,1,8,0:0:0:0:
256,192,115930,1,0,0:0:0:0:
256,192,116096,1,0,0:0:0:0:
256,192,116152,1,0,0:0:0:0:
256,192,116208,1,0,0:0:0:0:
256,192,116262,1,8,0:0:0:0:
256,192,116430,1,0,0:0:0:0:
256,192,116513,1,8,0:0:0:0:
256,192,116680,1,8,0:0:0:0:
256,192,116763,1,0,0:0:0:0:
256,192,116846,1,0,0:0:0:0:
256,192,116930,1,8,0:0:0:0:
256,192,117096,1,0,0:0:0:0:
256,192,117152,1,0,0:0:0:0:
256,192,117208,1,0,0:0:0:0:
256,192,117263,1,0,0:0:0:0:
256,192,117430,1,8,0:0:0:0:
256,192,117513,1,8,0:0:0:0:
256,192,117596,1,8,0:0:0:0:
256,192,117680,1,8,0:0:0:0:
256,192,117763,1,0,0:0:0:0:
256,192,117930,1,8,0:0:0:0:
256,192,118096,1,0,0:0:0:0:
256,192,118152,1,0,0:0:0:0:
256,192,118208,1,0,0:0:0:0:
256,192,118263,1,8,0:0:0:0:
256,192,118430,1,0,0:0:0:0:
256,192,118596,1,8,0:0:0:0:
256,192,118680,1,8,0:0:0:0:
256,192,118763,1,0,0:0:0:0:
256,192,118846,1,0,0:0:0:0:
256,192,118930,1,8,0:0:0:0:
256,192,119013,1,0,0:0:0:0:
256,192,119096,1,8,0:0:0:0:
256,192,119263,1,0,0:0:0:0:
256,192,119346,1,0,0:0:0:0:
256,192,119430,1,8,0:0:0:0:
256,192,119513,1,0,0:0:0:0:
256,192,119596,1,8,0:0:0:0:
256,192,119680,1,8,0:0:0:0:
256,192,119763,1,0,0:0:0:0:
256,192,119930,1,8,0:0:0:0:
256,192,120096,1,8,0:0:0:0:
256,192,120180,1,0,0:0:0:0:
256,192,120263,1,0,0:0:0:0:
256,192,120346,1,8,0:0:0:0:
256,192,120430,1,0,0:0:0:0:
256,192,120596,1,8,0:0:0:0:
256,192,120680,1,8,0:0:0:0:
256,192,120763,1,0,0:0:0:0:
256,192,120846,1,0,0:0:0:0:
256,192,120930,1,8,0:0:0:0:
256,192,121096,1,8,0:0:0:0:
256,192,121152,1,8,0:0:0:0:
256,192,121208,1,8,0:0:0:0:
256,192,121263,1,0,0:0:0:0:
256,192,121430,1,8,0:0:0:0:
256,192,121596,1,0,0:0:0:0:
256,192,121680,1,0,0:0:0:0:
256,192,121763,1,8,0:0:0:0:
256,192,121846,1,0,0:0:0:0:
256,192,121930,1,8,0:0:0:0:
256,192,122013,1,8,0:0:0:0:
256,192,122096,1,0,0:0:0:0:
256,192,122263,1,8,0:0:0:0:
256,192,122430,1,0,0:0:0:0:
256,192,122471,1,0,0:0:0:0:
256,192,122596,1,8,0:0:0:0:
256,192,122638,1,8,0:0:0:0:
256,192,122763,1,0,0:0:0:0:
256,192,122805,1,0,0:0:0:0:
256,192,122930,1,8,0:0:0:0:
256,192,122971,1,8,0:0:0:0:
256,192,123096,1,0,0:0:0:0:
256,192,123152,1,0,0:0:0:0:
256,192,123208,1,0,0:0:0:0:
256,192,123263,1,8,0:0:0:0:
256,192,123430,1,0,0:0:0:0:
256,192,123596,1,8,0:0:0:0:
256,192,123763,1,4,0:0:0:0:
256,192,124096,1,14,0:0:0:0:
256,192,124263,1,0,0:0:0:0:
256,192,124346,1,8,0:0:0:0:
256,192,124430,1,0,0:0:0:0:
256,192,124513,1,0,0:0:0:0:
256,192,124596,1,8,0:0:0:0:
256,192,124680,1,8,0:0:0:0:
256,192,124763,1,0,0:0:0:0:
256,192,124846,1,0,0:0:0:0:
256,192,124930,1,8,0:0:0:0:
256,192,125013,1,0,0:0:0:0:
256,192,125096,1,8,0:0:0:0:
256,192,125263,1,0,0:0:0:0:
256,192,125430,1,8,0:0:0:0:
256,192,125513,1,0,0:0:0:0:
256,192,125596,1,0,0:0:0:0:
256,192,125680,1,8,0:0:0:0:
256,192,125763,1,0,0:0:0:0:
256,192,125846,1,0,0:0:0:0:
256,192,125930,1,8,0:0:0:0:
256,192,126096,1,0,0:0:0:0:
256,192,126263,1,8,0:0:0:0:
256,192,126430,1,0,0:0:0:0:
256,192,126485,1,0,0:0:0:0:
256,192,126541,1,0,0:0:0:0:
256,192,126596,1,8,0:0:0:0:
256,192,126763,1,8,0:0:0:0:
256,192,126819,1,8,0:0:0:0:
256,192,126874,1,8,0:0:0:0:
256,192,126930,1,0,0:0:0:0:
256,192,127096,1,8,0:0:0:0:
256,192,127152,1,0,0:0:0:0:
256,192,127208,1,0,0:0:0:0:
256,192,127263,1,8,0:0:0:0:
256,192,127430,1,0,0:0:0:0:
256,192,127485,1,8,0:0:0:0:
256,192,127541,1,8,0:0:0:0:
256,192,127596,1,0,0:0:0:0:
256,192,127763,1,0,0:0:0:0:
256,192,127805,1,0,0:0:0:0:
256,192,127930,1,8,0:0:0:0:
256,192,127971,1,8,0:0:0:0:
256,192,128096,1,0,0:0:0:0:
256,192,128180,1,0,0:0:0:0:
256,192,128262,1,0,0:0:0:0:
256,192,128346,1,0,0:0:0:0:
256,192,128430,1,8,0:0:0:0:
256,192,128513,1,8,0:0:0:0:
256,192,128596,1,0,0:0:0:0:
256,192,128680,1,0,0:0:0:0:
256,192,128763,1,8,0:0:0:0:
256,192,128930,1,8,0:0:0:0:
256,192,129096,1,4,0:0:0:0:
256,192,129430,1,8,0:0:0:0:
256,192,129596,1,0,0:0:0:0:
256,192,129680,1,8,0:0:0:0:
256,192,129763,1,0,0:0:0:0:
256,192,129846,1,0,0:0:0:0:
256,192,129930,1,8,0:0:0:0:
256,192,130013,1,0,0:0:0:0:
256,192,130096,1,8,0:0:0:0:
256,192,130180,1,8,0:0:0:0:
256,192,130263,1,0,0:0:0:0:
256,192,130346,1,0,0:0:0:0:
256,192,130430,1,8,0:0:0:0:
256,192,130596,1,0,0:0:0:0:
256,192,130680,1,0,0:0:0:0:
256,192,130763,1,8,0:0:0:0:
256,192,130930,1,0,0:0:0:0:
256,192,131013,1,8,0:0:0:0:
256,192,131096,1,8,0:0:0:0:
256,192,131180,1,0,0:0:0:0:
256,192,131263,1,8,0:0:0:0:
256,192,131346,1,8,0:0:0:0:
256,192,131430,1,0,0:0:0:0:
256,192,131596,1,8,0:0:0:0:
256,192,131763,1,0,0:0:0:0:
256,192,131819,1,0,0:0:0:0:
256,192,131874,1,0,0:0:0:0:
256,192,131930,1,8,0:0:0:0:
256,192,132096,1,0,0:0:0:0:
256,192,132180,1,0,0:0:0:0:
256,192,132263,1,0,0:0:0:0:
256,192,132430,1,0,0:0:0:0:
256,192,132596,1,8,0:0:0:0:
256,192,132763,1,8,0:0:0:0:
256,192,132930,1,4,0:0:0:0:
256,192,133096,1,8,0:0:0:0:
256,192,133152,1,0,0:0:0:0:
256,192,133208,1,0,0:0:0:0:
256,192,133263,1,8,0:0:0:0:
256,192,133346,1,0,0:0:0:0:
256,192,133430,1,8,0:0:0:0:
256,192,133513,1,8,0:0:0:0:
256,192,133596,1,0,0:0:0:0:
256,192,133680,1,0,0:0:0:0:
256,192,133763,1,8,0:0:0:0:
256,192,133874,1,0,0:0:0:0:
256,192,133985,1,0,0:0:0:0:
256,192,134096,1,8,0:0:0:0:
256,192,134263,1,8,0:0:0:0:
256,192,134430,5,4,0:0:0:0:
256,192,135096,1,0,0:0:0:0:
256,192,135763,1,8,0:0:0:0:
256,192,136263,1,8,0:0:0:0:
256,192,139763,1,0,0:0:0:0:
256,192,140430,1,0,0:0:0:0:
256,192,141096,1,8,0:0:0:0:
256,192,141596,1,8,0:0:0:0:
256,192,145430,1,0,0:0:0:0:
256,192,145763,1,0,0:0:0:0:
256,192,146096,1,0,0:0:0:0:
256,192,146430,1,8,0:0:0:0:
256,192,146930,1,8,0:0:0:0:
256,192,147263,1,8,0:0:0:0:
256,192,147430,1,8,0:0:0:0:
256,192,147763,1,0,0:0:0:0:
256,192,148263,1,8,0:0:0:0:
256,192,149263,1,8,0:0:0:0:
256,192,149430,1,8,0:0:0:0:
256,192,149596,1,0,0:0:0:0:
256,192,150096,1,8,0:0:0:0:
256,192,150763,1,0,0:0:0:0:
256,192,151096,1,0,0:0:0:0:
256,192,151430,1,0,0:0:0:0:
256,192,151763,1,8,0:0:0:0:
256,192,152263,1,8,0:0:0:0:
256,192,152596,1,8,0:0:0:0:
256,192,152763,1,8,0:0:0:0:
256,192,153096,1,0,0:0:0:0:
256,192,153596,1,8,0:0:0:0:
256,192,154096,1,8,0:0:0:0:
256,192,154263,1,8,0:0:0:0:
256,192,154763,1,8,0:0:0:0:
256,192,154930,1,0,0:0:0:0:
256,192,155763,1,4,0:0:0:0:
256,192,156096,1,8,0:0:0:0:
256,192,156430,1,0,0:0:0:0:
256,192,156763,1,8,0:0:0:0:
256,192,157096,1,8,0:0:0:0:
256,192,157430,1,0,0:0:0:0:
256,192,157596,1,8,0:0:0:0:
256,192,157930,1,8,0:0:0:0:
256,192,158096,1,0,0:0:0:0:
256,192,158430,1,8,0:0:0:0:
256,192,158763,1,8,0:0:0:0:
256,192,158930,1,8,0:0:0:0:
256,192,159430,1,8,0:0:0:0:
256,192,159763,1,0,0:0:0:0:
256,192,160096,1,8,0:0:0:0:
256,192,160263,1,8,0:0:0:0:
256,192,160763,1,8,0:0:0:0:
256,192,161096,1,0,0:0:0:0:
256,192,161430,1,8,0:0:0:0:
256,192,161596,1,8,0:0:0:0:
256,192,161930,1,0,0:0:0:0:
256,192,162263,1,8,0:0:0:0:
256,192,162430,1,0,0:0:0:0:
256,192,162763,1,0,0:0:0:0:
256,192,163096,1,8,0:0:0:0:
256,192,163430,1,0,0:0:0:0:
256,192,163763,1,8,0:0:0:0:
256,192,164096,1,8,0:0:0:0:
256,192,164263,1,8,0:0:0:0:
256,192,164596,1,8,0:0:0:0:
256,192,164930,1,8,0:0:0:0:
256,192,165096,1,0,0:0:0:0:
256,192,166430,12,0,168930,0:0:0:0:
256,192,169096,5,8,0:0:0:0:
256,192,169763,1,8,0:0:0:0:
256,192,170430,1,8,0:0:0:0:
256,192,170930,1,8,0:0:0:0:
256,192,171596,1,8,0:0:0:0:
256,192,171763,1,8,0:0:0:0:
256,192,171930,1,0,0:0:0:0:
256,192,172263,1,0,0:0:0:0:
256,192,172596,1,0,0:0:0:0:
256,192,172930,1,0,0:0:0:0:
256,192,173263,1,0,0:0:0:0:
256,192,173430,1,8,0:0:0:0:
256,192,174430,1,8,0:0:0:0:
256,192,175096,1,8,0:0:0:0:
256,192,175763,1,8,0:0:0:0:
256,192,176263,1,8,0:0:0:0:
256,192,176930,1,0,0:0:0:0:
256,192,177096,1,8,0:0:0:0:
256,192,177263,1,8,0:0:0:0:
256,192,177596,1,8,0:0:0:0:
256,192,177763,1,8,0:0:0:0:
256,192,178096,1,8,0:0:0:0:
256,192,178263,1,8,0:0:0:0:
256,192,178596,1,8,0:0:0:0:
256,192,178763,1,8,0:0:0:0:
256,192,179430,1,0,0:0:0:0:
256,192,179513,1,0,0:0:0:0:
256,192,179596,1,0,0:0:0:0:
256,192,179763,1,14,0:0:0:0:
256,192,180263,1,0,0:0:0:0:
256,192,180430,1,8,0:0:0:0:
256,192,180930,1,8,0:0:0:0:
256,192,181096,1,0,0:0:0:0:
256,192,181596,1,8,0:0:0:0:
256,192,182263,1,0,0:0:0:0:
256,192,182430,1,8,0:0:0:0:
256,192,182596,1,0,0:0:0:0:
256,192,182930,1,8,0:0:0:0:
256,192,183263,1,8,0:0:0:0:
256,192,183596,1,0,0:0:0:0:
256,192,183930,1,0,0:0:0:0:
256,192,184096,1,8,0:0:0:0:
256,192,184596,1,0,0:0:0:0:
256,192,184763,1,8,0:0:0:0:
256,192,184930,1,8,0:0:0:0:
256,192,185096,1,0,0:0:0:0:
256,192,185430,1,0,0:0:0:0:
256,192,185763,1,8,0:0:0:0:
256,192,186096,1,0,0:0:0:0:
256,192,186263,1,0,0:0:0:0:
256,192,186430,1,8,0:0:0:0:
256,192,186763,1,0,0:0:0:0:
256,192,186930,1,8,0:0:0:0:
256,192,187096,1,0,0:0:0:0:
256,192,187430,1,8,0:0:0:0:
256,192,187596,1,8,0:0:0:0:
256,192,187763,1,4,0:0:0:0:
256,192,187930,1,8,0:0:0:0:
256,192,188263,1,4,0:0:0:0:
256,192,188430,1,8,0:0:0:0:
256,192,188763,1,4,0:0:0:0:
256,192,188930,1,8,0:0:0:0:
256,192,189096,12,0,189930,0:0:0:0:
256,192,190096,5,14,0:0:0:0:
256,192,190430,1,4,0:0:0:0:
256,192,191096,1,14,0:0:0:0:
256,192,191263,1,8,0:0:0:0:
256,192,191430,1,0,0:0:0:0:
256,192,191596,1,8,0:0:0:0:
256,192,191763,1,4,0:0:0:0:
256,192,192263,1,4,0:0:0:0:
256,192,192763,1,8,0:0:0:0:
256,192,192846,1,8,0:0:0:0:
256,192,192930,1,8,0:0:0:0:
256,192,193096,1,4,0:0:0:0:
256,192,193430,1,14,0:0:0:0:
256,192,193763,1,0,0:0:0:0:
256,192,193930,1,14,0:0:0:0:
256,192,194096,1,0,0:0:0:0:
256,192,194180,1,0,0:0:0:0:
256,192,194263,1,0,0:0:0:0:
256,192,194430,1,14,0:0:0:0:
256,192,194680,1,14,0:0:0:0:
256,192,194930,1,4,0:0:0:0:
256,192,195180,1,4,0:0:0:0:
256,192,195430,1,8,0:0:0:0:
256,192,195763,1,8,0:0:0:0:
256,192,195874,1,8,0:0:0:0:
256,192,195985,1,8,0:0:0:0:
256,192,196152,1,0,0:0:0:0:
256,192,196263,1,0,0:0:0:0:
256,192,196430,1,8,0:0:0:0:
256,192,196596,1,0,0:0:0:0:
256,192,196763,1,8,0:0:0:0:
256,192,196930,1,8,0:0:0:0:
256,192,197096,1,4,0:0:0:0:
256,192,197430,1,8,0:0:0:0:
256,192,197596,1,4,0:0:0:0:
256,192,198096,1,8,0:0:0:0:
256,192,198180,1,8,0:0:0:0:
256,192,198263,1,8,0:0:0:0:
256,192,198430,1,4,0:0:0:0:
256,192,198680,1,8,0:0:0:0:
256,192,198763,1,0,0:0:0:0:
256,192,198930,1,8,0:0:0:0:
256,192,199013,1,8,0:0:0:0:
256,192,199096,1,0,0:0:0:0:
256,192,199263,1,8,0:0:0:0:
256,192,199430,1,0,0:0:0:0:
256,192,199471,1,0,0:0:0:0:
256,192,199596,1,0,0:0:0:0:
256,192,199638,1,0,0:0:0:0:
256,192,199763,1,8,0:0:0:0:
256,192,200013,1,8,0:0:0:0:
256,192,200096,1,0,0:0:0:0:
256,192,200263,1,8,0:0:0:0:
256,192,200346,1,8,0:0:0:0:
256,192,200430,1,0,0:0:0:0:
256,192,200596,1,8,0:0:0:0:
256,192,200763,1,0,0:0:0:0:
256,192,200846,1,0,0:0:0:0:
256,192,200930,1,8,0:0:0:0:
256,192,201096,1,4,0:0:0:0:
256,192,201430,1,8,0:0:0:0:
256,192,201596,1,0,0:0:0:0:
256,192,201930,1,0,0:0:0:0:
256,192,202096,1,8,0:0:0:0:
256,192,202263,1,8,0:0:0:0:
256,192,202430,1,4,0:0:0:0:
256,192,202930,1,4,0:0:0:0:
256,192,203430,1,4,0:0:0:0:
256,192,203596,1,8,0:0:0:0:
256,192,203680,1,8,0:0:0:0:
256,192,203763,1,0,0:0:0:0:
256,192,203846,1,0,0:0:0:0:
256,192,203930,1,8,0:0:0:0:
256,192,204096,1,0,0:0:0:0:
256,192,204180,1,0,0:0:0:0:
256,192,204263,1,0,0:0:0:0:
256,192,204430,1,14,0:0:0:0:
256,192,204541,1,0,0:0:0:0:
256,192,204652,1,0,0:0:0:0:
256,192,204763,1,8,0:0:0:0:
256,192,204846,1,8,0:0:0:0:
256,192,204930,1,0,0:0:0:0:
256,192,205263,1,0,0:0:0:0:
256,192,205430,1,8,0:0:0:0:
256,192,205596,1,8,0:0:0:0:
256,192,205763,1,0,0:0:0:0:
256,192,206013,1,0,0:0:0:0:
256,192,206263,1,8,0:0:0:0:
256,192,206430,1,4,0:0:0:0:
256,192,207096,1,14,0:0:0:0:
256,192,207263,1,8,0:0:0:0:
256,192,207430,1,0,0:0:0:0:
256,192,207596,1,8,0:0:0:0:
256,192,207763,1,4,0:0:0:0:
256,192,208263,1,4,0:0:0:0:
256,192,208763,12,0,208930,0:0:0:0:
256,192,209096,5,4,0:0:0:0:
256,192,209346,1,8,0:0:0:0:
256,192,209430,1,0,0:0:0:0:
256,192,209596,1,8,0:0:0:0:
256,192,209680,1,8,0:0:0:0:
256,192,209763,1,0,0:0:0:0:
256,192,209930,1,8,0:0:0:0:
256,192,210096,1,0,0:0:0:0:
256,192,210152,1,8,0:0:0:0:
256,192,210208,1,8,0:0:0:0:
256,192,210263,1,0,0:0:0:0:
256,192,210430,1,8,0:0:0:0:
256,192,210680,1,0,0:0:0:0:
256,192,210763,1,8,0:0:0:0:
256,192,210930,1,8,0:0:0:0:
256,192,211096,1,0,0:0:0:0:
256,192,211263,1,0,0:0:0:0:
256,192,211430,1,8,0:0:0:0:
256,192,211513,1,8,0:0:0:0:
256,192,211596,1,8,0:0:0:0:
256,192,211763,1,4,0:0:0:0:
256,192,212096,1,0,0:0:0:0:
256,192,212263,1,8,0:0:0:0:
256,192,212430,1,0,0:0:0:0:
256,192,212596,1,0,0:0:0:0:
256,192,212763,1,8,0:0:0:0:
256,192,213096,1,8,0:0:0:0:
256,192,213263,1,0,0:0:0:0:
256,192,213346,1,8,0:0:0:0:
256,192,213430,1,0,0:0:0:0:
256,192,213596,1,8,0:0:0:0:
256,192,213764,1,0,0:0:0:0:
256,192,214096,1,0,0:0:0:0:
256,192,214263,1,8,0:0:0:0:
256,192,214430,1,8,0:0:0:0:
256,192,214596,1,0,0:0:0:0:
256,192,214680,1,8,0:0:0:0:
256,192,214763,1,8,0:0:0:0:
256,192,214930,1,0,0:0:0:0:
256,192,215096,1,8,0:0:0:0:
256,192,215430,1,8,0:0:0:0:
256,192,215596,1,0,0:0:0:0:
256,192,215763,1,8,0:0:0:0:
256,192,215930,1,8,0:0:0:0:
256,192,216096,1,0,0:0:0:0:
256,192,216263,1,0,0:0:0:0:
256,192,216430,1,8,0:0:0:0:
256,192,216513,1,8,0:0:0:0:
256,192,216596,1,0,0:0:0:0:
256,192,216680,1,0,0:0:0:0:
256,192,216763,1,0,0:0:0:0:
256,192,216930,1,8,0:0:0:0:
256,192,217096,1,0,0:0:0:0:
256,192,217180,1,0,0:0:0:0:
256,192,217263,1,8,0:0:0:0:
256,192,217346,1,8,0:0:0:0:
256,192,217430,1,0,0:0:0:0:
256,192,217596,1,8,0:0:0:0:
256,192,217763,1,0,0:0:0:0:
256,192,218096,1,0,0:0:0:0:
256,192,218263,1,8,0:0:0:0:
256,192,218430,1,0,0:0:0:0:
256,192,218596,1,0,0:0:0:0:
256,192,218680,1,8,0:0:0:0:
256,192,218763,1,8,0:0:0:0:
256,192,218930,1,0,0:0:0:0:
256,192,219096,1,8,0:0:0:0:
256,192,219263,1,0,0:0:0:0:
256,192,219346,1,0,0:0:0:0:
256,192,219430,1,8,0:0:0:0:
256,192,219596,1,8,0:0:0:0:
256,192,219763,1,0,0:0:0:0:
256,192,219930,1,0,0:0:0:0:
256,192,220013,1,8,0:0:0:0:
256,192,220096,1,0,0:0:0:0:
256,192,220263,1,8,0:0:0:0:
256,192,220430,1,0,0:0:0:0:
256,192,220513,1,0,0:0:0:0:
256,192,220596,1,0,0:0:0:0:
256,192,220763,1,8,0:0:0:0:
256,192,221096,1,8,0:0:0:0:
256,192,221263,1,8,0:0:0:0:
256,192,221346,1,8,0:0:0:0:
256,192,221430,1,0,0:0:0:0:
256,192,221596,1,8,0:0:0:0:
256,192,221763,1,0,0:0:0:0:
256,192,221846,1,0,0:0:0:0:
256,192,221930,1,0,0:0:0:0:
256,192,222096,1,8,0:0:0:0:
256,192,222263,1,8,0:0:0:0:
256,192,222430,1,0,0:0:0:0:
256,192,222513,1,0,0:0:0:0:
256,192,222596,1,8,0:0:0:0:
256,192,222680,1,8,0:0:0:0:
256,192,222763,1,0,0:0:0:0:
256,192,222931,1,8,0:0:0:0:
256,192,223096,1,0,0:0:0:0:
256,192,223180,1,0,0:0:0:0:
256,192,223263,1,8,0:0:0:0:
256,192,223346,1,0,0:0:0:0:
256,192,223430,1,8,0:0:0:0:
256,192,223596,1,0,0:0:0:0:
256,192,223763,1,8,0:0:0:0:
256,192,223846,1,8,0:0:0:0:
256,192,223930,1,0,0:0:0:0:
256,192,224013,1,0,0:0:0:0:
256,192,224096,1,8,0:0:0:0:
256,192,224263,1,0,0:0:0:0:
256,192,224430,1,8,0:0:0:0:
256,192,224513,1,0,0:0:0:0:
256,192,224596,1,0,0:0:0:0:
256,192,224680,1,8,0:0:0:0:
256,192,224763,1,0,0:0:0:0:
256,192,224930,1,8,0:0:0:0:
256,192,225096,1,0,0:0:0:0:
256,192,225180,1,0,0:0:0:0:
256,192,225263,1,8,0:0:0:0:
256,192,225346,1,8,0:0:0:0:
256,192,225430,1,0,0:0:0:0:
256,192,225513,1,8,0:0:0:0:
256,192,225596,1,0,0:0:0:0:
256,192,225763,1,8,0:0:0:0:
256,192,225930,1,0,0:0:0:0:
256,192,226013,1,0,0:0:0:0:
256,192,226096,1,8,0:0:0:0:
256,192,226180,1,8,0:0:0:0:
256,192,226263,1,0,0:0:0:0:
256,192,226430,1,8,0:0:0:0:
256,192,226596,1,0,0:0:0:0:
256,192,226680,1,0,0:0:0:0:
256,192,226763,1,8,0:0:0:0:
256,192,226846,1,0,0:0:0:0:
256,192,226930,1,8,0:0:0:0:
256,192,227013,1,8,0:0:0:0:
256,192,227096,1,0,0:0:0:0:
256,192,227263,1,8,0:0:0:0:
256,192,227430,1,0,0:0:0:0:
256,192,227513,1,0,0:0:0:0:
256,192,227596,1,8,0:0:0:0:
256,192,227680,1,0,0:0:0:0:
256,192,227763,1,8,0:0:0:0:
256,192,227930,1,0,0:0:0:0:
256,192,228096,1,8,0:0:0:0:
256,192,228180,1,8,0:0:0:0:
256,192,228263,1,0,0:0:0:0:
256,192,228346,1,0,0:0:0:0:
256,192,228430,1,8,0:0:0:0:
256,192,228596,1,0,0:0:0:0:
256,192,228680,1,0,0:0:0:0:
256,192,228763,1,8,0:0:0:0:
256,192,228846,1,8,0:0:0:0:
256,192,228930,1,0,0:0:0:0:
256,192,229013,1,0,0:0:0:0:
256,192,229096,1,8,0:0:0:0:
256,192,229263,1,8,0:0:0:0:
256,192,229346,1,8,0:0:0:0:
256,192,229430,1,0,0:0:0:0:
256,192,229513,1,8,0:0:0:0:
256,192,229596,1,0,0:0:0:0:
256,192,229680,1,0,0:0:0:0:
256,192,229763,1,8,0:0:0:0:
256,192,229930,1,0,0:0:0:0:
256,192,230013,1,0,0:0:0:0:
256,192,230096,1,8,0:0:0:0:
256,192,230263,1,0,0:0:0:0:
256,192,230430,1,8,0:0:0:0:
256,192,230513,1,8,0:0:0:0:
256,192,230596,1,0,0:0:0:0:
256,192,230680,1,0,0:0:0:0:
256,192,230763,1,8,0:0:0:0:
256,192,230846,1,0,0:0:0:0:
256,192,230930,1,8,0:0:0:0:
256,192,231013,1,8,0:0:0:0:
256,192,231096,1,0,0:0:0:0:
256,192,231152,1,0,0:0:0:0:
256,192,231208,1,0,0:0:0:0:
256,192,231263,1,8,0:0:0:0:
256,192,231346,1,0,0:0:0:0:
256,192,231429,1,8,0:0:0:0:
256,192,231485,1,0,0:0:0:0:
256,192,231541,1,0,0:0:0:0:
256,192,231596,1,8,0:0:0:0:
256,192,231680,1,8,0:0:0:0:
256,192,231763,1,0,0:0:0:0:
256,192,232430,1,0,0:0:0:0:
256,192,232596,1,0,0:0:0:0:
256,192,232763,1,6,0:0:0:0:
256,192,233096,1,4,0:0:0:0:
256,192,233263,1,8,0:0:0:0:
256,192,233346,1,8,0:0:0:0:
256,192,233430,1,0,0:0:0:0:
256,192,233513,1,0,0:0:0:0:
256,192,233596,1,8,0:0:0:0:
256,192,233763,1,0,0:0:0:0:
256,192,233846,1,8,0:0:0:0:
256,192,234013,1,8,0:0:0:0:
256,192,234096,1,0,0:0:0:0:
256,192,234180,1,0,0:0:0:0:
256,192,234263,1,8,0:0:0:0:
256,192,234430,1,0,0:0:0:0:
256,192,234513,1,0,0:0:0:0:
256,192,234596,1,8,0:0:0:0:
256,192,234680,1,0,0:0:0:0:
256,192,234846,1,8,0:0:0:0:
256,192,234930,1,8,0:0:0:0:
256,192,235096,1,0,0:0:0:0:
256,192,235180,1,8,0:0:0:0:
256,192,235346,1,8,0:0:0:0:
256,192,235430,1,0,0:0:0:0:
256,192,235513,1,0,0:0:0:0:
256,192,235596,1,8,0:0:0:0:
256,192,235763,1,0,0:0:0:0:
256,192,235846,1,0,0:0:0:0:
256,192,235930,1,8,0:0:0:0:
256,192,236013,1,8,0:0:0:0:
256,192,236096,1,0,0:0:0:0:
256,192,236180,1,0,0:0:0:0:
256,192,236263,1,8,0:0:0:0:
256,192,236430,1,0,0:0:0:0:
256,192,236513,1,8,0:0:0:0:
256,192,236596,1,0,0:0:0:0:
256,192,236680,1,8,0:0:0:0:
256,192,236846,1,8,0:0:0:0:
256,192,236930,1,8,0:0:0:0:
256,192,237096,1,0,0:0:0:0:
256,192,237180,1,8,0:0:0:0:
256,192,237263,1,8,0:0:0:0:
256,192,237346,1,0,0:0:0:0:
256,192,237513,1,0,0:0:0:0:
256,192,237596,1,8,0:0:0:0:
256,192,237680,1,8,0:0:0:0:
256,192,237763,1,0,0:0:0:0:
256,192,237846,1,8,0:0:0:0:
256,192,238013,1,0,0:0:0:0:
256,192,238096,1,0,0:0:0:0:
256,192,238180,1,8,0:0:0:0:
256,192,238263,1,0,0:0:0:0:
256,192,238430,1,8,0:0:0:0:
256,192,238596,1,0,0:0:0:0:
256,192,238680,1,8,0:0:0:0:
256,192,238763,1,0,0:0:0:0:
256,192,238846,1,0,0:0:0:0:
256,192,238930,1,8,0:0:0:0:
256,192,239096,1,0,0:0:0:0:
256,192,239180,1,8,0:0:0:0:
256,192,239346,1,8,0:0:0:0:
256,192,239430,1,0,0:0:0:0:
256,192,239513,1,0,0:0:0:0:
256,192,239596,1,8,0:0:0:0:
256,192,239763,1,0,0:0:0:0:
256,192,239846,1,0,0:0:0:0:
256,192,239930,1,8,0:0:0:0:
256,192,240013,1,8,0:0:0:0:
256,192,240180,1,8,0:0:0:0:
256,192,240263,1,0,0:0:0:0:
256,192,240430,1,0,0:0:0:0:
256,192,240513,1,8,0:0:0:0:
256,192,240680,1,0,0:0:0:0:
256,192,240846,1,8,0:0:0:0:
256,192,240930,1,0,0:0:0:0:
256,192,241013,1,0,0:0:0:0:
256,192,241096,1,8,0:0:0:0:
256,192,241263,1,0,0:0:0:0:
256,192,241346,1,0,0:0:0:0:
256,192,241430,1,8,0:0:0:0:
256,192,241513,1,0,0:0:0:0:
256,192,241680,1,0,0:0:0:0:
256,192,241763,1,8,0:0:0:0:
256,192,241846,1,8,0:0:0:0:
256,192,241930,1,0,0:0:0:0:
256,192,242013,1,8,0:0:0:0:
256,192,242180,1,0,0:0:0:0:
256,192,242263,1,8,0:0:0:0:
256,192,242430,1,0,0:0:0:0:
256,192,242513,1,8,0:0:0:0:
256,192,242596,1,8,0:0:0:0:
256,192,242680,1,0,0:0:0:0:
256,192,242846,1,8,0:0:0:0:
256,192,242930,1,8,0:0:0:0:
256,192,243013,1,0,0:0:0:0:
256,192,243096,1,0,0:0:0:0:
256,192,243180,1,8,0:0:0:0:
256,192,243263,1,0,0:0:0:0:
256,192,243346,1,8,0:0:0:0:
256,192,243430,1,8,0:0:0:0:
256,192,243513,1,0,0:0:0:0:
256,192,243596,1,0,0:0:0:0:
256,192,243680,1,8,0:0:0:0:
256,192,243846,1,0,0:0:0:0:
256,192,243930,1,0,0:0:0:0:
256,192,244013,1,8,0:0:0:0:
256,192,244096,1,0,0:0:0:0:
256,192,244180,1,0,0:0:0:0:
256,192,244263,1,8,0:0:0:0:
256,192,244430,1,0,0:0:0:0:
256,192,244513,1,8,0:0:0:0:
256,192,244680,1,8,0:0:0:0:
256,192,244763,1,0,0:0:0:0:
256,192,244846,1,0,0:0:0:0:
256,192,244930,1,8,0:0:0:0:
256,192,245096,1,0,0:0:0:0:
256,192,245180,1,0,0:0:0:0:
256,192,245263,1,8,0:0:0:0:
256,192,245346,1,0,0:0:0:0:
256,192,245513,1,8,0:0:0:0:
256,192,245596,1,8,0:0:0:0:
256,192,245763,1,0,0:0:0:0:
256,192,245846,1,8,0:0:0:0:
256,192,245930,1,8,0:0:0:0:
256,192,246013,1,0,0:0:0:0:
256,192,246180,1,0,0:0:0:0:
256,192,246263,1,8,0:0:0:0:
256,192,246430,1,8,0:0:0:0:
256,192,246513,1,0,0:0:0:0:
256,192,246596,1,8,0:0:0:0:
256,192,246680,1,8,0:0:0:0:
256,192,246763,1,0,0:0:0:0:
256,192,246846,1,0,0:0:0:0:
256,192,246930,1,8,0:0:0:0:
256,192,247096,1,0,0:0:0:0:
256,192,247180,1,8,0:0:0:0:
256,192,247346,1,8,0:0:0:0:
256,192,247430,1,0,0:0:0:0:
256,192,247513,1,0,0:0:0:0:
256,192,247596,1,8,0:0:0:0:
256,192,247763,1,0,0:0:0:0:
256,192,247846,1,0,0:0:0:0:
256,192,247930,1,8,0:0:0:0:
256,192,248013,1,0,0:0:0:0:
256,192,248180,1,0,0:0:0:0:
256,192,248263,1,8,0:0:0:0:
256,192,248346,1,8,0:0:0:0:
256,192,248430,1,0,0:0:0:0:
256,192,248513,1,8,0:0:0:0:
256,192,248680,1,8,0:0:0:0:
256,192,248763,1,8,0:0:0:0:
256,192,248930,1,8,0:0:0:0:
256,192,249096,1,4,0:0:0:0:
256,192,249263,1,8,0:0:0:0:
256,192,249346,1,8,0:0:0:0:
256,192,249596,1,8,0:0:0:0:
256,192,249763,1,0,0:0:0:0:
256,192,249846,1,0,0:0:0:0:
256,192,250013,1,0,0:0:0:0:
256,192,250096,1,8,0:0:0:0:
256,192,250430,1,4,0:0:0:0:
256,192,250596,1,8,0:0:0:0:
256,192,250680,1,8,0:0:0:0:
256,192,250930,1,0,0:0:0:0:
256,192,251180,1,8,0:0:0:0:
256,192,251346,1,8,0:0:0:0:
256,192,251430,1,0,0:0:0:0:
256,192,251763,1,0,0:0:0:0:
256,192,251846,1,8,0:0:0:0:
256,192,251930,1,8,0:0:0:0:
256,192,252013,1,0,0:0:0:0:
256,192,252096,1,8,0:0:0:0:
256,192,252180,1,8,0:0:0:0:
256,192,252263,1,0,0:0:0:0:
256,192,252346,1,8,0:0:0:0:
256,192,252430,1,8,0:0:0:0:
256,192,252513,1,0,0:0:0:0:
256,192,252596,1,8,0:0:0:0:
256,192,252680,1,8,0:0:0:0:
256,192,252763,1,0,0:0:0:0:
256,192,252846,1,8,0:0:0:0:
256,192,252930,1,8,0:0:0:0:
256,192,253013,1,8,0:0:0:0:
256,192,253096,1,0,0:0:0:0:
256,192,254096,1,8,0:0:0:0:
256,192,254263,1,8,0:0:0:0:
256,192,254430,1,4,0:0:0:0:
256,192,254596,1,8,0:0:0:0:
256,192,254680,1,8,0:0:0:0:
256,192,254763,1,0,0:0:0:0:
256,192,254846,1,0,0:0:0:0:
256,192,254930,1,8,0:0:0:0:
256,192,255013,1,0,0:0:0:0:
256,192,255096,1,8,0:0:0:0:
256,192,255263,1,0,0:0:0:0:
256,192,255346,1,0,0:0:0:0:
256,192,255430,1,8,0:0:0:0:
256,192,255513,1,0,0:0:0:0:
256,192,255596,1,8,0:0:0:0:
256,192,255763,1,0,0:0:0:0:
256,192,255930,1,8,0:0:0:0:
256,192,256013,1,8,0:0:0:0:
256,192,256096,1,0,0:0:0:0:
256,192,256180,1,8,0:0:0:0:
256,192,256263,1,0,0:0:0:0:
256,192,256346,1,0,0:0:0:0:
256,192,256430,1,8,0:0:0:0:
256,192,256596,1,0,0:0:0:0:
256,192,256680,1,0,0:0:0:0:
256,192,256763,1,8,0:0:0:0:
256,192,256930,1,0,0:0:0:0:
256,192,257096,1,8,0:0:0:0:
256,192,257180,1,8,0:0:0:0:
256,192,257263,1,0,0:0:0:0:
256,192,257346,1,0,0:0:0:0:
256,192,257430,1,8,0:0:0:0:
256,192,257513,1,0,0:0:0:0:
256,192,257596,1,8,0:0:0:0:
256,192,257680,1,8,0:0:0:0:
256,192,257763,1,0,0:0:0:0:
256,192,257930,1,8,0:0:0:0:
256,192,258096,1,0,0:0:0:0:
256,192,258180,1,0,0:0:0:0:
256,192,258263,1,0,0:0:0:0:
256,192,258430,1,8,0:0:0:0:
256,192,258513,1,8,0:0:0:0:
256,192,258596,1,0,0:0:0:0:
256,192,258680,1,0,0:0:0:0:
256,192,258763,1,8,0:0:0:0:
256,192,258930,1,0,0:0:0:0:
256,192,259096,1,8,0:0:0:0:
256,192,259180,1,8,0:0:0:0:
256,192,259263,1,0,0:0:0:0:
256,192,259346,1,0,0:0:0:0:
256,192,259430,1,8,0:0:0:0:
256,192,259513,1,0,0:0:0:0:
256,192,259596,1,8,0:0:0:0:
256,192,259680,1,8,0:0:0:0:
256,192,259763,1,0,0:0:0:0:
256,192,259930,1,8,0:0:0:0:
256,192,260096,1,0,0:0:0:0:
256,192,260180,1,0,0:0:0:0:
256,192,260263,1,8,0:0:0:0:
256,192,260346,1,0,0:0:0:0:
256,192,260430,1,8,0:0:0:0:
256,192,260513,1,8,0:0:0:0:
256,192,260596,1,0,0:0:0:0:
256,192,260763,1,8,0:0:0:0:
256,192,260930,1,0,0:0:0:0:
256,192,261013,1,0,0:0:0:0:
256,192,261096,1,8,0:0:0:0:
256,192,261263,1,0,0:0:0:0:
256,192,261346,1,0,0:0:0:0:
256,192,261430,1,8,0:0:0:0:
256,192,261513,1,0,0:0:0:0:
256,192,261596,1,8,0:0:0:0:
256,192,261680,1,8,0:0:0:0:
256,192,261763,1,0,0:0:0:0:
256,192,261930,1,8,0:0:0:0:
256,192,262096,1,0,0:0:0:0:
256,192,262180,1,0,0:0:0:0:
256,192,262263,1,8,0:0:0:0:
256,192,262430,1,8,0:0:0:0:
256,192,262513,1,0,0:0:0:0:
256,192,262596,1,8,0:0:0:0:
256,192,262680,1,8,0:0:0:0:
256,192,262764,1,0,0:0:0:0:
256,192,262930,1,8,0:0:0:0:
256,192,263013,1,0,0:0:0:0:
256,192,263096,1,8,0:0:0:0:
256,192,263180,1,8,0:0:0:0:
256,192,263263,1,0,0:0:0:0:
256,192,263430,1,8,0:0:0:0:
256,192,263513,1,0,0:0:0:0:
256,192,263596,1,8,0:0:0:0:
256,192,263680,1,8,0:0:0:0:
256,192,263763,1,0,0:0:0:0:
256,192,263930,1,8,0:0:0:0:
256,192,264013,1,0,0:0:0:0:
256,192,264096,1,8,0:0:0:0:
256,192,264180,1,8,0:0:0:0:
256,192,264263,1,0,0:0:0:0:
256,192,264430,1,8,0:0:0:0:
256,192,264596,1,0,0:0:0:0:
256,192,264680,1,0,0:0:0:0:
256,192,264763,1,8,0:0:0:0:
256,192,264846,1,0,0:0:0:0:
256,192,264930,1,8,0:0:0:0:
256,192,265096,1,4,0:0:0:0:
256,192,265263,1,8,0:0:0:0:
256,192,265346,1,8,0:0:0:0:
256,192,265430,1,0,0:0:0:0:
256,192,265513,1,0,0:0:0:0:
256,192,265596,1,8,0:0:0:0:
256,192,265680,1,0,0:0:0:0:
256,192,265763,1,8,0:0:0:0:
256,192,265930,1,0,0:0:0:0:
256,192,266096,1,8,0:0:0:0:
256,192,266180,1,8,0:0:0:0:
256,192,266263,1,0,0:0:0:0:
256,192,266346,1,0,0:0:0:0:
256,192,266430,1,8,0:0:0:0:
256,192,266596,1,0,0:0:0:0:
256,192,266763,1,8,0:0:0:0:
256,192,266846,1,8,0:0:0:0:
256,192,266930,1,0,0:0:0:0:
256,192,267013,1,0,0:0:0:0:
256,192,267096,1,8,0:0:0:0:
256,192,267263,1,8,0:0:0:0:
256,192,267346,1,8,0:0:0:0:
256,192,267430,1,0,0:0:0:0:
256,192,267513,1,8,0:0:0:0:
256,192,267596,1,0,0:0:0:0:
256,192,267763,1,8,0:0:0:0:
256,192,267930,1,0,0:0:0:0:
256,192,268013,1,0,0:0:0:0:
256,192,268096,1,8,0:0:0:0:
256,192,268180,1,0,0:0:0:0:
256,192,268263,1,8,0:0:0:0:
256,192,268346,1,8,0:0:0:0:
256,192,268430,1,0,0:0:0:0:
256,192,268596,1,8,0:0:0:0:
256,192,268763,1,0,0:0:0:0:
256,192,268846,1,0,0:0:0:0:
256,192,268930,1,8,0:0:0:0:
256,192,269096,1,0,0:0:0:0:
256,192,269263,1,8,0:0:0:0:
256,192,269346,1,8,0:0:0:0:
256,192,269430,1,0,0:0:0:0:
256,192,269513,1,8,0:0:0:0:
256,192,269596,1,0,0:0:0:0:
256,192,269680,1,0,0:0:0:0:
256,192,269763,1,8,0:0:0:0:
256,192,269930,1,0,0:0:0:0:
256,192,270013,1,0,0:0:0:0:
256,192,270096,1,8,0:0:0:0:
256,192,270180,1,8,0:0:0:0:
256,192,270263,1,0,0:0:0:0:
256,192,270430,1,8,0:0:0:0:
256,192,270513,1,8,0:0:0:0:
256,192,270596,1,0,0:0:0:0:
256,192,270680,1,0,0:0:0:0:
256,192,270763,1,8,0:0:0:0:
256,192,270846,1,0,0:0:0:0:
256,192,270930,1,8,0:0:0:0:
256,192,271013,1,8,0:0:0:0:
256,192,271096,1,0,0:0:0:0:
256,192,271263,1,8,0:0:0:0:
256,192,271346,1,8,0:0:0:0:
256,192,271430,1,0,0:0:0:0:
256,192,271513,1,0,0:0:0:0:
256,192,271596,1,8,0:0:0:0:
256,192,271680,1,0,0:0:0:0:
256,192,271763,1,8,0:0:0:0:
256,192,271930,1,0,0:0:0:0:
256,192,272013,1,0,0:0:0:0:
256,192,272096,1,8,0:0:0:0:
256,192,272180,1,0,0:0:0:0:
256,192,272263,1,8,0:0:0:0:
256,192,272346,1,8,0:0:0:0:
256,192,272430,1,0,0:0:0:0:
256,192,272513,1,0,0:0:0:0:
256,192,272596,1,8,0:0:0:0:
256,192,272680,1,0,0:0:0:0:
256,192,272763,1,8,0:0:0:0:
256,192,272819,1,0,0:0:0:0:
256,192,272874,1,0,0:0:0:0:
256,192,272930,1,8,0:0:0:0:
256,192,273013,1,8,0:0:0:0:
256,192,273096,1,0,0:0:0:0:
256,192,273596,1,4,0:0:0:0:
256,192,274096,1,4,0:0:0:0:
256,192,274430,12,0,275596,0:0:0:0:
256,192,275763,5,4,0:0:0:0:
256,192,276430,1,8,0:0:0:0:
256,192,277096,1,8,0:0:0:0:
256,192,277596,1,8,0:0:0:0:
256,192,278430,1,0,0:0:0:0:
256,192,278930,1,0,0:0:0:0:
256,192,279430,1,0,0:0:0:0:
256,192,279930,1,0,0:0:0:0:
256,192,280096,1,0,0:0:0:0:
256,192,280263,1,0,0:0:0:0:
256,192,280763,1,0,0:0:0:0:
256,192,281096,1,8,0:0:0:0:
256,192,281763,1,8,0:0:0:0:
256,192,282430,1,8,0:0:0:0:
256,192,282930,1,8,0:0:0:0:
256,192,283763,1,0,0:0:0:0:
256,192,284263,1,0,0:0:0:0:
256,192,284763,1,0,0:0:0:0:
256,192,285263,1,0,0:0:0:0:
256,192,285430,1,0,0:0:0:0:
256,192,285596,1,0,0:0:0:0:
256,192,286096,1,0,0:0:0:0:
256,192,286430,1,8,0:0:0:0:
256,192,287096,1,8,0:0:0:0:
256,192,287763,1,8,0:0:0:0:
256,192,288263,1,8,0:0:0:0:
256,192,289096,1,0,0:0:0:0:
256,192,289596,1,0,0:0:0:0:
256,192,290096,1,0,0:0:0:0:
256,192,290596,1,0,0:0:0:0:
256,192,290763,1,0,0:0:0:0:
256,192,290930,1,0,0:0:0:0:
256,192,291430,1,0,0:0:0:0:
256,192,291763,1,8,0:0:0:0:
256,192,292430,1,8,0:0:0:0:
256,192,293096,1,8,0:0:0:0:
256,192,293596,1,8,0:0:0:0:
256,192,294430,1,0,0:0:0:0:
256,192,294930,1,0,0:0:0:0:
256,192,295430,1,0,0:0:0:0:
256,192,295764,12,0,301097,0:0:0:0:
